  0
SECTION
  2
HEADER
  9
$ACADVER
  1
AC1015
  9
$ACADMAINTVER
 70
     6
  9
$DWGCODEPAGE
  3
ANSI_932
  9
$INSBASE
 10
0.0
 20
0.0
 30
0.0
  9
$EXTMIN
 10
99.99999999999978
 20
40.0
 30
-0.00000001
  9
$EXTMAX
 10
1639.999999999999
 20
2445.015479771257
 30
0.00000001
  9
$LIMMIN
 10
0.0
 20
0.0
  9
$LIMMAX
 10
1682.0
 20
1189.0
  9
$ORTHOMODE
 70
     1
  9
$REGENMODE
 70
     1
  9
$FILLMODE
 70
     1
  9
$QTEXTMODE
 70
     0
  9
$MIRRTEXT
 70
     1
  9
$LTSCALE
 40
1.0
  9
$ATTMODE
 70
     1
  9
$TEXTSIZE
 40
12.0
  9
$TRACEWID
 40
1.0
  9
$TEXTSTYLE
  7
Standard
  9
$CLAYER
  8
寸法線1
  9
$CELTYPE
  6
ByLayer
  9
$CECOLOR
 62
   256
  9
$CELTSCALE
 40
1.0
  9
$DISPSILH
 70
     0
  9
$DIMSCALE
 40
4.0
  9
$DIMASZ
 40
2.5
  9
$DIMEXO
 40
1.0
  9
$DIMDLI
 40
3.75
  9
$DIMRND
 40
0.0
  9
$DIMDLE
 40
0.0
  9
$DIMEXE
 40
1.25
  9
$DIMTP
 40
0.0
  9
$DIMTM
 40
0.0
  9
$DIMTXT
 40
3.0
  9
$DIMCEN
 40
2.5
  9
$DIMTSZ
 40
0.0
  9
$DIMTOL
 70
     0
  9
$DIMLIM
 70
     0
  9
$DIMTIH
 70
     0
  9
$DIMTOH
 70
     0
  9
$DIMSE1
 70
     0
  9
$DIMSE2
 70
     0
  9
$DIMTAD
 70
     1
  9
$DIMZIN
 70
     8
  9
$DIMBLK
  1
Open
  9
$DIMASO
 70
     1
  9
$DIMSHO
 70
     1
  9
$DIMPOST
  1

  9
$DIMAPOST
  1

  9
$DIMALT
 70
     0
  9
$DIMALTD
 70
     3
  9
$DIMALTF
 40
0.03937007874016
  9
$DIMLFAC
 40
1.0
  9
$DIMTOFL
 70
     1
  9
$DIMTVP
 40
0.0
  9
$DIMTIX
 70
     0
  9
$DIMSOXD
 70
     0
  9
$DIMSAH
 70
     0
  9
$DIMBLK1
  1

  9
$DIMBLK2
  1

  9
$DIMSTYLE
  2
ISO-25
  9
$DIMCLRD
 70
     0
  9
$DIMCLRE
 70
     0
  9
$DIMCLRT
 70
     0
  9
$DIMTFAC
 40
1.0
  9
$DIMGAP
 40
1.0
  9
$DIMJUST
 70
     0
  9
$DIMSD1
 70
     0
  9
$DIMSD2
 70
     0
  9
$DIMTOLJ
 70
     0
  9
$DIMTZIN
 70
     8
  9
$DIMALTZ
 70
     0
  9
$DIMALTTZ
 70
     0
  9
$DIMUPT
 70
     0
  9
$DIMDEC
 70
     2
  9
$DIMTDEC
 70
     2
  9
$DIMALTU
 70
     2
  9
$DIMALTTD
 70
     3
  9
$DIMTXSTY
  7
Standard
  9
$DIMAUNIT
 70
     0
  9
$DIMADEC
 70
     0
  9
$DIMALTRND
 40
0.0
  9
$DIMAZIN
 70
     0
  9
$DIMDSEP
 70
    44
  9
$DIMATFIT
 70
     3
  9
$DIMFRAC
 70
     0
  9
$DIMLDRBLK
  1
Open
  9
$DIMLUNIT
 70
     2
  9
$DIMLWD
 70
    -2
  9
$DIMLWE
 70
    -2
  9
$DIMTMOVE
 70
     0
  9
$LUNITS
 70
     2
  9
$LUPREC
 70
     4
  9
$SKETCHINC
 40
1.0
  9
$FILLETRAD
 40
1.0
  9
$AUNITS
 70
     0
  9
$AUPREC
 70
     0
  9
$MENU
  1
.
  9
$ELEVATION
 40
0.0
  9
$PELEVATION
 40
0.0
  9
$THICKNESS
 40
0.0
  9
$LIMCHECK
 70
     0
  9
$CHAMFERA
 40
10.0
  9
$CHAMFERB
 40
10.0
  9
$CHAMFERC
 40
20.0
  9
$CHAMFERD
 40
0.0
  9
$SKPOLY
 70
     0
  9
$TDCREATE
 40
2453036.777387036
  9
$TDUCREATE
 40
2453036.402387037
  9
$TDUPDATE
 40
2459382.534168946
  9
$TDUUPDATE
 40
2459382.159168946
  9
$TDINDWG
 40
2.4150267245
  9
$TDUSRTIMER
 40
2.4150231019
  9
$USRTIMER
 70
     1
  9
$ANGBASE
 50
0.0
  9
$ANGDIR
 70
     0
  9
$PDMODE
 70
     0
  9
$PDSIZE
 40
0.0
  9
$PLINEWID
 40
0.0
  9
$SPLFRAME
 70
     0
  9
$SPLINETYPE
 70
     6
  9
$SPLINESEGS
 70
     8
  9
$HANDSEED
  5
367F
  9
$SURFTAB1
 70
     6
  9
$SURFTAB2
 70
     6
  9
$SURFTYPE
 70
     6
  9
$SURFU
 70
     6
  9
$SURFV
 70
     6
  9
$UCSBASE
  2

  9
$UCSNAME
  2

  9
$UCSORG
 10
0.0
 20
0.0
 30
0.0
  9
$UCSXDIR
 10
1.0
 20
0.0
 30
0.0
  9
$UCSYDIR
 10
0.0
 20
1.0
 30
0.0
  9
$UCSORTHOREF
  2

  9
$UCSORTHOVIEW
 70
     0
  9
$UCSORGTOP
 10
0.0
 20
0.0
 30
0.0
  9
$UCSORGBOTTOM
 10
0.0
 20
0.0
 30
0.0
  9
$UCSORGLEFT
 10
0.0
 20
0.0
 30
0.0
  9
$UCSORGRIGHT
 10
0.0
 20
0.0
 30
0.0
  9
$UCSORGFRONT
 10
0.0
 20
0.0
 30
0.0
  9
$UCSORGBACK
 10
0.0
 20
0.0
 30
0.0
  9
$PUCSBASE
  2

  9
$PUCSNAME
  2

  9
$PUCSORG
 10
0.0
 20
0.0
 30
0.0
  9
$PUCSXDIR
 10
1.0
 20
0.0
 30
0.0
  9
$PUCSYDIR
 10
0.0
 20
1.0
 30
0.0
  9
$PUCSORTHOREF
  2

  9
$PUCSORTHOVIEW
 70
     0
  9
$PUCSORGTOP
 10
0.0
 20
0.0
 30
0.0
  9
$PUCSORGBOTTOM
 10
0.0
 20
0.0
 30
0.0
  9
$PUCSORGLEFT
 10
0.0
 20
0.0
 30
0.0
  9
$PUCSORGRIGHT
 10
0.0
 20
0.0
 30
0.0
  9
$PUCSORGFRONT
 10
0.0
 20
0.0
 30
0.0
  9
$PUCSORGBACK
 10
0.0
 20
0.0
 30
0.0
  9
$USERI1
 70
     0
  9
$USERI2
 70
     0
  9
$USERI3
 70
     0
  9
$USERI4
 70
     0
  9
$USERI5
 70
     0
  9
$USERR1
 40
0.0
  9
$USERR2
 40
0.0
  9
$USERR3
 40
0.0
  9
$USERR4
 40
0.0
  9
$USERR5
 40
0.0
  9
$WORLDVIEW
 70
     1
  9
$SHADEDGE
 70
     3
  9
$SHADEDIF
 70
    70
  9
$TILEMODE
 70
     1
  9
$MAXACTVP
 70
    64
  9
$PINSBASE
 10
0.0
 20
0.0
 30
0.0
  9
$PLIMCHECK
 70
     0
  9
$PEXTMIN
 10
1.000000000000000E+20
 20
1.000000000000000E+20
 30
1.000000000000000E+20
  9
$PEXTMAX
 10
-1.000000000000000E+20
 20
-1.000000000000000E+20
 30
-1.000000000000000E+20
  9
$PLIMMIN
 10
0.0
 20
0.0
  9
$PLIMMAX
 10
420.0
 20
297.0
  9
$UNITMODE
 70
     0
  9
$VISRETAIN
 70
     1
  9
$PLINEGEN
 70
     0
  9
$PSLTSCALE
 70
     1
  9
$TREEDEPTH
 70
  3020
  9
$CMLSTYLE
  2
Standard
  9
$CMLJUST
 70
     0
  9
$CMLSCALE
 40
20.0
  9
$PROXYGRAPHICS
 70
     1
  9
$MEASUREMENT
 70
     1
  9
$CELWEIGHT
370
    -1
  9
$ENDCAPS
280
     0
  9
$JOINSTYLE
280
     0
  9
$LWDISPLAY
290
     1
  9
$INSUNITS
 70
     4
  9
$HYPERLINKBASE
  1

  9
$STYLESHEET
  1
monochrome.ctb
  9
$XEDIT
290
     1
  9
$CEPSNTYPE
380
     0
  9
$PSTYLEMODE
290
     1
  9
$FINGERPRINTGUID
  2
{FDEAD578-A652-11D2-9A35-0060089B3A3F}
  9
$VERSIONGUID
  2
{4526533F-B00F-429D-9898-70C6B82A87A1}
  9
$EXTNAMES
290
     1
  9
$PSVPSCALE
 40
0.0
  9
$OLESTARTUP
290
     0
  0
ENDSEC
  0
SECTION
  2
CLASSES
  0
CLASS
  1
ACDBDICTIONARYWDFLT
  2
AcDbDictionaryWithDefault
  3
AutoCAD 2000
 90
        0
280
     0
281
     0
  0
CLASS
  1
ACDBPLACEHOLDER
  2
AcDbPlaceHolder
  3
AutoCAD 2000
 90
        0
280
     0
281
     0
  0
CLASS
  1
LAYOUT
  2
AcDbLayout
  3
AutoCAD 2000
 90
        0
280
     0
281
     0
  0
CLASS
  1
TABLESTYLE
  2
AcDbTableStyle
  3
ObjectDBX Classes
 90
     2047
280
     0
281
     0
  0
CLASS
  1
DICTIONARYVAR
  2
AcDbDictionaryVar
  3
AutoCAD 2000
 90
        0
280
     0
281
     0
  0
CLASS
  1
SORTENTSTABLE
  2
AcDbSortentsTable
  3
AutoCAD 2000
 90
        0
280
     0
281
     0
  0
ENDSEC
  0
SECTION
  2
TABLES
  0
TABLE
  2
VPORT
  5
8
330
0
100
AcDbSymbolTable
 70
     2
  0
VPORT
  5
367E
330
8
100
AcDbSymbolTableRecord
100
AcDbViewportTableRecord
  2
*Active
 70
     0
 10
0.0
 20
0.0
 11
1.0
 21
1.0
 12
830.1584815938321
 22
583.9625530644152
 13
0.0
 23
0.0
 14
10.0
 24
10.0
 15
10.0
 25
10.0
 16
0.0
 26
0.0
 36
1.0
 17
0.0
 27
0.0
 37
0.0
 40
1344.356171251052
 41
1.46679499518768
 42
50.0
 43
0.0
 44
0.0
 50
0.0
 51
0.0
 71
     0
 72
   100
 73
     1
 74
     3
 75
     0
 76
     0
 77
     0
 78
     0
281
     0
 65
     1
110
0.0
120
0.0
130
0.0
111
1.0
121
0.0
131
0.0
112
0.0
122
1.0
132
0.0
 79
     0
146
0.0
  0
ENDTAB
  0
TABLE
  2
LTYPE
  5
5
330
0
100
AcDbSymbolTable
 70
     9
  0
LTYPE
  5
14
330
5
100
AcDbSymbolTableRecord
100
AcDbLinetypeTableRecord
  2
ByBlock
 70
     0
  3

 72
    65
 73
     0
 40
0.0
  0
LTYPE
  5
15
330
5
100
AcDbSymbolTableRecord
100
AcDbLinetypeTableRecord
  2
ByLayer
 70
     0
  3

 72
    65
 73
     0
 40
0.0
  0
LTYPE
  5
16
330
5
100
AcDbSymbolTableRecord
100
AcDbLinetypeTableRecord
  2
Continuous
 70
     0
  3
Solid line
 72
    65
 73
     0
 40
0.0
  0
LTYPE
  5
47
330
5
100
AcDbSymbolTableRecord
100
AcDbLinetypeTableRecord
  2
CENTER
 70
     0
  3
Center ____ _ ____ _ ____ _ ____ _ ____ _ ____
 72
    65
 73
     4
 40
50.8
 49
31.75
 74
     0
 49
-6.349999999999998
 74
     0
 49
6.349999999999998
 74
     0
 49
-6.349999999999998
 74
     0
  0
LTYPE
  5
48
330
5
100
AcDbSymbolTableRecord
100
AcDbLinetypeTableRecord
  2
CENTER2
 70
     0
  3
Center (.5x) ___ _ ___ _ ___ _ ___ _ ___ _ ___
 72
    65
 73
     4
 40
28.57499999999999
 49
19.05
 74
     0
 49
-3.174999999999998
 74
     0
 49
3.174999999999998
 74
     0
 49
-3.174999999999998
 74
     0
  0
LTYPE
  5
49
330
5
100
AcDbSymbolTableRecord
100
AcDbLinetypeTableRecord
  2
CENTERX2
 70
     0
  3
Center (2x) ________  __  ________  __  _____
 72
    65
 73
     4
 40
101.6
 49
63.5
 74
     0
 49
-12.7
 74
     0
 49
12.7
 74
     0
 49
-12.7
 74
     0
  0
LTYPE
  5
4A
330
5
100
AcDbSymbolTableRecord
100
AcDbLinetypeTableRecord
  2
HIDDEN
 70
     0
  3
Hidden __ __ __ __ __ __ __ __ __ __ __ __ __ _
 72
    65
 73
     2
 40
9.524999999999996
 49
6.349999999999998
 74
     0
 49
-3.174999999999998
 74
     0
  0
LTYPE
  5
4B
330
5
100
AcDbSymbolTableRecord
100
AcDbLinetypeTableRecord
  2
HIDDEN2
 70
     0
  3
Hidden (.5x) _ _ _ _ _ _ _ _ _ _ _ _ _ _ _ _ _
 72
    65
 73
     2
 40
4.762499999999998
 49
3.174999999999998
 74
     0
 49
-1.587499999999999
 74
     0
  0
LTYPE
  5
4C
330
5
100
AcDbSymbolTableRecord
100
AcDbLinetypeTableRecord
  2
HIDDENX2
 70
     0
  3
Hidden (2x) ____ ____ ____ ____ ____ ____ ____
 72
    65
 73
     2
 40
19.04999999999998
 49
12.7
 74
     0
 49
-6.349999999999998
 74
     0
  0
LTYPE
  5
1FB1
330
5
100
AcDbSymbolTableRecord
100
AcDbLinetypeTableRecord
  2
PHANTOMX2
 70
     0
  3
Phantom (2x) ____________    ____    ____   _
 72
    65
 73
     6
 40
5.0
 49
2.5
 74
     0
 49
-0.5
 74
     0
 49
0.5
 74
     0
 49
-0.5
 74
     0
 49
0.5
 74
     0
 49
-0.5
 74
     0
  0
LTYPE
  5
1FB2
330
5
100
AcDbSymbolTableRecord
100
AcDbLinetypeTableRecord
  2
PHANTOM
 70
     0
  3
______  __  __  ______  __  __  ______  __  __ 
 72
    65
 73
     6
 40
2.5
 49
1.25
 74
     0
 49
-0.25
 74
     0
 49
0.25
 74
     0
 49
-0.25
 74
     0
 49
0.25
 74
     0
 49
-0.25
 74
     0
  0
ENDTAB
  0
TABLE
  2
LAYER
  5
2
102
{ACAD_XDICTIONARY
360
645
102
}
330
0
100
AcDbSymbolTable
 70
    13
  0
LAYER
  5
10
330
2
100
AcDbSymbolTableRecord
100
AcDbLayerTableRecord
  2
0
 70
     0
 62
     7
  6
Continuous
370
    -3
390
F
  0
LAYER
  5
4D
330
2
100
AcDbSymbolTableRecord
100
AcDbLayerTableRecord
  2
1、実線
 70
     0
 62
     7
  6
Continuous
370
    35
390
F
  0
LAYER
  5
4E
330
2
100
AcDbSymbolTableRecord
100
AcDbLayerTableRecord
  2
２，細線
 70
     0
 62
     7
  6
Continuous
370
    18
390
F
  0
LAYER
  5
4F
330
2
100
AcDbSymbolTableRecord
100
AcDbLayerTableRecord
  2
4、破線2
 70
     0
 62
     3
  6
HIDDEN
370
    15
390
F
  0
LAYER
  5
50
330
2
100
AcDbSymbolTableRecord
100
AcDbLayerTableRecord
  2
寸法線1
 70
     0
 62
     6
  6
Continuous
370
    15
390
F
  0
LAYER
  5
53
330
2
100
AcDbSymbolTableRecord
100
AcDbLayerTableRecord
  2
3、破線1
 70
     0
 62
     3
  6
HIDDEN
370
    15
390
F
  0
LAYER
  5
73
330
2
100
AcDbSymbolTableRecord
100
AcDbLayerTableRecord
  2
Defpoints
 70
     0
 62
     7
  6
Continuous
290
     0
370
    -3
390
F
  0
LAYER
  5
185
330
2
100
AcDbSymbolTableRecord
100
AcDbLayerTableRecord
  2
構築線2
 70
     0
 62
     3
  6
Continuous
370
     9
390
F
  0
LAYER
  5
53C
330
2
100
AcDbSymbolTableRecord
100
AcDbLayerTableRecord
  2
寸法線
 70
     0
 62
     6
  6
Continuous
370
    15
390
F
  0
LAYER
  5
643
330
2
100
AcDbSymbolTableRecord
100
AcDbLayerTableRecord
  2
中箱
 70
     0
 62
     1
  6
HIDDENX2
370
    15
390
F
1001
AcAecLayerStandard
1000

1000

  0
LAYER
  5
8CC
330
2
100
AcDbSymbolTableRecord
100
AcDbLayerTableRecord
  2
電源コード
 70
     0
 62
     1
  6
Continuous
370
    35
390
F
1001
AcAecLayerStandard
1000

1000

  0
LAYER
  5
D53
330
2
100
AcDbSymbolTableRecord
100
AcDbLayerTableRecord
  2
構築線
 70
     0
 62
     4
  6
Continuous
370
    18
390
F
1001
AcAecLayerStandard
1000

1000

  0
LAYER
  5
1FB4
330
2
100
AcDbSymbolTableRecord
100
AcDbLayerTableRecord
  2
文字
 70
     0
 62
     7
  6
Continuous
370
    -3
390
F
  0
ENDTAB
  0
TABLE
  2
STYLE
  5
3
330
0
100
AcDbSymbolTable
 70
     3
  0
STYLE
  5
11
330
3
100
AcDbSymbolTableRecord
100
AcDbTextStyleTableRecord
  2
Standard
 70
     0
 40
0.0
 41
1.0
 50
0.0
 71
     0
 42
12.0
  3
txt.shx
  4
bigfont.shx
  0
STYLE
  5
46
330
3
100
AcDbSymbolTableRecord
100
AcDbTextStyleTableRecord
  2

 70
     1
 40
0.0
 41
1.0
 50
0.0
 71
     0
 42
2.5
  3
ltypeshp.shx
  4

  0
STYLE
  5
1FBB
330
3
100
AcDbSymbolTableRecord
100
AcDbTextStyleTableRecord
  2
ED_VECTOR
 70
     0
 40
0.0
 41
1.0
 50
0.0
 71
     0
 42
0.2
  3
MONOTXT.SHX
  4
BIGFONT.SHX
  0
ENDTAB
  0
TABLE
  2
VIEW
  5
6
330
0
100
AcDbSymbolTable
 70
     0
  0
ENDTAB
  0
TABLE
  2
UCS
  5
7
330
0
100
AcDbSymbolTable
 70
     0
  0
ENDTAB
  0
TABLE
  2
APPID
  5
9
330
0
100
AcDbSymbolTable
 70
    12
  0
APPID
  5
12
330
9
100
AcDbSymbolTableRecord
100
AcDbRegAppTableRecord
  2
ACAD
 70
     0
  0
APPID
  5
4D0
330
9
100
AcDbSymbolTableRecord
100
AcDbRegAppTableRecord
  2
ACAD_EXEMPT_FROM_CAD_STANDARDS
 70
     0
  0
APPID
  5
644
330
9
100
AcDbSymbolTableRecord
100
AcDbRegAppTableRecord
  2
AcAecLayerStandard
 70
     0
  0
APPID
  5
6DE
330
9
100
AcDbSymbolTableRecord
100
AcDbRegAppTableRecord
  2
ACAD_PSEXT
 70
     0
  0
APPID
  5
97A
330
9
100
AcDbSymbolTableRecord
100
AcDbRegAppTableRecord
  2
ACAD_DSTYLE_DIMTEXT_FILL
 70
     0
  0
APPID
  5
97B
330
9
100
AcDbSymbolTableRecord
100
AcDbRegAppTableRecord
  2
ACAD_DSTYLE_DIMEXT_LENGTH
 70
     0
  0
APPID
  5
97C
330
9
100
AcDbSymbolTableRecord
100
AcDbRegAppTableRecord
  2
ACAD_DSTYLE_DIMEXT_ENABLED
 70
     0
  0
APPID
  5
97D
330
9
100
AcDbSymbolTableRecord
100
AcDbRegAppTableRecord
  2
ACAD_DSTYLE_DIM_LINETYPE
 70
     0
  0
APPID
  5
97E
330
9
100
AcDbSymbolTableRecord
100
AcDbRegAppTableRecord
  2
ACAD_DSTYLE_DIM_EXT1_LINETYPE
 70
     0
  0
APPID
  5
97F
330
9
100
AcDbSymbolTableRecord
100
AcDbRegAppTableRecord
  2
ACAD_DSTYLE_DIM_EXT2_LINETYPE
 70
     0
  0
APPID
  5
A3B
330
9
100
AcDbSymbolTableRecord
100
AcDbRegAppTableRecord
  2
ACAD_DSTYLE_DIMJOGGED_JOGANGLE_SYMBOL
 70
     0
  0
APPID
  5
A9F
330
9
100
AcDbSymbolTableRecord
100
AcDbRegAppTableRecord
  2
ACAD_DSTYLE_DIMARC_LENGTH_SYMBOL
 70
     0
  0
ENDTAB
  0
TABLE
  2
DIMSTYLE
  5
A
330
0
100
AcDbSymbolTable
 70
     1
100
AcDbDimStyleTable
 71
     1
340
27
  0
DIMSTYLE
105
27
102
{ACAD_REACTORS
330
DB3
330
DC1
330
DDC
330
DE9
330
E07
330
E15
330
E2A
330
E37
330
E45
330
E5C
330
E72
330
2FB2
330
2FF5
330
3039
330
3092
330
30AB
330
3117
330
337E
330
337D
330
34C4
330
3382
330
3380
330
34C2
330
337A
330
3379
330
3383
330
34C0
330
337C
330
34C5
330
337B
330
34C1
330
3381
330
337F
330
34C3
102
}
330
A
100
AcDbSymbolTableRecord
100
AcDbDimStyleTableRecord
  2
ISO-25
 70
     0
 40
4.0
 41
2.5
 42
1.0
 43
3.75
 44
1.25
 73
     0
 74
     0
 77
     1
 78
     8
140
3.0
141
2.5
143
0.03937007874016
147
1.0
171
     3
172
     1
271
     2
272
     2
274
     3
278
    44
283
     0
284
     8
340
11
341
1AE
342
1AE
1001
ACAD_DSTYLE_DIMEXT_LENGTH
1070
   378
1040
1.25
1001
ACAD_DSTYLE_DIMEXT_ENABLED
1070
   383
1070
     0
1001
ACAD_DSTYLE_DIMARC_LENGTH_SYMBOL
1070
   379
1070
     0
1001
ACAD_DSTYLE_DIMJOGGED_JOGANGLE_SYMBOL
1070
   384
1040
1.570796326794896
  0
ENDTAB
  0
TABLE
  2
BLOCK_RECORD
  5
1
330
0
100
AcDbSymbolTable
 70
    38
  0
BLOCK_RECORD
  5
1F
102
{ACAD_XDICTIONARY
360
4C2
102
}
330
1
100
AcDbSymbolTableRecord
100
AcDbBlockTableRecord
  2
*Model_Space
340
22
  0
BLOCK_RECORD
  5
1B
330
1
100
AcDbSymbolTableRecord
100
AcDbBlockTableRecord
  2
*Paper_Space
340
1E
  0
BLOCK_RECORD
  5
23
330
1
100
AcDbSymbolTableRecord
100
AcDbBlockTableRecord
  2
*Paper_Space0
340
26
  0
BLOCK_RECORD
  5
1AE
330
1
100
AcDbSymbolTableRecord
100
AcDbBlockTableRecord
  2
_Open
340
0
102
{BLKREFS
331
DB8
331
DB9
331
DEE
331
DEF
331
E77
331
E78
331
1CFC
331
1CFD
331
1D07
331
1D08
331
1D5E
331
1D5F
331
1D68
331
1D69
331
1D73
331
1D74
331
1D7C
331
1D7D
331
3009
331
300A
331
3099
331
309A
331
30A4
331
30A5
331
30CF
331
30D0
331
3111
331
3112
331
312B
331
312C
331
359D
331
359E
331
35A6
331
35A7
331
35AF
331
35B0
331
35B8
331
35B9
331
35C1
331
35C2
331
35CC
331
35CD
331
35D5
331
35D6
331
35DE
331
35DF
331
35E7
331
35E8
331
35F0
331
35F1
331
35F9
331
35FA
331
3602
331
3603
331
360D
331
360E
331
3616
331
3617
331
3621
331
3622
331
362A
331
362B
331
3635
331
3636
331
3655
331
3656
331
365E
331
365F
331
366F
331
3670
331
3678
331
3679
102
}
  0
BLOCK_RECORD
  5
D54
102
{ACAD_XDICTIONARY
360
D8C
102
}
330
1
100
AcDbSymbolTableRecord
100
AcDbBlockTableRecord
  2
Ａ－３－タイトルブロック　（株）アンナカ
340
0
1001
ACAD
1000
DesignCenter Data
1002
{
1070
     1
1070
     4
1002
}
  0
BLOCK_RECORD
  5
DB4
330
1
100
AcDbSymbolTableRecord
100
AcDbBlockTableRecord
  2
*D3
340
0
  0
BLOCK_RECORD
  5
DC2
330
1
100
AcDbSymbolTableRecord
100
AcDbBlockTableRecord
  2
*D4
340
0
  0
BLOCK_RECORD
  5
DDD
330
1
100
AcDbSymbolTableRecord
100
AcDbBlockTableRecord
  2
*D5
340
0
  0
BLOCK_RECORD
  5
DEA
330
1
100
AcDbSymbolTableRecord
100
AcDbBlockTableRecord
  2
*D6
340
0
  0
BLOCK_RECORD
  5
E08
330
1
100
AcDbSymbolTableRecord
100
AcDbBlockTableRecord
  2
*D7
340
0
  0
BLOCK_RECORD
  5
E16
330
1
100
AcDbSymbolTableRecord
100
AcDbBlockTableRecord
  2
*D8
340
0
  0
BLOCK_RECORD
  5
E2B
330
1
100
AcDbSymbolTableRecord
100
AcDbBlockTableRecord
  2
*D9
340
0
  0
BLOCK_RECORD
  5
E38
330
1
100
AcDbSymbolTableRecord
100
AcDbBlockTableRecord
  2
*D10
340
0
  0
BLOCK_RECORD
  5
E46
330
1
100
AcDbSymbolTableRecord
100
AcDbBlockTableRecord
  2
*D11
340
0
  0
BLOCK_RECORD
  5
E5D
330
1
100
AcDbSymbolTableRecord
100
AcDbBlockTableRecord
  2
*D12
340
0
  0
BLOCK_RECORD
  5
E73
330
1
100
AcDbSymbolTableRecord
100
AcDbBlockTableRecord
  2
*D13
340
0
  0
BLOCK_RECORD
  5
1DB0
330
1
100
AcDbSymbolTableRecord
100
AcDbBlockTableRecord
  2
Ａ－３　アンナカ用紙
340
0
1001
ACAD
1000
DesignCenter Data
1002
{
1070
     1
1070
     4
1002
}
  0
BLOCK_RECORD
  5
2FB3
330
1
100
AcDbSymbolTableRecord
100
AcDbBlockTableRecord
  2
*D15
340
0
  0
BLOCK_RECORD
  5
2FF6
330
1
100
AcDbSymbolTableRecord
100
AcDbBlockTableRecord
  2
*D16
340
0
  0
BLOCK_RECORD
  5
303A
330
1
100
AcDbSymbolTableRecord
100
AcDbBlockTableRecord
  2
*D17
340
0
  0
BLOCK_RECORD
  5
3093
330
1
100
AcDbSymbolTableRecord
100
AcDbBlockTableRecord
  2
*D18
340
0
  0
BLOCK_RECORD
  5
30AC
330
1
100
AcDbSymbolTableRecord
100
AcDbBlockTableRecord
  2
*D19
340
0
  0
BLOCK_RECORD
  5
3118
330
1
100
AcDbSymbolTableRecord
100
AcDbBlockTableRecord
  2
*D20
340
0
  0
BLOCK_RECORD
  5
34C6
330
1
100
AcDbSymbolTableRecord
100
AcDbBlockTableRecord
  2
*D21
340
0
  0
BLOCK_RECORD
  5
34D2
330
1
100
AcDbSymbolTableRecord
100
AcDbBlockTableRecord
  2
*D22
340
0
  0
BLOCK_RECORD
  5
34DE
330
1
100
AcDbSymbolTableRecord
100
AcDbBlockTableRecord
  2
*D23
340
0
  0
BLOCK_RECORD
  5
34EA
330
1
100
AcDbSymbolTableRecord
100
AcDbBlockTableRecord
  2
*D24
340
0
  0
BLOCK_RECORD
  5
34F6
330
1
100
AcDbSymbolTableRecord
100
AcDbBlockTableRecord
  2
*D25
340
0
  0
BLOCK_RECORD
  5
3502
330
1
100
AcDbSymbolTableRecord
100
AcDbBlockTableRecord
  2
*D26
340
0
  0
BLOCK_RECORD
  5
3510
330
1
100
AcDbSymbolTableRecord
100
AcDbBlockTableRecord
  2
*D27
340
0
  0
BLOCK_RECORD
  5
351C
330
1
100
AcDbSymbolTableRecord
100
AcDbBlockTableRecord
  2
*D28
340
0
  0
BLOCK_RECORD
  5
3528
330
1
100
AcDbSymbolTableRecord
100
AcDbBlockTableRecord
  2
*D29
340
0
  0
BLOCK_RECORD
  5
3534
330
1
100
AcDbSymbolTableRecord
100
AcDbBlockTableRecord
  2
*D30
340
0
  0
BLOCK_RECORD
  5
3540
330
1
100
AcDbSymbolTableRecord
100
AcDbBlockTableRecord
  2
*D31
340
0
  0
BLOCK_RECORD
  5
354C
330
1
100
AcDbSymbolTableRecord
100
AcDbBlockTableRecord
  2
*D32
340
0
  0
BLOCK_RECORD
  5
3558
330
1
100
AcDbSymbolTableRecord
100
AcDbBlockTableRecord
  2
*D33
340
0
  0
BLOCK_RECORD
  5
3566
330
1
100
AcDbSymbolTableRecord
100
AcDbBlockTableRecord
  2
*D34
340
0
  0
BLOCK_RECORD
  5
3572
330
1
100
AcDbSymbolTableRecord
100
AcDbBlockTableRecord
  2
*D35
340
0
  0
BLOCK_RECORD
  5
3580
330
1
100
AcDbSymbolTableRecord
100
AcDbBlockTableRecord
  2
*D36
340
0
  0
BLOCK_RECORD
  5
358C
330
1
100
AcDbSymbolTableRecord
100
AcDbBlockTableRecord
  2
*D37
340
0
  0
ENDTAB
  0
ENDSEC
  0
SECTION
  2
BLOCKS
  0
BLOCK
  5
20
330
1F
100
AcDbEntity
  8
0
100
AcDbBlockBegin
  2
*Model_Space
 70
     0
 10
0.0
 20
0.0
 30
0.0
  3
*Model_Space
  1

  0
ENDBLK
  5
21
330
1F
100
AcDbEntity
  8
0
100
AcDbBlockEnd
  0
BLOCK
  5
1C
330
1B
100
AcDbEntity
 67
     1
  8
0
100
AcDbBlockBegin
  2
*Paper_Space
 70
     0
 10
0.0
 20
0.0
 30
0.0
  3
*Paper_Space
  1

  0
ENDBLK
  5
1D
330
1B
100
AcDbEntity
 67
     1
  8
0
100
AcDbBlockEnd
  0
BLOCK
  5
24
330
23
100
AcDbEntity
  8
0
100
AcDbBlockBegin
  2
*Paper_Space0
 70
     0
 10
0.0
 20
0.0
 30
0.0
  3
*Paper_Space0
  1

  0
ENDBLK
  5
25
330
23
100
AcDbEntity
  8
0
100
AcDbBlockEnd
  0
BLOCK
  5
1B2
330
1AE
100
AcDbEntity
  8
0
100
AcDbBlockBegin
  2
_Open
 70
     0
 10
0.0
 20
0.0
 30
0.0
  3
_Open
  1

  0
LINE
  5
1AF
330
1AE
100
AcDbEntity
  8
寸法線1
 62
     0
370
    -2
100
AcDbLine
 10
-1.0
 20
0.1666666666666666
 30
0.0
 11
0.0
 21
0.0
 31
0.0
  0
LINE
  5
1B0
330
1AE
100
AcDbEntity
  8
寸法線1
 62
     0
370
    -2
100
AcDbLine
 10
-1.0
 20
-0.1666666666666666
 30
0.0
 11
0.0
 21
0.0
 31
0.0
  0
LINE
  5
1B1
330
1AE
100
AcDbEntity
  8
寸法線1
 62
     0
370
    -2
100
AcDbLine
 10
0.0
 20
0.0
 30
0.0
 11
-1.0
 21
0.0
 31
0.0
  0
ENDBLK
  5
1B3
330
1AE
100
AcDbEntity
  8
0
100
AcDbBlockEnd
  0
BLOCK
  5
D8E
330
D54
100
AcDbEntity
  8
0
100
AcDbBlockBegin
  2
Ａ－３－タイトルブロック　（株）アンナカ
 70
     0
 10
0.0
 20
0.0
 30
0.0
  3
Ａ－３－タイトルブロック　（株）アンナカ
  1

  0
LINE
  5
D55
330
D54
100
AcDbEntity
  8
0
370
    40
100
AcDbLine
 10
409.9999999999998
 20
10.0
 30
0.0
 11
409.9999999999998
 21
38.0
 31
0.0
  0
LINE
  5
D56
330
D54
100
AcDbEntity
  8
0
370
    60
100
AcDbLine
 10
409.9999999999998
 20
287.0
 30
0.0
 11
24.99999999999994
 21
287.0
 31
0.0
  0
LINE
  5
D57
330
D54
100
AcDbEntity
  8
0
370
    40
100
AcDbLine
 10
229.9999999999999
 20
10.0
 30
0.0
 11
409.9999999999998
 21
10.0
 31
0.0
  0
LINE
  5
D58
330
D54
100
AcDbEntity
  8
0
370
    60
100
AcDbLine
 10
24.99999999999994
 20
287.0
 30
0.0
 11
25.0
 21
10.0
 31
0.0
  0
LINE
  5
D59
330
D54
100
AcDbEntity
  8
0
370
    60
100
AcDbLine
 10
409.9999999999998
 20
10.0
 30
0.0
 11
409.9999999999998
 21
287.0
 31
0.0
  0
LINE
  5
D5A
330
D54
100
AcDbEntity
  8
0
370
    60
100
AcDbLine
 10
25.0
 20
10.0
 30
0.0
 11
409.9999999999998
 21
10.0
 31
0.0
  0
LINE
  5
D5B
330
D54
100
AcDbEntity
  8
0
100
AcDbLine
 10
318.6529750232782
 20
35.52070974637445
 30
0.0
 11
312.6529750232782
 21
29.52070974637445
 31
0.0
  0
TEXT
  5
D5C
330
D54
100
AcDbEntity
  8
0
100
AcDbText
 10
283.307896638995
 20
10.5948520895418
 30
0.0
 40
3.75
  1
承　認
100
AcDbText
  0
TEXT
  5
D5D
330
D54
100
AcDbEntity
  8
0
100
AcDbText
 10
232.3203605967294
 20
10.56729125954706
 30
0.0
 40
3.75
  1
設　計
100
AcDbText
  0
TEXT
  5
D5E
330
D54
100
AcDbEntity
  8
0
100
AcDbText
 10
266.3540583654115
 20
10.68149538233842
 30
0.0
 40
3.75
  1
検　図
100
AcDbText
  0
TEXT
  5
D5F
330
D54
100
AcDbEntity
  8
0
100
AcDbText
 10
249.4343442915429
 20
10.61149479708615
 30
0.0
 40
3.75
  1
製　図
100
AcDbText
  0
TEXT
  5
D60
330
D54
100
AcDbEntity
  8
0
100
AcDbText
 10
300.2200358093297
 20
23.98407185290813
 30
0.0
 40
3.75
  1
品
100
AcDbText
  0
TEXT
  5
D61
330
D54
100
AcDbEntity
  8
0
100
AcDbText
 10
300.2200344175939
 20
19.47748552127103
 30
0.0
 40
3.75
  1
名
100
AcDbText
  0
TEXT
  5
D62
330
D54
100
AcDbEntity
  8
0
100
AcDbText
 10
299.9269365765777
 20
30.74189779655756
 30
0.0
 40
3.75
  1
尺度
100
AcDbText
  0
TEXT
  5
D63
330
D54
100
AcDbEntity
  8
0
100
AcDbText
 10
355.8973426032813
 20
30.68901750125485
 30
0.0
 40
3.75
  1
処理
100
AcDbText
  0
TEXT
  5
D64
330
D54
100
AcDbEntity
  8
0
100
AcDbText
 10
362.2931523123214
 20
14.97132756165608
 30
0.0
 40
3.75
  1
図
100
AcDbText
  0
TEXT
  5
D65
330
D54
100
AcDbEntity
  8
0
100
AcDbText
 10
362.2265521859451
 20
10.44681943131984
 30
0.0
 40
3.75
  1
番
100
AcDbText
  0
TEXT
  5
D66
330
D54
100
AcDbEntity
  8
0
100
AcDbText
 10
324.2736687619641
 20
30.50734800538497
 30
0.0
 40
3.75
  1
材質
100
AcDbText
  0
TEXT
  5
D67
330
D54
100
AcDbEntity
  8
0
100
AcDbText
 10
387.7624386995826
 20
30.5255410443326
 30
0.0
 40
3.75
  1
個数
100
AcDbText
  0
LINE
  5
D68
330
D54
100
AcDbEntity
  8
0
100
AcDbLine
 10
297.9999999999999
 20
19.0
 30
0.0
 11
409.9999999999998
 21
19.0
 31
0.0
  0
LINE
  5
D69
330
D54
100
AcDbEntity
  8
0
100
AcDbLine
 10
297.9999999999999
 20
28.0
 30
0.0
 11
409.9999999999998
 21
28.0
 31
0.0
  0
LINE
  5
D6A
330
D54
100
AcDbEntity
  8
0
100
AcDbLine
 10
297.9999999999999
 20
37.0
 30
0.0
 11
297.9999999999999
 21
10.0
 31
0.0
  0
LINE
  5
D6B
330
D54
100
AcDbEntity
  8
0
100
AcDbLine
 10
305.9999999999998
 20
28.0
 30
0.0
 11
305.9999999999998
 21
19.0
 31
0.0
  0
LINE
  5
D6C
330
D54
100
AcDbEntity
  8
0
100
AcDbLine
 10
359.9999999999998
 20
28.0
 30
0.0
 11
359.9999999999998
 21
10.0
 31
0.0
  0
LINE
  5
D6D
330
D54
100
AcDbEntity
  8
0
100
AcDbLine
 10
367.9999999999998
 20
28.0
 30
0.0
 11
367.9999999999998
 21
10.0
 31
0.0
  0
LINE
  5
D6E
330
D54
100
AcDbEntity
  8
0
370
    60
100
AcDbLine
 10
229.9999999999999
 20
37.0
 30
0.0
 11
229.9999999999999
 21
10.0
 31
0.0
  0
LINE
  5
D6F
330
D54
100
AcDbEntity
  8
構築線
100
AcDbLine
 10
309.9999999999998
 20
37.0
 30
0.0
 11
309.9999999999998
 21
27.99999999999998
 31
0.0
  0
LINE
  5
D70
330
D54
100
AcDbEntity
  8
0
100
AcDbLine
 10
321.9999999999998
 20
37.0
 30
0.0
 11
321.9999999999998
 21
28.0
 31
0.0
  0
LINE
  5
D71
330
D54
100
AcDbEntity
  8
構築線
100
AcDbLine
 10
333.9999999999998
 20
37.0
 30
0.0
 11
333.9999999999998
 21
28.0
 31
0.0
  0
LINE
  5
D72
330
D54
100
AcDbEntity
  8
0
100
AcDbLine
 10
353.9999999999998
 20
37.0
 30
0.0
 11
353.9999999999998
 21
28.0
 31
0.0
  0
LINE
  5
D73
330
D54
100
AcDbEntity
  8
構築線
100
AcDbLine
 10
365.9999999999998
 20
37.0
 30
0.0
 11
365.9999999999998
 21
28.0
 31
0.0
  0
LINE
  5
D74
330
D54
100
AcDbEntity
  8
0
100
AcDbLine
 10
385.9999999999998
 20
37.0
 30
0.0
 11
385.9999999999998
 21
28.0
 31
0.0
  0
LINE
  5
D75
330
D54
100
AcDbEntity
  8
構築線
100
AcDbLine
 10
397.9999999999998
 20
37.0
 30
0.0
 11
397.9999999999998
 21
28.0
 31
0.0
  0
LINE
  5
D76
330
D54
100
AcDbEntity
  8
0
370
    60
100
AcDbLine
 10
409.9999999999998
 20
37.0
 30
0.0
 11
229.9999999999999
 21
37.0
 31
0.0
  0
LINE
  5
D77
330
D54
100
AcDbEntity
  8
0
100
AcDbLine
 10
229.9999999999999
 20
32.0
 30
0.0
 11
297.9999999999999
 21
32.0
 31
0.0
  0
LINE
  5
D78
330
D54
100
AcDbEntity
  8
0
100
AcDbLine
 10
229.9999999999999
 20
15.0
 30
0.0
 11
297.9999999999999
 21
15.0
 31
0.0
  0
LINE
  5
D79
330
D54
100
AcDbEntity
  8
0
100
AcDbLine
 10
246.9999999999999
 20
32.0
 30
0.0
 11
246.9999999999999
 21
10.0
 31
0.0
  0
LINE
  5
D7A
330
D54
100
AcDbEntity
  8
0
100
AcDbLine
 10
263.9999999999999
 20
32.0
 30
0.0
 11
263.9999999999999
 21
10.0
 31
0.0
  0
MTEXT
  5
D7B
330
D54
100
AcDbEntity
  8
0
100
AcDbMText
 10
233.6822362954143
 20
36.53613805254554
 30
0.0
 40
4.0
 41
51.15817715169351
 71
     1
 72
     5
  1
作 成 日
 73
     1
 44
1.0
1001
ACAD
1000
ACAD_MTEXT_DEFINED_HEIGHT_BEGIN
1070
    46
1040
0.0
1000
ACAD_MTEXT_DEFINED_HEIGHT_END
1000
MTEXTBEGIN
1070
    73
1070
     1
1070
    44
1040
1.0
1070
    74
1070
     0
1000
MTEXTEND
  0
LINE
  5
D7C
330
D54
100
AcDbEntity
  8
0
100
AcDbLine
 10
255.4999999999999
 20
37.0
 30
0.0
 11
255.4999999999999
 21
32.0
 31
0.0
  0
LINE
  5
D7D
330
D54
100
AcDbEntity
  8
0
100
AcDbLine
 10
280.9999999999999
 20
32.0
 30
0.0
 11
280.9999999999999
 21
10.0
 31
0.0
  0
TEXT
  5
D7E
330
D54
100
AcDbEntity
  8
0
100
AcDbText
 10
362.1526144043853
 20
24.01050086617226
 30
0.0
 40
3.75
  1
型
100
AcDbText
  0
TEXT
  5
D7F
330
D54
100
AcDbEntity
  8
0
100
AcDbText
 10
362.2313796936458
 20
19.49046779907813
 30
0.0
 40
3.75
  1
式
100
AcDbText
  0
CIRCLE
  5
D80
330
D54
100
AcDbEntity
  8
0
100
AcDbCircle
 10
269.9999999999999
 20
34.56806793362761
 30
0.0
 40
0.5
  0
CIRCLE
  5
D81
330
D54
100
AcDbEntity
  8
0
100
AcDbCircle
 10
283.9999999999998
 20
34.56806793362761
 30
0.0
 40
0.5
  0
CIRCLE
  5
D82
330
D54
100
AcDbEntity
  8
0
100
AcDbCircle
 10
269.9999999999999
 20
34.56806793362761
 30
0.0
 40
0.4
  0
CIRCLE
  5
D83
330
D54
100
AcDbEntity
  8
0
100
AcDbCircle
 10
269.9999999999999
 20
34.56806793362761
 30
0.0
 40
0.3
  0
CIRCLE
  5
D84
330
D54
100
AcDbEntity
  8
0
100
AcDbCircle
 10
269.9999999999999
 20
34.56806793362761
 30
0.0
 40
0.2
  0
CIRCLE
  5
D85
330
D54
100
AcDbEntity
  8
0
100
AcDbCircle
 10
269.9999999999999
 20
34.56806793362761
 30
0.0
 40
0.1
  0
CIRCLE
  5
D86
330
D54
100
AcDbEntity
  8
0
100
AcDbCircle
 10
283.9999999999998
 20
34.56806793362761
 30
0.0
 40
0.5
  0
CIRCLE
  5
D87
330
D54
100
AcDbEntity
  8
0
100
AcDbCircle
 10
283.9999999999998
 20
34.56806793362761
 30
0.0
 40
0.4
  0
CIRCLE
  5
D88
330
D54
100
AcDbEntity
  8
0
100
AcDbCircle
 10
283.9999999999998
 20
34.56806793362761
 30
0.0
 40
0.3
  0
CIRCLE
  5
D89
330
D54
100
AcDbEntity
  8
0
100
AcDbCircle
 10
283.9999999999998
 20
34.56806793362761
 30
0.0
 40
0.2
  0
CIRCLE
  5
D8A
330
D54
100
AcDbEntity
  8
0
100
AcDbCircle
 10
283.9999999999998
 20
34.56806793362761
 30
0.0
 40
0.1
  0
MTEXT
  5
D8B
330
D54
100
AcDbEntity
  8
0
100
AcDbMText
 10
304.4994482992639
 20
17.03068846986468
 30
0.0
 40
5.0
 41
78.66862485691355
 71
     1
 72
     5
  1
株式会社 アンナカ
 73
     1
 44
1.0
1001
ACAD
1000
MTEXTBEGIN
1070
    73
1070
     1
1070
    44
1040
1.0
1070
    74
1070
     0
1000
MTEXTEND
  0
ENDBLK
  5
D8F
330
D54
100
AcDbEntity
  8
0
100
AcDbBlockEnd
  0
BLOCK
  5
DBE
330
DB4
100
AcDbEntity
  8
0
100
AcDbBlockBegin
  2
*D3
 70
     1
 10
0.0
 20
0.0
 30
0.0
  3
*D3
  1

  0
LINE
  5
DB5
330
DB4
100
AcDbEntity
  8
寸法線1
 62
     0
370
    -2
100
AcDbLine
 10
196.0
 20
714.0
 30
0.0
 11
154.9999999999999
 21
714.0
 31
0.0
  0
LINE
  5
DB6
330
DB4
100
AcDbEntity
  8
寸法線1
 62
     0
370
    -2
100
AcDbLine
 10
196.0
 20
1034.0
 30
0.0
 11
155.0
 21
1034.0
 31
0.0
  0
LINE
  5
DB7
330
DB4
100
AcDbEntity
  8
寸法線1
 62
     0
370
    -2
100
AcDbLine
 10
159.9999999999999
 20
724.0
 30
0.0
 11
160.0
 21
1024.0
 31
0.0
  0
INSERT
  5
DB8
330
DB4
100
AcDbEntity
  8
寸法線1
 62
     0
370
    -2
100
AcDbBlockReference
  2
_Open
 10
159.9999999999999
 20
714.0
 30
0.0
 41
10.0
 42
10.0
 43
10.0
 50
270.0
  0
INSERT
  5
DB9
330
DB4
100
AcDbEntity
  8
寸法線1
 62
     0
370
    -2
100
AcDbBlockReference
  2
_Open
 10
160.0
 20
1034.0
 30
0.0
 41
10.0
 42
10.0
 43
10.0
 50
90.0
  0
MTEXT
  5
DBA
330
DB4
100
AcDbEntity
  8
寸法線1
 62
     0
100
AcDbMText
 10
149.9999999999998
 20
874.0
 30
0.0
 40
12.0
 41
0.0
 71
     5
 72
     1
  1
320
 11
0.0000000000000001
 21
1.0
 31
0.0
 73
     1
 44
1.0
1001
ACAD
1000
MTEXTBEGIN
1070
    73
1070
     1
1070
    44
1040
1.0
1070
    74
1070
     0
1000
MTEXTEND
  0
POINT
  5
DBB
330
DB4
100
AcDbEntity
  8
Defpoints
 62
     0
100
AcDbPoint
 10
200.0
 20
714.0
 30
0.0
  0
POINT
  5
DBC
330
DB4
100
AcDbEntity
  8
Defpoints
 62
     0
100
AcDbPoint
 10
200.0
 20
1034.0
 30
0.0
  0
POINT
  5
DBD
330
DB4
100
AcDbEntity
  8
Defpoints
 62
     0
100
AcDbPoint
 10
160.0
 20
1034.0
 30
0.0
  0
ENDBLK
  5
DBF
330
DB4
100
AcDbEntity
  8
0
100
AcDbBlockEnd
  0
BLOCK
  5
DCC
330
DC2
100
AcDbEntity
  8
0
100
AcDbBlockBegin
  2
*D4
 70
     1
 10
0.0
 20
0.0
 30
0.0
  3
*D4
  1

  0
LINE
  5
1D79
330
DC2
100
AcDbEntity
  8
寸法線1
 62
     0
370
    -2
100
AcDbLine
 10
196.0
 20
714.0
 30
0.0
 11
155.0
 21
714.0
 31
0.0
  0
LINE
  5
1D7A
330
DC2
100
AcDbEntity
  8
寸法線1
 62
     0
370
    -2
100
AcDbLine
 10
195.9999999999998
 20
678.0
 30
0.0
 11
155.0
 21
678.0
 31
0.0
  0
LINE
  5
1D7B
330
DC2
100
AcDbEntity
  8
寸法線1
 62
     0
370
    -2
100
AcDbLine
 10
160.0
 20
704.0
 30
0.0
 11
160.0
 21
688.0
 31
0.0
  0
INSERT
  5
1D7C
330
DC2
100
AcDbEntity
  8
寸法線1
 62
     0
370
    -2
100
AcDbBlockReference
  2
_Open
 10
160.0
 20
714.0
 30
0.0
 41
10.0
 42
10.0
 43
10.0
 50
90.0
  0
INSERT
  5
1D7D
330
DC2
100
AcDbEntity
  8
寸法線1
 62
     0
370
    -2
100
AcDbBlockReference
  2
_Open
 10
160.0
 20
678.0
 30
0.0
 41
10.0
 42
10.0
 43
10.0
 50
270.0
  0
MTEXT
  5
1D7E
330
DC2
100
AcDbEntity
  8
寸法線1
 62
     0
100
AcDbMText
 10
149.9999999999998
 20
696.0
 30
0.0
 40
12.0
 41
0.0
 71
     5
 72
     1
  1
37
 11
0.0000000000000001
 21
1.0
 31
0.0
 73
     1
 44
1.0
  0
POINT
  5
1D7F
330
DC2
100
AcDbEntity
  8
Defpoints
 62
     0
100
AcDbPoint
 10
200.0
 20
714.0
 30
0.0
  0
POINT
  5
1D80
330
DC2
100
AcDbEntity
  8
Defpoints
 62
     0
100
AcDbPoint
 10
199.9999999999998
 20
678.0
 30
0.0
  0
POINT
  5
1D81
330
DC2
100
AcDbEntity
  8
Defpoints
 62
     0
100
AcDbPoint
 10
160.0
 20
678.0
 30
0.0
  0
ENDBLK
  5
DCD
330
DC2
100
AcDbEntity
  8
0
100
AcDbBlockEnd
  0
BLOCK
  5
DE7
330
DDD
100
AcDbEntity
  8
0
100
AcDbBlockBegin
  2
*D5
 70
     1
 10
0.0
 20
0.0
 30
0.0
  3
*D5
  1

  0
LINE
  5
3675
330
DDD
100
AcDbEntity
  8
寸法線1
 62
     0
370
    -2
100
AcDbLine
 10
644.0
 20
279.9999999999999
 30
0.0
 11
685.0000000000001
 21
279.9999999999999
 31
0.0
  0
LINE
  5
3676
330
DDD
100
AcDbEntity
  8
寸法線1
 62
     0
370
    -2
100
AcDbLine
 10
644.0
 20
250.0
 30
0.0
 11
685.0
 21
250.0
 31
0.0
  0
LINE
  5
3677
330
DDD
100
AcDbEntity
  8
寸法線1
 62
     0
370
    -2
100
AcDbLine
 10
680.0000000000001
 20
269.9999999999999
 30
0.0
 11
680.0000000000001
 21
259.9999999999999
 31
0.0
  0
INSERT
  5
3678
330
DDD
100
AcDbEntity
  8
寸法線1
 62
     0
370
    -2
100
AcDbBlockReference
  2
_Open
 10
680.0000000000001
 20
279.9999999999999
 30
0.0
 41
10.0
 42
10.0
 43
10.0
 50
90.0
  0
INSERT
  5
3679
330
DDD
100
AcDbEntity
  8
寸法線1
 62
     0
370
    -2
100
AcDbBlockReference
  2
_Open
 10
680.0
 20
250.0
 30
0.0
 41
10.0
 42
10.0
 43
10.0
 50
270.0
  0
MTEXT
  5
367A
330
DDD
100
AcDbEntity
  8
寸法線1
 62
     0
100
AcDbMText
 10
670.0
 20
265.0
 30
0.0
 40
12.0
 41
0.0
 71
     5
 72
     1
  1
30
 11
0.0000000000000001
 21
1.0
 31
0.0
 73
     1
 44
1.0
  0
POINT
  5
367B
330
DDD
100
AcDbEntity
  8
Defpoints
 62
     0
100
AcDbPoint
 10
640.0
 20
280.0
 30
0.0
  0
POINT
  5
367C
330
DDD
100
AcDbEntity
  8
Defpoints
 62
     0
100
AcDbPoint
 10
640.0
 20
250.0
 30
0.0
  0
POINT
  5
367D
330
DDD
100
AcDbEntity
  8
Defpoints
 62
     0
100
AcDbPoint
 10
680.0
 20
250.0
 30
0.0
  0
ENDBLK
  5
DE8
330
DDD
100
AcDbEntity
  8
0
100
AcDbBlockEnd
  0
BLOCK
  5
DF4
330
DEA
100
AcDbEntity
  8
0
100
AcDbBlockBegin
  2
*D6
 70
     1
 10
0.0
 20
0.0
 30
0.0
  3
*D6
  1

  0
LINE
  5
DEB
330
DEA
100
AcDbEntity
  8
寸法線1
 62
     0
370
    -2
100
AcDbLine
 10
643.9999999999997
 20
279.9999999999999
 30
0.0
 11
685.0
 21
279.9999999999999
 31
0.0
  0
LINE
  5
DEC
330
DEA
100
AcDbEntity
  8
寸法線1
 62
     0
370
    -2
100
AcDbLine
 10
647.0
 20
557.0
 30
0.0
 11
685.0
 21
557.0
 31
0.0
  0
LINE
  5
DED
330
DEA
100
AcDbEntity
  8
寸法線1
 62
     0
370
    -2
100
AcDbLine
 10
680.0
 20
289.9999999999998
 30
0.0
 11
680.0
 21
547.0
 31
0.0
  0
INSERT
  5
DEE
330
DEA
100
AcDbEntity
  8
寸法線1
 62
     0
370
    -2
100
AcDbBlockReference
  2
_Open
 10
680.0
 20
279.9999999999999
 30
0.0
 41
10.0
 42
10.0
 43
10.0
 50
270.0
  0
INSERT
  5
DEF
330
DEA
100
AcDbEntity
  8
寸法線1
 62
     0
370
    -2
100
AcDbBlockReference
  2
_Open
 10
680.0
 20
557.0
 30
0.0
 41
10.0
 42
10.0
 43
10.0
 50
90.0
  0
MTEXT
  5
DF0
330
DEA
100
AcDbEntity
  8
寸法線1
 62
     0
100
AcDbMText
 10
669.9999999999999
 20
418.5
 30
0.0
 40
12.0
 41
0.0
 71
     5
 72
     1
  1
277
 11
0.0000000000000001
 21
1.0
 31
0.0
 73
     1
 44
1.0
1001
ACAD
1000
MTEXTBEGIN
1070
    73
1070
     1
1070
    44
1040
1.0
1070
    74
1070
     0
1000
MTEXTEND
  0
POINT
  5
DF1
330
DEA
100
AcDbEntity
  8
Defpoints
 62
     0
100
AcDbPoint
 10
639.9999999999997
 20
280.0
 30
0.0
  0
POINT
  5
DF2
330
DEA
100
AcDbEntity
  8
Defpoints
 62
     0
100
AcDbPoint
 10
643.0
 20
557.0
 30
0.0
  0
POINT
  5
DF3
330
DEA
100
AcDbEntity
  8
Defpoints
 62
     0
100
AcDbPoint
 10
680.0
 20
557.0
 30
0.0
  0
ENDBLK
  5
DF5
330
DEA
100
AcDbEntity
  8
0
100
AcDbBlockEnd
  0
BLOCK
  5
E12
330
E08
100
AcDbEntity
  8
0
100
AcDbBlockBegin
  2
*D7
 70
     1
 10
0.0
 20
0.0
 30
0.0
  3
*D7
  1

  0
LINE
  5
1CF9
330
E08
100
AcDbEntity
  8
寸法線1
 62
     0
370
    -2
100
AcDbLine
 10
875.8757612889091
 20
285.0
 30
0.0
 11
807.8757612889091
 21
285.0
 31
0.0
  0
LINE
  5
1CFA
330
E08
100
AcDbEntity
  8
寸法線1
 62
     0
370
    -2
100
AcDbLine
 10
875.8757612889091
 20
555.0
 30
0.0
 11
807.8757612889091
 21
555.0
 31
0.0
  0
LINE
  5
1CFB
330
E08
100
AcDbEntity
  8
寸法線1
 62
     0
370
    -2
100
AcDbLine
 10
812.8757612889092
 20
295.0
 30
0.0
 11
812.8757612889092
 21
545.0
 31
0.0
  0
INSERT
  5
1CFC
330
E08
100
AcDbEntity
  8
寸法線1
 62
     0
370
    -2
100
AcDbBlockReference
  2
_Open
 10
812.8757612889092
 20
285.0
 30
0.0
 41
10.0
 42
10.0
 43
10.0
 50
270.0
  0
INSERT
  5
1CFD
330
E08
100
AcDbEntity
  8
寸法線1
 62
     0
370
    -2
100
AcDbBlockReference
  2
_Open
 10
812.8757612889092
 20
555.0
 30
0.0
 41
10.0
 42
10.0
 43
10.0
 50
90.0
  0
MTEXT
  5
1CFE
330
E08
100
AcDbEntity
  8
寸法線1
 62
     0
100
AcDbMText
 10
802.8757612889091
 20
420.0000000000001
 30
0.0
 40
12.0
 41
0.0
 71
     5
 72
     1
  1
270
 11
0.0000000000000001
 21
1.0
 31
0.0
 73
     1
 44
1.0
  0
POINT
  5
1CFF
330
E08
100
AcDbEntity
  8
Defpoints
 62
     0
100
AcDbPoint
 10
879.8757612889092
 20
285.0
 30
0.0
  0
POINT
  5
1D00
330
E08
100
AcDbEntity
  8
Defpoints
 62
     0
100
AcDbPoint
 10
879.8757612889092
 20
555.0
 30
0.0
  0
POINT
  5
1D01
330
E08
100
AcDbEntity
  8
Defpoints
 62
     0
100
AcDbPoint
 10
812.8757612889092
 20
555.0
 30
0.0
  0
ENDBLK
  5
E13
330
E08
100
AcDbEntity
  8
0
100
AcDbBlockEnd
  0
BLOCK
  5
E22
330
E16
100
AcDbEntity
  8
0
100
AcDbBlockBegin
  2
*D8
 70
     1
 10
0.0
 20
0.0
 30
0.0
  3
*D8
  1

  0
LINE
  5
1D02
330
E16
100
AcDbEntity
  8
寸法線1
 62
     0
370
    -2
100
AcDbLine
 10
879.8757612889092
 20
559.0
 30
0.0
 11
879.8757612889092
 21
602.0
 31
0.0
  0
LINE
  5
1D03
330
E16
100
AcDbEntity
  8
寸法線1
 62
     0
370
    -2
100
AcDbLine
 10
852.8757612889091
 20
468.7903692875859
 30
0.0
 11
852.8757612889091
 21
602.0
 31
0.0
  0
LINE
  5
1D04
330
E16
100
AcDbEntity
  8
寸法線1
 62
     0
370
    -2
100
AcDbLine
 10
889.8757612889093
 20
597.0
 30
0.0
 11
899.8757612889091
 21
597.0
 31
0.0
  0
LINE
  5
1D05
330
E16
100
AcDbEntity
  8
寸法線1
 62
     0
370
    -2
100
AcDbLine
 10
842.8757612889091
 20
597.0
 30
0.0
 11
804.8757612889092
 21
597.0
 31
0.0
  0
LINE
  5
1D06
330
E16
100
AcDbEntity
  8
寸法線1
 62
     0
370
    -2
100
AcDbLine
 10
879.8757612889092
 20
597.0
 30
0.0
 11
852.8757612889091
 21
597.0
 31
0.0
  0
INSERT
  5
1D07
330
E16
100
AcDbEntity
  8
寸法線1
 62
     0
370
    -2
100
AcDbBlockReference
  2
_Open
 10
879.8757612889092
 20
597.0
 30
0.0
 41
10.0
 42
10.0
 43
10.0
 50
180.0
  0
INSERT
  5
1D08
330
E16
100
AcDbEntity
  8
寸法線1
 62
     0
370
    -2
100
AcDbBlockReference
  2
_Open
 10
852.8757612889091
 20
597.0
 30
0.0
 41
10.0
 42
10.0
 43
10.0
  0
MTEXT
  5
1D09
330
E16
100
AcDbEntity
  8
寸法線1
 62
     0
100
AcDbMText
 10
818.8757612889091
 20
607.0
 30
0.0
 40
12.0
 41
0.0
 71
     5
 72
     1
  1
27
 73
     1
 44
1.0
  0
POINT
  5
1D0A
330
E16
100
AcDbEntity
  8
Defpoints
 62
     0
100
AcDbPoint
 10
879.8757612889092
 20
555.0
 30
0.0
  0
POINT
  5
1D0B
330
E16
100
AcDbEntity
  8
Defpoints
 62
     0
100
AcDbPoint
 10
852.8757612889091
 20
464.7903692875859
 30
0.0
  0
POINT
  5
1D0C
330
E16
100
AcDbEntity
  8
Defpoints
 62
     0
100
AcDbPoint
 10
852.8757612889091
 20
597.0
 30
0.0
  0
ENDBLK
  5
E23
330
E16
100
AcDbEntity
  8
0
100
AcDbBlockEnd
  0
BLOCK
  5
E35
330
E2B
100
AcDbEntity
  8
0
100
AcDbBlockBegin
  2
*D9
 70
     1
 10
0.0
 20
0.0
 30
0.0
  3
*D9
  1

  0
LINE
  5
1D70
330
E2B
100
AcDbEntity
  8
寸法線1
 62
     0
370
    -2
100
AcDbLine
 10
879.8757612889092
 20
559.0
 30
0.0
 11
879.8757612889092
 21
602.0
 31
0.0
  0
LINE
  5
1D71
330
E2B
100
AcDbEntity
  8
寸法線1
 62
     0
370
    -2
100
AcDbLine
 10
1235.8737988832
 20
561.0
 30
0.0
 11
1235.8737988832
 21
602.0
 31
0.0
  0
LINE
  5
1D72
330
E2B
100
AcDbEntity
  8
寸法線1
 62
     0
370
    -2
100
AcDbLine
 10
889.8757612889093
 20
597.0
 30
0.0
 11
1225.8737988832
 21
597.0
 31
0.0
  0
INSERT
  5
1D73
330
E2B
100
AcDbEntity
  8
寸法線1
 62
     0
370
    -2
100
AcDbBlockReference
  2
_Open
 10
879.8757612889092
 20
597.0
 30
0.0
 41
10.0
 42
10.0
 43
10.0
 50
180.0
  0
INSERT
  5
1D74
330
E2B
100
AcDbEntity
  8
寸法線1
 62
     0
370
    -2
100
AcDbBlockReference
  2
_Open
 10
1235.8737988832
 20
597.0
 30
0.0
 41
10.0
 42
10.0
 43
10.0
  0
MTEXT
  5
1D75
330
E2B
100
AcDbEntity
  8
寸法線1
 62
     0
100
AcDbMText
 10
1057.874780086054
 20
607.0
 30
0.0
 40
12.0
 41
0.0
 71
     5
 72
     1
  1
357
 73
     1
 44
1.0
  0
POINT
  5
1D76
330
E2B
100
AcDbEntity
  8
Defpoints
 62
     0
100
AcDbPoint
 10
879.8757612889092
 20
555.0
 30
0.0
  0
POINT
  5
1D77
330
E2B
100
AcDbEntity
  8
Defpoints
 62
     0
100
AcDbPoint
 10
1235.8737988832
 20
557.0
 30
0.0
  0
POINT
  5
1D78
330
E2B
100
AcDbEntity
  8
Defpoints
 62
     0
100
AcDbPoint
 10
1235.8737988832
 20
597.0
 30
0.0
  0
ENDBLK
  5
E36
330
E2B
100
AcDbEntity
  8
0
100
AcDbBlockEnd
  0
BLOCK
  5
E42
330
E38
100
AcDbEntity
  8
0
100
AcDbBlockBegin
  2
*D10
 70
     1
 10
0.0
 20
0.0
 30
0.0
  3
*D10
  1

  0
LINE
  5
30CC
330
E38
100
AcDbEntity
  8
寸法線1
 62
     0
370
    -2
100
AcDbLine
 10
200.0
 20
276.0
 30
0.0
 11
200.0
 21
214.6580134962551
 31
0.0
  0
LINE
  5
30CD
330
E38
100
AcDbEntity
  8
寸法線1
 62
     0
370
    -2
100
AcDbLine
 10
640.0
 20
276.0
 30
0.0
 11
640.0
 21
214.6580134962551
 31
0.0
  0
LINE
  5
30CE
330
E38
100
AcDbEntity
  8
寸法線1
 62
     0
370
    -2
100
AcDbLine
 10
210.0
 20
219.658013496255
 30
0.0
 11
630.0
 21
219.658013496255
 31
0.0
  0
INSERT
  5
30CF
330
E38
100
AcDbEntity
  8
寸法線1
 62
     0
370
    -2
100
AcDbBlockReference
  2
_Open
 10
200.0
 20
219.658013496255
 30
0.0
 41
10.0
 42
10.0
 43
10.0
 50
180.0
  0
INSERT
  5
30D0
330
E38
100
AcDbEntity
  8
寸法線1
 62
     0
370
    -2
100
AcDbBlockReference
  2
_Open
 10
640.0
 20
219.658013496255
 30
0.0
 41
10.0
 42
10.0
 43
10.0
  0
MTEXT
  5
30D1
330
E38
100
AcDbEntity
  8
寸法線1
 62
     0
100
AcDbMText
 10
420.0
 20
229.658013496255
 30
0.0
 40
12.0
 41
0.0
 71
     5
 72
     1
  1
440
 73
     1
 44
1.0
  0
POINT
  5
30D2
330
E38
100
AcDbEntity
  8
Defpoints
 62
     0
100
AcDbPoint
 10
200.0
 20
280.0
 30
0.0
  0
POINT
  5
30D3
330
E38
100
AcDbEntity
  8
Defpoints
 62
     0
100
AcDbPoint
 10
640.0
 20
280.0
 30
0.0
  0
POINT
  5
30D4
330
E38
100
AcDbEntity
  8
Defpoints
 62
     0
100
AcDbPoint
 10
640.0
 20
219.658013496255
 30
0.0
  0
ENDBLK
  5
E43
330
E38
100
AcDbEntity
  8
0
100
AcDbBlockEnd
  0
BLOCK
  5
E50
330
E46
100
AcDbEntity
  8
0
100
AcDbBlockBegin
  2
*D11
 70
     1
 10
0.0
 20
0.0
 30
0.0
  3
*D11
  1

  0
LINE
  5
1D65
330
E46
100
AcDbEntity
  8
寸法線1
 62
     0
370
    -2
100
AcDbLine
 10
915.8737988831996
 20
338.5
 30
0.0
 11
915.8737988831996
 21
330.13327154943
 31
0.0
  0
LINE
  5
1D66
330
E46
100
AcDbEntity
  8
寸法線1
 62
     0
370
    -2
100
AcDbLine
 10
1170.873798883198
 20
339.13327154943
 30
0.0
 11
1170.873798883198
 21
340.1332715494298
 31
0.0
  0
LINE
  5
1D67
330
E46
100
AcDbEntity
  8
寸法線1
 62
     0
370
    -2
100
AcDbLine
 10
925.8737988831995
 20
335.13327154943
 30
0.0
 11
1160.873798883198
 21
335.13327154943
 31
0.0
  0
INSERT
  5
1D68
330
E46
100
AcDbEntity
  8
寸法線1
 62
     0
370
    -2
100
AcDbBlockReference
  2
_Open
 10
915.8737988831996
 20
335.13327154943
 30
0.0
 41
10.0
 42
10.0
 43
10.0
 50
180.0
  0
INSERT
  5
1D69
330
E46
100
AcDbEntity
  8
寸法線1
 62
     0
370
    -2
100
AcDbBlockReference
  2
_Open
 10
1170.873798883198
 20
335.13327154943
 30
0.0
 41
10.0
 42
10.0
 43
10.0
  0
MTEXT
  5
1D6A
330
E46
100
AcDbEntity
  8
寸法線1
 62
     0
100
AcDbMText
 10
1043.3737988832
 20
345.13327154943
 30
0.0
 40
12.0
 41
0.0
 71
     5
 72
     1
  1
255
 73
     1
 44
1.0
  0
POINT
  5
1D6B
330
E46
100
AcDbEntity
  8
Defpoints
 62
     0
100
AcDbPoint
 10
915.8737988831996
 20
342.5
 30
0.0
  0
POINT
  5
1D6C
330
E46
100
AcDbEntity
  8
Defpoints
 62
     0
100
AcDbPoint
 10
1170.873798883198
 20
335.13327154943
 30
0.0
  0
POINT
  5
1D6D
330
E46
100
AcDbEntity
  8
Defpoints
 62
     0
100
AcDbPoint
 10
1170.873798883198
 20
335.13327154943
 30
0.0
  0
ENDBLK
  5
E51
330
E46
100
AcDbEntity
  8
0
100
AcDbBlockEnd
  0
BLOCK
  5
E67
330
E5D
100
AcDbEntity
  8
0
100
AcDbBlockBegin
  2
*D12
 70
     1
 10
0.0
 20
0.0
 30
0.0
  3
*D12
  1

  0
LINE
  5
1D5B
330
E5D
100
AcDbEntity
  8
寸法線1
 62
     0
370
    -2
100
AcDbLine
 10
239.9999999999999
 20
338.5
 30
0.0
 11
239.9999999999999
 21
330.13327154943
 31
0.0
  0
LINE
  5
1D5C
330
E5D
100
AcDbEntity
  8
寸法線1
 62
     0
370
    -2
100
AcDbLine
 10
599.9999999999999
 20
338.5
 30
0.0
 11
599.9999999999999
 21
330.13327154943
 31
0.0
  0
LINE
  5
1D5D
330
E5D
100
AcDbEntity
  8
寸法線1
 62
     0
370
    -2
100
AcDbLine
 10
249.9999999999999
 20
335.13327154943
 30
0.0
 11
589.9999999999997
 21
335.13327154943
 31
0.0
  0
INSERT
  5
1D5E
330
E5D
100
AcDbEntity
  8
寸法線1
 62
     0
370
    -2
100
AcDbBlockReference
  2
_Open
 10
239.9999999999999
 20
335.13327154943
 30
0.0
 41
10.0
 42
10.0
 43
10.0
 50
180.0
  0
INSERT
  5
1D5F
330
E5D
100
AcDbEntity
  8
寸法線1
 62
     0
370
    -2
100
AcDbBlockReference
  2
_Open
 10
599.9999999999999
 20
335.13327154943
 30
0.0
 41
10.0
 42
10.0
 43
10.0
  0
MTEXT
  5
1D60
330
E5D
100
AcDbEntity
  8
寸法線1
 62
     0
100
AcDbMText
 10
419.9999999999998
 20
345.13327154943
 30
0.0
 40
12.0
 41
0.0
 71
     5
 72
     1
  1
360
 73
     1
 44
1.0
  0
POINT
  5
1D61
330
E5D
100
AcDbEntity
  8
Defpoints
 62
     0
100
AcDbPoint
 10
239.9999999999999
 20
342.5
 30
0.0
  0
POINT
  5
1D62
330
E5D
100
AcDbEntity
  8
Defpoints
 62
     0
100
AcDbPoint
 10
599.9999999999999
 20
342.5
 30
0.0
  0
POINT
  5
1D63
330
E5D
100
AcDbEntity
  8
Defpoints
 62
     0
100
AcDbPoint
 10
599.9999999999999
 20
335.13327154943
 30
0.0
  0
ENDBLK
  5
E68
330
E5D
100
AcDbEntity
  8
0
100
AcDbBlockEnd
  0
BLOCK
  5
E7D
330
E73
100
AcDbEntity
  8
0
100
AcDbBlockBegin
  2
*D13
 70
     1
 10
0.0
 20
0.0
 30
0.0
  3
*D13
  1

  0
LINE
  5
E74
330
E73
100
AcDbEntity
  8
寸法線1
 62
     0
370
    -2
100
AcDbLine
 10
551.418360609855
 20
317.5
 30
0.0
 11
550.4183606098548
 21
317.5
 31
0.0
  0
LINE
  5
E75
330
E73
100
AcDbEntity
  8
寸法線1
 62
     0
370
    -2
100
AcDbLine
 10
551.418360609855
 20
522.5
 30
0.0
 11
550.4183606098548
 21
522.5
 31
0.0
  0
LINE
  5
E76
330
E73
100
AcDbEntity
  8
寸法線1
 62
     0
370
    -2
100
AcDbLine
 10
555.418360609855
 20
327.4999999999999
 30
0.0
 11
555.418360609855
 21
512.5
 31
0.0
  0
INSERT
  5
E77
330
E73
100
AcDbEntity
  8
寸法線1
 62
     0
370
    -2
100
AcDbBlockReference
  2
_Open
 10
555.418360609855
 20
317.5
 30
0.0
 41
10.0
 42
10.0
 43
10.0
 50
270.0
  0
INSERT
  5
E78
330
E73
100
AcDbEntity
  8
寸法線1
 62
     0
370
    -2
100
AcDbBlockReference
  2
_Open
 10
555.418360609855
 20
522.5
 30
0.0
 41
10.0
 42
10.0
 43
10.0
 50
90.0
  0
MTEXT
  5
E79
330
E73
100
AcDbEntity
  8
寸法線1
 62
     0
100
AcDbMText
 10
545.4183606098548
 20
420.0000000000001
 30
0.0
 40
12.0
 41
0.0
 71
     5
 72
     1
  1
205
 11
0.0000000000000001
 21
1.0
 31
0.0
 73
     1
 44
1.0
1001
ACAD
1000
MTEXTBEGIN
1070
    73
1070
     1
1070
    44
1040
1.0
1070
    74
1070
     0
1000
MTEXTEND
  0
POINT
  5
E7A
330
E73
100
AcDbEntity
  8
Defpoints
 62
     0
100
AcDbPoint
 10
555.418360609855
 20
317.5
 30
0.0
  0
POINT
  5
E7B
330
E73
100
AcDbEntity
  8
Defpoints
 62
     0
100
AcDbPoint
 10
555.418360609855
 20
522.5
 30
0.0
  0
POINT
  5
E7C
330
E73
100
AcDbEntity
  8
Defpoints
 62
     0
100
AcDbPoint
 10
555.418360609855
 20
522.5
 30
0.0
  0
ENDBLK
  5
E7E
330
E73
100
AcDbEntity
  8
0
100
AcDbBlockEnd
  0
BLOCK
  5
1E11
330
1DB0
100
AcDbEntity
  8
0
100
AcDbBlockBegin
  2
Ａ－３　アンナカ用紙
 70
     0
 10
0.0
 20
0.0
 30
0.0
  3
Ａ－３　アンナカ用紙
  1

  0
LINE
  5
1DB1
330
1DB0
100
AcDbEntity
  8
0
370
    40
100
AcDbLine
 10
409.9999999999999
 20
10.0
 30
0.0
 11
409.9999999999999
 21
38.0
 31
0.0
  0
LINE
  5
1DB2
330
1DB0
100
AcDbEntity
  8
0
370
    60
100
AcDbLine
 10
409.9999999999999
 20
287.0
 30
0.0
 11
24.99999999999994
 21
287.0
 31
0.0
  0
LINE
  5
1DB3
330
1DB0
100
AcDbEntity
  8
0
370
    40
100
AcDbLine
 10
229.9999999999999
 20
10.0
 30
0.0
 11
409.9999999999999
 21
10.0
 31
0.0
  0
LINE
  5
1DB4
330
1DB0
100
AcDbEntity
  8
0
370
    60
100
AcDbLine
 10
24.99999999999994
 20
287.0
 30
0.0
 11
25.0
 21
10.0
 31
0.0
  0
LINE
  5
1DB5
330
1DB0
100
AcDbEntity
  8
0
370
    40
100
AcDbLine
 10
304.9999999999999
 20
22.0
 30
0.0
 11
409.9999999999999
 21
22.0
 31
0.0
  0
LINE
  5
1DB6
330
1DB0
100
AcDbEntity
  8
0
370
    40
100
AcDbLine
 10
304.9999999999999
 20
30.0
 30
0.0
 11
409.9999999999999
 21
30.0
 31
0.0
  0
LINE
  5
1DB7
330
1DB0
100
AcDbEntity
  8
0
370
    40
100
AcDbLine
 10
229.9999999999999
 20
38.0
 30
0.0
 11
409.9999999999999
 21
38.0
 31
0.0
  0
LINE
  5
1DB8
330
1DB0
100
AcDbEntity
  8
0
370
    40
100
AcDbLine
 10
304.9999999999999
 20
10.0
 30
0.0
 11
304.9999999999999
 21
38.0
 31
0.0
  0
LINE
  5
1DB9
330
1DB0
100
AcDbEntity
  8
0
370
    40
100
AcDbLine
 10
229.9999999999999
 20
10.0
 30
0.0
 11
229.9999999999999
 21
38.0
 31
0.0
  0
LINE
  5
1DBA
330
1DB0
100
AcDbEntity
  8
0
370
    40
100
AcDbLine
 10
328.9999999999999
 20
30.0
 30
0.0
 11
328.9999999999999
 21
38.0
 31
0.0
  0
LINE
  5
1DBB
330
1DB0
100
AcDbEntity
  8
0
370
    15
100
AcDbLine
 10
336.9999999999999
 20
30.0
 30
0.0
 11
336.9999999999999
 21
38.0
 31
0.0
  0
LINE
  5
1DBC
330
1DB0
100
AcDbEntity
  8
0
370
    40
100
AcDbLine
 10
344.9999999999999
 20
30.0
 30
0.0
 11
344.9999999999999
 21
38.0
 31
0.0
  0
LINE
  5
1DBD
330
1DB0
100
AcDbEntity
  8
0
370
    15
100
AcDbLine
 10
352.9999999999999
 20
30.0
 30
0.0
 11
352.9999999999999
 21
38.0
 31
0.0
  0
LINE
  5
1DBE
330
1DB0
100
AcDbEntity
  8
0
370
    40
100
AcDbLine
 10
367.9999999999999
 20
30.0
 30
0.0
 11
367.9999999999999
 21
38.0
 31
0.0
  0
LINE
  5
1DBF
330
1DB0
100
AcDbEntity
  8
0
370
    15
100
AcDbLine
 10
375.9999999999999
 20
30.0
 30
0.0
 11
375.9999999999999
 21
38.0
 31
0.0
  0
LINE
  5
1DC0
330
1DB0
100
AcDbEntity
  8
0
370
    40
100
AcDbLine
 10
393.9999999999999
 20
30.0
 30
0.0
 11
393.9999999999999
 21
38.0
 31
0.0
  0
LINE
  5
1DC1
330
1DB0
100
AcDbEntity
  8
0
370
    15
100
AcDbLine
 10
401.9999999999999
 20
30.0
 30
0.0
 11
401.9999999999999
 21
38.0
 31
0.0
  0
LINE
  5
1DC2
330
1DB0
100
AcDbEntity
  8
0
370
    40
100
AcDbLine
 10
362.9999999999999
 20
10.0
 30
0.0
 11
362.9999999999999
 21
30.0
 31
0.0
  0
LINE
  5
1DC3
330
1DB0
100
AcDbEntity
  8
0
100
AcDbLine
 10
304.9999999999999
 20
30.0
 30
0.0
 11
230.0
 21
30.00000000000005
 31
0.0
  0
LINE
  5
1DC4
330
1DB0
100
AcDbEntity
  8
0
100
AcDbLine
 10
304.9999999999999
 20
34.0
 30
0.0
 11
230.0
 21
34.00000000000005
 31
0.0
  0
LINE
  5
1DC5
330
1DB0
100
AcDbEntity
  8
0
100
AcDbLine
 10
304.9999999999999
 20
26.0
 30
0.0
 11
229.9999999999999
 21
26.00000000000005
 31
0.0
  0
LINE
  5
1DC6
330
1DB0
100
AcDbEntity
  8
0
100
AcDbLine
 10
229.9999999999999
 20
14.0
 30
0.0
 11
304.9999999999999
 21
14.0
 31
0.0
  0
LINE
  5
1DC7
330
1DB0
100
AcDbEntity
  8
0
100
AcDbLine
 10
304.9999999999999
 20
34.0
 30
0.0
 11
328.9999999999999
 21
34.0
 31
0.0
  0
LINE
  5
1DC8
330
1DB0
100
AcDbEntity
  8
0
370
    40
100
AcDbLine
 10
281.9999999999999
 20
10.0
 30
0.0
 11
281.9999999999999
 21
38.0
 31
0.0
  0
LINE
  5
1DC9
330
1DB0
100
AcDbEntity
  8
0
100
AcDbLine
 10
281.9999999999999
 20
18.0
 30
0.0
 11
304.9999999999999
 21
18.0
 31
0.0
  0
LINE
  5
1DCA
330
1DB0
100
AcDbEntity
  8
0
100
AcDbLine
 10
281.9999999999999
 20
22.0
 30
0.0
 11
304.9999999999999
 21
22.0
 31
0.0
  0
LINE
  5
1DCB
330
1DB0
100
AcDbEntity
  8
0
100
AcDbLine
 10
268.9999999999999
 20
10.0
 30
0.0
 11
268.9999999999999
 21
26.00000000000003
 31
0.0
  0
LINE
  5
1DCC
330
1DB0
100
AcDbEntity
  8
0
100
AcDbLine
 10
255.9999999999999
 20
10.0
 30
0.0
 11
255.9999999999999
 21
26.00000000000004
 31
0.0
  0
LINE
  5
1DCD
330
1DB0
100
AcDbEntity
  8
0
100
AcDbLine
 10
242.9999999999999
 20
10.0
 30
0.0
 11
242.9999999999999
 21
26.00000000000004
 31
0.0
  0
LINE
  5
1DCE
330
1DB0
100
AcDbEntity
  8
0
100
AcDbLine
 10
293.9999999999999
 20
10.0
 30
0.0
 11
294.0
 21
34.00000000000001
 31
0.0
  0
LINE
  5
1DCF
330
1DB0
100
AcDbEntity
  8
0
100
AcDbLine
 10
273.9999999999999
 20
26.00000000000002
 30
0.0
 11
273.9999999999999
 21
38.0
 31
0.0
  0
LINE
  5
1DD0
330
1DB0
100
AcDbEntity
  8
0
100
AcDbLine
 10
309.9999999999999
 20
22.0
 30
0.0
 11
309.9999999999999
 21
30.0
 31
0.0
  0
LINE
  5
1DD1
330
1DB0
100
AcDbEntity
  8
0
100
AcDbLine
 10
367.9999999999999
 20
10.0
 30
0.0
 11
367.9999999999999
 21
30.0
 31
0.0
  0
MTEXT
  5
1DD2
330
1DB0
100
AcDbEntity
  8
0
100
AcDbMText
 10
231.3237766005161
 20
29.2480664031666
 30
0.0
 40
2.5
 41
10.9292
 71
     1
 72
     5
  1
記号
 73
     1
 44
1.0
1001
ACAD
1000
MTEXTBEGIN
1070
    73
1070
     1
1070
    44
1040
1.0
1070
    74
1070
     0
1000
MTEXTEND
  0
MTEXT
  5
1DD3
330
1DB0
100
AcDbEntity
  8
0
100
AcDbMText
 10
239.9664659250005
 20
29.24806571161741
 30
0.0
 40
2.5
 41
9.8658
 71
     1
 72
     5
  1
日　付
 73
     1
 44
1.0
1001
ACAD
1000
MTEXTBEGIN
1070
    73
1070
     1
1070
    44
1040
1.0
1070
    74
1070
     0
1000
MTEXTEND
  0
MTEXT
  5
1DD4
330
1DB0
100
AcDbEntity
  8
0
100
AcDbMText
 10
256.5079356953286
 20
29.24806709471579
 30
0.0
 40
2.5
 41
16.4233
 71
     1
 72
     5
  1
訂　　正
 73
     1
 44
1.0
1001
ACAD
1000
MTEXTBEGIN
1070
    73
1070
     1
1070
    44
1040
1.0
1070
    74
1070
     0
1000
MTEXTEND
  0
MTEXT
  5
1DD5
330
1DB0
100
AcDbEntity
  8
0
100
AcDbMText
 10
275.3533972540202
 20
29.30711986558481
 30
0.0
 40
2.5
 41
10.6929
 71
     1
 72
     5
  1
担当
 73
     1
 44
1.0
1001
ACAD
1000
MTEXTBEGIN
1070
    73
1070
     1
1070
    44
1040
1.0
1070
    74
1070
     0
1000
MTEXTEND
  0
LINE
  5
1DD6
330
1DB0
100
AcDbEntity
  8
0
100
AcDbLine
 10
238.0
 20
26.00000000000004
 30
0.0
 11
237.9999999999999
 21
38.0
 31
0.0
  0
LINE
  5
1DD7
330
1DB0
100
AcDbEntity
  8
0
100
AcDbLine
 10
250.0
 20
26.00000000000004
 30
0.0
 11
249.9999999999999
 21
38.0
 31
0.0
  0
LINE
  5
1DD8
330
1DB0
100
AcDbEntity
  8
0
100
AcDbLine
 10
231.9999999999999
 20
34.00000000000005
 30
0.0
 11
235.9999999999999
 21
34.00000000000005
 31
0.0
  0
MTEXT
  5
1DD9
330
1DB0
100
AcDbEntity
  8
0
100
AcDbMText
 10
232.1683446627442
 20
13.36253702110434
 30
0.0
 40
2.5
 41
15.3009
 71
     1
 72
     5
  1
設　計
 73
     1
 44
1.0
1001
ACAD
1000
MTEXTBEGIN
1070
    73
1070
     1
1070
    44
1040
1.0
1070
    74
1070
     0
1000
MTEXTEND
  0
MTEXT
  5
1DDA
330
1DB0
100
AcDbEntity
  8
0
100
AcDbMText
 10
245.2242900941809
 20
13.2444294047184
 30
0.0
 40
2.5
 41
13.2332
 71
     1
 72
     5
  1
製　図
 73
     1
 44
1.0
1001
ACAD
1000
MTEXTBEGIN
1070
    73
1070
     1
1070
    44
1040
1.0
1070
    74
1070
     0
1000
MTEXTEND
  0
MTEXT
  5
1DDB
330
1DB0
100
AcDbEntity
  8
0
100
AcDbMText
 10
258.2802355256168
 20
13.24442871316921
 30
0.0
 40
2.5
 41
12.2289
 71
     1
 72
     5
  1
検　図
 73
     1
 44
1.0
1001
ACAD
1000
MTEXTBEGIN
1070
    73
1070
     1
1070
    44
1040
1.0
1070
    74
1070
     0
1000
MTEXTEND
  0
MTEXT
  5
1DDC
330
1DB0
100
AcDbEntity
  8
0
100
AcDbMText
 10
271.2180283046965
 20
13.24442871316921
 30
0.0
 40
2.5
 41
8.5661
 71
     1
 72
     5
  1
承　認
 73
     1
 44
1.0
1001
ACAD
1000
MTEXTBEGIN
1070
    73
1070
     1
1070
    44
1040
1.0
1070
    74
1070
     0
1000
MTEXTEND
  0
LINE
  5
1DDD
330
1DB0
100
AcDbEntity
  8
0
370
    60
100
AcDbLine
 10
409.9999999999999
 20
10.0
 30
0.0
 11
409.9999999999999
 21
287.0
 31
0.0
  0
LINE
  5
1DDE
330
1DB0
100
AcDbEntity
  8
0
370
    60
100
AcDbLine
 10
25.0
 20
10.0
 30
0.0
 11
409.9999999999999
 21
10.0
 31
0.0
  0
MTEXT
  5
1DDF
330
1DB0
100
AcDbEntity
  8
0
100
AcDbMText
 10
286.8057466895101
 20
37.28748650804993
 30
0.0
 40
2.5
 41
21.2646
 71
     1
 72
     5
  1
寸 法 差
 73
     1
 44
1.0
1001
ACAD
1000
MTEXTBEGIN
1070
    73
1070
     1
1070
    44
1040
1.0
1070
    74
1070
     0
1000
MTEXTEND
  0
TEXT
  5
1DE0
330
1DB0
100
AcDbEntity
  8
0
100
AcDbText
 10
294.5342705509705
 20
30.5835318381587
 30
0.0
 40
2.5
  1
±
100
AcDbText
  0
TEXT
  5
1DE1
330
1DB0
100
AcDbEntity
  8
0
100
AcDbText
 10
297.0342705509705
 20
30.5835318381587
 30
0.0
 40
2.5
  1
0.05
100
AcDbText
  0
TEXT
  5
1DE2
330
1DB0
100
AcDbEntity
  8
0
100
AcDbText
 10
292.5686336695338
 20
26.86342893006538
 30
0.0
 40
2.5
  1
　 0.1
100
AcDbText
  0
TEXT
  5
1DE3
330
1DB0
100
AcDbEntity
  8
0
100
AcDbText
 10
292.3899411426205
 20
22.69676226339872
 30
0.0
 40
2.5
  1
　 0.15
100
AcDbText
  0
TEXT
  5
1DE4
330
1DB0
100
AcDbEntity
  8
0
100
AcDbText
 10
292.4792879083246
 20
18.61940848675658
 30
0.0
 40
2.5
  1
　 0.2
100
AcDbText
  0
TEXT
  5
1DE5
330
1DB0
100
AcDbEntity
  8
0
100
AcDbText
 10
292.5686346740281
 20
14.72068049016351
 30
0.0
 40
2.5
  1
　 0.3
100
AcDbText
  0
TEXT
  5
1DE6
330
1DB0
100
AcDbEntity
  8
0
100
AcDbText
 10
292.4792879083246
 20
10.7326389119966
 30
0.0
 40
2.5
  1
　 0.5
100
AcDbText
  0
TEXT
  5
1DE7
330
1DB0
100
AcDbEntity
  8
0
100
AcDbText
 10
288.9947509874531
 20
30.76215761820765
 30
0.0
 40
2.5
  1
0～
100
AcDbText
  0
TEXT
  5
1DE8
330
1DB0
100
AcDbEntity
  8
0
100
AcDbText
 10
288.6373629201438
 20
26.68480315001632
 30
0.0
 40
2.5
  1
6～
100
AcDbText
  0
TEXT
  5
1DE9
330
1DB0
100
AcDbEntity
  8
0
100
AcDbText
 10
286.4930325072999
 20
22.78607515342325
 30
0.0
 40
2.5
  1
30～
100
AcDbText
  0
TEXT
  5
1DEA
330
1DB0
100
AcDbEntity
  8
0
100
AcDbText
 10
284.9741314633705
 20
18.79803426680553
 30
0.0
 40
2.5
  1
120～
100
AcDbText
  0
TEXT
  5
1DEB
330
1DB0
100
AcDbEntity
  8
0
100
AcDbText
 10
284.2593543242577
 20
14.7206797986142
 30
0.0
 40
2.5
  1
315～
100
AcDbText
  0
TEXT
  5
1DEC
330
1DB0
100
AcDbEntity
  8
0
100
AcDbText
 10
283.1871901223302
 20
10.64332602197207
 30
0.0
 40
2.5
  1
1000～
100
AcDbText
  0
LINE
  5
1DED
330
1DB0
100
AcDbEntity
  8
0
100
AcDbLine
 10
310.3995670880194
 20
37.12761554280757
 30
0.0
 11
311.5995670880193
 21
34.62761554280757
 31
0.0
  0
LINE
  5
1DEE
330
1DB0
100
AcDbEntity
  8
0
100
AcDbLine
 10
311.5995670880193
 20
34.62761554280757
 30
0.0
 11
312.7995670880193
 21
37.12761554280757
 31
0.0
  0
LINE
  5
1DEF
330
1DB0
100
AcDbEntity
  8
0
100
AcDbLine
 10
312.7995670880193
 20
37.12761554280757
 30
0.0
 11
310.3995670880194
 21
37.12761554280757
 31
0.0
  0
LINE
  5
1DF0
330
1DB0
100
AcDbEntity
  8
0
100
AcDbLine
 10
315.6201866121019
 20
34.62761554280757
 30
0.0
 11
316.8201866121019
 21
37.12761554280757
 31
0.0
  0
LINE
  5
1DF1
330
1DB0
100
AcDbEntity
  8
0
100
AcDbLine
 10
314.420186612102
 20
37.12761554280757
 30
0.0
 11
315.6201866121019
 21
34.62761554280757
 31
0.0
  0
LINE
  5
1DF2
330
1DB0
100
AcDbEntity
  8
0
100
AcDbLine
 10
316.8201866121019
 20
37.12761554280757
 30
0.0
 11
314.420186612102
 21
37.12761554280757
 31
0.0
  0
LINE
  5
1DF3
330
1DB0
100
AcDbEntity
  8
0
100
AcDbLine
 10
318.0201866121019
 20
34.62761554280757
 30
0.0
 11
319.2201866121019
 21
37.12761554280757
 31
0.0
  0
LINE
  5
1DF4
330
1DB0
100
AcDbEntity
  8
0
100
AcDbLine
 10
316.8201866121019
 20
37.12761554280757
 30
0.0
 11
318.0201866121019
 21
34.62761554280757
 31
0.0
  0
LINE
  5
1DF5
330
1DB0
100
AcDbEntity
  8
0
100
AcDbLine
 10
319.2201866121019
 20
37.12761554280757
 30
0.0
 11
316.8201866121019
 21
37.12761554280757
 31
0.0
  0
LINE
  5
1DF6
330
1DB0
100
AcDbEntity
  8
0
100
AcDbLine
 10
323.0236245769026
 20
37.12761554280757
 30
0.0
 11
324.2236245769026
 21
34.62761554280757
 31
0.0
  0
LINE
  5
1DF7
330
1DB0
100
AcDbEntity
  8
0
100
AcDbLine
 10
324.2236245769026
 20
34.62761554280757
 30
0.0
 11
325.4236245769026
 21
37.12761554280757
 31
0.0
  0
LINE
  5
1DF8
330
1DB0
100
AcDbEntity
  8
0
100
AcDbLine
 10
320.6236245769026
 20
37.12761554280757
 30
0.0
 11
321.8236245769026
 21
34.62761554280757
 31
0.0
  0
LINE
  5
1DF9
330
1DB0
100
AcDbEntity
  8
0
100
AcDbLine
 10
321.8236245769026
 20
34.62761554280757
 30
0.0
 11
323.0236245769026
 21
37.12761554280757
 31
0.0
  0
LINE
  5
1DFA
330
1DB0
100
AcDbEntity
  8
0
100
AcDbLine
 10
323.0236245769026
 20
37.12761554280757
 30
0.0
 11
320.6236245769026
 21
37.12761554280757
 31
0.0
  0
LINE
  5
1DFB
330
1DB0
100
AcDbEntity
  8
0
100
AcDbLine
 10
325.4236245769026
 20
37.12761554280757
 30
0.0
 11
323.0236245769026
 21
37.12761554280757
 31
0.0
  0
LINE
  5
1DFC
330
1DB0
100
AcDbEntity
  8
0
100
AcDbLine
 10
326.6236245769026
 20
34.62761554280757
 30
0.0
 11
327.8236245769026
 21
37.12761554280757
 31
0.0
  0
LINE
  5
1DFD
330
1DB0
100
AcDbEntity
  8
0
100
AcDbLine
 10
325.4236245769026
 20
37.12761554280757
 30
0.0
 11
326.6236245769026
 21
34.62761554280757
 31
0.0
  0
LINE
  5
1DFE
330
1DB0
100
AcDbEntity
  8
0
100
AcDbLine
 10
327.8236245769026
 20
37.12761554280757
 30
0.0
 11
325.4236245769026
 21
37.12761554280757
 31
0.0
  0
MTEXT
  5
1DFF
330
1DB0
100
AcDbEntity
  8
0
100
AcDbMText
 10
306.4174345873165
 20
37.12761623435687
 30
0.0
 40
2.5
 41
5.450199999999999
 71
     1
 72
     5
  1
～
 73
     1
 44
1.0
1001
ACAD
1000
MTEXTBEGIN
1070
    73
1070
     1
1070
    44
1040
1.0
1070
    74
1070
     0
1000
MTEXTEND
  0
MTEXT
  5
1E00
330
1DB0
100
AcDbEntity
  8
0
100
AcDbMText
 10
311.6889138537229
 20
33.10853964099931
 30
0.0
 40
2.5
 41
37.4364
 71
     1
 72
     5
  1
仕　　上
 73
     1
 44
1.0
1001
ACAD
1000
MTEXTBEGIN
1070
    73
1070
     1
1070
    44
1040
1.0
1070
    74
1070
     0
1000
MTEXTEND
  0
MTEXT
  5
1E01
330
1DB0
100
AcDbEntity
  8
0
100
AcDbMText
 10
306.4174345873165
 20
29.26808813614161
 30
0.0
 40
2.5
 41
6.5223
 71
     1
 72
     5
  1
品\P名
 73
     1
 44
1.0
1001
ACAD
1000
MTEXTBEGIN
1070
    73
1070
     1
1070
    44
1040
1.0
1070
    74
1070
     0
1000
MTEXTEND
  0
MTEXT
  5
1E02
330
1DB0
100
AcDbEntity
  8
0
100
AcDbMText
 10
364.3058466618232
 20
19.26505206043634
 30
0.0
 40
2.5
 41
4.1993
 71
     1
 72
     5
  1
図\P番
 73
     1
 44
1.0
1001
ACAD
1000
MTEXTBEGIN
1070
    73
1070
     1
1070
    44
1040
1.0
1070
    74
1070
     0
1000
MTEXTEND
  0
MTEXT
  5
1E03
330
1DB0
100
AcDbEntity
  8
0
100
AcDbMText
 10
330.4673263719777
 20
39.36043710187152
 30
0.0
 40
2.5
 41
11.79379999999999
 71
     1
 72
     5
  1
\P尺度
 73
     1
 44
1.0
1001
ACAD
1000
MTEXTBEGIN
1070
    73
1070
     1
1070
    44
1040
1.0
1070
    74
1070
     0
1000
MTEXTEND
  0
LINE
  5
1E04
330
1DB0
100
AcDbEntity
  8
0
100
AcDbLine
 10
343.9999999999999
 20
37.0
 30
0.0
 11
337.9999999999999
 21
31.0
 31
0.0
  0
MTEXT
  5
1E05
330
1DB0
100
AcDbEntity
  8
0
100
AcDbMText
 10
346.3533324320559
 20
35.34135981696477
 30
0.0
 40
2.5
 41
8.934699999999999
 71
     1
 72
     5
  1
材質
 73
     1
 44
1.0
1001
ACAD
1000
MTEXTBEGIN
1070
    73
1070
     1
1070
    44
1040
1.0
1070
    74
1070
     0
1000
MTEXTEND
  0
MTEXT
  5
1E06
330
1DB0
100
AcDbEntity
  8
0
100
AcDbMText
 10
369.3153826917365
 20
35.16273472846501
 30
0.0
 40
2.5
 41
9.1134
 71
     1
 72
     5
  1
処理
 73
     1
 44
1.0
1001
ACAD
1000
MTEXTBEGIN
1070
    73
1070
     1
1070
    44
1040
1.0
1070
    74
1070
     0
1000
MTEXTEND
  0
MTEXT
  5
1E07
330
1DB0
100
AcDbEntity
  8
0
100
AcDbMText
 10
395.315542855665
 20
35.25204692694023
 30
0.0
 40
2.5
 41
7.9519
 71
     1
 72
     5
  1
個数
 73
     1
 44
1.0
1001
ACAD
1000
MTEXTBEGIN
1070
    73
1070
     1
1070
    44
1040
1.0
1070
    74
1070
     0
1000
MTEXTEND
  0
LINE
  5
1E08
330
1DB0
100
AcDbEntity
  8
0
100
AcDbLine
 10
233.9999999999999
 20
38.0
 30
0.0
 11
231.6999999999999
 21
34.00000000000005
 31
0.0
  0
LINE
  5
1E09
330
1DB0
100
AcDbEntity
  8
0
100
AcDbLine
 10
231.6999999999999
 20
34.00000000000005
 30
0.0
 11
236.2999999999999
 21
34.00000000000005
 31
0.0
  0
LINE
  5
1E0A
330
1DB0
100
AcDbEntity
  8
0
100
AcDbLine
 10
236.2999999999999
 20
34.00000000000005
 30
0.0
 11
233.9999999999999
 21
38.0
 31
0.0
  0
LINE
  5
1E0B
330
1DB0
100
AcDbEntity
  8
0
100
AcDbLine
 10
233.9999999999999
 20
34.00000000000005
 30
0.0
 11
231.6999999999999
 21
30.00000000000005
 31
0.0
  0
LINE
  5
1E0C
330
1DB0
100
AcDbEntity
  8
0
100
AcDbLine
 10
231.6999999999999
 20
30.00000000000005
 30
0.0
 11
236.2999999999999
 21
30.00000000000005
 31
0.0
  0
LINE
  5
1E0D
330
1DB0
100
AcDbEntity
  8
0
100
AcDbLine
 10
236.2999999999999
 20
30.00000000000005
 30
0.0
 11
233.9999999999999
 21
34.00000000000005
 31
0.0
  0
TEXT
  5
1E0E
330
1DB0
100
AcDbEntity
  8
文字
100
AcDbText
 10
306.9310155476451
 20
13.22386510844346
 30
0.0
 40
5.5
  1
株式会社 アンナカ
100
AcDbText
  0
TEXT
  5
1E0F
330
1DB0
100
AcDbEntity
  8
文字
100
AcDbText
 10
364.2164998961196
 20
26.76808813614161
 30
0.0
 40
2.5
  1
機
100
AcDbText
1001
ACAD
1000
MTEXTBEGIN
1070
    73
1070
     1
1070
    44
1040
1.0
1070
    74
1070
     0
1000
MTEXTEND
  0
TEXT
  5
1E10
330
1DB0
100
AcDbEntity
  8
文字
100
AcDbText
 10
364.3522785898913
 20
22.68285433934473
 30
0.0
 40
2.5
  1
名
100
AcDbText
1001
ACAD
1000
MTEXTBEGIN
1070
    73
1070
     1
1070
    44
1040
1.0
1070
    74
1070
     0
1000
MTEXTEND
  0
ENDBLK
  5
1E12
330
1DB0
100
AcDbEntity
  8
0
100
AcDbBlockEnd
  0
BLOCK
  5
2FBD
330
2FB3
100
AcDbEntity
  8
0
100
AcDbBlockBegin
  2
*D15
 70
     1
 10
0.0
 20
0.0
 30
0.0
  3
*D15
  1

  0
LINE
  5
366C
330
2FB3
100
AcDbEntity
  8
寸法線1
 62
     0
370
    -2
100
AcDbLine
 10
639.0
 20
250.0
 30
0.0
 11
712.0931845583637
 21
249.9999999999999
 31
0.0
  0
LINE
  5
366D
330
2FB3
100
AcDbEntity
  8
寸法線1
 62
     0
370
    -2
100
AcDbLine
 10
644.0
 20
560.0
 30
0.0
 11
712.0931845583639
 21
560.0
 31
0.0
  0
LINE
  5
366E
330
2FB3
100
AcDbEntity
  8
寸法線1
 62
     0
370
    -2
100
AcDbLine
 10
707.0931845583638
 20
259.9999999999999
 30
0.0
 11
707.0931845583638
 21
550.0
 31
0.0
  0
INSERT
  5
366F
330
2FB3
100
AcDbEntity
  8
寸法線1
 62
     0
370
    -2
100
AcDbBlockReference
  2
_Open
 10
707.0931845583637
 20
249.9999999999999
 30
0.0
 41
10.0
 42
10.0
 43
10.0
 50
270.0
  0
INSERT
  5
3670
330
2FB3
100
AcDbEntity
  8
寸法線1
 62
     0
370
    -2
100
AcDbBlockReference
  2
_Open
 10
707.0931845583638
 20
560.0
 30
0.0
 41
10.0
 42
10.0
 43
10.0
 50
90.0
  0
MTEXT
  5
3671
330
2FB3
100
AcDbEntity
  8
寸法線1
 62
     0
100
AcDbMText
 10
697.0931845583637
 20
415.5324662818893
 30
0.0
 40
12.0
 41
0.0
 71
     5
 72
     1
  1
310
 11
0.0000000000000001
 21
1.0
 31
0.0
 73
     1
 44
1.0
  0
POINT
  5
3672
330
2FB3
100
AcDbEntity
  8
Defpoints
 62
     0
100
AcDbPoint
 10
635.0
 20
250.0
 30
0.0
  0
POINT
  5
3673
330
2FB3
100
AcDbEntity
  8
Defpoints
 62
     0
100
AcDbPoint
 10
640.0
 20
560.0
 30
0.0
  0
POINT
  5
3674
330
2FB3
100
AcDbEntity
  8
Defpoints
 62
     0
100
AcDbPoint
 10
707.0931845583638
 20
560.0
 30
0.0
  0
ENDBLK
  5
2FBE
330
2FB3
100
AcDbEntity
  8
0
100
AcDbBlockEnd
  0
BLOCK
  5
3002
330
2FF6
100
AcDbEntity
  8
0
100
AcDbBlockBegin
  2
*D16
 70
     1
 10
0.0
 20
0.0
 30
0.0
  3
*D16
  1

  0
LINE
  5
3004
330
2FF6
100
AcDbEntity
  8
寸法線
 62
     0
370
    -2
100
AcDbLine
 10
644.0
 20
557.0
 30
0.0
 11
685.0
 21
557.0
 31
0.0
  0
LINE
  5
3005
330
2FF6
100
AcDbEntity
  8
寸法線
 62
     0
370
    -2
100
AcDbLine
 10
644.0
 20
560.0
 30
0.0
 11
685.0
 21
560.0
 31
0.0
  0
LINE
  5
3006
330
2FF6
100
AcDbEntity
  8
寸法線
 62
     0
370
    -2
100
AcDbLine
 10
680.0
 20
547.0
 30
0.0
 11
680.0
 21
537.0
 31
0.0
  0
LINE
  5
3007
330
2FF6
100
AcDbEntity
  8
寸法線
 62
     0
370
    -2
100
AcDbLine
 10
680.0
 20
570.0
 30
0.0
 11
680.0
 21
596.0
 31
0.0
  0
LINE
  5
3008
330
2FF6
100
AcDbEntity
  8
寸法線
 62
     0
370
    -2
100
AcDbLine
 10
680.0
 20
557.0
 30
0.0
 11
680.0
 21
560.0
 31
0.0
  0
INSERT
  5
3009
330
2FF6
100
AcDbEntity
  8
寸法線
 62
     0
370
    -2
100
AcDbBlockReference
  2
_Open
 10
680.0
 20
557.0
 30
0.0
 41
10.0
 42
10.0
 43
10.0
 50
90.0
  0
INSERT
  5
300A
330
2FF6
100
AcDbEntity
  8
寸法線
 62
     0
370
    -2
100
AcDbBlockReference
  2
_Open
 10
680.0
 20
560.0
 30
0.0
 41
10.0
 42
10.0
 43
10.0
 50
270.0
  0
MTEXT
  5
300B
330
2FF6
100
AcDbEntity
  8
寸法線
 62
     0
100
AcDbMText
 10
669.9999999999999
 20
588.0000000000001
 30
0.0
 40
12.0
 41
0.0
 71
     5
 72
     1
  1
3
 11
0.0000000000000001
 21
1.0
 31
0.0
 73
     1
 44
1.0
  0
POINT
  5
300C
330
2FF6
100
AcDbEntity
  8
Defpoints
 62
     0
100
AcDbPoint
 10
640.0
 20
557.0
 30
0.0
  0
POINT
  5
300D
330
2FF6
100
AcDbEntity
  8
Defpoints
 62
     0
100
AcDbPoint
 10
640.0
 20
560.0
 30
0.0
  0
POINT
  5
300E
330
2FF6
100
AcDbEntity
  8
Defpoints
 62
     0
100
AcDbPoint
 10
680.0
 20
560.0
 30
0.0
  0
ENDBLK
  5
3003
330
2FF6
100
AcDbEntity
  8
0
100
AcDbBlockEnd
  0
BLOCK
  5
3044
330
303A
100
AcDbEntity
  8
0
100
AcDbBlockBegin
  2
*D17
 70
     1
 10
0.0
 20
0.0
 30
0.0
  3
*D17
  1

  0
LINE
  5
30A1
330
303A
100
AcDbEntity
  8
寸法線1
 62
     0
370
    -2
100
AcDbLine
 10
217.9999999999999
 20
651.0
 30
0.0
 11
131.6160416293386
 21
651.0
 31
0.0
  0
LINE
  5
30A2
330
303A
100
AcDbEntity
  8
寸法線1
 62
     0
370
    -2
100
AcDbLine
 10
203.0
 20
1037.5
 30
0.0
 11
131.6160416293387
 21
1037.5
 31
0.0
  0
LINE
  5
30A3
330
303A
100
AcDbEntity
  8
寸法線1
 62
     0
370
    -2
100
AcDbLine
 10
136.6160416293386
 20
661.0
 30
0.0
 11
136.6160416293387
 21
1027.5
 31
0.0
  0
INSERT
  5
30A4
330
303A
100
AcDbEntity
  8
寸法線1
 62
     0
370
    -2
100
AcDbBlockReference
  2
_Open
 10
136.6160416293386
 20
651.0
 30
0.0
 41
10.0
 42
10.0
 43
10.0
 50
270.0
  0
INSERT
  5
30A5
330
303A
100
AcDbEntity
  8
寸法線1
 62
     0
370
    -2
100
AcDbBlockReference
  2
_Open
 10
136.6160416293387
 20
1037.5
 30
0.0
 41
10.0
 42
10.0
 43
10.0
 50
90.0
  0
MTEXT
  5
30A6
330
303A
100
AcDbEntity
  8
寸法線1
 62
     0
100
AcDbMText
 10
126.6160416293385
 20
883.7752234879108
 30
0.0
 40
12.0
 41
0.0
 71
     5
 72
     1
  1
387.5
 11
0.0000000000000001
 21
1.0
 31
0.0
 73
     1
 44
1.0
  0
POINT
  5
30A7
330
303A
100
AcDbEntity
  8
Defpoints
 62
     0
100
AcDbPoint
 10
221.9999999999999
 20
651.0
 30
0.0
  0
POINT
  5
30A8
330
303A
100
AcDbEntity
  8
Defpoints
 62
     0
100
AcDbPoint
 10
207.0
 20
1037.5
 30
0.0
  0
POINT
  5
30A9
330
303A
100
AcDbEntity
  8
Defpoints
 62
     0
100
AcDbPoint
 10
136.6160416293387
 20
1037.5
 30
0.0
  0
ENDBLK
  5
3045
330
303A
100
AcDbEntity
  8
0
100
AcDbBlockEnd
  0
BLOCK
  5
309F
330
3093
100
AcDbEntity
  8
0
100
AcDbBlockBegin
  2
*D18
 70
     1
 10
0.0
 20
0.0
 30
0.0
  3
*D18
  1

  0
LINE
  5
3094
330
3093
100
AcDbEntity
  8
寸法線1
 62
     0
370
    -2
100
AcDbLine
 10
1235.8737988832
 20
561.0
 30
0.0
 11
1235.8737988832
 21
602.0
 31
0.0
  0
LINE
  5
3095
330
3093
100
AcDbEntity
  8
寸法線1
 62
     0
370
    -2
100
AcDbLine
 10
1239.373798883199
 20
553.9999999999999
 30
0.0
 11
1239.373798883199
 21
602.0
 31
0.0
  0
LINE
  5
3096
330
3093
100
AcDbEntity
  8
寸法線1
 62
     0
370
    -2
100
AcDbLine
 10
1225.8737988832
 20
597.0
 30
0.0
 11
1215.8737988832
 21
597.0
 31
0.0
  0
LINE
  5
3097
330
3093
100
AcDbEntity
  8
寸法線1
 62
     0
370
    -2
100
AcDbLine
 10
1249.373798883198
 20
597.0
 30
0.0
 11
1293.373798883199
 21
597.0
 31
0.0
  0
LINE
  5
3098
330
3093
100
AcDbEntity
  8
寸法線1
 62
     0
370
    -2
100
AcDbLine
 10
1235.8737988832
 20
597.0
 30
0.0
 11
1239.373798883199
 21
597.0
 31
0.0
  0
INSERT
  5
3099
330
3093
100
AcDbEntity
  8
寸法線1
 62
     0
370
    -2
100
AcDbBlockReference
  2
_Open
 10
1235.8737988832
 20
597.0
 30
0.0
 41
10.0
 42
10.0
 43
10.0
  0
INSERT
  5
309A
330
3093
100
AcDbEntity
  8
寸法線1
 62
     0
370
    -2
100
AcDbBlockReference
  2
_Open
 10
1239.373798883199
 20
597.0
 30
0.0
 41
10.0
 42
10.0
 43
10.0
 50
180.0
  0
MTEXT
  5
309B
330
3093
100
AcDbEntity
  8
寸法線1
 62
     0
100
AcDbMText
 10
1276.373798883199
 20
608.0
 30
0.0
 40
12.0
 41
0.0
 71
     5
 72
     1
  1
3,5
 73
     1
 44
1.0
  0
POINT
  5
309C
330
3093
100
AcDbEntity
  8
Defpoints
 62
     0
100
AcDbPoint
 10
1235.8737988832
 20
557.0
 30
0.0
  0
POINT
  5
309D
330
3093
100
AcDbEntity
  8
Defpoints
 62
     0
100
AcDbPoint
 10
1239.373798883199
 20
549.9999999999999
 30
0.0
  0
POINT
  5
309E
330
3093
100
AcDbEntity
  8
Defpoints
 62
     0
100
AcDbPoint
 10
1239.373798883199
 20
597.0
 30
0.0
  0
ENDBLK
  5
30A0
330
3093
100
AcDbEntity
  8
0
100
AcDbBlockEnd
  0
BLOCK
  5
30B6
330
30AC
100
AcDbEntity
  8
0
100
AcDbBlockBegin
  2
*D19
 70
     1
 10
0.0
 20
0.0
 30
0.0
  3
*D19
  1

  0
LINE
  5
310E
330
30AC
100
AcDbEntity
  8
寸法線1
 62
     0
370
    -2
100
AcDbLine
 10
200.0
 20
256.9228117764496
 30
0.0
 11
200.0
 21
192.2162771600374
 31
0.0
  0
LINE
  5
310F
330
30AC
100
AcDbEntity
  8
寸法線1
 62
     0
370
    -2
100
AcDbLine
 10
646.7000083044863
 20
285.0131493234076
 30
0.0
 11
646.7000083044863
 21
192.2162771600374
 31
0.0
  0
LINE
  5
3110
330
30AC
100
AcDbEntity
  8
寸法線1
 62
     0
370
    -2
100
AcDbLine
 10
210.0
 20
197.2162771600373
 30
0.0
 11
636.7000083044863
 21
197.2162771600373
 31
0.0
  0
INSERT
  5
3111
330
30AC
100
AcDbEntity
  8
寸法線1
 62
     0
370
    -2
100
AcDbBlockReference
  2
_Open
 10
200.0
 20
197.2162771600373
 30
0.0
 41
10.0
 42
10.0
 43
10.0
 50
180.0
  0
INSERT
  5
3112
330
30AC
100
AcDbEntity
  8
寸法線1
 62
     0
370
    -2
100
AcDbBlockReference
  2
_Open
 10
646.7000083044863
 20
197.2162771600373
 30
0.0
 41
10.0
 42
10.0
 43
10.0
  0
MTEXT
  5
3113
330
30AC
100
AcDbEntity
  8
寸法線1
 62
     0
100
AcDbMText
 10
421.1042538193323
 20
207.2162771600374
 30
0.0
 40
12.0
 41
0.0
 71
     5
 72
     1
  1
447
 73
     1
 44
1.0
  0
POINT
  5
3114
330
30AC
100
AcDbEntity
  8
Defpoints
 62
     0
100
AcDbPoint
 10
200.0
 20
260.9228117764496
 30
0.0
  0
POINT
  5
3115
330
30AC
100
AcDbEntity
  8
Defpoints
 62
     0
100
AcDbPoint
 10
646.7000083044863
 20
289.0131493234076
 30
0.0
  0
POINT
  5
3116
330
30AC
100
AcDbEntity
  8
Defpoints
 62
     0
100
AcDbPoint
 10
646.7000083044863
 20
197.2162771600373
 30
0.0
  0
ENDBLK
  5
30B7
330
30AC
100
AcDbEntity
  8
0
100
AcDbBlockEnd
  0
BLOCK
  5
3124
330
3118
100
AcDbEntity
  8
0
100
AcDbBlockBegin
  2
*D20
 70
     1
 10
0.0
 20
0.0
 30
0.0
  3
*D20
  1

  0
LINE
  5
3126
330
3118
100
AcDbEntity
  8
寸法線1
 62
     0
370
    -2
100
AcDbLine
 10
640.0
 20
276.0
 30
0.0
 11
640.0
 21
214.6580134962551
 31
0.0
  0
LINE
  5
3127
330
3118
100
AcDbEntity
  8
寸法線1
 62
     0
370
    -2
100
AcDbLine
 10
646.7000083044863
 20
285.0131493234076
 30
0.0
 11
646.7000083044863
 21
214.6580134962551
 31
0.0
  0
LINE
  5
3128
330
3118
100
AcDbEntity
  8
寸法線1
 62
     0
370
    -2
100
AcDbLine
 10
630.0
 20
219.658013496255
 30
0.0
 11
620.0
 21
219.658013496255
 31
0.0
  0
LINE
  5
3129
330
3118
100
AcDbEntity
  8
寸法線1
 62
     0
370
    -2
100
AcDbLine
 10
656.7000083044863
 20
219.658013496255
 30
0.0
 11
682.7000083044863
 21
219.658013496255
 31
0.0
  0
LINE
  5
312A
330
3118
100
AcDbEntity
  8
寸法線1
 62
     0
370
    -2
100
AcDbLine
 10
640.0
 20
219.658013496255
 30
0.0
 11
646.7000083044863
 21
219.658013496255
 31
0.0
  0
INSERT
  5
312B
330
3118
100
AcDbEntity
  8
寸法線1
 62
     0
370
    -2
100
AcDbBlockReference
  2
_Open
 10
640.0
 20
219.658013496255
 30
0.0
 41
10.0
 42
10.0
 43
10.0
  0
INSERT
  5
312C
330
3118
100
AcDbEntity
  8
寸法線1
 62
     0
370
    -2
100
AcDbBlockReference
  2
_Open
 10
646.7000083044863
 20
219.658013496255
 30
0.0
 41
10.0
 42
10.0
 43
10.0
 50
180.0
  0
MTEXT
  5
312D
330
3118
100
AcDbEntity
  8
寸法線1
 62
     0
100
AcDbMText
 10
674.7000083044863
 20
229.658013496255
 30
0.0
 40
12.0
 41
0.0
 71
     5
 72
     1
  1
7
 73
     1
 44
1.0
  0
POINT
  5
312E
330
3118
100
AcDbEntity
  8
Defpoints
 62
     0
100
AcDbPoint
 10
640.0
 20
280.0
 30
0.0
  0
POINT
  5
312F
330
3118
100
AcDbEntity
  8
Defpoints
 62
     0
100
AcDbPoint
 10
646.7000083044863
 20
289.0131493234076
 30
0.0
  0
POINT
  5
3130
330
3118
100
AcDbEntity
  8
Defpoints
 62
     0
100
AcDbPoint
 10
646.7000083044863
 20
219.658013496255
 30
0.0
  0
ENDBLK
  5
3125
330
3118
100
AcDbEntity
  8
0
100
AcDbBlockEnd
  0
BLOCK
  5
34D0
330
34C6
100
AcDbEntity
  8
0
100
AcDbBlockBegin
  2
*D21
 70
     1
 10
0.0
 20
0.0
 30
0.0
  3
*D21
  1

  0
LINE
  5
359A
330
34C6
100
AcDbEntity
  8
寸法線1
 62
     0
370
    -2
100
AcDbLine
 10
196.0
 20
2011.015479771257
 30
0.0
 11
154.9999999999999
 21
2011.015479771257
 31
0.0
  0
LINE
  5
359B
330
34C6
100
AcDbEntity
  8
寸法線1
 62
     0
370
    -2
100
AcDbLine
 10
196.0
 20
2331.015479771257
 30
0.0
 11
155.0
 21
2331.015479771257
 31
0.0
  0
LINE
  5
359C
330
34C6
100
AcDbEntity
  8
寸法線1
 62
     0
370
    -2
100
AcDbLine
 10
159.9999999999999
 20
2021.015479771257
 30
0.0
 11
160.0
 21
2321.015479771257
 31
0.0
  0
INSERT
  5
359D
330
34C6
100
AcDbEntity
  8
寸法線1
 62
     0
370
    -2
100
AcDbBlockReference
  2
_Open
 10
159.9999999999999
 20
2011.015479771257
 30
0.0
 41
10.0
 42
10.0
 43
10.0
 50
270.0
  0
INSERT
  5
359E
330
34C6
100
AcDbEntity
  8
寸法線1
 62
     0
370
    -2
100
AcDbBlockReference
  2
_Open
 10
160.0
 20
2331.015479771257
 30
0.0
 41
10.0
 42
10.0
 43
10.0
 50
90.0
  0
MTEXT
  5
359F
330
34C6
100
AcDbEntity
  8
寸法線1
 62
     0
100
AcDbMText
 10
149.9999999999996
 20
2171.015479771257
 30
0.0
 40
12.0
 41
0.0
 71
     5
 72
     1
  1
320
 11
0.0000000000000001
 21
1.0
 31
0.0
 73
     1
 44
1.0
  0
POINT
  5
35A0
330
34C6
100
AcDbEntity
  8
Defpoints
 62
     0
100
AcDbPoint
 10
200.0
 20
2011.015479771257
 30
0.0
  0
POINT
  5
35A1
330
34C6
100
AcDbEntity
  8
Defpoints
 62
     0
100
AcDbPoint
 10
200.0
 20
2331.015479771257
 30
0.0
  0
POINT
  5
35A2
330
34C6
100
AcDbEntity
  8
Defpoints
 62
     0
100
AcDbPoint
 10
160.0
 20
2331.015479771257
 30
0.0
  0
ENDBLK
  5
34D1
330
34C6
100
AcDbEntity
  8
0
100
AcDbBlockEnd
  0
BLOCK
  5
34DC
330
34D2
100
AcDbEntity
  8
0
100
AcDbBlockBegin
  2
*D22
 70
     1
 10
0.0
 20
0.0
 30
0.0
  3
*D22
  1

  0
LINE
  5
35A3
330
34D2
100
AcDbEntity
  8
寸法線1
 62
     0
370
    -2
100
AcDbLine
 10
196.0
 20
2011.015479771257
 30
0.0
 11
155.0
 21
2011.015479771257
 31
0.0
  0
LINE
  5
35A4
330
34D2
100
AcDbEntity
  8
寸法線1
 62
     0
370
    -2
100
AcDbLine
 10
195.9999999999998
 20
1975.015479771257
 30
0.0
 11
155.0
 21
1975.015479771257
 31
0.0
  0
LINE
  5
35A5
330
34D2
100
AcDbEntity
  8
寸法線1
 62
     0
370
    -2
100
AcDbLine
 10
160.0
 20
2001.015479771257
 30
0.0
 11
160.0
 21
1985.015479771257
 31
0.0
  0
INSERT
  5
35A6
330
34D2
100
AcDbEntity
  8
寸法線1
 62
     0
370
    -2
100
AcDbBlockReference
  2
_Open
 10
160.0
 20
2011.015479771257
 30
0.0
 41
10.0
 42
10.0
 43
10.0
 50
90.0
  0
INSERT
  5
35A7
330
34D2
100
AcDbEntity
  8
寸法線1
 62
     0
370
    -2
100
AcDbBlockReference
  2
_Open
 10
160.0
 20
1975.015479771257
 30
0.0
 41
10.0
 42
10.0
 43
10.0
 50
270.0
  0
MTEXT
  5
35A8
330
34D2
100
AcDbEntity
  8
寸法線1
 62
     0
100
AcDbMText
 10
149.9999999999996
 20
1993.015479771257
 30
0.0
 40
12.0
 41
0.0
 71
     5
 72
     1
  1
37
 11
0.0000000000000001
 21
1.0
 31
0.0
 73
     1
 44
1.0
  0
POINT
  5
35A9
330
34D2
100
AcDbEntity
  8
Defpoints
 62
     0
100
AcDbPoint
 10
200.0
 20
2011.015479771257
 30
0.0
  0
POINT
  5
35AA
330
34D2
100
AcDbEntity
  8
Defpoints
 62
     0
100
AcDbPoint
 10
199.9999999999998
 20
1975.015479771257
 30
0.0
  0
POINT
  5
35AB
330
34D2
100
AcDbEntity
  8
Defpoints
 62
     0
100
AcDbPoint
 10
160.0
 20
1975.015479771257
 30
0.0
  0
ENDBLK
  5
34DD
330
34D2
100
AcDbEntity
  8
0
100
AcDbBlockEnd
  0
BLOCK
  5
34E8
330
34DE
100
AcDbEntity
  8
0
100
AcDbBlockBegin
  2
*D23
 70
     1
 10
0.0
 20
0.0
 30
0.0
  3
*D23
  1

  0
LINE
  5
35AC
330
34DE
100
AcDbEntity
  8
寸法線1
 62
     0
370
    -2
100
AcDbLine
 10
644.0
 20
1577.015479771257
 30
0.0
 11
685.0
 21
1577.015479771257
 31
0.0
  0
LINE
  5
35AD
330
34DE
100
AcDbEntity
  8
寸法線1
 62
     0
370
    -2
100
AcDbLine
 10
644.0
 20
1547.015479771257
 30
0.0
 11
685.0
 21
1547.015479771257
 31
0.0
  0
LINE
  5
35AE
330
34DE
100
AcDbEntity
  8
寸法線1
 62
     0
370
    -2
100
AcDbLine
 10
680.0
 20
1567.015479771257
 30
0.0
 11
680.0
 21
1557.015479771257
 31
0.0
  0
INSERT
  5
35AF
330
34DE
100
AcDbEntity
  8
寸法線1
 62
     0
370
    -2
100
AcDbBlockReference
  2
_Open
 10
680.0
 20
1577.015479771257
 30
0.0
 41
10.0
 42
10.0
 43
10.0
 50
90.0
  0
INSERT
  5
35B0
330
34DE
100
AcDbEntity
  8
寸法線1
 62
     0
370
    -2
100
AcDbBlockReference
  2
_Open
 10
680.0
 20
1547.015479771257
 30
0.0
 41
10.0
 42
10.0
 43
10.0
 50
270.0
  0
MTEXT
  5
35B1
330
34DE
100
AcDbEntity
  8
寸法線1
 62
     0
100
AcDbMText
 10
669.9999999999997
 20
1562.015479771257
 30
0.0
 40
12.0
 41
0.0
 71
     5
 72
     1
  1
31
 11
0.0000000000000001
 21
1.0
 31
0.0
 73
     1
 44
1.0
  0
POINT
  5
35B2
330
34DE
100
AcDbEntity
  8
Defpoints
 62
     0
100
AcDbPoint
 10
640.0
 20
1577.015479771257
 30
0.0
  0
POINT
  5
35B3
330
34DE
100
AcDbEntity
  8
Defpoints
 62
     0
100
AcDbPoint
 10
640.0
 20
1547.015479771257
 30
0.0
  0
POINT
  5
35B4
330
34DE
100
AcDbEntity
  8
Defpoints
 62
     0
100
AcDbPoint
 10
680.0
 20
1547.015479771257
 30
0.0
  0
ENDBLK
  5
34E9
330
34DE
100
AcDbEntity
  8
0
100
AcDbBlockEnd
  0
BLOCK
  5
34F4
330
34EA
100
AcDbEntity
  8
0
100
AcDbBlockBegin
  2
*D24
 70
     1
 10
0.0
 20
0.0
 30
0.0
  3
*D24
  1

  0
LINE
  5
35B5
330
34EA
100
AcDbEntity
  8
寸法線1
 62
     0
370
    -2
100
AcDbLine
 10
643.9999999999997
 20
1577.015479771257
 30
0.0
 11
684.9999999999998
 21
1577.015479771257
 31
0.0
  0
LINE
  5
35B6
330
34EA
100
AcDbEntity
  8
寸法線1
 62
     0
370
    -2
100
AcDbLine
 10
647.0
 20
1854.015479771257
 30
0.0
 11
685.0
 21
1854.015479771257
 31
0.0
  0
LINE
  5
35B7
330
34EA
100
AcDbEntity
  8
寸法線1
 62
     0
370
    -2
100
AcDbLine
 10
679.9999999999998
 20
1587.015479771257
 30
0.0
 11
680.0
 21
1844.015479771257
 31
0.0
  0
INSERT
  5
35B8
330
34EA
100
AcDbEntity
  8
寸法線1
 62
     0
370
    -2
100
AcDbBlockReference
  2
_Open
 10
679.9999999999998
 20
1577.015479771257
 30
0.0
 41
10.0
 42
10.0
 43
10.0
 50
270.0
  0
INSERT
  5
35B9
330
34EA
100
AcDbEntity
  8
寸法線1
 62
     0
370
    -2
100
AcDbBlockReference
  2
_Open
 10
680.0
 20
1854.015479771257
 30
0.0
 41
10.0
 42
10.0
 43
10.0
 50
90.0
  0
MTEXT
  5
35BA
330
34EA
100
AcDbEntity
  8
寸法線1
 62
     0
100
AcDbMText
 10
669.9999999999996
 20
1715.515479771258
 30
0.0
 40
12.0
 41
0.0
 71
     5
 72
     1
  1
277
 11
0.0000000000000001
 21
1.0
 31
0.0
 73
     1
 44
1.0
  0
POINT
  5
35BB
330
34EA
100
AcDbEntity
  8
Defpoints
 62
     0
100
AcDbPoint
 10
639.9999999999997
 20
1577.015479771257
 30
0.0
  0
POINT
  5
35BC
330
34EA
100
AcDbEntity
  8
Defpoints
 62
     0
100
AcDbPoint
 10
643.0
 20
1854.015479771257
 30
0.0
  0
POINT
  5
35BD
330
34EA
100
AcDbEntity
  8
Defpoints
 62
     0
100
AcDbPoint
 10
680.0
 20
1854.015479771257
 30
0.0
  0
ENDBLK
  5
34F5
330
34EA
100
AcDbEntity
  8
0
100
AcDbBlockEnd
  0
BLOCK
  5
3500
330
34F6
100
AcDbEntity
  8
0
100
AcDbBlockBegin
  2
*D25
 70
     1
 10
0.0
 20
0.0
 30
0.0
  3
*D25
  1

  0
LINE
  5
35BE
330
34F6
100
AcDbEntity
  8
寸法線1
 62
     0
370
    -2
100
AcDbLine
 10
875.8757612889093
 20
1582.015479771257
 30
0.0
 11
807.8757612889091
 21
1582.015479771257
 31
0.0
  0
LINE
  5
35BF
330
34F6
100
AcDbEntity
  8
寸法線1
 62
     0
370
    -2
100
AcDbLine
 10
875.8757612889093
 20
1852.015479771257
 30
0.0
 11
807.8757612889093
 21
1852.015479771257
 31
0.0
  0
LINE
  5
35C0
330
34F6
100
AcDbEntity
  8
寸法線1
 62
     0
370
    -2
100
AcDbLine
 10
812.8757612889092
 20
1592.015479771257
 30
0.0
 11
812.8757612889092
 21
1842.015479771257
 31
0.0
  0
INSERT
  5
35C1
330
34F6
100
AcDbEntity
  8
寸法線1
 62
     0
370
    -2
100
AcDbBlockReference
  2
_Open
 10
812.8757612889092
 20
1582.015479771257
 30
0.0
 41
10.0
 42
10.0
 43
10.0
 50
270.0
  0
INSERT
  5
35C2
330
34F6
100
AcDbEntity
  8
寸法線1
 62
     0
370
    -2
100
AcDbBlockReference
  2
_Open
 10
812.8757612889092
 20
1852.015479771257
 30
0.0
 41
10.0
 42
10.0
 43
10.0
 50
90.0
  0
MTEXT
  5
35C3
330
34F6
100
AcDbEntity
  8
寸法線1
 62
     0
100
AcDbMText
 10
802.8757612889089
 20
1717.015479771257
 30
0.0
 40
12.0
 41
0.0
 71
     5
 72
     1
  1
270
 11
0.0000000000000001
 21
1.0
 31
0.0
 73
     1
 44
1.0
  0
POINT
  5
35C4
330
34F6
100
AcDbEntity
  8
Defpoints
 62
     0
100
AcDbPoint
 10
879.8757612889092
 20
1582.015479771257
 30
0.0
  0
POINT
  5
35C5
330
34F6
100
AcDbEntity
  8
Defpoints
 62
     0
100
AcDbPoint
 10
879.8757612889092
 20
1852.015479771257
 30
0.0
  0
POINT
  5
35C6
330
34F6
100
AcDbEntity
  8
Defpoints
 62
     0
100
AcDbPoint
 10
812.8757612889092
 20
1852.015479771257
 30
0.0
  0
ENDBLK
  5
3501
330
34F6
100
AcDbEntity
  8
0
100
AcDbBlockEnd
  0
BLOCK
  5
350E
330
3502
100
AcDbEntity
  8
0
100
AcDbBlockBegin
  2
*D26
 70
     1
 10
0.0
 20
0.0
 30
0.0
  3
*D26
  1

  0
LINE
  5
35C7
330
3502
100
AcDbEntity
  8
寸法線1
 62
     0
370
    -2
100
AcDbLine
 10
879.8757612889092
 20
1856.015479771257
 30
0.0
 11
879.8757612889092
 21
1899.015479771257
 31
0.0
  0
LINE
  5
35C8
330
3502
100
AcDbEntity
  8
寸法線1
 62
     0
370
    -2
100
AcDbLine
 10
852.8757612889091
 20
1765.805849058843
 30
0.0
 11
852.8757612889091
 21
1899.015479771257
 31
0.0
  0
LINE
  5
35C9
330
3502
100
AcDbEntity
  8
寸法線1
 62
     0
370
    -2
100
AcDbLine
 10
889.8757612889093
 20
1894.015479771257
 30
0.0
 11
899.8757612889093
 21
1894.015479771257
 31
0.0
  0
LINE
  5
35CA
330
3502
100
AcDbEntity
  8
寸法線1
 62
     0
370
    -2
100
AcDbLine
 10
842.8757612889091
 20
1894.015479771257
 30
0.0
 11
804.8757612889092
 21
1894.015479771257
 31
0.0
  0
LINE
  5
35CB
330
3502
100
AcDbEntity
  8
寸法線1
 62
     0
370
    -2
100
AcDbLine
 10
879.8757612889092
 20
1894.015479771257
 30
0.0
 11
852.8757612889091
 21
1894.015479771257
 31
0.0
  0
INSERT
  5
35CC
330
3502
100
AcDbEntity
  8
寸法線1
 62
     0
370
    -2
100
AcDbBlockReference
  2
_Open
 10
879.8757612889092
 20
1894.015479771257
 30
0.0
 41
10.0
 42
10.0
 43
10.0
 50
180.0
  0
INSERT
  5
35CD
330
3502
100
AcDbEntity
  8
寸法線1
 62
     0
370
    -2
100
AcDbBlockReference
  2
_Open
 10
852.8757612889091
 20
1894.015479771257
 30
0.0
 41
10.0
 42
10.0
 43
10.0
  0
MTEXT
  5
35CE
330
3502
100
AcDbEntity
  8
寸法線1
 62
     0
100
AcDbMText
 10
818.8757612889091
 20
1904.015479771257
 30
0.0
 40
12.0
 41
0.0
 71
     5
 72
     1
  1
27
 73
     1
 44
1.0
  0
POINT
  5
35CF
330
3502
100
AcDbEntity
  8
Defpoints
 62
     0
100
AcDbPoint
 10
879.8757612889092
 20
1852.015479771257
 30
0.0
  0
POINT
  5
35D0
330
3502
100
AcDbEntity
  8
Defpoints
 62
     0
100
AcDbPoint
 10
852.8757612889091
 20
1761.805849058843
 30
0.0
  0
POINT
  5
35D1
330
3502
100
AcDbEntity
  8
Defpoints
 62
     0
100
AcDbPoint
 10
852.8757612889091
 20
1894.015479771257
 30
0.0
  0
ENDBLK
  5
350F
330
3502
100
AcDbEntity
  8
0
100
AcDbBlockEnd
  0
BLOCK
  5
351A
330
3510
100
AcDbEntity
  8
0
100
AcDbBlockBegin
  2
*D27
 70
     1
 10
0.0
 20
0.0
 30
0.0
  3
*D27
  1

  0
LINE
  5
35D2
330
3510
100
AcDbEntity
  8
寸法線1
 62
     0
370
    -2
100
AcDbLine
 10
879.8757612889092
 20
1856.015479771257
 30
0.0
 11
879.8757612889092
 21
1899.015479771257
 31
0.0
  0
LINE
  5
35D3
330
3510
100
AcDbEntity
  8
寸法線1
 62
     0
370
    -2
100
AcDbLine
 10
1235.8737988832
 20
1858.015479771257
 30
0.0
 11
1235.8737988832
 21
1899.015479771257
 31
0.0
  0
LINE
  5
35D4
330
3510
100
AcDbEntity
  8
寸法線1
 62
     0
370
    -2
100
AcDbLine
 10
889.8757612889093
 20
1894.015479771257
 30
0.0
 11
1225.8737988832
 21
1894.015479771257
 31
0.0
  0
INSERT
  5
35D5
330
3510
100
AcDbEntity
  8
寸法線1
 62
     0
370
    -2
100
AcDbBlockReference
  2
_Open
 10
879.8757612889092
 20
1894.015479771257
 30
0.0
 41
10.0
 42
10.0
 43
10.0
 50
180.0
  0
INSERT
  5
35D6
330
3510
100
AcDbEntity
  8
寸法線1
 62
     0
370
    -2
100
AcDbBlockReference
  2
_Open
 10
1235.8737988832
 20
1894.015479771257
 30
0.0
 41
10.0
 42
10.0
 43
10.0
  0
MTEXT
  5
35D7
330
3510
100
AcDbEntity
  8
寸法線1
 62
     0
100
AcDbMText
 10
1057.874780086054
 20
1904.015479771257
 30
0.0
 40
12.0
 41
0.0
 71
     5
 72
     1
  1
357
 73
     1
 44
1.0
  0
POINT
  5
35D8
330
3510
100
AcDbEntity
  8
Defpoints
 62
     0
100
AcDbPoint
 10
879.8757612889092
 20
1852.015479771257
 30
0.0
  0
POINT
  5
35D9
330
3510
100
AcDbEntity
  8
Defpoints
 62
     0
100
AcDbPoint
 10
1235.8737988832
 20
1854.015479771257
 30
0.0
  0
POINT
  5
35DA
330
3510
100
AcDbEntity
  8
Defpoints
 62
     0
100
AcDbPoint
 10
1235.8737988832
 20
1894.015479771257
 30
0.0
  0
ENDBLK
  5
351B
330
3510
100
AcDbEntity
  8
0
100
AcDbBlockEnd
  0
BLOCK
  5
3526
330
351C
100
AcDbEntity
  8
0
100
AcDbBlockBegin
  2
*D28
 70
     1
 10
0.0
 20
0.0
 30
0.0
  3
*D28
  1

  0
LINE
  5
35DB
330
351C
100
AcDbEntity
  8
寸法線1
 62
     0
370
    -2
100
AcDbLine
 10
200.0
 20
1573.015479771257
 30
0.0
 11
200.0
 21
1511.673493267512
 31
0.0
  0
LINE
  5
35DC
330
351C
100
AcDbEntity
  8
寸法線1
 62
     0
370
    -2
100
AcDbLine
 10
640.0
 20
1573.015479771257
 30
0.0
 11
640.0
 21
1511.673493267512
 31
0.0
  0
LINE
  5
35DD
330
351C
100
AcDbEntity
  8
寸法線1
 62
     0
370
    -2
100
AcDbLine
 10
210.0
 20
1516.673493267512
 30
0.0
 11
630.0
 21
1516.673493267512
 31
0.0
  0
INSERT
  5
35DE
330
351C
100
AcDbEntity
  8
寸法線1
 62
     0
370
    -2
100
AcDbBlockReference
  2
_Open
 10
200.0
 20
1516.673493267512
 30
0.0
 41
10.0
 42
10.0
 43
10.0
 50
180.0
  0
INSERT
  5
35DF
330
351C
100
AcDbEntity
  8
寸法線1
 62
     0
370
    -2
100
AcDbBlockReference
  2
_Open
 10
640.0
 20
1516.673493267512
 30
0.0
 41
10.0
 42
10.0
 43
10.0
  0
MTEXT
  5
35E0
330
351C
100
AcDbEntity
  8
寸法線1
 62
     0
100
AcDbMText
 10
420.0
 20
1526.673493267512
 30
0.0
 40
12.0
 41
0.0
 71
     5
 72
     1
  1
440
 73
     1
 44
1.0
  0
POINT
  5
35E1
330
351C
100
AcDbEntity
  8
Defpoints
 62
     0
100
AcDbPoint
 10
200.0
 20
1577.015479771257
 30
0.0
  0
POINT
  5
35E2
330
351C
100
AcDbEntity
  8
Defpoints
 62
     0
100
AcDbPoint
 10
640.0
 20
1577.015479771257
 30
0.0
  0
POINT
  5
35E3
330
351C
100
AcDbEntity
  8
Defpoints
 62
     0
100
AcDbPoint
 10
640.0
 20
1516.673493267512
 30
0.0
  0
ENDBLK
  5
3527
330
351C
100
AcDbEntity
  8
0
100
AcDbBlockEnd
  0
BLOCK
  5
3532
330
3528
100
AcDbEntity
  8
0
100
AcDbBlockBegin
  2
*D29
 70
     1
 10
0.0
 20
0.0
 30
0.0
  3
*D29
  1

  0
LINE
  5
35E4
330
3528
100
AcDbEntity
  8
寸法線1
 62
     0
370
    -2
100
AcDbLine
 10
915.8737988831996
 20
1635.515479771257
 30
0.0
 11
915.8737988831996
 21
1627.148751320687
 31
0.0
  0
LINE
  5
35E5
330
3528
100
AcDbEntity
  8
寸法線1
 62
     0
370
    -2
100
AcDbLine
 10
1170.873798883198
 20
1636.148751320687
 30
0.0
 11
1170.873798883198
 21
1637.148751320687
 31
0.0
  0
LINE
  5
35E6
330
3528
100
AcDbEntity
  8
寸法線1
 62
     0
370
    -2
100
AcDbLine
 10
925.8737988831995
 20
1632.148751320687
 30
0.0
 11
1160.873798883198
 21
1632.148751320687
 31
0.0
  0
INSERT
  5
35E7
330
3528
100
AcDbEntity
  8
寸法線1
 62
     0
370
    -2
100
AcDbBlockReference
  2
_Open
 10
915.8737988831996
 20
1632.148751320687
 30
0.0
 41
10.0
 42
10.0
 43
10.0
 50
180.0
  0
INSERT
  5
35E8
330
3528
100
AcDbEntity
  8
寸法線1
 62
     0
370
    -2
100
AcDbBlockReference
  2
_Open
 10
1170.873798883198
 20
1632.148751320687
 30
0.0
 41
10.0
 42
10.0
 43
10.0
  0
MTEXT
  5
35E9
330
3528
100
AcDbEntity
  8
寸法線1
 62
     0
100
AcDbMText
 10
1043.373798883199
 20
1642.148751320687
 30
0.0
 40
12.0
 41
0.0
 71
     5
 72
     1
  1
255
 73
     1
 44
1.0
  0
POINT
  5
35EA
330
3528
100
AcDbEntity
  8
Defpoints
 62
     0
100
AcDbPoint
 10
915.8737988831996
 20
1639.515479771257
 30
0.0
  0
POINT
  5
35EB
330
3528
100
AcDbEntity
  8
Defpoints
 62
     0
100
AcDbPoint
 10
1170.873798883198
 20
1632.148751320687
 30
0.0
  0
POINT
  5
35EC
330
3528
100
AcDbEntity
  8
Defpoints
 62
     0
100
AcDbPoint
 10
1170.873798883198
 20
1632.148751320687
 30
0.0
  0
ENDBLK
  5
3533
330
3528
100
AcDbEntity
  8
0
100
AcDbBlockEnd
  0
BLOCK
  5
353E
330
3534
100
AcDbEntity
  8
0
100
AcDbBlockBegin
  2
*D30
 70
     1
 10
0.0
 20
0.0
 30
0.0
  3
*D30
  1

  0
LINE
  5
35ED
330
3534
100
AcDbEntity
  8
寸法線1
 62
     0
370
    -2
100
AcDbLine
 10
239.9999999999999
 20
1635.515479771257
 30
0.0
 11
239.9999999999999
 21
1627.148751320687
 31
0.0
  0
LINE
  5
35EE
330
3534
100
AcDbEntity
  8
寸法線1
 62
     0
370
    -2
100
AcDbLine
 10
599.9999999999999
 20
1635.515479771257
 30
0.0
 11
599.9999999999999
 21
1627.148751320687
 31
0.0
  0
LINE
  5
35EF
330
3534
100
AcDbEntity
  8
寸法線1
 62
     0
370
    -2
100
AcDbLine
 10
249.9999999999999
 20
1632.148751320687
 30
0.0
 11
589.9999999999998
 21
1632.148751320687
 31
0.0
  0
INSERT
  5
35F0
330
3534
100
AcDbEntity
  8
寸法線1
 62
     0
370
    -2
100
AcDbBlockReference
  2
_Open
 10
239.9999999999999
 20
1632.148751320687
 30
0.0
 41
10.0
 42
10.0
 43
10.0
 50
180.0
  0
INSERT
  5
35F1
330
3534
100
AcDbEntity
  8
寸法線1
 62
     0
370
    -2
100
AcDbBlockReference
  2
_Open
 10
599.9999999999999
 20
1632.148751320687
 30
0.0
 41
10.0
 42
10.0
 43
10.0
  0
MTEXT
  5
35F2
330
3534
100
AcDbEntity
  8
寸法線1
 62
     0
100
AcDbMText
 10
419.9999999999998
 20
1642.148751320687
 30
0.0
 40
12.0
 41
0.0
 71
     5
 72
     1
  1
360
 73
     1
 44
1.0
  0
POINT
  5
35F3
330
3534
100
AcDbEntity
  8
Defpoints
 62
     0
100
AcDbPoint
 10
239.9999999999999
 20
1639.515479771257
 30
0.0
  0
POINT
  5
35F4
330
3534
100
AcDbEntity
  8
Defpoints
 62
     0
100
AcDbPoint
 10
599.9999999999999
 20
1639.515479771257
 30
0.0
  0
POINT
  5
35F5
330
3534
100
AcDbEntity
  8
Defpoints
 62
     0
100
AcDbPoint
 10
599.9999999999999
 20
1632.148751320687
 30
0.0
  0
ENDBLK
  5
353F
330
3534
100
AcDbEntity
  8
0
100
AcDbBlockEnd
  0
BLOCK
  5
354A
330
3540
100
AcDbEntity
  8
0
100
AcDbBlockBegin
  2
*D31
 70
     1
 10
0.0
 20
0.0
 30
0.0
  3
*D31
  1

  0
LINE
  5
35F6
330
3540
100
AcDbEntity
  8
寸法線1
 62
     0
370
    -2
100
AcDbLine
 10
551.418360609855
 20
1614.515479771257
 30
0.0
 11
550.4183606098548
 21
1614.515479771257
 31
0.0
  0
LINE
  5
35F7
330
3540
100
AcDbEntity
  8
寸法線1
 62
     0
370
    -2
100
AcDbLine
 10
551.418360609855
 20
1819.515479771257
 30
0.0
 11
550.4183606098549
 21
1819.515479771257
 31
0.0
  0
LINE
  5
35F8
330
3540
100
AcDbEntity
  8
寸法線1
 62
     0
370
    -2
100
AcDbLine
 10
555.4183606098548
 20
1624.515479771257
 30
0.0
 11
555.418360609855
 21
1809.515479771257
 31
0.0
  0
INSERT
  5
35F9
330
3540
100
AcDbEntity
  8
寸法線1
 62
     0
370
    -2
100
AcDbBlockReference
  2
_Open
 10
555.4183606098548
 20
1614.515479771257
 30
0.0
 41
10.0
 42
10.0
 43
10.0
 50
270.0
  0
INSERT
  5
35FA
330
3540
100
AcDbEntity
  8
寸法線1
 62
     0
370
    -2
100
AcDbBlockReference
  2
_Open
 10
555.418360609855
 20
1819.515479771257
 30
0.0
 41
10.0
 42
10.0
 43
10.0
 50
90.0
  0
MTEXT
  5
35FB
330
3540
100
AcDbEntity
  8
寸法線1
 62
     0
100
AcDbMText
 10
545.4183606098546
 20
1717.015479771257
 30
0.0
 40
12.0
 41
0.0
 71
     5
 72
     1
  1
205
 11
0.0000000000000001
 21
1.0
 31
0.0
 73
     1
 44
1.0
  0
POINT
  5
35FC
330
3540
100
AcDbEntity
  8
Defpoints
 62
     0
100
AcDbPoint
 10
555.418360609855
 20
1614.515479771257
 30
0.0
  0
POINT
  5
35FD
330
3540
100
AcDbEntity
  8
Defpoints
 62
     0
100
AcDbPoint
 10
555.418360609855
 20
1819.515479771257
 30
0.0
  0
POINT
  5
35FE
330
3540
100
AcDbEntity
  8
Defpoints
 62
     0
100
AcDbPoint
 10
555.418360609855
 20
1819.515479771257
 30
0.0
  0
ENDBLK
  5
354B
330
3540
100
AcDbEntity
  8
0
100
AcDbBlockEnd
  0
BLOCK
  5
3556
330
354C
100
AcDbEntity
  8
0
100
AcDbBlockBegin
  2
*D32
 70
     1
 10
0.0
 20
0.0
 30
0.0
  3
*D32
  1

  0
LINE
  5
35FF
330
354C
100
AcDbEntity
  8
寸法線1
 62
     0
370
    -2
100
AcDbLine
 10
639.0
 20
1547.015479771257
 30
0.0
 11
712.093184558364
 21
1547.015479771257
 31
0.0
  0
LINE
  5
3600
330
354C
100
AcDbEntity
  8
寸法線1
 62
     0
370
    -2
100
AcDbLine
 10
644.0
 20
1857.015479771257
 30
0.0
 11
712.0931845583641
 21
1857.015479771257
 31
0.0
  0
LINE
  5
3601
330
354C
100
AcDbEntity
  8
寸法線1
 62
     0
370
    -2
100
AcDbLine
 10
707.093184558364
 20
1557.015479771257
 30
0.0
 11
707.0931845583641
 21
1847.015479771257
 31
0.0
  0
INSERT
  5
3602
330
354C
100
AcDbEntity
  8
寸法線1
 62
     0
370
    -2
100
AcDbBlockReference
  2
_Open
 10
707.093184558364
 20
1547.015479771257
 30
0.0
 41
10.0
 42
10.0
 43
10.0
 50
270.0
  0
INSERT
  5
3603
330
354C
100
AcDbEntity
  8
寸法線1
 62
     0
370
    -2
100
AcDbBlockReference
  2
_Open
 10
707.0931845583641
 20
1857.015479771257
 30
0.0
 41
10.0
 42
10.0
 43
10.0
 50
90.0
  0
MTEXT
  5
3604
330
354C
100
AcDbEntity
  8
寸法線1
 62
     0
100
AcDbMText
 10
697.0931845583637
 20
1712.547946053146
 30
0.0
 40
12.0
 41
0.0
 71
     5
 72
     1
  1
311
 11
0.0000000000000001
 21
1.0
 31
0.0
 73
     1
 44
1.0
  0
POINT
  5
3605
330
354C
100
AcDbEntity
  8
Defpoints
 62
     0
100
AcDbPoint
 10
635.0
 20
1547.015479771257
 30
0.0
  0
POINT
  5
3606
330
354C
100
AcDbEntity
  8
Defpoints
 62
     0
100
AcDbPoint
 10
640.0
 20
1857.015479771257
 30
0.0
  0
POINT
  5
3607
330
354C
100
AcDbEntity
  8
Defpoints
 62
     0
100
AcDbPoint
 10
707.0931845583641
 20
1857.015479771257
 30
0.0
  0
ENDBLK
  5
3557
330
354C
100
AcDbEntity
  8
0
100
AcDbBlockEnd
  0
BLOCK
  5
3564
330
3558
100
AcDbEntity
  8
0
100
AcDbBlockBegin
  2
*D33
 70
     1
 10
0.0
 20
0.0
 30
0.0
  3
*D33
  1

  0
LINE
  5
3608
330
3558
100
AcDbEntity
  8
寸法線
 62
     0
370
    -2
100
AcDbLine
 10
644.0
 20
1854.015479771257
 30
0.0
 11
685.0
 21
1854.015479771257
 31
0.0
  0
LINE
  5
3609
330
3558
100
AcDbEntity
  8
寸法線
 62
     0
370
    -2
100
AcDbLine
 10
644.0
 20
1857.015479771257
 30
0.0
 11
685.0
 21
1857.015479771257
 31
0.0
  0
LINE
  5
360A
330
3558
100
AcDbEntity
  8
寸法線
 62
     0
370
    -2
100
AcDbLine
 10
680.0
 20
1844.015479771257
 30
0.0
 11
680.0
 21
1834.015479771257
 31
0.0
  0
LINE
  5
360B
330
3558
100
AcDbEntity
  8
寸法線
 62
     0
370
    -2
100
AcDbLine
 10
680.0
 20
1867.015479771257
 30
0.0
 11
680.0
 21
1893.015479771257
 31
0.0
  0
LINE
  5
360C
330
3558
100
AcDbEntity
  8
寸法線
 62
     0
370
    -2
100
AcDbLine
 10
680.0
 20
1854.015479771257
 30
0.0
 11
680.0
 21
1857.015479771257
 31
0.0
  0
INSERT
  5
360D
330
3558
100
AcDbEntity
  8
寸法線
 62
     0
370
    -2
100
AcDbBlockReference
  2
_Open
 10
680.0
 20
1854.015479771257
 30
0.0
 41
10.0
 42
10.0
 43
10.0
 50
90.0
  0
INSERT
  5
360E
330
3558
100
AcDbEntity
  8
寸法線
 62
     0
370
    -2
100
AcDbBlockReference
  2
_Open
 10
680.0
 20
1857.015479771257
 30
0.0
 41
10.0
 42
10.0
 43
10.0
 50
270.0
  0
MTEXT
  5
360F
330
3558
100
AcDbEntity
  8
寸法線
 62
     0
100
AcDbMText
 10
669.9999999999996
 20
1885.015479771257
 30
0.0
 40
12.0
 41
0.0
 71
     5
 72
     1
  1
3
 11
0.0000000000000001
 21
1.0
 31
0.0
 73
     1
 44
1.0
  0
POINT
  5
3610
330
3558
100
AcDbEntity
  8
Defpoints
 62
     0
100
AcDbPoint
 10
640.0
 20
1854.015479771257
 30
0.0
  0
POINT
  5
3611
330
3558
100
AcDbEntity
  8
Defpoints
 62
     0
100
AcDbPoint
 10
640.0
 20
1857.015479771257
 30
0.0
  0
POINT
  5
3612
330
3558
100
AcDbEntity
  8
Defpoints
 62
     0
100
AcDbPoint
 10
680.0
 20
1857.015479771257
 30
0.0
  0
ENDBLK
  5
3565
330
3558
100
AcDbEntity
  8
0
100
AcDbBlockEnd
  0
BLOCK
  5
3570
330
3566
100
AcDbEntity
  8
0
100
AcDbBlockBegin
  2
*D34
 70
     1
 10
0.0
 20
0.0
 30
0.0
  3
*D34
  1

  0
LINE
  5
3613
330
3566
100
AcDbEntity
  8
寸法線1
 62
     0
370
    -2
100
AcDbLine
 10
217.9999999999999
 20
1948.015479771257
 30
0.0
 11
131.6160416293388
 21
1948.015479771257
 31
0.0
  0
LINE
  5
3614
330
3566
100
AcDbEntity
  8
寸法線1
 62
     0
370
    -2
100
AcDbLine
 10
203.0
 20
2334.515479771257
 30
0.0
 11
131.6160416293389
 21
2334.515479771257
 31
0.0
  0
LINE
  5
3615
330
3566
100
AcDbEntity
  8
寸法線1
 62
     0
370
    -2
100
AcDbLine
 10
136.6160416293388
 20
1958.015479771257
 30
0.0
 11
136.6160416293389
 21
2324.515479771257
 31
0.0
  0
INSERT
  5
3616
330
3566
100
AcDbEntity
  8
寸法線1
 62
     0
370
    -2
100
AcDbBlockReference
  2
_Open
 10
136.6160416293388
 20
1948.015479771257
 30
0.0
 41
10.0
 42
10.0
 43
10.0
 50
270.0
  0
INSERT
  5
3617
330
3566
100
AcDbEntity
  8
寸法線1
 62
     0
370
    -2
100
AcDbBlockReference
  2
_Open
 10
136.6160416293389
 20
2334.515479771257
 30
0.0
 41
10.0
 42
10.0
 43
10.0
 50
90.0
  0
MTEXT
  5
3618
330
3566
100
AcDbEntity
  8
寸法線1
 62
     0
100
AcDbMText
 10
126.6160416293385
 20
2180.790703259168
 30
0.0
 40
12.0
 41
0.0
 71
     5
 72
     1
  1
387.5
 11
0.0000000000000001
 21
1.0
 31
0.0
 73
     1
 44
1.0
  0
POINT
  5
3619
330
3566
100
AcDbEntity
  8
Defpoints
 62
     0
100
AcDbPoint
 10
221.9999999999999
 20
1948.015479771257
 30
0.0
  0
POINT
  5
361A
330
3566
100
AcDbEntity
  8
Defpoints
 62
     0
100
AcDbPoint
 10
207.0
 20
2334.515479771257
 30
0.0
  0
POINT
  5
361B
330
3566
100
AcDbEntity
  8
Defpoints
 62
     0
100
AcDbPoint
 10
136.6160416293389
 20
2334.515479771257
 30
0.0
  0
ENDBLK
  5
3571
330
3566
100
AcDbEntity
  8
0
100
AcDbBlockEnd
  0
BLOCK
  5
357E
330
3572
100
AcDbEntity
  8
0
100
AcDbBlockBegin
  2
*D35
 70
     1
 10
0.0
 20
0.0
 30
0.0
  3
*D35
  1

  0
LINE
  5
361C
330
3572
100
AcDbEntity
  8
寸法線1
 62
     0
370
    -2
100
AcDbLine
 10
1235.8737988832
 20
1858.015479771257
 30
0.0
 11
1235.8737988832
 21
1899.015479771257
 31
0.0
  0
LINE
  5
361D
330
3572
100
AcDbEntity
  8
寸法線1
 62
     0
370
    -2
100
AcDbLine
 10
1239.373798883199
 20
1851.015479771257
 30
0.0
 11
1239.373798883199
 21
1899.015479771257
 31
0.0
  0
LINE
  5
361E
330
3572
100
AcDbEntity
  8
寸法線1
 62
     0
370
    -2
100
AcDbLine
 10
1225.8737988832
 20
1894.015479771257
 30
0.0
 11
1215.8737988832
 21
1894.015479771257
 31
0.0
  0
LINE
  5
361F
330
3572
100
AcDbEntity
  8
寸法線1
 62
     0
370
    -2
100
AcDbLine
 10
1249.373798883198
 20
1894.015479771257
 30
0.0
 11
1293.373798883199
 21
1894.015479771257
 31
0.0
  0
LINE
  5
3620
330
3572
100
AcDbEntity
  8
寸法線1
 62
     0
370
    -2
100
AcDbLine
 10
1235.8737988832
 20
1894.015479771257
 30
0.0
 11
1239.373798883199
 21
1894.015479771257
 31
0.0
  0
INSERT
  5
3621
330
3572
100
AcDbEntity
  8
寸法線1
 62
     0
370
    -2
100
AcDbBlockReference
  2
_Open
 10
1235.8737988832
 20
1894.015479771257
 30
0.0
 41
10.0
 42
10.0
 43
10.0
  0
INSERT
  5
3622
330
3572
100
AcDbEntity
  8
寸法線1
 62
     0
370
    -2
100
AcDbBlockReference
  2
_Open
 10
1239.373798883199
 20
1894.015479771257
 30
0.0
 41
10.0
 42
10.0
 43
10.0
 50
180.0
  0
MTEXT
  5
3623
330
3572
100
AcDbEntity
  8
寸法線1
 62
     0
100
AcDbMText
 10
1276.373798883199
 20
1905.015479771257
 30
0.0
 40
12.0
 41
0.0
 71
     5
 72
     1
  1
3,5
 73
     1
 44
1.0
  0
POINT
  5
3624
330
3572
100
AcDbEntity
  8
Defpoints
 62
     0
100
AcDbPoint
 10
1235.8737988832
 20
1854.015479771257
 30
0.0
  0
POINT
  5
3625
330
3572
100
AcDbEntity
  8
Defpoints
 62
     0
100
AcDbPoint
 10
1239.373798883199
 20
1847.015479771257
 30
0.0
  0
POINT
  5
3626
330
3572
100
AcDbEntity
  8
Defpoints
 62
     0
100
AcDbPoint
 10
1239.373798883199
 20
1894.015479771257
 30
0.0
  0
ENDBLK
  5
357F
330
3572
100
AcDbEntity
  8
0
100
AcDbBlockEnd
  0
BLOCK
  5
358A
330
3580
100
AcDbEntity
  8
0
100
AcDbBlockBegin
  2
*D36
 70
     1
 10
0.0
 20
0.0
 30
0.0
  3
*D36
  1

  0
LINE
  5
3627
330
3580
100
AcDbEntity
  8
寸法線1
 62
     0
370
    -2
100
AcDbLine
 10
200.0
 20
1553.938291547707
 30
0.0
 11
200.0
 21
1489.231756931295
 31
0.0
  0
LINE
  5
3628
330
3580
100
AcDbEntity
  8
寸法線1
 62
     0
370
    -2
100
AcDbLine
 10
646.7000083044863
 20
1582.028629094665
 30
0.0
 11
646.7000083044863
 21
1489.231756931295
 31
0.0
  0
LINE
  5
3629
330
3580
100
AcDbEntity
  8
寸法線1
 62
     0
370
    -2
100
AcDbLine
 10
210.0
 20
1494.231756931295
 30
0.0
 11
636.7000083044863
 21
1494.231756931295
 31
0.0
  0
INSERT
  5
362A
330
3580
100
AcDbEntity
  8
寸法線1
 62
     0
370
    -2
100
AcDbBlockReference
  2
_Open
 10
200.0
 20
1494.231756931295
 30
0.0
 41
10.0
 42
10.0
 43
10.0
 50
180.0
  0
INSERT
  5
362B
330
3580
100
AcDbEntity
  8
寸法線1
 62
     0
370
    -2
100
AcDbBlockReference
  2
_Open
 10
646.7000083044863
 20
1494.231756931295
 30
0.0
 41
10.0
 42
10.0
 43
10.0
  0
MTEXT
  5
362C
330
3580
100
AcDbEntity
  8
寸法線1
 62
     0
100
AcDbMText
 10
421.1042538193323
 20
1504.231756931295
 30
0.0
 40
12.0
 41
0.0
 71
     5
 72
     1
  1
447
 73
     1
 44
1.0
  0
POINT
  5
362D
330
3580
100
AcDbEntity
  8
Defpoints
 62
     0
100
AcDbPoint
 10
200.0
 20
1557.938291547707
 30
0.0
  0
POINT
  5
362E
330
3580
100
AcDbEntity
  8
Defpoints
 62
     0
100
AcDbPoint
 10
646.7000083044863
 20
1586.028629094665
 30
0.0
  0
POINT
  5
362F
330
3580
100
AcDbEntity
  8
Defpoints
 62
     0
100
AcDbPoint
 10
646.7000083044863
 20
1494.231756931295
 30
0.0
  0
ENDBLK
  5
358B
330
3580
100
AcDbEntity
  8
0
100
AcDbBlockEnd
  0
BLOCK
  5
3598
330
358C
100
AcDbEntity
  8
0
100
AcDbBlockBegin
  2
*D37
 70
     1
 10
0.0
 20
0.0
 30
0.0
  3
*D37
  1

  0
LINE
  5
3630
330
358C
100
AcDbEntity
  8
寸法線1
 62
     0
370
    -2
100
AcDbLine
 10
640.0
 20
1573.015479771257
 30
0.0
 11
640.0
 21
1511.673493267512
 31
0.0
  0
LINE
  5
3631
330
358C
100
AcDbEntity
  8
寸法線1
 62
     0
370
    -2
100
AcDbLine
 10
646.7000083044863
 20
1582.028629094665
 30
0.0
 11
646.7000083044863
 21
1511.673493267512
 31
0.0
  0
LINE
  5
3632
330
358C
100
AcDbEntity
  8
寸法線1
 62
     0
370
    -2
100
AcDbLine
 10
630.0
 20
1516.673493267512
 30
0.0
 11
620.0
 21
1516.673493267512
 31
0.0
  0
LINE
  5
3633
330
358C
100
AcDbEntity
  8
寸法線1
 62
     0
370
    -2
100
AcDbLine
 10
656.7000083044863
 20
1516.673493267512
 30
0.0
 11
682.7000083044863
 21
1516.673493267512
 31
0.0
  0
LINE
  5
3634
330
358C
100
AcDbEntity
  8
寸法線1
 62
     0
370
    -2
100
AcDbLine
 10
640.0
 20
1516.673493267512
 30
0.0
 11
646.7000083044863
 21
1516.673493267512
 31
0.0
  0
INSERT
  5
3635
330
358C
100
AcDbEntity
  8
寸法線1
 62
     0
370
    -2
100
AcDbBlockReference
  2
_Open
 10
640.0
 20
1516.673493267512
 30
0.0
 41
10.0
 42
10.0
 43
10.0
  0
INSERT
  5
3636
330
358C
100
AcDbEntity
  8
寸法線1
 62
     0
370
    -2
100
AcDbBlockReference
  2
_Open
 10
646.7000083044863
 20
1516.673493267512
 30
0.0
 41
10.0
 42
10.0
 43
10.0
 50
180.0
  0
MTEXT
  5
3637
330
358C
100
AcDbEntity
  8
寸法線1
 62
     0
100
AcDbMText
 10
674.7000083044863
 20
1526.673493267512
 30
0.0
 40
12.0
 41
0.0
 71
     5
 72
     1
  1
7
 73
     1
 44
1.0
  0
POINT
  5
3638
330
358C
100
AcDbEntity
  8
Defpoints
 62
     0
100
AcDbPoint
 10
640.0
 20
1577.015479771257
 30
0.0
  0
POINT
  5
3639
330
358C
100
AcDbEntity
  8
Defpoints
 62
     0
100
AcDbPoint
 10
646.7000083044863
 20
1586.028629094665
 30
0.0
  0
POINT
  5
363A
330
358C
100
AcDbEntity
  8
Defpoints
 62
     0
100
AcDbPoint
 10
646.7000083044863
 20
1516.673493267512
 30
0.0
  0
ENDBLK
  5
3599
330
358C
100
AcDbEntity
  8
0
100
AcDbBlockEnd
  0
ENDSEC
  0
SECTION
  2
ENTITIES
  0
LINE
  5
4D6
330
1F
100
AcDbEntity
  8
1、実線
100
AcDbLine
 10
199.9999999999999
 20
557.0
 30
0.0
 11
640.0
 21
557.0
 31
0.0
  0
LINE
  5
4D7
330
1F
100
AcDbEntity
  8
1、実線
100
AcDbLine
 10
640.0
 20
557.0
 30
0.0
 11
640.0
 21
284.0
 31
0.0
  0
LINE
  5
4D8
330
1F
100
AcDbEntity
  8
1、実線
100
AcDbLine
 10
640.0
 20
280.0
 30
0.0
 11
199.9999999999998
 21
280.0
 31
0.0
  0
LINE
  5
4D9
330
1F
100
AcDbEntity
  8
1、実線
100
AcDbLine
 10
199.9999999999998
 20
280.0
 30
0.0
 11
199.9999999999998
 21
557.0
 31
0.0
  0
LINE
  5
4DA
330
1F
100
AcDbEntity
  8
1、実線
100
AcDbLine
 10
962.8737988831998
 20
557.0
 30
0.0
 11
1235.8737988832
 21
557.0
 31
0.0
  0
LINE
  5
4DB
330
1F
100
AcDbEntity
  8
1、実線
100
AcDbLine
 10
1235.8737988832
 20
557.0
 30
0.0
 11
1235.8737988832
 21
280.0
 31
0.0
  0
LINE
  5
4DC
330
1F
100
AcDbEntity
  8
1、実線
100
AcDbLine
 10
1235.8737988832
 20
280.0
 30
0.0
 11
915.8737988831996
 21
280.0
 31
0.0
  0
LINE
  5
4DD
330
1F
100
AcDbEntity
  8
1、実線
100
AcDbLine
 10
915.8737988831996
 20
280.0
 30
0.0
 11
915.8737988831996
 21
281.0
 31
0.0
  0
LINE
  5
4E4
330
1F
100
AcDbEntity
  8
1、実線
100
AcDbLine
 10
200.0
 20
1034.0
 30
0.0
 11
640.0
 21
1034.0
 31
0.0
  0
LINE
  5
4E5
330
1F
100
AcDbEntity
  8
1、実線
100
AcDbLine
 10
640.0
 20
1034.0
 30
0.0
 11
640.0
 21
761.0
 31
0.0
  0
LINE
  5
4E6
330
1F
100
AcDbEntity
  8
1、実線
100
AcDbLine
 10
624.0
 20
714.0
 30
0.0
 11
200.0
 21
714.0
 31
0.0
  0
LINE
  5
4E7
330
1F
100
AcDbEntity
  8
1、実線
100
AcDbLine
 10
200.0
 20
714.0
 30
0.0
 11
200.0
 21
1034.0
 31
0.0
  0
LINE
  5
4F5
330
1F
100
AcDbEntity
  8
1、実線
100
AcDbLine
 10
879.8757612889092
 20
555.0
 30
0.0
 11
899.8757612889093
 21
555.0
 31
0.0
  0
LINE
  5
4F6
330
1F
100
AcDbEntity
  8
1、実線
100
AcDbLine
 10
899.8737988831999
 20
555.0
 30
0.0
 11
899.8737988831999
 21
285.0
 31
0.0
  0
LINE
  5
4F7
330
1F
100
AcDbEntity
  8
1、実線
100
AcDbLine
 10
899.8757612889093
 20
285.0
 30
0.0
 11
879.8757612889092
 21
285.0
 31
0.0
  0
LINE
  5
4F8
330
1F
100
AcDbEntity
  8
1、実線
100
AcDbLine
 10
879.8757612889092
 20
285.0
 30
0.0
 11
879.8757612889092
 21
555.0
 31
0.0
  0
LINE
  5
4FA
330
1F
100
AcDbEntity
  8
1、実線
100
AcDbLine
 10
881.8737988831998
 20
560.0
 30
0.0
 11
962.8737988831998
 21
560.0
 31
0.0
  0
LINE
  5
4FB
330
1F
100
AcDbEntity
  8
1、実線
100
AcDbLine
 10
962.8737988831998
 20
560.0
 30
0.0
 11
962.8737988831998
 21
552.0
 31
0.0
  0
LINE
  5
4FD
330
1F
100
AcDbEntity
  8
1、実線
100
AcDbLine
 10
881.8737988831998
 20
560.0
 30
0.0
 11
881.8737988831998
 21
557.0
 31
0.0
  0
LINE
  5
4FE
330
1F
100
AcDbEntity
  8
1、実線
100
AcDbLine
 10
881.8737988831998
 20
557.0
 30
0.0
 11
901.3737988831998
 21
557.0
 31
0.0
  0
LINE
  5
4FF
330
1F
100
AcDbEntity
  8
1、実線
100
AcDbLine
 10
901.3737988831998
 20
560.0
 30
0.0
 11
901.3737988831998
 21
554.8
 31
0.0
  0
LINE
  5
500
330
1F
100
AcDbEntity
  8
1、実線
100
AcDbLine
 10
910.1737988831997
 20
544.0
 30
0.0
 11
954.8737988832
 21
544.0
 31
0.0
  0
ARC
  5
503
330
1F
100
AcDbEntity
  8
1、実線
100
AcDbCircle
 10
954.8737988832
 20
552.0
 30
0.0
 40
8.0
100
AcDbArc
 50
270.0
 51
0.0
  0
LINE
  5
508
330
1F
100
AcDbEntity
  8
1、実線
100
AcDbLine
 10
882.8737988831997
 20
557.0
 30
0.0
 11
882.8737988831997
 21
556.0
 31
0.0
  0
LINE
  5
509
330
1F
100
AcDbEntity
  8
1、実線
100
AcDbLine
 10
896.8737988831998
 20
557.0
 30
0.0
 11
896.8737988831998
 21
556.0
 31
0.0
  0
LINE
  5
50D
330
1F
100
AcDbEntity
  8
1、実線
100
AcDbLine
 10
882.8737988831997
 20
285.0
 30
0.0
 11
882.8737988831997
 21
284.0
 31
0.0
  0
LINE
  5
50E
330
1F
100
AcDbEntity
  8
1、実線
100
AcDbLine
 10
882.8737988831997
 20
284.0
 30
0.0
 11
896.8737988831998
 21
284.0
 31
0.0
  0
LINE
  5
50F
330
1F
100
AcDbEntity
  8
1、実線
100
AcDbLine
 10
896.8737988831998
 20
284.0
 30
0.0
 11
896.8737988831998
 21
285.0
 31
0.0
  0
LINE
  5
518
330
1F
100
AcDbEntity
  8
1、実線
100
AcDbLine
 10
900.1737988831997
 20
554.8
 30
0.0
 11
900.1737988831997
 21
542.7999999999998
 31
0.0
  0
LINE
  5
519
330
1F
100
AcDbEntity
  8
1、実線
100
AcDbLine
 10
900.1737988831997
 20
542.7999999999998
 30
0.0
 11
910.1737988831997
 21
542.7999999999998
 31
0.0
  0
LINE
  5
51A
330
1F
100
AcDbEntity
  8
1、実線
100
AcDbLine
 10
910.1737988831997
 20
542.7999999999998
 30
0.0
 11
910.1737988831997
 21
554.8
 31
0.0
  0
LINE
  5
51B
330
1F
100
AcDbEntity
  8
1、実線
100
AcDbLine
 10
910.1737988831997
 20
554.8
 30
0.0
 11
900.1737988831999
 21
554.8
 31
0.0
  0
LINE
  5
523
330
1F
100
AcDbEntity
  8
1、実線
100
AcDbLine
 10
881.8737988831998
 20
284.0
 30
0.0
 11
901.3737988831998
 21
284.0
 31
0.0
  0
LINE
  5
524
330
1F
100
AcDbEntity
  8
1、実線
100
AcDbLine
 10
901.3737988831998
 20
284.0
 30
0.0
 11
901.3737988831998
 21
286.2
 31
0.0
  0
LINE
  5
525
330
1F
100
AcDbEntity
  8
1、実線
100
AcDbLine
 10
910.1737988831997
 20
297.0
 30
0.0
 11
954.8737988832
 21
297.0
 31
0.0
  0
LINE
  5
526
330
1F
100
AcDbEntity
  8
1、実線
100
AcDbLine
 10
962.8737988831998
 20
289.0
 30
0.0
 11
962.8737988831998
 21
288.9999999999998
 31
0.0
  0
LINE
  5
527
330
1F
100
AcDbEntity
  8
1、実線
100
AcDbLine
 10
954.8737988832
 20
281.0
 30
0.0
 11
881.8737988831998
 21
281.0
 31
0.0
  0
LINE
  5
528
330
1F
100
AcDbEntity
  8
1、実線
100
AcDbLine
 10
881.8737988831998
 20
281.0
 30
0.0
 11
881.8737988831998
 21
284.0
 31
0.0
  0
LINE
  5
52B
330
1F
100
AcDbEntity
  8
1、実線
100
AcDbLine
 10
910.1737988831997
 20
298.1999999999998
 30
0.0
 11
900.1737988831997
 21
298.1999999999998
 31
0.0
  0
LINE
  5
52C
330
1F
100
AcDbEntity
  8
1、実線
100
AcDbLine
 10
900.1737988831997
 20
298.1999999999998
 30
0.0
 11
900.1737988831997
 21
286.1999999999998
 31
0.0
  0
LINE
  5
52D
330
1F
100
AcDbEntity
  8
1、実線
100
AcDbLine
 10
900.1737988831997
 20
286.1999999999998
 30
0.0
 11
910.1737988831997
 21
286.1999999999998
 31
0.0
  0
LINE
  5
52E
330
1F
100
AcDbEntity
  8
1、実線
100
AcDbLine
 10
910.1737988831997
 20
286.1999999999998
 30
0.0
 11
910.1737988831997
 21
298.1999999999998
 31
0.0
  0
LINE
  5
536
330
1F
100
AcDbEntity
  8
1、実線
100
AcDbLine
 10
882.8737988831997
 20
556.0
 30
0.0
 11
896.8737988831998
 21
556.0
 31
0.0
  0
LINE
  5
539
330
1F
100
AcDbEntity
  8
1、実線
100
AcDbLine
 10
885.8737988831999
 20
556.0
 30
0.0
 11
885.8737988831999
 21
555.0
 31
0.0
  0
LINE
  5
53A
330
1F
100
AcDbEntity
  8
1、実線
100
AcDbLine
 10
893.8737988831999
 20
556.0
 30
0.0
 11
893.8737988831999
 21
555.0
 31
0.0
  0
LINE
  5
56C
330
1F
100
AcDbEntity
  8
２，細線
100
AcDbLine
 10
956.1465910893357
 20
551.7071067811865
 30
0.0
 11
956.6503785203034
 21
552.2108942121543
 31
0.0
  0
LINE
  5
56D
330
1F
100
AcDbEntity
  8
２，細線
100
AcDbLine
 10
955.5809056643864
 20
552.2727922061358
 30
0.0
 11
956.0846930953541
 21
552.7765796371036
 31
0.0
  0
LINE
  5
56E
330
1F
100
AcDbEntity
  8
２，細線
100
AcDbLine
 10
953.6010066770641
 20
551.7071067811865
 30
0.0
 11
953.0972192460962
 21
552.2108942121543
 31
0.0
  0
LINE
  5
56F
330
1F
100
AcDbEntity
  8
２，細線
100
AcDbLine
 10
954.1666921020132
 20
552.2727922061358
 30
0.0
 11
953.6629046710457
 21
552.7765796371036
 31
0.0
  0
ARC
  5
570
330
1F
100
AcDbEntity
  8
２，細線
100
AcDbCircle
 10
954.8737988831998
 20
552.9798989873221
 30
0.0
 40
1.0
100
AcDbArc
 50
225.0000000000002
 51
314.9999999999997
  0
LINE
  5
571
330
1F
100
AcDbEntity
  8
２，細線
100
AcDbLine
 10
954.1666921020132
 20
549.7272077938641
 30
0.0
 11
953.6629046710457
 21
549.2234203628964
 31
0.0
  0
ARC
  5
572
330
1F
100
AcDbEntity
  8
２，細線
100
AcDbCircle
 10
954.8737988831998
 20
549.0201010126777
 30
0.0
 40
1.0
100
AcDbArc
 50
45.00000000000019
 51
134.9999999999998
  0
LINE
  5
573
330
1F
100
AcDbEntity
  8
２，細線
100
AcDbLine
 10
953.6010066770641
 20
550.2928932188134
 30
0.0
 11
953.0972192460962
 21
549.7891057878456
 31
0.0
  0
ARC
  5
574
330
1F
100
AcDbEntity
  8
２，細線
100
AcDbCircle
 10
952.8938998958777
 20
551.0
 30
0.0
 40
1.0
100
AcDbArc
 50
314.9999999999997
 51
45.00000000000019
  0
LINE
  5
575
330
1F
100
AcDbEntity
  8
２，細線
100
AcDbLine
 10
955.5809056643864
 20
549.7272077938641
 30
0.0
 11
956.0846930953541
 21
549.2234203628964
 31
0.0
  0
LINE
  5
576
330
1F
100
AcDbEntity
  8
２，細線
100
AcDbLine
 10
956.1465910893357
 20
550.2928932188134
 30
0.0
 11
956.6503785203034
 21
549.7891057878456
 31
0.0
  0
ARC
  5
577
330
1F
100
AcDbEntity
  8
２，細線
100
AcDbCircle
 10
956.8536978705219
 20
551.0
 30
0.0
 40
1.0
100
AcDbArc
 50
134.9999999999998
 51
225.0000000000002
  0
ARC
  5
578
330
1F
100
AcDbEntity
  8
２，細線
100
AcDbCircle
 10
954.8737988831998
 20
551.0
 30
0.0
 40
2.149999999999999
100
AcDbArc
 50
304.2778475844627
 51
325.7221524155414
  0
ARC
  5
579
330
1F
100
AcDbEntity
  8
２，細線
100
AcDbCircle
 10
954.8737988831998
 20
551.0
 30
0.0
 40
2.149999999999999
100
AcDbArc
 50
34.27784758446229
 51
55.7221524155372
  0
ARC
  5
57A
330
1F
100
AcDbEntity
  8
２，細線
100
AcDbCircle
 10
954.8737988831998
 20
551.0
 30
0.0
 40
2.149999999999999
100
AcDbArc
 50
124.2778475844572
 51
145.7221524155375
  0
ARC
  5
57B
330
1F
100
AcDbEntity
  8
２，細線
100
AcDbCircle
 10
954.8737988831998
 20
551.0
 30
0.0
 40
2.149999999999999
100
AcDbArc
 50
214.2778475844621
 51
235.7221524155372
  0
LINE
  5
57C
330
1F
100
AcDbEntity
  8
２，細線
100
AcDbLine
 10
953.6010066770641
 20
551.7071067811865
 30
0.0
 11
953.0972192460962
 21
552.2108942121543
 31
0.0
  0
LINE
  5
580
330
1F
100
AcDbEntity
  8
２，細線
100
AcDbLine
 10
926.1465910893356
 20
551.7071067811865
 30
0.0
 11
926.6503785203036
 21
552.2108942121543
 31
0.0
  0
LINE
  5
581
330
1F
100
AcDbEntity
  8
２，細線
100
AcDbLine
 10
925.5809056643865
 20
552.2727922061358
 30
0.0
 11
926.0846930953542
 21
552.7765796371036
 31
0.0
  0
LINE
  5
582
330
1F
100
AcDbEntity
  8
２，細線
100
AcDbLine
 10
923.601006677064
 20
551.7071067811865
 30
0.0
 11
923.0972192460962
 21
552.2108942121543
 31
0.0
  0
LINE
  5
583
330
1F
100
AcDbEntity
  8
２，細線
100
AcDbLine
 10
924.1666921020133
 20
552.2727922061358
 30
0.0
 11
923.6629046710453
 21
552.7765796371036
 31
0.0
  0
ARC
  5
584
330
1F
100
AcDbEntity
  8
２，細線
100
AcDbCircle
 10
924.8737988831996
 20
552.9798989873221
 30
0.0
 40
1.0
100
AcDbArc
 50
225.0000000000002
 51
314.9999999999997
  0
LINE
  5
585
330
1F
100
AcDbEntity
  8
２，細線
100
AcDbLine
 10
924.1666921020133
 20
549.7272077938641
 30
0.0
 11
923.6629046710453
 21
549.2234203628964
 31
0.0
  0
ARC
  5
586
330
1F
100
AcDbEntity
  8
２，細線
100
AcDbCircle
 10
924.8737988831996
 20
549.0201010126777
 30
0.0
 40
1.0
100
AcDbArc
 50
45.00000000000023
 51
134.9999999999996
  0
LINE
  5
587
330
1F
100
AcDbEntity
  8
２，細線
100
AcDbLine
 10
923.601006677064
 20
550.2928932188134
 30
0.0
 11
923.0972192460962
 21
549.7891057878456
 31
0.0
  0
ARC
  5
588
330
1F
100
AcDbEntity
  8
２，細線
100
AcDbCircle
 10
922.8938998958772
 20
551.0
 30
0.0
 40
1.0
100
AcDbArc
 50
314.9999999999997
 51
45.00000000000023
  0
LINE
  5
589
330
1F
100
AcDbEntity
  8
２，細線
100
AcDbLine
 10
925.5809056643865
 20
549.7272077938641
 30
0.0
 11
926.0846930953542
 21
549.2234203628964
 31
0.0
  0
LINE
  5
58A
330
1F
100
AcDbEntity
  8
２，細線
100
AcDbLine
 10
926.1465910893356
 20
550.2928932188134
 30
0.0
 11
926.6503785203036
 21
549.7891057878456
 31
0.0
  0
ARC
  5
58B
330
1F
100
AcDbEntity
  8
２，細線
100
AcDbCircle
 10
926.8536978705222
 20
551.0
 30
0.0
 40
1.0
100
AcDbArc
 50
134.9999999999996
 51
225.0000000000002
  0
ARC
  5
58C
330
1F
100
AcDbEntity
  8
２，細線
100
AcDbCircle
 10
924.8737988831996
 20
551.0
 30
0.0
 40
2.149999999999999
100
AcDbArc
 50
304.2778475844627
 51
325.7221524155414
  0
ARC
  5
58D
330
1F
100
AcDbEntity
  8
２，細線
100
AcDbCircle
 10
924.8737988831996
 20
551.0
 30
0.0
 40
2.149999999999999
100
AcDbArc
 50
34.27784758446227
 51
55.7221524155372
  0
ARC
  5
58E
330
1F
100
AcDbEntity
  8
２，細線
100
AcDbCircle
 10
924.8737988831996
 20
551.0
 30
0.0
 40
2.149999999999999
100
AcDbArc
 50
124.2778475844572
 51
145.7221524155376
  0
ARC
  5
58F
330
1F
100
AcDbEntity
  8
２，細線
100
AcDbCircle
 10
924.8737988831996
 20
551.0
 30
0.0
 40
2.149999999999999
100
AcDbArc
 50
214.2778475844621
 51
235.7221524155372
  0
LINE
  5
590
330
1F
100
AcDbEntity
  8
２，細線
100
AcDbLine
 10
923.601006677064
 20
551.7071067811865
 30
0.0
 11
923.0972192460962
 21
552.2108942121543
 31
0.0
  0
LINE
  5
594
330
1F
100
AcDbEntity
  8
２，細線
100
AcDbLine
 10
956.1465910893357
 20
289.7071067811864
 30
0.0
 11
956.6503785203034
 21
290.2108942121543
 31
0.0
  0
LINE
  5
595
330
1F
100
AcDbEntity
  8
２，細線
100
AcDbLine
 10
955.5809056643864
 20
290.2727922061358
 30
0.0
 11
956.0846930953541
 21
290.7765796371035
 31
0.0
  0
LINE
  5
596
330
1F
100
AcDbEntity
  8
２，細線
100
AcDbLine
 10
953.6010066770641
 20
289.7071067811864
 30
0.0
 11
953.0972192460962
 21
290.2108942121543
 31
0.0
  0
LINE
  5
597
330
1F
100
AcDbEntity
  8
２，細線
100
AcDbLine
 10
954.1666921020132
 20
290.2727922061358
 30
0.0
 11
953.6629046710457
 21
290.7765796371036
 31
0.0
  0
ARC
  5
598
330
1F
100
AcDbEntity
  8
２，細線
100
AcDbCircle
 10
954.8737988831998
 20
290.9798989873223
 30
0.0
 40
1.0
100
AcDbArc
 50
225.0000000000003
 51
314.9999999999995
  0
LINE
  5
599
330
1F
100
AcDbEntity
  8
２，細線
100
AcDbLine
 10
954.1666921020132
 20
287.7272077938641
 30
0.0
 11
953.6629046710457
 21
287.2234203628963
 31
0.0
  0
ARC
  5
59A
330
1F
100
AcDbEntity
  8
２，細線
100
AcDbCircle
 10
954.8737988831998
 20
287.0201010126777
 30
0.0
 40
1.0
100
AcDbArc
 50
45.00000000000033
 51
134.9999999999996
  0
LINE
  5
59B
330
1F
100
AcDbEntity
  8
２，細線
100
AcDbLine
 10
953.6010066770641
 20
288.2928932188134
 30
0.0
 11
953.0972192460962
 21
287.7891057878455
 31
0.0
  0
ARC
  5
59C
330
1F
100
AcDbEntity
  8
２，細線
100
AcDbCircle
 10
952.8938998958777
 20
289.0
 30
0.0
 40
1.0
100
AcDbArc
 50
314.9999999999995
 51
45.00000000000033
  0
LINE
  5
59D
330
1F
100
AcDbEntity
  8
２，細線
100
AcDbLine
 10
955.5809056643864
 20
287.7272077938641
 30
0.0
 11
956.0846930953541
 21
287.2234203628963
 31
0.0
  0
LINE
  5
59E
330
1F
100
AcDbEntity
  8
２，細線
100
AcDbLine
 10
956.1465910893357
 20
288.2928932188134
 30
0.0
 11
956.6503785203034
 21
287.7891057878455
 31
0.0
  0
ARC
  5
59F
330
1F
100
AcDbEntity
  8
２，細線
100
AcDbCircle
 10
956.8536978705219
 20
289.0
 30
0.0
 40
1.0
100
AcDbArc
 50
134.9999999999996
 51
225.0000000000003
  0
ARC
  5
5A0
330
1F
100
AcDbEntity
  8
２，細線
100
AcDbCircle
 10
954.8737988831998
 20
289.0
 30
0.0
 40
2.149999999999999
100
AcDbArc
 50
304.2778475844637
 51
325.7221524155426
  0
ARC
  5
5A1
330
1F
100
AcDbEntity
  8
２，細線
100
AcDbCircle
 10
954.8737988831998
 20
289.0
 30
0.0
 40
2.149999999999999
100
AcDbArc
 50
34.27784758446123
 51
55.72215241553618
  0
ARC
  5
5A2
330
1F
100
AcDbEntity
  8
２，細線
100
AcDbCircle
 10
954.8737988831998
 20
289.0
 30
0.0
 40
2.149999999999999
100
AcDbArc
 50
124.2778475844581
 51
145.7221524155387
  0
ARC
  5
5A3
330
1F
100
AcDbEntity
  8
２，細線
100
AcDbCircle
 10
954.8737988831998
 20
289.0
 30
0.0
 40
2.149999999999999
100
AcDbArc
 50
214.2778475844612
 51
235.7221524155361
  0
LINE
  5
5A4
330
1F
100
AcDbEntity
  8
２，細線
100
AcDbLine
 10
953.6010066770641
 20
289.7071067811864
 30
0.0
 11
953.0972192460962
 21
290.2108942121543
 31
0.0
  0
LINE
  5
5A8
330
1F
100
AcDbEntity
  8
２，細線
100
AcDbLine
 10
926.1465910893356
 20
289.7071067811864
 30
0.0
 11
926.6503785203036
 21
290.2108942121543
 31
0.0
  0
LINE
  5
5A9
330
1F
100
AcDbEntity
  8
２，細線
100
AcDbLine
 10
925.5809056643865
 20
290.2727922061358
 30
0.0
 11
926.0846930953542
 21
290.7765796371035
 31
0.0
  0
LINE
  5
5AA
330
1F
100
AcDbEntity
  8
２，細線
100
AcDbLine
 10
923.601006677064
 20
289.7071067811864
 30
0.0
 11
923.0972192460962
 21
290.2108942121543
 31
0.0
  0
LINE
  5
5AB
330
1F
100
AcDbEntity
  8
２，細線
100
AcDbLine
 10
924.1666921020133
 20
290.2727922061358
 30
0.0
 11
923.6629046710453
 21
290.7765796371036
 31
0.0
  0
ARC
  5
5AC
330
1F
100
AcDbEntity
  8
２，細線
100
AcDbCircle
 10
924.8737988831996
 20
290.9798989873223
 30
0.0
 40
1.0
100
AcDbArc
 50
225.0000000000003
 51
314.9999999999995
  0
LINE
  5
5AD
330
1F
100
AcDbEntity
  8
２，細線
100
AcDbLine
 10
924.1666921020133
 20
287.7272077938641
 30
0.0
 11
923.6629046710453
 21
287.2234203628963
 31
0.0
  0
ARC
  5
5AE
330
1F
100
AcDbEntity
  8
２，細線
100
AcDbCircle
 10
924.8737988831996
 20
287.0201010126777
 30
0.0
 40
1.0
100
AcDbArc
 50
45.00000000000038
 51
134.9999999999996
  0
LINE
  5
5AF
330
1F
100
AcDbEntity
  8
２，細線
100
AcDbLine
 10
923.601006677064
 20
288.2928932188134
 30
0.0
 11
923.0972192460962
 21
287.7891057878455
 31
0.0
  0
ARC
  5
5B0
330
1F
100
AcDbEntity
  8
２，細線
100
AcDbCircle
 10
922.8938998958772
 20
289.0
 30
0.0
 40
1.0
100
AcDbArc
 50
314.9999999999995
 51
45.00000000000038
  0
LINE
  5
5B1
330
1F
100
AcDbEntity
  8
２，細線
100
AcDbLine
 10
925.5809056643865
 20
287.7272077938641
 30
0.0
 11
926.0846930953542
 21
287.2234203628963
 31
0.0
  0
LINE
  5
5B2
330
1F
100
AcDbEntity
  8
２，細線
100
AcDbLine
 10
926.1465910893356
 20
288.2928932188134
 30
0.0
 11
926.6503785203036
 21
287.7891057878455
 31
0.0
  0
ARC
  5
5B3
330
1F
100
AcDbEntity
  8
２，細線
100
AcDbCircle
 10
926.8536978705222
 20
289.0
 30
0.0
 40
1.0
100
AcDbArc
 50
134.9999999999996
 51
225.0000000000003
  0
ARC
  5
5B4
330
1F
100
AcDbEntity
  8
２，細線
100
AcDbCircle
 10
924.8737988831996
 20
289.0
 30
0.0
 40
2.149999999999999
100
AcDbArc
 50
304.2778475844637
 51
325.7221524155426
  0
ARC
  5
5B5
330
1F
100
AcDbEntity
  8
２，細線
100
AcDbCircle
 10
924.8737988831996
 20
289.0
 30
0.0
 40
2.149999999999999
100
AcDbArc
 50
34.27784758446056
 51
55.72215241553618
  0
ARC
  5
5B6
330
1F
100
AcDbEntity
  8
２，細線
100
AcDbCircle
 10
924.8737988831996
 20
289.0
 30
0.0
 40
2.149999999999999
100
AcDbArc
 50
124.2778475844581
 51
145.7221524155394
  0
ARC
  5
5B7
330
1F
100
AcDbEntity
  8
２，細線
100
AcDbCircle
 10
924.8737988831996
 20
289.0
 30
0.0
 40
2.149999999999999
100
AcDbArc
 50
214.2778475844604
 51
235.7221524155361
  0
LINE
  5
5B8
330
1F
100
AcDbEntity
  8
２，細線
100
AcDbLine
 10
923.601006677064
 20
289.7071067811864
 30
0.0
 11
923.0972192460962
 21
290.2108942121543
 31
0.0
  0
ARC
  5
5BB
330
1F
100
AcDbEntity
  8
1、実線
100
AcDbCircle
 10
954.8737988832
 20
289.0
 30
0.0
 40
8.0
100
AcDbArc
 50
0.0
 51
90.0
  0
ARC
  5
5BC
330
1F
100
AcDbEntity
  8
1、実線
100
AcDbCircle
 10
954.8737988832
 20
289.0
 30
0.0
 40
8.0
100
AcDbArc
 50
270.0
 51
359.9999999999991
  0
LINE
  5
5BD
330
1F
100
AcDbEntity
  8
1、実線
100
AcDbLine
 10
915.8737988831996
 20
297.0
 30
0.0
 11
915.8737988831996
 21
544.0
 31
0.0
  0
LINE
  5
5C3
330
1F
100
AcDbEntity
  8
1、実線
100
AcDbLine
 10
904.8737988831998
 20
298.1999999999998
 30
0.0
 11
904.8737988831998
 21
542.7999999999998
 31
0.0
  0
LINE
  5
5C4
330
1F
100
AcDbEntity
  8
1、実線
100
AcDbLine
 10
908.8737988831995
 20
542.7999999999998
 30
0.0
 11
908.8737988831995
 21
298.1999999999998
 31
0.0
  0
LINE
  5
5CC
330
1F
100
AcDbEntity
  8
1、実線
100
AcDbLine
 10
624.0
 20
557.0
 30
0.0
 11
624.0
 21
560.0
 31
0.0
  0
LINE
  5
5CD
330
1F
100
AcDbEntity
  8
1、実線
100
AcDbLine
 10
624.0
 20
560.0
 30
0.0
 11
640.0
 21
560.0
 31
0.0
  0
LINE
  5
5CE
330
1F
100
AcDbEntity
  8
1、実線
100
AcDbLine
 10
643.0
 20
557.0
 30
0.0
 11
643.0
 21
556.0
 31
0.0
  0
LINE
  5
5D0
330
1F
100
AcDbEntity
  8
1、実線
100
AcDbLine
 10
640.0
 20
556.0
 30
0.0
 11
644.2
 21
556.0
 31
0.0
  0
LINE
  5
5D1
330
1F
100
AcDbEntity
  8
1、実線
100
AcDbLine
 10
644.2
 20
556.0
 30
0.0
 11
644.2
 21
542.7999999999998
 31
0.0
  0
LINE
  5
5D2
330
1F
100
AcDbEntity
  8
1、実線
100
AcDbLine
 10
644.2
 20
542.7999999999998
 30
0.0
 11
640.0
 21
542.7999999999998
 31
0.0
  0
ARC
  5
5D3
330
1F
100
AcDbEntity
  8
1、実線
100
AcDbCircle
 10
640.0
 20
557.0
 30
0.0
 40
3.0
100
AcDbArc
 50
0.0
 51
90.0
  0
LINE
  5
5D6
330
1F
100
AcDbEntity
  8
1、実線
100
AcDbLine
 10
640.0
 20
555.0
 30
0.0
 11
200.0
 21
555.0
 31
0.0
  0
LINE
  5
5D8
330
1F
100
AcDbEntity
  8
1、実線
100
AcDbLine
 10
640.0
 20
285.0
 30
0.0
 11
199.9999999999998
 21
285.0000000000001
 31
0.0
  0
LINE
  5
5DA
330
1F
100
AcDbEntity
  8
1、実線
100
AcDbLine
 10
623.9999999999999
 20
284.0
 30
0.0
 11
639.9999999999997
 21
284.0
 31
0.0
  0
LINE
  5
5DB
330
1F
100
AcDbEntity
  8
1、実線
100
AcDbLine
 10
623.9999999999999
 20
284.0
 30
0.0
 11
623.9999999999999
 21
281.0
 31
0.0
  0
LINE
  5
5DC
330
1F
100
AcDbEntity
  8
1、実線
100
AcDbLine
 10
623.9999999999999
 20
281.0
 30
0.0
 11
639.9999999999997
 21
281.0
 31
0.0
  0
LINE
  5
5DF
330
1F
100
AcDbEntity
  8
1、実線
100
AcDbLine
 10
624.9999999999999
 20
285.0
 30
0.0
 11
624.9999999999999
 21
284.0
 31
0.0
  0
LINE
  5
5E0
330
1F
100
AcDbEntity
  8
1、実線
100
AcDbLine
 10
638.9999999999997
 20
285.0
 30
0.0
 11
638.9999999999997
 21
284.0
 31
0.0
  0
LINE
  5
5E7
330
1F
100
AcDbEntity
  8
1、実線
100
AcDbLine
 10
639.9999999999997
 20
298.1999999999998
 30
0.0
 11
644.1999999999998
 21
298.1999999999998
 31
0.0
  0
LINE
  5
5E8
330
1F
100
AcDbEntity
  8
1、実線
100
AcDbLine
 10
644.1999999999998
 20
298.1999999999998
 30
0.0
 11
644.1999999999998
 21
286.1999999999998
 31
0.0
  0
LINE
  5
5E9
330
1F
100
AcDbEntity
  8
1、実線
100
AcDbLine
 10
644.1999999999998
 20
286.1999999999998
 30
0.0
 11
640.0
 21
286.1999999999998
 31
0.0
  0
LINE
  5
5EA
330
1F
100
AcDbEntity
  8
1、実線
100
AcDbLine
 10
642.9999999999997
 20
284.0
 30
0.0
 11
642.9999999999997
 21
286.1999999999998
 31
0.0
  0
ARC
  5
5EB
330
1F
100
AcDbEntity
  8
1、実線
100
AcDbCircle
 10
639.9999999999997
 20
284.0
 30
0.0
 40
3.0
100
AcDbArc
 50
270.0
 51
0.0
  0
LINE
  5
5ED
330
1F
100
AcDbEntity
  8
1、実線
100
AcDbLine
 10
640.0
 20
281.0
 30
0.0
 11
640.0
 21
280.0
 31
0.0
  0
ARC
  5
614
330
1F
100
AcDbEntity
  8
1、実線
100
AcDbCircle
 10
636.2896850293582
 20
289.0131493234076
 30
0.0
 40
10.41032327512807
100
AcDbArc
 50
337.3913822040798
 51
22.60861779592018
  0
LINE
  5
615
330
1F
100
AcDbEntity
  8
1、実線
100
AcDbLine
 10
644.1999999999998
 20
293.1499999999998
 30
0.0
 11
644.1999999999998
 21
284.85
 31
0.0
  0
LINE
  5
616
330
1F
100
AcDbEntity
  8
1、実線
100
AcDbLine
 10
644.1999999999998
 20
284.85
 30
0.0
 11
645.8999999999998
 21
285.0110652591066
 31
0.0
  0
LINE
  5
617
330
1F
100
AcDbEntity
  8
1、実線
100
AcDbLine
 10
644.1999999999998
 20
293.1499999999998
 30
0.0
 11
645.8999999999998
 21
293.0152333877087
 31
0.0
  0
ARC
  5
618
330
1F
100
AcDbEntity
  8
1、実線
100
AcDbCircle
 10
636.2896850293582
 20
551.0131493234077
 30
0.0
 40
10.41032327512807
100
AcDbArc
 50
337.3913822040788
 51
22.60861779591933
  0
LINE
  5
619
330
1F
100
AcDbEntity
  8
1、実線
100
AcDbLine
 10
644.2
 20
555.1499999999998
 30
0.0
 11
644.2
 21
546.85
 31
0.0
  0
LINE
  5
61A
330
1F
100
AcDbEntity
  8
1、実線
100
AcDbLine
 10
644.2
 20
546.85
 30
0.0
 11
645.9000000000002
 21
547.0110652591065
 31
0.0
  0
LINE
  5
61B
330
1F
100
AcDbEntity
  8
1、実線
100
AcDbLine
 10
644.2
 20
555.1499999999998
 30
0.0
 11
645.9000000000002
 21
555.0152333877085
 31
0.0
  0
CIRCLE
  5
61C
330
1F
100
AcDbEntity
  8
1、実線
100
AcDbCircle
 10
924.8737988831996
 20
551.0
 30
0.0
 40
4.15
  0
CIRCLE
  5
61D
330
1F
100
AcDbEntity
  8
1、実線
100
AcDbCircle
 10
954.8737988831998
 20
551.0
 30
0.0
 40
4.15
  0
CIRCLE
  5
61E
330
1F
100
AcDbEntity
  8
1、実線
100
AcDbCircle
 10
954.8737988831998
 20
289.0
 30
0.0
 40
4.15
  0
CIRCLE
  5
61F
330
1F
100
AcDbEntity
  8
1、実線
100
AcDbCircle
 10
924.8737988831996
 20
289.0
 30
0.0
 40
4.15
  0
LINE
  5
630
330
1F
100
AcDbEntity
  8
1、実線
100
AcDbLine
 10
645.8999999999998
 20
293.0152333877087
 30
0.0
 11
645.8999999999998
 21
285.0
 31
0.0
  0
LINE
  5
631
330
1F
100
AcDbEntity
  8
1、実線
100
AcDbLine
 10
645.9000000000002
 20
547.0110652591065
 30
0.0
 11
645.9000000000002
 21
555.0152333877088
 31
0.0
  0
LINE
  5
634
330
1F
100
AcDbEntity
  8
1、実線
100
AcDbLine
 10
625.0
 20
555.0
 30
0.0
 11
625.0
 21
556.0
 31
0.0
  0
LINE
  5
635
330
1F
100
AcDbEntity
  8
1、実線
100
AcDbLine
 10
625.0
 20
556.0
 30
0.0
 11
639.0
 21
556.0
 31
0.0
  0
LINE
  5
636
330
1F
100
AcDbEntity
  8
1、実線
100
AcDbLine
 10
639.0
 20
556.0
 30
0.0
 11
639.0
 21
555.0
 31
0.0
  0
LINE
  5
639
330
1F
100
AcDbEntity
  8
1、実線
100
AcDbLine
 10
628.0
 20
557.0
 30
0.0
 11
627.9999999999999
 21
556.0
 31
0.0
  0
LINE
  5
63A
330
1F
100
AcDbEntity
  8
1、実線
100
AcDbLine
 10
636.0
 20
557.0
 30
0.0
 11
636.0
 21
556.0
 31
0.0
  0
LINE
  5
648
330
1F
100
AcDbEntity
  8
中箱
100
AcDbLine
 10
239.9999999999999
 20
522.5
 30
0.0
 11
599.9999999999999
 21
522.5
 31
0.0
  0
LINE
  5
649
330
1F
100
AcDbEntity
  8
中箱
100
AcDbLine
 10
599.9999999999999
 20
522.5
 30
0.0
 11
599.9999999999999
 21
317.4999999999998
 31
0.0
  0
LINE
  5
64A
330
1F
100
AcDbEntity
  8
中箱
100
AcDbLine
 10
599.9999999999999
 20
317.5
 30
0.0
 11
239.9999999999999
 21
317.5
 31
0.0
  0
LINE
  5
64B
330
1F
100
AcDbEntity
  8
中箱
100
AcDbLine
 10
239.9999999999999
 20
317.5
 30
0.0
 11
239.9999999999999
 21
522.5
 31
0.0
  0
LINE
  5
656
330
1F
100
AcDbEntity
  8
中箱
100
AcDbLine
 10
915.8737988831996
 20
522.5
 30
0.0
 11
1170.873798883198
 21
522.5
 31
0.0
  0
LINE
  5
657
330
1F
100
AcDbEntity
  8
中箱
100
AcDbLine
 10
1170.873798883198
 20
522.5
 30
0.0
 11
1170.873798883198
 21
317.5
 31
0.0
  0
LINE
  5
658
330
1F
100
AcDbEntity
  8
中箱
100
AcDbLine
 10
1170.873798883198
 20
317.5
 30
0.0
 11
915.8737988831996
 21
317.5
 31
0.0
  0
CIRCLE
  5
65E
330
1F
100
AcDbEntity
  8
２，細線
100
AcDbCircle
 10
976.2338580580667
 20
316.5
 30
0.0
 40
0.5
  0
CIRCLE
  5
65F
330
1F
100
AcDbEntity
  8
２，細線
100
AcDbCircle
 10
971.2338580580667
 20
523.5
 30
0.0
 40
0.5
  0
CIRCLE
  5
660
330
1F
100
AcDbEntity
  8
２，細線
100
AcDbCircle
 10
981.2338580580668
 20
523.5
 30
0.0
 40
0.5
  0
CIRCLE
  5
661
330
1F
100
AcDbEntity
  8
２，細線
100
AcDbCircle
 10
991.2338580580668
 20
523.5
 30
0.0
 40
0.5
  0
CIRCLE
  5
662
330
1F
100
AcDbEntity
  8
２，細線
100
AcDbCircle
 10
1001.233858058065
 20
523.5
 30
0.0
 40
0.5
  0
CIRCLE
  5
663
330
1F
100
AcDbEntity
  8
２，細線
100
AcDbCircle
 10
1011.233858058065
 20
523.5
 30
0.0
 40
0.5
  0
CIRCLE
  5
664
330
1F
100
AcDbEntity
  8
２，細線
100
AcDbCircle
 10
1021.233858058065
 20
523.5
 30
0.0
 40
0.5
  0
CIRCLE
  5
665
330
1F
100
AcDbEntity
  8
２，細線
100
AcDbCircle
 10
1031.233858058066
 20
523.5
 30
0.0
 40
0.5
  0
CIRCLE
  5
666
330
1F
100
AcDbEntity
  8
２，細線
100
AcDbCircle
 10
1041.233858058066
 20
523.5
 30
0.0
 40
0.5
  0
CIRCLE
  5
667
330
1F
100
AcDbEntity
  8
２，細線
100
AcDbCircle
 10
1051.233858058066
 20
523.5
 30
0.0
 40
0.5
  0
CIRCLE
  5
668
330
1F
100
AcDbEntity
  8
２，細線
100
AcDbCircle
 10
1061.233858058066
 20
523.5
 30
0.0
 40
0.5
  0
CIRCLE
  5
669
330
1F
100
AcDbEntity
  8
２，細線
100
AcDbCircle
 10
1071.233858058066
 20
523.5
 30
0.0
 40
0.5
  0
CIRCLE
  5
66A
330
1F
100
AcDbEntity
  8
２，細線
100
AcDbCircle
 10
1081.233858058066
 20
523.5
 30
0.0
 40
0.5
  0
CIRCLE
  5
66B
330
1F
100
AcDbEntity
  8
２，細線
100
AcDbCircle
 10
1091.233858058066
 20
523.5
 30
0.0
 40
0.5
  0
CIRCLE
  5
66C
330
1F
100
AcDbEntity
  8
２，細線
100
AcDbCircle
 10
1101.233858058066
 20
523.5
 30
0.0
 40
0.5
  0
CIRCLE
  5
66D
330
1F
100
AcDbEntity
  8
２，細線
100
AcDbCircle
 10
1111.233858058066
 20
523.5
 30
0.0
 40
0.5
  0
CIRCLE
  5
66E
330
1F
100
AcDbEntity
  8
２，細線
100
AcDbCircle
 10
1121.233858058066
 20
523.5
 30
0.0
 40
0.5
  0
CIRCLE
  5
66F
330
1F
100
AcDbEntity
  8
２，細線
100
AcDbCircle
 10
986.2338580580667
 20
316.5
 30
0.0
 40
0.5
  0
CIRCLE
  5
670
330
1F
100
AcDbEntity
  8
２，細線
100
AcDbCircle
 10
996.2338580580667
 20
316.5
 30
0.0
 40
0.5
  0
CIRCLE
  5
671
330
1F
100
AcDbEntity
  8
２，細線
100
AcDbCircle
 10
1006.233858058066
 20
316.5
 30
0.0
 40
0.5
  0
CIRCLE
  5
672
330
1F
100
AcDbEntity
  8
２，細線
100
AcDbCircle
 10
1016.233858058065
 20
316.5
 30
0.0
 40
0.5
  0
CIRCLE
  5
673
330
1F
100
AcDbEntity
  8
２，細線
100
AcDbCircle
 10
1026.233858058066
 20
316.5
 30
0.0
 40
0.5
  0
CIRCLE
  5
674
330
1F
100
AcDbEntity
  8
２，細線
100
AcDbCircle
 10
1036.233858058066
 20
316.5
 30
0.0
 40
0.5
  0
CIRCLE
  5
675
330
1F
100
AcDbEntity
  8
２，細線
100
AcDbCircle
 10
1046.233858058066
 20
316.5
 30
0.0
 40
0.5
  0
CIRCLE
  5
676
330
1F
100
AcDbEntity
  8
２，細線
100
AcDbCircle
 10
1056.233858058066
 20
316.5
 30
0.0
 40
0.5
  0
CIRCLE
  5
677
330
1F
100
AcDbEntity
  8
２，細線
100
AcDbCircle
 10
1066.233858058066
 20
316.5
 30
0.0
 40
0.5
  0
CIRCLE
  5
678
330
1F
100
AcDbEntity
  8
２，細線
100
AcDbCircle
 10
1076.233858058066
 20
316.5
 30
0.0
 40
0.5
  0
CIRCLE
  5
679
330
1F
100
AcDbEntity
  8
２，細線
100
AcDbCircle
 10
1086.233858058066
 20
316.5
 30
0.0
 40
0.5
  0
CIRCLE
  5
67A
330
1F
100
AcDbEntity
  8
２，細線
100
AcDbCircle
 10
1096.233858058066
 20
316.5
 30
0.0
 40
0.5
  0
CIRCLE
  5
67B
330
1F
100
AcDbEntity
  8
２，細線
100
AcDbCircle
 10
1106.233858058066
 20
316.5
 30
0.0
 40
0.5
  0
CIRCLE
  5
67C
330
1F
100
AcDbEntity
  8
２，細線
100
AcDbCircle
 10
1116.233858058066
 20
316.5
 30
0.0
 40
0.5
  0
CIRCLE
  5
67D
330
1F
100
AcDbEntity
  8
２，細線
100
AcDbCircle
 10
1126.233858058066
 20
316.5
 30
0.0
 40
0.5
  0
ARC
  5
691
330
1F
100
AcDbEntity
  8
1、実線
100
AcDbCircle
 10
632.0
 20
688.0
 30
0.0
 40
8.0
100
AcDbArc
 50
180.0
 51
0.0
  0
LINE
  5
692
330
1F
100
AcDbEntity
  8
1、実線
100
AcDbLine
 10
624.0
 20
688.0
 30
0.0
 11
624.0
 21
761.0
 31
0.0
  0
LINE
  5
693
330
1F
100
AcDbEntity
  8
1、実線
100
AcDbLine
 10
624.0
 20
761.0
 30
0.0
 11
643.0
 21
761.0
 31
0.0
  0
LINE
  5
694
330
1F
100
AcDbEntity
  8
1、実線
100
AcDbLine
 10
640.0
 20
698.0
 30
0.0
 11
640.0
 21
678.0
 31
0.0
  0
LINE
  5
695
330
1F
100
AcDbEntity
  8
1、実線
100
AcDbLine
 10
640.0
 20
678.0
 30
0.0
 11
199.9999999999998
 21
678.0
 31
0.0
  0
LINE
  5
696
330
1F
100
AcDbEntity
  8
1、実線
100
AcDbLine
 10
199.9999999999998
 20
678.0
 30
0.0
 11
199.9999999999998
 21
698.0
 31
0.0
  0
LINE
  5
697
330
1F
100
AcDbEntity
  8
1、実線
100
AcDbLine
 10
199.9999999999998
 20
698.0
 30
0.0
 11
624.0
 21
698.0
 31
0.0
  0
LINE
  5
69A
330
1F
100
AcDbEntity
  8
構築線2
100
AcDbLine
 10
643.0
 20
761.0
 30
0.0
 11
643.0
 21
699.5
 31
0.0
  0
LINE
  5
69B
330
1F
100
AcDbEntity
  8
構築線2
100
AcDbLine
 10
643.0
 20
699.5
 30
0.0
 11
640.0
 21
699.5
 31
0.0
  0
LINE
  5
69C
330
1F
100
AcDbEntity
  8
構築線2
100
AcDbLine
 10
640.0
 20
699.5
 30
0.0
 11
640.0
 21
688.0
 31
0.0
  0
LINE
  5
6A0
330
1F
100
AcDbEntity
  8
1、実線
100
AcDbLine
 10
640.0
 20
688.0
 30
0.0
 11
640.0
 21
699.5
 31
0.0
  0
LINE
  5
6A1
330
1F
100
AcDbEntity
  8
1、実線
100
AcDbLine
 10
640.0
 20
699.5
 30
0.0
 11
643.0
 21
699.5
 31
0.0
  0
LINE
  5
6A2
330
1F
100
AcDbEntity
  8
1、実線
100
AcDbLine
 10
643.0
 20
699.5
 30
0.0
 11
643.0
 21
761.0
 31
0.0
  0
ARC
  5
6AA
330
1F
100
AcDbEntity
  8
1、実線
100
AcDbCircle
 10
636.2896850293582
 20
753.0131493234075
 30
0.0
 40
10.41032327512807
100
AcDbArc
 50
337.3913822040788
 51
22.60861779592084
  0
LINE
  5
6AB
330
1F
100
AcDbEntity
  8
1、実線
100
AcDbLine
 10
644.2
 20
757.15
 30
0.0
 11
644.2
 21
748.85
 31
0.0
  0
LINE
  5
6AC
330
1F
100
AcDbEntity
  8
1、実線
100
AcDbLine
 10
644.2
 20
748.85
 30
0.0
 11
645.9000000000002
 21
749.0110652591067
 31
0.0
  0
LINE
  5
6AD
330
1F
100
AcDbEntity
  8
1、実線
100
AcDbLine
 10
644.2
 20
757.15
 30
0.0
 11
645.9000000000002
 21
757.0152333877087
 31
0.0
  0
LINE
  5
6AE
330
1F
100
AcDbEntity
  8
1、実線
100
AcDbLine
 10
645.9000000000002
 20
749.0110652591067
 30
0.0
 11
645.9000000000002
 21
757.0152333877087
 31
0.0
  0
ARC
  5
6AF
330
1F
100
AcDbEntity
  8
1、実線
100
AcDbCircle
 10
636.2896850293582
 20
723.0131493234075
 30
0.0
 40
10.41032327512807
100
AcDbArc
 50
337.3913822040788
 51
22.60861779592085
  0
LINE
  5
6B0
330
1F
100
AcDbEntity
  8
1、実線
100
AcDbLine
 10
644.2
 20
727.1499999999998
 30
0.0
 11
644.2
 21
718.85
 31
0.0
  0
LINE
  5
6B1
330
1F
100
AcDbEntity
  8
1、実線
100
AcDbLine
 10
644.2
 20
718.85
 30
0.0
 11
645.9000000000002
 21
719.0110652591065
 31
0.0
  0
LINE
  5
6B2
330
1F
100
AcDbEntity
  8
1、実線
100
AcDbLine
 10
644.2
 20
727.1499999999998
 30
0.0
 11
645.9000000000002
 21
727.0152333877087
 31
0.0
  0
LINE
  5
6B3
330
1F
100
AcDbEntity
  8
1、実線
100
AcDbLine
 10
645.9000000000002
 20
719.0110652591065
 30
0.0
 11
645.9000000000002
 21
727.0152333877087
 31
0.0
  0
LINE
  5
6B8
330
1F
100
AcDbEntity
  8
1、実線
100
AcDbLine
 10
643.0
 20
756.7999999999998
 30
0.0
 11
644.2
 21
756.7999999999998
 31
0.0
  0
LINE
  5
6B9
330
1F
100
AcDbEntity
  8
1、実線
100
AcDbLine
 10
643.0
 20
749.2
 30
0.0
 11
644.2
 21
749.2
 31
0.0
  0
LINE
  5
6BA
330
1F
100
AcDbEntity
  8
1、実線
100
AcDbLine
 10
643.0
 20
726.7999999999998
 30
0.0
 11
643.0
 21
726.7999999999998
 31
0.0
  0
LINE
  5
6BC
330
1F
100
AcDbEntity
  8
1、実線
100
AcDbLine
 10
643.0
 20
726.7999999999998
 30
0.0
 11
644.2000000000001
 21
726.7999999999998
 31
0.0
  0
LINE
  5
6BD
330
1F
100
AcDbEntity
  8
1、実線
100
AcDbLine
 10
643.0
 20
719.2
 30
0.0
 11
644.2
 21
719.2
 31
0.0
  0
LINE
  5
6BE
330
1F
100
AcDbEntity
  8
1、実線
100
AcDbLine
 10
200.0
 20
714.0
 30
0.0
 11
624.0
 21
714.0
 31
0.0
  0
LINE
  5
6C7
330
1F
100
AcDbEntity
  8
1、実線
100
AcDbLine
 10
202.9999999999998
 20
714.0
 30
0.0
 11
202.9999999999998
 21
709.0
 31
0.0
  0
LINE
  5
6C8
330
1F
100
AcDbEntity
  8
1、実線
100
AcDbLine
 10
202.9999999999998
 20
709.0
 30
0.0
 11
624.0
 21
709.0
 31
0.0
  0
LINE
  5
6CA
330
1F
100
AcDbEntity
  8
1、実線
100
AcDbLine
 10
201.9999999999999
 20
705.0
 30
0.0
 11
200.9999999999998
 21
698.0
 31
0.0
  0
ARC
  5
6CE
330
1F
100
AcDbEntity
  8
1、実線
100
AcDbCircle
 10
202.4999999999999
 20
707.0
 30
0.0
 40
1.5
100
AcDbArc
 50
90.0
 51
270.0
  0
LINE
  5
6D3
330
1F
100
AcDbEntity
  8
1、実線
100
AcDbLine
 10
202.4999999999999
 20
708.4999999999999
 30
0.0
 11
624.0
 21
708.4999999999999
 31
0.0
  0
LINE
  5
6D4
330
1F
100
AcDbEntity
  8
1、実線
100
AcDbLine
 10
624.0
 20
705.4999999999998
 30
0.0
 11
202.4999999999999
 21
705.4999999999998
 31
0.0
  0
LINE
  5
6D6
330
1F
100
AcDbEntity
  8
1、実線
100
AcDbLine
 10
201.9999999999999
 20
705.0
 30
0.0
 11
624.0
 21
705.0
 31
0.0
  0
LINE
  5
6DB
330
1F
100
AcDbEntity
  8
1、実線
100
AcDbLine
 10
205.9999999999997
 20
709.0
 30
0.0
 11
205.9999999999997
 21
708.4999999999999
 31
0.0
  0
LINE
  5
6DC
330
1F
100
AcDbEntity
  8
1、実線
100
AcDbLine
 10
203.9999999999999
 20
705.4999999999998
 30
0.0
 11
203.9999999999999
 21
705.0
 31
0.0
  0
LINE
  5
6EF
330
1F
100
AcDbEntity
  8
1、実線
100
AcDbLine
 10
638.0
 20
1034.0
 30
0.0
 11
638.0
 21
1035.0
 31
0.0
  0
LINE
  5
6F0
330
1F
100
AcDbEntity
  8
1、実線
100
AcDbLine
 10
638.0
 20
1035.0
 30
0.0
 11
202.0
 21
1035.0
 31
0.0
  0
LINE
  5
6F1
330
1F
100
AcDbEntity
  8
1、実線
100
AcDbLine
 10
202.0
 20
1035.0
 30
0.0
 11
202.0
 21
1034.0
 31
0.0
  0
ARC
  5
71B
330
1F
100
AcDbEntity
  8
２，細線
100
AcDbCircle
 10
207.0
 20
1031.4
 30
0.0
 40
6.100000000000001
100
AcDbArc
 50
39.60192708110674
 51
140.3980729188932
  0
LINE
  5
71C
330
1F
100
AcDbEntity
  8
２，細線
100
AcDbLine
 10
202.3
 20
1035.288444419043
 30
0.0
 11
211.6999999999999
 21
1035.288444419043
 31
0.0
  0
LINE
  5
71D
330
1F
100
AcDbEntity
  8
２，細線
100
AcDbLine
 10
202.3
 20
1035.288444419043
 30
0.0
 11
202.3
 21
1035.0
 31
0.0
  0
LINE
  5
71E
330
1F
100
AcDbEntity
  8
２，細線
100
AcDbLine
 10
202.3
 20
1035.0
 30
0.0
 11
211.6999999999999
 21
1035.0
 31
0.0
  0
LINE
  5
71F
330
1F
100
AcDbEntity
  8
２，細線
100
AcDbLine
 10
211.6999999999999
 20
1035.0
 30
0.0
 11
211.6999999999999
 21
1035.288444419043
 31
0.0
  0
ARC
  5
720
330
1F
100
AcDbEntity
  8
２，細線
100
AcDbCircle
 10
242.0
 20
1031.4
 30
0.0
 40
6.100000000000001
100
AcDbArc
 50
39.60192708110674
 51
140.3980729188932
  0
LINE
  5
721
330
1F
100
AcDbEntity
  8
２，細線
100
AcDbLine
 10
237.3
 20
1035.288444419043
 30
0.0
 11
246.7
 21
1035.288444419043
 31
0.0
  0
LINE
  5
722
330
1F
100
AcDbEntity
  8
２，細線
100
AcDbLine
 10
237.3
 20
1035.288444419043
 30
0.0
 11
237.3
 21
1035.0
 31
0.0
  0
LINE
  5
723
330
1F
100
AcDbEntity
  8
２，細線
100
AcDbLine
 10
237.3
 20
1035.0
 30
0.0
 11
246.7
 21
1035.0
 31
0.0
  0
LINE
  5
724
330
1F
100
AcDbEntity
  8
２，細線
100
AcDbLine
 10
246.7
 20
1035.0
 30
0.0
 11
246.7
 21
1035.288444419043
 31
0.0
  0
ARC
  5
725
330
1F
100
AcDbEntity
  8
２，細線
100
AcDbCircle
 10
420.0000000000001
 20
1031.4
 30
0.0
 40
6.100000000000001
100
AcDbArc
 50
39.60192708110779
 51
140.3980729188922
  0
LINE
  5
726
330
1F
100
AcDbEntity
  8
２，細線
100
AcDbLine
 10
415.3
 20
1035.288444419043
 30
0.0
 11
424.6999999999999
 21
1035.288444419043
 31
0.0
  0
LINE
  5
727
330
1F
100
AcDbEntity
  8
２，細線
100
AcDbLine
 10
415.3
 20
1035.288444419043
 30
0.0
 11
415.3
 21
1035.0
 31
0.0
  0
LINE
  5
728
330
1F
100
AcDbEntity
  8
２，細線
100
AcDbLine
 10
415.3
 20
1035.0
 30
0.0
 11
424.6999999999999
 21
1035.0
 31
0.0
  0
LINE
  5
729
330
1F
100
AcDbEntity
  8
２，細線
100
AcDbLine
 10
424.6999999999999
 20
1035.0
 30
0.0
 11
424.6999999999999
 21
1035.288444419043
 31
0.0
  0
ARC
  5
72A
330
1F
100
AcDbEntity
  8
２，細線
100
AcDbCircle
 10
598.0
 20
1031.4
 30
0.0
 40
6.100000000000001
100
AcDbArc
 50
39.60192708110779
 51
140.3980729188922
  0
LINE
  5
72B
330
1F
100
AcDbEntity
  8
２，細線
100
AcDbLine
 10
593.2999999999998
 20
1035.288444419043
 30
0.0
 11
602.7000000000001
 21
1035.288444419043
 31
0.0
  0
LINE
  5
72C
330
1F
100
AcDbEntity
  8
２，細線
100
AcDbLine
 10
593.2999999999998
 20
1035.288444419043
 30
0.0
 11
593.2999999999998
 21
1035.0
 31
0.0
  0
LINE
  5
72D
330
1F
100
AcDbEntity
  8
２，細線
100
AcDbLine
 10
593.2999999999998
 20
1035.0
 30
0.0
 11
602.7000000000001
 21
1035.0
 31
0.0
  0
LINE
  5
72E
330
1F
100
AcDbEntity
  8
２，細線
100
AcDbLine
 10
602.7000000000001
 20
1035.0
 30
0.0
 11
602.7000000000001
 21
1035.288444419043
 31
0.0
  0
ARC
  5
72F
330
1F
100
AcDbEntity
  8
２，細線
100
AcDbCircle
 10
633.0
 20
1031.4
 30
0.0
 40
6.100000000000001
100
AcDbArc
 50
39.60192708110779
 51
140.3980729188922
  0
LINE
  5
730
330
1F
100
AcDbEntity
  8
２，細線
100
AcDbLine
 10
628.2999999999998
 20
1035.288444419043
 30
0.0
 11
637.7
 21
1035.288444419043
 31
0.0
  0
LINE
  5
731
330
1F
100
AcDbEntity
  8
２，細線
100
AcDbLine
 10
628.2999999999998
 20
1035.288444419043
 30
0.0
 11
628.2999999999998
 21
1035.0
 31
0.0
  0
LINE
  5
732
330
1F
100
AcDbEntity
  8
２，細線
100
AcDbLine
 10
628.2999999999998
 20
1035.0
 30
0.0
 11
637.7
 21
1035.0
 31
0.0
  0
LINE
  5
733
330
1F
100
AcDbEntity
  8
２，細線
100
AcDbLine
 10
637.7
 20
1035.0
 30
0.0
 11
637.7
 21
1035.288444419043
 31
0.0
  0
ARC
  5
742
330
1F
100
AcDbEntity
  8
２，細線
100
AcDbCircle
 10
1233.2737988832
 20
427.4999999999998
 30
0.0
 40
6.100000000000001
100
AcDbArc
 50
309.6019270811071
 51
50.39807291889282
  0
LINE
  5
743
330
1F
100
AcDbEntity
  8
２，細線
100
AcDbLine
 10
1237.162243302244
 20
432.1999999999999
 30
0.0
 11
1237.162243302244
 21
422.7999999999999
 31
0.0
  0
LINE
  5
744
330
1F
100
AcDbEntity
  8
２，細線
100
AcDbLine
 10
1237.162243302244
 20
432.1999999999999
 30
0.0
 11
1236.873798883199
 21
432.1999999999999
 31
0.0
  0
LINE
  5
745
330
1F
100
AcDbEntity
  8
２，細線
100
AcDbLine
 10
1236.873798883199
 20
432.1999999999999
 30
0.0
 11
1236.873798883199
 21
422.7999999999999
 31
0.0
  0
LINE
  5
746
330
1F
100
AcDbEntity
  8
２，細線
100
AcDbLine
 10
1236.873798883199
 20
422.7999999999999
 30
0.0
 11
1237.162243302244
 21
422.7999999999999
 31
0.0
  0
ARC
  5
747
330
1F
100
AcDbEntity
  8
２，細線
100
AcDbCircle
 10
1233.2737988832
 20
305.0
 30
0.0
 40
6.100000000000001
100
AcDbArc
 50
309.6019270811071
 51
50.39807291889282
  0
LINE
  5
748
330
1F
100
AcDbEntity
  8
２，細線
100
AcDbLine
 10
1237.162243302244
 20
309.6999999999999
 30
0.0
 11
1237.162243302244
 21
300.3000000000001
 31
0.0
  0
LINE
  5
749
330
1F
100
AcDbEntity
  8
２，細線
100
AcDbLine
 10
1237.162243302244
 20
309.6999999999999
 30
0.0
 11
1236.873798883199
 21
309.6999999999999
 31
0.0
  0
LINE
  5
74A
330
1F
100
AcDbEntity
  8
２，細線
100
AcDbLine
 10
1236.873798883199
 20
309.6999999999999
 30
0.0
 11
1236.873798883199
 21
300.3000000000001
 31
0.0
  0
LINE
  5
74B
330
1F
100
AcDbEntity
  8
２，細線
100
AcDbLine
 10
1236.873798883199
 20
300.3000000000001
 30
0.0
 11
1237.162243302244
 21
300.3000000000001
 31
0.0
  0
LINE
  5
750
330
1F
100
AcDbEntity
  8
1、実線
100
AcDbLine
 10
1235.873798883199
 20
300.0
 30
0.0
 11
1236.873798883199
 21
300.0
 31
0.0
  0
LINE
  5
751
330
1F
100
AcDbEntity
  8
1、実線
100
AcDbLine
 10
1236.873798883199
 20
300.0
 30
0.0
 11
1236.873798883199
 21
554.9999999999998
 31
0.0
  0
ARC
  5
755
330
1F
100
AcDbEntity
  8
２，細線
100
AcDbCircle
 10
1233.273798883199
 20
549.9999999999999
 30
0.0
 40
6.100000000000001
100
AcDbArc
 50
309.6019270811078
 51
50.39807291889207
  0
LINE
  5
756
330
1F
100
AcDbEntity
  8
２，細線
100
AcDbLine
 10
1237.162243302244
 20
554.6999999999997
 30
0.0
 11
1237.162243302244
 21
545.3000000000002
 31
0.0
  0
LINE
  5
757
330
1F
100
AcDbEntity
  8
２，細線
100
AcDbLine
 10
1237.162243302244
 20
554.6999999999997
 30
0.0
 11
1236.873798883199
 21
554.6999999999997
 31
0.0
  0
LINE
  5
758
330
1F
100
AcDbEntity
  8
２，細線
100
AcDbLine
 10
1236.873798883199
 20
554.6999999999997
 30
0.0
 11
1236.873798883199
 21
545.3000000000002
 31
0.0
  0
LINE
  5
759
330
1F
100
AcDbEntity
  8
1、実線
100
AcDbLine
 10
1237.162243302244
 20
545.2999999999997
 30
0.0
 11
1236.873798883199
 21
545.2999999999997
 31
0.0
  0
LINE
  5
76F
330
1F
100
AcDbEntity
  8
4、破線2
100
AcDbLine
 10
1170.873798883198
 20
502.4999999999998
 30
0.0
 11
1174.8737988832
 21
502.4999999999998
 31
0.0
  0
LINE
  5
770
330
1F
100
AcDbEntity
  8
4、破線2
100
AcDbLine
 10
1174.8737988832
 20
502.4999999999998
 30
0.0
 11
1174.8737988832
 21
452.4999999999998
 31
0.0
  0
LINE
  5
771
330
1F
100
AcDbEntity
  8
4、破線2
100
AcDbLine
 10
1174.8737988832
 20
452.4999999999998
 30
0.0
 11
1170.873798883198
 21
452.4999999999998
 31
0.0
  0
LINE
  5
772
330
1F
100
AcDbEntity
  8
4、破線2
100
AcDbLine
 10
1170.873798883198
 20
452.4999999999998
 30
0.0
 11
1170.873798883198
 21
502.4999999999998
 31
0.0
  0
LINE
  5
773
330
1F
100
AcDbEntity
  8
4、破線2
100
AcDbLine
 10
1172.073798883199
 20
502.4999999999998
 30
0.0
 11
1172.073798883199
 21
452.4999999999998
 31
0.0
  0
LINE
  5
780
330
1F
100
AcDbEntity
  8
4、破線2
100
AcDbLine
 10
1174.8737988832
 20
483.0999999999998
 30
0.0
 11
1187.8737988832
 21
483.0999999999998
 31
0.0
  0
LINE
  5
781
330
1F
100
AcDbEntity
  8
4、破線2
100
AcDbLine
 10
1187.8737988832
 20
483.0999999999998
 30
0.0
 11
1187.8737988832
 21
471.8999999999998
 31
0.0
  0
LINE
  5
782
330
1F
100
AcDbEntity
  8
4、破線2
100
AcDbLine
 10
1187.8737988832
 20
471.8999999999998
 30
0.0
 11
1174.8737988832
 21
471.8999999999998
 31
0.0
  0
LINE
  5
783
330
1F
100
AcDbEntity
  8
4、破線2
100
AcDbLine
 10
1174.8737988832
 20
471.8999999999998
 30
0.0
 11
1174.8737988832
 21
483.0999999999998
 31
0.0
  0
LINE
  5
784
330
1F
100
AcDbEntity
  8
4、破線2
100
AcDbLine
 10
1186.673798883199
 20
483.0999999999998
 30
0.0
 11
1186.673798883199
 21
492.5999999999998
 31
0.0
  0
LINE
  5
785
330
1F
100
AcDbEntity
  8
4、破線2
100
AcDbLine
 10
1186.673798883199
 20
492.5999999999998
 30
0.0
 11
1187.8737988832
 21
492.5999999999998
 31
0.0
  0
LINE
  5
786
330
1F
100
AcDbEntity
  8
4、破線2
100
AcDbLine
 10
1187.8737988832
 20
492.5999999999998
 30
0.0
 11
1187.8737988832
 21
461.8999999999998
 31
0.0
  0
LINE
  5
787
330
1F
100
AcDbEntity
  8
4、破線2
100
AcDbLine
 10
1187.8737988832
 20
461.8999999999998
 30
0.0
 11
1186.673798883199
 21
461.8999999999998
 31
0.0
  0
LINE
  5
788
330
1F
100
AcDbEntity
  8
4、破線2
100
AcDbLine
 10
1186.673798883199
 20
461.8999999999998
 30
0.0
 11
1186.673798883199
 21
471.8999999999998
 31
0.0
  0
LINE
  5
792
330
1F
100
AcDbEntity
  8
4、破線2
100
AcDbLine
 10
1188.673798883199
 20
455.8999999999998
 30
0.0
 11
1185.673798883198
 21
455.8999999999998
 31
0.0
  0
LINE
  5
793
330
1F
100
AcDbEntity
  8
4、破線2
100
AcDbLine
 10
1185.673798883198
 20
455.8999999999998
 30
0.0
 11
1185.673798883198
 21
460.8999999999999
 31
0.0
  0
LINE
  5
794
330
1F
100
AcDbEntity
  8
4、破線2
100
AcDbLine
 10
1185.673798883198
 20
460.8999999999999
 30
0.0
 11
1187.8737988832
 21
460.8999999999999
 31
0.0
  0
LINE
  5
795
330
1F
100
AcDbEntity
  8
4、破線2
100
AcDbLine
 10
1187.8737988832
 20
460.8999999999999
 30
0.0
 11
1187.8737988832
 21
469.9999999999998
 31
0.0
  0
LINE
  5
797
330
1F
100
AcDbEntity
  8
4、破線2
100
AcDbLine
 10
1188.673798883199
 20
467.4999999999998
 30
0.0
 11
1188.673798883199
 21
455.8999999999998
 31
0.0
  0
LINE
  5
79A
330
1F
100
AcDbEntity
  8
4、破線2
100
AcDbLine
 10
1187.8737988832
 20
467.4999999999998
 30
0.0
 11
1188.673798883199
 21
467.4999999999998
 31
0.0
  0
LINE
  5
7A0
330
1F
100
AcDbEntity
  8
4、破線2
100
AcDbLine
 10
1188.673798883199
 20
469.9999999999998
 30
0.0
 11
1189.173798883198
 21
469.9999999999998
 31
0.0
  0
LINE
  5
7A1
330
1F
100
AcDbEntity
  8
4、破線2
100
AcDbLine
 10
1189.173798883198
 20
469.9999999999998
 30
0.0
 11
1189.173798883198
 21
462.2999999999998
 31
0.0
  0
LINE
  5
7A2
330
1F
100
AcDbEntity
  8
4、破線2
100
AcDbLine
 10
1189.173798883198
 20
462.2999999999998
 30
0.0
 11
1188.673798883199
 21
462.2999999999998
 31
0.0
  0
LINE
  5
7A3
330
1F
100
AcDbEntity
  8
4、破線2
100
AcDbLine
 10
1188.673798883199
 20
462.2999999999998
 30
0.0
 11
1188.673798883199
 21
469.9999999999998
 31
0.0
  0
ARC
  5
7A8
330
1F
100
AcDbEntity
  8
4、破線2
100
AcDbCircle
 10
1184.173798883199
 20
466.1499999999998
 30
0.0
 40
7.0
100
AcDbArc
 50
343.5407503717399
 51
16.45924962826011
  0
LINE
  5
7AF
330
1F
100
AcDbEntity
  8
4、破線2
100
AcDbLine
 10
1189.173798883198
 20
468.8499999999998
 30
0.0
 11
1189.927927835525
 21
468.8499999999998
 31
0.0
  0
LINE
  5
7B0
330
1F
100
AcDbEntity
  8
4、破線2
100
AcDbLine
 10
1189.173798883198
 20
463.4499999999999
 30
0.0
 11
1189.927927835525
 21
463.4499999999999
 31
0.0
  0
ARC
  5
7B1
330
1F
100
AcDbEntity
  8
4、破線2
100
AcDbCircle
 10
1189.927927835525
 20
467.8499999999998
 30
0.0
 40
1.0
100
AcDbArc
 50
16.45924962826009
 51
90.0
  0
ARC
  5
7B2
330
1F
100
AcDbEntity
  8
4、破線2
100
AcDbCircle
 10
1189.927927835525
 20
464.4499999999998
 30
0.0
 40
1.0
100
AcDbArc
 50
270.0
 51
343.5407503717399
  0
ARC
  5
7B7
330
1F
100
AcDbEntity
  8
4、破線2
 48
0.5
100
AcDbCircle
 10
1187.173798883198
 20
448.5999999999998
 30
0.0
 40
2.149999999999999
100
AcDbArc
 50
103.4477270445092
 51
76.55227295549079
  0
ARC
  5
7BA
330
1F
100
AcDbEntity
  8
4、破線2
100
AcDbCircle
 10
1187.173798883198
 20
448.5999999999998
 30
0.0
 40
0.5
100
AcDbArc
 50
180.0
 51
0.0
  0
LINE
  5
7BB
330
1F
100
AcDbEntity
  8
4、破線2
100
AcDbLine
 10
1186.673798883199
 20
448.5999999999998
 30
0.0
 11
1186.673798883199
 21
460.8999999999999
 31
0.0
  0
LINE
  5
7BC
330
1F
100
AcDbEntity
  8
4、破線2
100
AcDbLine
 10
1187.6737988832
 20
448.5999999999998
 30
0.0
 11
1187.6737988832
 21
460.8999999999999
 31
0.0
  0
LINE
  5
7C6
330
1F
100
AcDbEntity
  8
4、破線2
100
AcDbLine
 10
367.4999999999998
 20
502.4999999999998
 30
0.0
 11
472.4999999999998
 21
502.4999999999998
 31
0.0
  0
LINE
  5
7C7
330
1F
100
AcDbEntity
  8
4、破線2
100
AcDbLine
 10
472.4999999999998
 20
502.4999999999998
 30
0.0
 11
472.4999999999998
 21
452.4999999999998
 31
0.0
  0
LINE
  5
7C8
330
1F
100
AcDbEntity
  8
4、破線2
100
AcDbLine
 10
472.4999999999998
 20
452.4999999999998
 30
0.0
 11
367.4999999999998
 21
452.4999999999998
 31
0.0
  0
LINE
  5
7C9
330
1F
100
AcDbEntity
  8
4、破線2
100
AcDbLine
 10
367.4999999999998
 20
452.4999999999998
 30
0.0
 11
367.4999999999998
 21
502.4999999999998
 31
0.0
  0
LINE
  5
7CC
330
1F
100
AcDbEntity
  8
4、破線2
100
AcDbLine
 10
376.9999999999998
 20
502.4999999999998
 30
0.0
 11
376.9999999999998
 21
452.4999999999998
 31
0.0
  0
LINE
  5
7CD
330
1F
100
AcDbEntity
  8
4、破線2
100
AcDbLine
 10
462.9999999999998
 20
502.4999999999998
 30
0.0
 11
462.9999999999998
 21
452.4999999999998
 31
0.0
  0
CIRCLE
  5
7CF
330
1F
100
AcDbEntity
  8
4、破線2
100
AcDbCircle
 10
404.9999999999998
 20
477.4999999999998
 30
0.0
 40
7.5
  0
LINE
  5
7D4
330
1F
100
AcDbEntity
  8
4、破線2
100
AcDbLine
 10
426.9999999999998
 20
483.0999999999998
 30
0.0
 11
460.9999999999998
 21
483.0999999999998
 31
0.0
  0
LINE
  5
7D5
330
1F
100
AcDbEntity
  8
4、破線2
100
AcDbLine
 10
460.9999999999998
 20
483.0999999999998
 30
0.0
 11
460.9999999999998
 21
471.8999999999998
 31
0.0
  0
LINE
  5
7D6
330
1F
100
AcDbEntity
  8
4、破線2
100
AcDbLine
 10
460.9999999999998
 20
471.8999999999998
 30
0.0
 11
426.9999999999998
 21
471.8999999999998
 31
0.0
  0
LINE
  5
7D7
330
1F
100
AcDbEntity
  8
4、破線2
100
AcDbLine
 10
426.9999999999998
 20
471.8999999999998
 30
0.0
 11
426.9999999999998
 21
483.0999999999998
 31
0.0
  0
LINE
  5
7E0
330
1F
100
AcDbEntity
  8
4、破線2
100
AcDbLine
 10
429.7499999999998
 20
492.4999999999998
 30
0.0
 11
438.2499999999998
 21
492.4999999999998
 31
0.0
  0
LINE
  5
7E1
330
1F
100
AcDbEntity
  8
4、破線2
100
AcDbLine
 10
438.2499999999998
 20
492.4999999999998
 30
0.0
 11
438.2499999999998
 21
461.8999999999998
 31
0.0
  0
LINE
  5
7E2
330
1F
100
AcDbEntity
  8
4、破線2
100
AcDbLine
 10
438.2499999999998
 20
461.8999999999998
 30
0.0
 11
429.7499999999998
 21
461.8999999999998
 31
0.0
  0
LINE
  5
7E3
330
1F
100
AcDbEntity
  8
4、破線2
100
AcDbLine
 10
429.7499999999998
 20
461.8999999999998
 30
0.0
 11
429.7499999999998
 21
492.4999999999998
 31
0.0
  0
LINE
  5
7E4
330
1F
100
AcDbEntity
  8
4、破線2
100
AcDbLine
 10
449.7499999999998
 20
492.4999999999998
 30
0.0
 11
458.2499999999998
 21
492.4999999999998
 31
0.0
  0
LINE
  5
7E5
330
1F
100
AcDbEntity
  8
4、破線2
100
AcDbLine
 10
458.2499999999998
 20
492.4999999999998
 30
0.0
 11
458.2499999999998
 21
461.8999999999998
 31
0.0
  0
LINE
  5
7E6
330
1F
100
AcDbEntity
  8
4、破線2
100
AcDbLine
 10
458.2499999999998
 20
461.8999999999998
 30
0.0
 11
449.7499999999998
 21
461.8999999999998
 31
0.0
  0
LINE
  5
7E7
330
1F
100
AcDbEntity
  8
4、破線2
100
AcDbLine
 10
449.7499999999998
 20
461.8999999999998
 30
0.0
 11
449.7499999999998
 21
492.4999999999998
 31
0.0
  0
LINE
  5
7F6
330
1F
100
AcDbEntity
  8
4、破線2
100
AcDbLine
 10
450.9999999999998
 20
448.8999999999998
 30
0.0
 11
450.9999999999998
 21
444.8999999999998
 31
0.0
  0
LINE
  5
7F7
330
1F
100
AcDbEntity
  8
4、破線2
100
AcDbLine
 10
450.9999999999998
 20
444.8999999999998
 30
0.0
 11
439.9999999999998
 21
444.8999999999998
 31
0.0
  0
LINE
  5
7F8
330
1F
100
AcDbEntity
  8
4、破線2
100
AcDbLine
 10
439.9999999999998
 20
444.8999999999998
 30
0.0
 11
436.9999999999998
 21
445.6499999999998
 31
0.0
  0
LINE
  5
7F9
330
1F
100
AcDbEntity
  8
4、破線2
100
AcDbLine
 10
436.9999999999998
 20
445.6499999999998
 30
0.0
 11
436.9999999999998
 21
448.1499999999998
 31
0.0
  0
LINE
  5
7FA
330
1F
100
AcDbEntity
  8
4、破線2
100
AcDbLine
 10
436.9999999999998
 20
448.1499999999998
 30
0.0
 11
439.9999999999998
 21
448.8999999999998
 31
0.0
  0
LINE
  5
7FB
330
1F
100
AcDbEntity
  8
4、破線2
100
AcDbLine
 10
439.9999999999998
 20
448.8999999999998
 30
0.0
 11
450.9999999999998
 21
448.8999999999998
 31
0.0
  0
CIRCLE
  5
803
330
1F
100
AcDbEntity
  8
4、破線2
100
AcDbCircle
 10
433.9999999999998
 20
466.1499999999998
 30
0.0
 40
3.85
  0
CIRCLE
  5
804
330
1F
100
AcDbEntity
  8
4、破線2
100
AcDbCircle
 10
453.9999999999998
 20
466.1499999999998
 30
0.0
 40
3.85
  0
CIRCLE
  5
805
330
1F
100
AcDbEntity
  8
4、破線2
100
AcDbCircle
 10
433.9999999999998
 20
466.1499999999998
 30
0.0
 40
2.75
  0
CIRCLE
  5
806
330
1F
100
AcDbEntity
  8
4、破線2
100
AcDbCircle
 10
453.9999999999998
 20
466.1499999999998
 30
0.0
 40
2.75
  0
LINE
  5
815
330
1F
100
AcDbEntity
  8
4、破線2
100
AcDbLine
 10
433.4999999999998
 20
455.8999999999998
 30
0.0
 11
433.4999999999998
 21
446.3999999999998
 31
0.0
  0
LINE
  5
816
330
1F
100
AcDbEntity
  8
4、破線2
100
AcDbLine
 10
433.4999999999998
 20
446.3999999999998
 30
0.0
 11
436.9999999999998
 21
446.3999999999998
 31
0.0
  0
LINE
  5
817
330
1F
100
AcDbEntity
  8
4、破線2
100
AcDbLine
 10
436.9999999999998
 20
447.3999999999998
 30
0.0
 11
434.4999999999997
 21
447.3999999999998
 31
0.0
  0
LINE
  5
818
330
1F
100
AcDbEntity
  8
4、破線2
100
AcDbLine
 10
434.4999999999997
 20
447.3999999999998
 30
0.0
 11
434.4999999999997
 21
455.8999999999998
 31
0.0
  0
LINE
  5
819
330
1F
100
AcDbEntity
  8
4、破線2
100
AcDbLine
 10
450.9999999999998
 20
446.3999999999998
 30
0.0
 11
454.4999999999998
 21
446.3999999999998
 31
0.0
  0
LINE
  5
81A
330
1F
100
AcDbEntity
  8
4、破線2
100
AcDbLine
 10
454.4999999999998
 20
446.3999999999998
 30
0.0
 11
454.4999999999998
 21
455.8999999999998
 31
0.0
  0
LINE
  5
81B
330
1F
100
AcDbEntity
  8
4、破線2
100
AcDbLine
 10
453.4999999999998
 20
455.8999999999998
 30
0.0
 11
453.4999999999998
 21
447.3999999999998
 31
0.0
  0
LINE
  5
81C
330
1F
100
AcDbEntity
  8
4、破線2
100
AcDbLine
 10
453.4999999999998
 20
447.3999999999998
 30
0.0
 11
450.9999999999998
 21
447.3999999999998
 31
0.0
  0
LINE
  5
822
330
1F
100
AcDbEntity
  8
4、破線2
100
AcDbLine
 10
431.9999999999998
 20
461.8999999999998
 30
0.0
 11
431.9999999999998
 21
455.8999999999998
 31
0.0
  0
LINE
  5
823
330
1F
100
AcDbEntity
  8
4、破線2
100
AcDbLine
 10
431.9999999999998
 20
455.8999999999998
 30
0.0
 11
435.9999999999998
 21
455.8999999999998
 31
0.0
  0
LINE
  5
824
330
1F
100
AcDbEntity
  8
4、破線2
100
AcDbLine
 10
435.9999999999998
 20
455.8999999999998
 30
0.0
 11
435.9999999999998
 21
461.8999999999998
 31
0.0
  0
LINE
  5
825
330
1F
100
AcDbEntity
  8
4、破線2
100
AcDbLine
 10
451.9999999999998
 20
461.8999999999998
 30
0.0
 11
451.9999999999998
 21
455.8999999999998
 31
0.0
  0
LINE
  5
826
330
1F
100
AcDbEntity
  8
4、破線2
100
AcDbLine
 10
451.9999999999998
 20
455.8999999999998
 30
0.0
 11
455.9999999999998
 21
455.8999999999998
 31
0.0
  0
LINE
  5
827
330
1F
100
AcDbEntity
  8
4、破線2
100
AcDbLine
 10
455.9999999999998
 20
455.8999999999998
 30
0.0
 11
455.9999999999998
 21
461.8999999999998
 31
0.0
  0
LINE
  5
832
330
1F
100
AcDbEntity
  8
4、破線2
100
AcDbLine
 10
367.5
 20
968.2
 30
0.0
 11
367.5
 21
969.4
 31
0.0
  0
LINE
  5
833
330
1F
100
AcDbEntity
  8
4、破線2
100
AcDbLine
 10
367.5
 20
969.4
 30
0.0
 11
377.0
 21
969.4
 31
0.0
  0
LINE
  5
834
330
1F
100
AcDbEntity
  8
4、破線2
100
AcDbLine
 10
377.0
 20
969.4
 30
0.0
 11
377.0
 21
972.2000000000001
 31
0.0
  0
LINE
  5
835
330
1F
100
AcDbEntity
  8
4、破線2
100
AcDbLine
 10
377.0
 20
972.2000000000001
 30
0.0
 11
463.0
 21
972.2000000000001
 31
0.0
  0
LINE
  5
836
330
1F
100
AcDbEntity
  8
4、破線2
100
AcDbLine
 10
463.0
 20
972.2000000000001
 30
0.0
 11
463.0
 21
969.4
 31
0.0
  0
LINE
  5
837
330
1F
100
AcDbEntity
  8
4、破線2
100
AcDbLine
 10
463.0
 20
969.4
 30
0.0
 11
472.5
 21
969.4
 31
0.0
  0
LINE
  5
838
330
1F
100
AcDbEntity
  8
4、破線2
100
AcDbLine
 10
472.5
 20
969.4
 30
0.0
 11
472.5
 21
968.2000000000002
 31
0.0
  0
LINE
  5
839
330
1F
100
AcDbEntity
  8
4、破線2
100
AcDbLine
 10
461.7999999999998
 20
968.2
 30
0.0
 11
461.7999999999998
 21
971.0
 31
0.0
  0
LINE
  5
83A
330
1F
100
AcDbEntity
  8
4、破線2
100
AcDbLine
 10
461.7999999999998
 20
971.0
 30
0.0
 11
378.2
 21
971.0
 31
0.0
  0
LINE
  5
83B
330
1F
100
AcDbEntity
  8
4、破線2
100
AcDbLine
 10
378.2
 20
971.0
 30
0.0
 11
378.2
 21
968.2000000000002
 31
0.0
  0
LINE
  5
842
330
1F
100
AcDbEntity
  8
4、破線2
100
AcDbLine
 10
397.5
 20
968.2
 30
0.0
 11
397.5
 21
980.2000000000001
 31
0.0
  0
LINE
  5
843
330
1F
100
AcDbEntity
  8
4、破線2
100
AcDbLine
 10
397.5
 20
980.2000000000001
 30
0.0
 11
412.5
 21
980.2000000000001
 31
0.0
  0
LINE
  5
844
330
1F
100
AcDbEntity
  8
4、破線2
100
AcDbLine
 10
412.5
 20
980.2000000000001
 30
0.0
 11
412.5
 21
968.2000000000002
 31
0.0
  0
LINE
  5
849
330
1F
100
AcDbEntity
  8
4、破線2
100
AcDbLine
 10
402.5
 20
980.2000000000001
 30
0.0
 11
402.5
 21
985.7000000000001
 31
0.0
  0
LINE
  5
84A
330
1F
100
AcDbEntity
  8
4、破線2
100
AcDbLine
 10
402.5
 20
985.7000000000001
 30
0.0
 11
407.5000000000001
 21
985.7000000000001
 31
0.0
  0
LINE
  5
84B
330
1F
100
AcDbEntity
  8
4、破線2
100
AcDbLine
 10
407.5000000000001
 20
985.7000000000001
 30
0.0
 11
407.5000000000001
 21
980.2000000000001
 31
0.0
  0
LINE
  5
854
330
1F
100
AcDbEntity
  8
4、破線2
100
AcDbLine
 10
426.9
 20
972.2000000000001
 30
0.0
 11
426.9
 21
985.2999999999999
 31
0.0
  0
LINE
  5
855
330
1F
100
AcDbEntity
  8
4、破線2
100
AcDbLine
 10
426.9
 20
985.2999999999999
 30
0.0
 11
429.75
 21
985.2999999999999
 31
0.0
  0
LINE
  5
856
330
1F
100
AcDbEntity
  8
4、破線2
100
AcDbLine
 10
429.75
 20
985.2999999999999
 30
0.0
 11
429.75
 21
983.7999999999999
 31
0.0
  0
LINE
  5
857
330
1F
100
AcDbEntity
  8
4、破線2
100
AcDbLine
 10
429.75
 20
983.7999999999999
 30
0.0
 11
438.25
 21
983.7999999999999
 31
0.0
  0
LINE
  5
858
330
1F
100
AcDbEntity
  8
4、破線2
100
AcDbLine
 10
438.25
 20
983.7999999999999
 30
0.0
 11
438.25
 21
985.2999999999999
 31
0.0
  0
LINE
  5
859
330
1F
100
AcDbEntity
  8
4、破線2
100
AcDbLine
 10
438.25
 20
985.2999999999999
 30
0.0
 11
449.75
 21
985.2999999999999
 31
0.0
  0
LINE
  5
85A
330
1F
100
AcDbEntity
  8
4、破線2
100
AcDbLine
 10
449.75
 20
985.2999999999999
 30
0.0
 11
449.75
 21
983.7999999999999
 31
0.0
  0
LINE
  5
85B
330
1F
100
AcDbEntity
  8
4、破線2
100
AcDbLine
 10
449.75
 20
983.7999999999999
 30
0.0
 11
458.25
 21
983.7999999999999
 31
0.0
  0
LINE
  5
85C
330
1F
100
AcDbEntity
  8
4、破線2
100
AcDbLine
 10
458.25
 20
983.7999999999999
 30
0.0
 11
458.25
 21
985.2999999999999
 31
0.0
  0
LINE
  5
85D
330
1F
100
AcDbEntity
  8
4、破線2
100
AcDbLine
 10
458.25
 20
985.2999999999999
 30
0.0
 11
461.1
 21
985.2999999999999
 31
0.0
  0
LINE
  5
85E
330
1F
100
AcDbEntity
  8
4、破線2
100
AcDbLine
 10
461.1
 20
985.2999999999999
 30
0.0
 11
461.1
 21
972.2000000000001
 31
0.0
  0
CIRCLE
  5
864
330
1F
100
AcDbEntity
  8
4、破線2
100
AcDbCircle
 10
434.0
 20
987.0499999999999
 30
0.0
 40
1.75
  0
CIRCLE
  5
865
330
1F
100
AcDbEntity
  8
4、破線2
100
AcDbCircle
 10
454.0
 20
987.0499999999999
 30
0.0
 40
1.75
  0
LINE
  5
868
330
1F
100
AcDbEntity
  8
4、破線2
100
AcDbLine
 10
451.0
 20
989.0499999999999
 30
0.0
 11
451.0
 21
985.05
 31
0.0
  0
LINE
  5
869
330
1F
100
AcDbEntity
  8
4、破線2
100
AcDbLine
 10
451.0
 20
985.05
 30
0.0
 11
440.0
 21
985.05
 31
0.0
  0
LINE
  5
86A
330
1F
100
AcDbEntity
  8
4、破線2
100
AcDbLine
 10
440.0
 20
985.05
 30
0.0
 11
437.0
 21
985.8
 31
0.0
  0
LINE
  5
86B
330
1F
100
AcDbEntity
  8
4、破線2
100
AcDbLine
 10
437.0
 20
985.8
 30
0.0
 11
437.0
 21
988.2999999999999
 31
0.0
  0
LINE
  5
86C
330
1F
100
AcDbEntity
  8
4、破線2
100
AcDbLine
 10
437.0
 20
988.2999999999999
 30
0.0
 11
440.0
 21
989.0499999999999
 31
0.0
  0
LINE
  5
86D
330
1F
100
AcDbEntity
  8
4、破線2
100
AcDbLine
 10
440.0
 20
989.0499999999999
 30
0.0
 11
451.0
 21
989.0499999999999
 31
0.0
  0
LINE
  5
86E
330
1F
100
AcDbEntity
  8
4、破線2
100
AcDbLine
 10
433.4999999999998
 20
986.5499999999999
 30
0.0
 11
437.0
 21
986.5499999999999
 31
0.0
  0
LINE
  5
86F
330
1F
100
AcDbEntity
  8
4、破線2
100
AcDbLine
 10
437.0
 20
987.55
 30
0.0
 11
434.4999999999997
 21
987.55
 31
0.0
  0
LINE
  5
870
330
1F
100
AcDbEntity
  8
4、破線2
100
AcDbLine
 10
451.0
 20
986.5499999999999
 30
0.0
 11
454.4999999999998
 21
986.5499999999999
 31
0.0
  0
LINE
  5
871
330
1F
100
AcDbEntity
  8
4、破線2
100
AcDbLine
 10
453.5
 20
987.55
 30
0.0
 11
451.0
 21
987.55
 31
0.0
  0
LINE
  5
872
330
1F
100
AcDbEntity
  8
4、破線2
100
AcDbLine
 10
429.75
 20
985.2999999999999
 30
0.0
 11
438.25
 21
985.2999999999999
 31
0.0
  0
LINE
  5
873
330
1F
100
AcDbEntity
  8
4、破線2
100
AcDbLine
 10
449.75
 20
985.2999999999999
 30
0.0
 11
458.25
 21
985.2999999999999
 31
0.0
  0
LINE
  5
878
330
1F
100
AcDbEntity
  8
1、実線
100
AcDbLine
 10
643.0
 20
708.2999999999998
 30
0.0
 11
644.2
 21
708.2999999999998
 31
0.0
  0
LINE
  5
879
330
1F
100
AcDbEntity
  8
1、実線
100
AcDbLine
 10
644.2
 20
708.2999999999998
 30
0.0
 11
644.2
 21
698.2999999999998
 31
0.0
  0
LINE
  5
87A
330
1F
100
AcDbEntity
  8
1、実線
100
AcDbLine
 10
644.2
 20
698.2999999999998
 30
0.0
 11
640.0
 21
698.2999999999999
 31
0.0
  0
LINE
  5
880
330
1F
100
AcDbEntity
  8
中箱
100
AcDbLine
 10
239.9999999999999
 20
714.0
 30
0.0
 11
239.9999999999999
 21
968.2
 31
0.0
  0
LINE
  5
881
330
1F
100
AcDbEntity
  8
中箱
100
AcDbLine
 10
239.9999999999999
 20
968.2000000000002
 30
0.0
 11
599.9999999999999
 21
968.2
 31
0.0
  0
LINE
  5
882
330
1F
100
AcDbEntity
  8
中箱
100
AcDbLine
 10
599.9999999999999
 20
968.2
 30
0.0
 11
600.0
 21
714.0
 31
0.0
  0
LINE
  5
892
330
1F
100
AcDbEntity
  8
1、実線
100
AcDbLine
 10
204.9999999999998
 20
280.0
 30
0.0
 11
204.9999999999998
 21
250.0
 31
0.0
  0
LINE
  5
893
330
1F
100
AcDbEntity
  8
1、実線
100
AcDbLine
 10
204.9999999999998
 20
250.0
 30
0.0
 11
244.9999999999997
 21
250.0
 31
0.0
  0
LINE
  5
894
330
1F
100
AcDbEntity
  8
1、実線
100
AcDbLine
 10
244.9999999999997
 20
250.0
 30
0.0
 11
244.9999999999997
 21
258.0
 31
0.0
  0
LINE
  5
895
330
1F
100
AcDbEntity
  8
1、実線
100
AcDbLine
 10
244.9999999999997
 20
258.0
 30
0.0
 11
256.9999999999998
 21
258.0
 31
0.0
  0
LINE
  5
896
330
1F
100
AcDbEntity
  8
1、実線
100
AcDbLine
 10
256.9999999999998
 20
258.0
 30
0.0
 11
256.9999999999998
 21
260.0
 31
0.0
  0
LINE
  5
897
330
1F
100
AcDbEntity
  8
1、実線
100
AcDbLine
 10
256.9999999999998
 20
260.0
 30
0.0
 11
244.9999999999997
 21
260.0
 31
0.0
  0
LINE
  5
898
330
1F
100
AcDbEntity
  8
1、実線
100
AcDbLine
 10
244.9999999999997
 20
260.0
 30
0.0
 11
244.9999999999997
 21
280.0
 31
0.0
  0
LINE
  5
899
330
1F
100
AcDbEntity
  8
1、実線
100
AcDbLine
 10
244.9999999999997
 20
260.0
 30
0.0
 11
204.9999999999998
 21
260.0
 31
0.0
  0
LINE
  5
89A
330
1F
100
AcDbEntity
  8
1、実線
100
AcDbLine
 10
244.9999999999997
 20
258.0
 30
0.0
 11
204.9999999999998
 21
258.0
 31
0.0
  0
LINE
  5
89B
330
1F
100
AcDbEntity
  8
1、実線
100
AcDbLine
 10
204.9999999999998
 20
256.0
 30
0.0
 11
244.9999999999997
 21
256.0
 31
0.0
  0
LINE
  5
89C
330
1F
100
AcDbEntity
  8
1、実線
100
AcDbLine
 10
635.0
 20
260.0
 30
0.0
 11
583.0
 21
260.0
 31
0.0
  0
LINE
  5
89D
330
1F
100
AcDbEntity
  8
1、実線
100
AcDbLine
 10
583.0
 20
260.0
 30
0.0
 11
583.0
 21
258.0
 31
0.0
  0
LINE
  5
89E
330
1F
100
AcDbEntity
  8
1、実線
100
AcDbLine
 10
583.0
 20
258.0
 30
0.0
 11
635.0
 21
258.0
 31
0.0
  0
LINE
  5
89F
330
1F
100
AcDbEntity
  8
1、実線
100
AcDbLine
 10
635.0
 20
280.0
 30
0.0
 11
635.0
 21
250.0
 31
0.0
  0
LINE
  5
8A0
330
1F
100
AcDbEntity
  8
1、実線
100
AcDbLine
 10
635.0
 20
250.0
 30
0.0
 11
595.0
 21
250.0
 31
0.0
  0
LINE
  5
8A1
330
1F
100
AcDbEntity
  8
1、実線
100
AcDbLine
 10
595.0
 20
250.0
 30
0.0
 11
595.0
 21
258.0
 31
0.0
  0
LINE
  5
8A2
330
1F
100
AcDbEntity
  8
1、実線
100
AcDbLine
 10
595.0
 20
260.0
 30
0.0
 11
595.0
 21
280.0
 31
0.0
  0
LINE
  5
8A3
330
1F
100
AcDbEntity
  8
1、実線
100
AcDbLine
 10
595.0
 20
256.0
 30
0.0
 11
635.0
 21
256.0
 31
0.0
  0
LINE
  5
8AB
330
1F
100
AcDbEntity
  8
1、実線
100
AcDbLine
 10
955.8737988831998
 20
280.0
 30
0.0
 11
955.8737988831998
 21
250.0
 31
0.0
  0
LINE
  5
8AC
330
1F
100
AcDbEntity
  8
1、実線
100
AcDbLine
 10
955.8737988831998
 20
250.0
 30
0.0
 11
881.8737988831998
 21
250.0
 31
0.0
  0
LINE
  5
8AD
330
1F
100
AcDbEntity
  8
1、実線
100
AcDbLine
 10
881.8737988831998
 20
250.0
 30
0.0
 11
881.8737988831998
 21
256.0
 31
0.0
  0
LINE
  5
8AE
330
1F
100
AcDbEntity
  8
1、実線
100
AcDbLine
 10
881.8737988831998
 20
256.0
 30
0.0
 11
900.8737988831995
 21
258.0
 31
0.0
  0
LINE
  5
8AF
330
1F
100
AcDbEntity
  8
1、実線
100
AcDbLine
 10
900.8737988831995
 20
258.0
 30
0.0
 11
900.8737988831995
 21
260.0
 31
0.0
  0
LINE
  5
8B0
330
1F
100
AcDbEntity
  8
1、実線
100
AcDbLine
 10
900.8737988831995
 20
260.0
 30
0.0
 11
922.3737988831995
 21
260.0
 31
0.0
  0
LINE
  5
8B1
330
1F
100
AcDbEntity
  8
1、実線
100
AcDbLine
 10
900.8737988831995
 20
258.0
 30
0.0
 11
922.3737988831995
 21
258.0
 31
0.0
  0
LINE
  5
8B2
330
1F
100
AcDbEntity
  8
1、実線
100
AcDbLine
 10
922.3737988831995
 20
258.0
 30
0.0
 11
922.3737988832001
 21
280.0
 31
0.0
  0
LINE
  5
8B8
330
1F
100
AcDbEntity
  8
1、実線
100
AcDbLine
 10
1202.873798883199
 20
280.0
 30
0.0
 11
1205.873798883199
 21
250.0
 31
0.0
  0
LINE
  5
8B9
330
1F
100
AcDbEntity
  8
1、実線
100
AcDbLine
 10
1205.873798883199
 20
250.0
 30
0.0
 11
1225.873798883199
 21
250.0
 31
0.0
  0
LINE
  5
8BA
330
1F
100
AcDbEntity
  8
1、実線
100
AcDbLine
 10
1225.873798883199
 20
250.0
 30
0.0
 11
1228.873798883199
 21
280.0
 31
0.0
  0
LINE
  5
8D9
330
1F
100
AcDbEntity
  8
電源コード
100
AcDbLine
 10
1202.873798883199
 20
280.0
 30
0.0
 11
1202.873798883199
 21
260.0
 31
0.0
  0
LINE
  5
8E0
330
1F
100
AcDbEntity
  8
電源コード
100
AcDbLine
 10
1204.873798883199
 20
260.0
 30
0.0
 11
1202.873798883199
 21
260.0
 31
0.0
  0
LINE
  5
8E5
330
1F
100
AcDbEntity
  8
電源コード
100
AcDbLine
 10
1227.143798883199
 20
262.6999999999999
 30
0.0
 11
1253.852650508832
 21
262.6999999999999
 31
0.0
  0
LINE
  5
8E6
330
1F
100
AcDbEntity
  8
電源コード
100
AcDbLine
 10
1227.403798883199
 20
265.2999999999999
 30
0.0
 11
1253.852650508831
 21
265.3
 31
0.0
  0
LINE
  5
8EB
330
1F
100
AcDbEntity
  8
電源コード
100
AcDbLine
 10
1202.873798883199
 20
280.0
 30
0.0
 11
1193.873798883199
 21
280.0
 31
0.0
  0
LINE
  5
8EC
330
1F
100
AcDbEntity
  8
電源コード
100
AcDbLine
 10
1193.873798883199
 20
280.0
 30
0.0
 11
1193.873798883199
 21
277.4
 31
0.0
  0
LINE
  5
8ED
330
1F
100
AcDbEntity
  8
電源コード
100
AcDbLine
 10
1193.873798883199
 20
277.4
 30
0.0
 11
1203.133798883199
 21
277.4
 31
0.0
  0
LINE
  5
8EF
330
1F
100
AcDbEntity
  8
電源コード
100
AcDbLine
 10
1203.223798883199
 20
276.5
 30
0.0
 11
1202.873798883199
 21
276.5
 31
0.0
  0
LINE
  5
8F0
330
1F
100
AcDbEntity
  8
電源コード
100
AcDbLine
 10
1202.873798883199
 20
276.5
 30
0.0
 11
1193.873798883199
 21
277.4
 31
0.0
  0
LINE
  5
917
330
1F
100
AcDbEntity
  8
1、実線
100
AcDbLine
 10
640.0
 20
463.0
 30
0.0
 11
640.0
 21
491.0
 31
0.0
  0
LINE
  5
921
330
1F
100
AcDbEntity
  8
1、実線
100
AcDbLine
 10
645.9000000000002
 20
750.0
 30
0.0
 11
647.5
 21
750.0
 31
0.0
  0
LINE
  5
922
330
1F
100
AcDbEntity
  8
1、実線
100
AcDbLine
 10
647.5
 20
750.0
 30
0.0
 11
647.5
 21
738.0
 31
0.0
  0
LINE
  5
923
330
1F
100
AcDbEntity
  8
1、実線
100
AcDbLine
 10
647.5
 20
738.0
 30
0.0
 11
643.0
 21
738.0
 31
0.0
  0
ARC
  5
941
330
1F
100
AcDbEntity
  8
1、実線
100
AcDbCircle
 10
791.1603499628186
 20
329.0960904757653
 30
0.0
 40
80.00000000000005
100
AcDbArc
 50
12.37536574611428
 51
35.19908405146025
  0
ARC
  5
942
330
1F
100
AcDbEntity
  8
1、実線
100
AcDbCircle
 10
791.1603499628186
 20
510.9039095242343
 30
0.0
 40
80.00000000000003
100
AcDbArc
 50
324.8009159485397
 51
347.6246342538856
  0
LINE
  5
943
330
1F
100
AcDbEntity
  8
1、実線
100
AcDbLine
 10
872.8599461060108
 20
496.8861957061033
 30
0.0
 11
879.8757612889092
 21
497.4999999999998
 31
0.0
  0
LINE
  5
944
330
1F
100
AcDbEntity
  8
1、実線
100
AcDbLine
 10
852.8757612889091
 20
453.2619842284238
 30
0.0
 11
852.8757612889091
 21
386.7380157715761
 31
0.0
  0
LINE
  5
945
330
1F
100
AcDbEntity
  8
1、実線
100
AcDbLine
 10
872.8599461060108
 20
343.1138042938966
 30
0.0
 11
879.8757612889092
 21
342.5
 31
0.0
  0
ARC
  5
94B
330
1F
100
AcDbEntity
  8
1、実線
100
AcDbCircle
 10
873.2085690770015
 20
347.0985830862636
 30
0.0
 40
4.0
100
AcDbArc
 50
192.3753657461143
 51
265.0
  0
ARC
  5
94C
330
1F
100
AcDbEntity
  8
1、実線
100
AcDbCircle
 10
873.2085690770015
 20
492.9014169137363
 30
0.0
 40
4.0
100
AcDbArc
 50
94.99999999999992
 51
167.6246342538856
  0
ARC
  5
94D
330
1F
100
AcDbEntity
  8
1、実線
100
AcDbCircle
 10
872.875761288909
 20
386.7380157715761
 30
0.0
 40
20.0
100
AcDbArc
 50
180.0
 51
215.1990840514601
  0
ARC
  5
94E
330
1F
100
AcDbEntity
  8
1、実線
100
AcDbCircle
 10
872.8757612889094
 20
453.2619842284238
 30
0.0
 40
20.0
100
AcDbArc
 50
144.8009159485396
 51
180.0
  0
LINE
  5
957
330
1F
100
AcDbEntity
  8
1、実線
100
AcDbLine
 10
879.8757612889092
 20
497.4999999999998
 30
0.0
 11
879.8757612889092
 21
468.9999999999998
 31
0.0
  0
LINE
  5
958
330
1F
100
AcDbEntity
  8
1、実線
100
AcDbLine
 10
879.8757612889092
 20
468.9999999999998
 30
0.0
 11
875.8757612889091
 21
469.0
 31
0.0
  0
LINE
  5
959
330
1F
100
AcDbEntity
  8
1、実線
100
AcDbLine
 10
860.8757612889091
 20
454.0
 30
0.0
 11
860.8757612889091
 21
386.0
 31
0.0
  0
LINE
  5
95A
330
1F
100
AcDbEntity
  8
1、実線
100
AcDbLine
 10
875.8757612889091
 20
371.0
 30
0.0
 11
879.8757612889092
 21
371.0
 31
0.0
  0
LINE
  5
95B
330
1F
100
AcDbEntity
  8
1、実線
100
AcDbLine
 10
879.8757612889092
 20
371.0
 30
0.0
 11
879.8757612889092
 21
342.5
 31
0.0
  0
ARC
  5
95C
330
1F
100
AcDbEntity
  8
1、実線
100
AcDbCircle
 10
875.8757612889091
 20
454.0
 30
0.0
 40
15.0
100
AcDbArc
 50
90.0
 51
180.0
  0
ARC
  5
95D
330
1F
100
AcDbEntity
  8
1、実線
100
AcDbCircle
 10
875.8757612889091
 20
386.0
 30
0.0
 40
15.0
100
AcDbArc
 50
180.0
 51
270.0
  0
LINE
  5
965
330
1F
100
AcDbEntity
  8
1、実線
100
AcDbLine
 10
219.9999999999997
 20
497.5
 30
0.0
 11
239.9999999999998
 21
497.5
 31
0.0
  0
LINE
  5
966
330
1F
100
AcDbEntity
  8
1、実線
100
AcDbLine
 10
239.9999999999998
 20
497.5
 30
0.0
 11
239.9999999999999
 21
342.5000000000001
 31
0.0
  0
LINE
  5
967
330
1F
100
AcDbEntity
  8
1、実線
100
AcDbLine
 10
239.9999999999999
 20
342.5000000000001
 30
0.0
 11
219.9999999999997
 21
342.5000000000001
 31
0.0
  0
LINE
  5
968
330
1F
100
AcDbEntity
  8
1、実線
100
AcDbLine
 10
219.9999999999997
 20
342.5000000000001
 30
0.0
 11
219.9999999999997
 21
497.5
 31
0.0
  0
LINE
  5
96B
330
1F
100
AcDbEntity
  8
1、実線
100
AcDbLine
 10
221.9999999999997
 20
460.0
 30
0.0
 11
237.9999999999999
 21
460.0
 31
0.0
  0
LINE
  5
96C
330
1F
100
AcDbEntity
  8
1、実線
100
AcDbLine
 10
221.9999999999997
 20
380.0
 30
0.0
 11
237.9999999999999
 21
380.0
 31
0.0
  0
LINE
  5
96D
330
1F
100
AcDbEntity
  8
3、破線1
100
AcDbLine
 10
220.0
 20
371.0000000000001
 30
0.0
 11
239.9999999999999
 21
371.0000000000001
 31
0.0
  0
LINE
  5
96E
330
1F
100
AcDbEntity
  8
3、破線1
100
AcDbLine
 10
219.9999999999997
 20
469.0
 30
0.0
 11
239.9999999999998
 21
469.0
 31
0.0
  0
LINE
  5
972
330
1F
100
AcDbEntity
  8
1、実線
100
AcDbLine
 10
219.9999999999997
 20
678.0
 30
0.0
 11
219.9999999999999
 21
653.0
 31
0.0
  0
LINE
  5
973
330
1F
100
AcDbEntity
  8
1、実線
100
AcDbLine
 10
221.9999999999999
 20
651.0
 30
0.0
 11
237.9999999999999
 21
651.0000000000001
 31
0.0
  0
LINE
  5
974
330
1F
100
AcDbEntity
  8
1、実線
100
AcDbLine
 10
239.9999999999999
 20
653.0000000000001
 30
0.0
 11
239.9999999999999
 21
678.0
 31
0.0
  0
LINE
  5
975
330
1F
100
AcDbEntity
  8
1、実線
100
AcDbLine
 10
239.9999999999999
 20
678.0
 30
0.0
 11
219.9999999999997
 21
678.0
 31
0.0
  0
LINE
  5
976
330
1F
100
AcDbEntity
  8
1、実線
100
AcDbLine
 10
221.9999999999997
 20
668.0
 30
0.0
 11
237.9999999999999
 21
668.0
 31
0.0
  0
ARC
  5
ADC
330
1F
100
AcDbEntity
  8
1、実線
100
AcDbCircle
 10
221.9999999999999
 20
653.0
 30
0.0
 40
2.0
100
AcDbArc
 50
180.0
 51
270.0
  0
ARC
  5
ADD
330
1F
100
AcDbEntity
  8
1、実線
100
AcDbCircle
 10
237.9999999999999
 20
653.0000000000001
 30
0.0
 40
2.0
100
AcDbArc
 50
270.0
 51
0.0
  0
LINE
  5
ADE
330
1F
100
AcDbEntity
  8
3、破線1
100
AcDbLine
 10
1202.873798883199
 20
280.0
 30
0.0
 11
1202.873798883199
 21
286.0
 31
0.0
  0
LINE
  5
ADF
330
1F
100
AcDbEntity
  8
3、破線1
100
AcDbLine
 10
1202.873798883199
 20
286.0
 30
0.0
 11
1212.8737988832
 21
286.0
 31
0.0
  0
LINE
  5
AE0
330
1F
100
AcDbEntity
  8
3、破線1
100
AcDbLine
 10
1212.8737988832
 20
286.0
 30
0.0
 11
1212.8737988832
 21
280.8
 31
0.0
  0
LINE
  5
AE1
330
1F
100
AcDbEntity
  8
3、破線1
100
AcDbLine
 10
1212.8737988832
 20
280.8
 30
0.0
 11
1210.873798883199
 21
280.8
 31
0.0
  0
LINE
  5
AE2
330
1F
100
AcDbEntity
  8
3、破線1
100
AcDbLine
 10
1210.873798883199
 20
280.8
 30
0.0
 11
1210.873798883199
 21
280.0
 31
0.0
  0
LINE
  5
AE3
330
1F
100
AcDbEntity
  8
3、破線1
100
AcDbLine
 10
1202.873798883199
 20
280.0
 30
0.0
 11
1214.8737988832
 21
280.0
 31
0.0
  0
LINE
  5
AE4
330
1F
100
AcDbEntity
  8
3、破線1
100
AcDbLine
 10
1214.8737988832
 20
280.0
 30
0.0
 11
1214.8737988832
 21
277.4
 31
0.0
  0
LINE
  5
AE5
330
1F
100
AcDbEntity
  8
3、破線1
100
AcDbLine
 10
1214.8737988832
 20
277.4
 30
0.0
 11
1202.873798883199
 21
277.4
 31
0.0
  0
LINE
  5
AE7
330
1F
100
AcDbEntity
  8
3、破線1
100
AcDbLine
 10
1214.8737988832
 20
277.4
 30
0.0
 11
1210.873798883199
 21
276.5
 31
0.0
  0
LINE
  5
AE8
330
1F
100
AcDbEntity
  8
3、破線1
100
AcDbLine
 10
1210.873798883199
 20
276.5
 30
0.0
 11
1203.223798883199
 21
276.5
 31
0.0
  0
LINE
  5
AE9
330
1F
100
AcDbEntity
  8
3、破線1
100
AcDbLine
 10
1210.873798883199
 20
276.5
 30
0.0
 11
1210.873798883199
 21
268.0
 31
0.0
  0
LINE
  5
AEA
330
1F
100
AcDbEntity
  8
3、破線1
100
AcDbLine
 10
1210.873798883199
 20
268.0
 30
0.0
 11
1222.8737988832
 21
268.0
 31
0.0
  0
LINE
  5
AEB
330
1F
100
AcDbEntity
  8
3、破線1
100
AcDbLine
 10
1222.8737988832
 20
268.0
 30
0.0
 11
1222.8737988832
 21
260.0
 31
0.0
  0
LINE
  5
AEC
330
1F
100
AcDbEntity
  8
3、破線1
100
AcDbLine
 10
1222.8737988832
 20
260.0
 30
0.0
 11
1204.873798883199
 21
260.0
 31
0.0
  0
LINE
  5
AED
330
1F
100
AcDbEntity
  8
3、破線1
100
AcDbLine
 10
1222.8737988832
 20
265.2999999999999
 30
0.0
 11
1227.403798883199
 21
265.2999999999999
 31
0.0
  0
LINE
  5
AEE
330
1F
100
AcDbEntity
  8
3、破線1
100
AcDbLine
 10
1222.8737988832
 20
262.6999999999999
 30
0.0
 11
1227.143798883199
 21
262.6999999999999
 31
0.0
  0
LINE
  5
AFB
330
1F
100
AcDbEntity
  8
1、実線
100
AcDbLine
 10
1286.793923694637
 20
261.5
 30
0.0
 11
1286.793923694637
 21
266.5
 31
0.0
  0
LINE
  5
AFC
330
1F
100
AcDbEntity
  8
1、実線
100
AcDbLine
 10
1286.793923694637
 20
266.5
 30
0.0
 11
1288.793923694637
 21
266.5
 31
0.0
  0
LINE
  5
AFD
330
1F
100
AcDbEntity
  8
1、実線
100
AcDbLine
 10
1288.793923694637
 20
266.5
 30
0.0
 11
1288.793923694637
 21
261.5
 31
0.0
  0
LINE
  5
AFE
330
1F
100
AcDbEntity
  8
1、実線
100
AcDbLine
 10
1288.793923694637
 20
261.5
 30
0.0
 11
1286.793923694637
 21
261.5
 31
0.0
  0
LINE
  5
AFF
330
1F
100
AcDbEntity
  8
1、実線
100
AcDbLine
 10
1288.793923694637
 20
266.5
 30
0.0
 11
1306.698723785585
 21
268.3431411858328
 31
0.0
  0
LINE
  5
B00
330
1F
100
AcDbEntity
  8
1、実線
100
AcDbLine
 10
1288.793923694637
 20
261.5
 30
0.0
 11
1305.793923694636
 21
259.75
 31
0.0
  0
LINE
  5
B0A
330
1F
100
AcDbEntity
  8
1、実線
100
AcDbLine
 10
1308.493923694636
 20
258.9542279411765
 30
0.0
 11
1308.493923694637
 21
275.0279411764704
 31
0.0
  0
LINE
  5
B0B
330
1F
100
AcDbEntity
  8
1、実線
100
AcDbLine
 10
1308.493923694637
 20
275.0279411764704
 30
0.0
 11
1328.993923694637
 21
275.0279411764704
 31
0.0
  0
LINE
  5
B0C
330
1F
100
AcDbEntity
  8
1、実線
100
AcDbLine
 10
1328.993923694637
 20
275.0279411764704
 30
0.0
 11
1328.993923694637
 21
259.6279411764704
 31
0.0
  0
LINE
  5
B0D
330
1F
100
AcDbEntity
  8
1、実線
100
AcDbLine
 10
1326.993923694637
 20
257.6279411764704
 30
0.0
 11
1312.993923694637
 21
257.6279411764704
 31
0.0
  0
ARC
  5
B13
330
1F
100
AcDbEntity
  8
1、実線
100
AcDbCircle
 10
1320.143923694637
 20
287.0279411764705
 30
0.0
 40
5.0
100
AcDbArc
 50
50.94987746384536
 51
129.0501225361545
  0
LINE
  5
B14
330
1F
100
AcDbEntity
  8
1、実線
100
AcDbLine
 10
1316.993923694637
 20
290.9109168395413
 30
0.0
 11
1316.993923694637
 21
275.0279411764704
 31
0.0
  0
LINE
  5
B15
330
1F
100
AcDbEntity
  8
1、実線
100
AcDbLine
 10
1323.293923694637
 20
290.9109168395413
 30
0.0
 11
1323.293923694637
 21
275.0279411764704
 31
0.0
  0
CIRCLE
  5
B17
330
1F
100
AcDbEntity
  8
1、実線
100
AcDbCircle
 10
1320.143923694637
 20
287.0279411764705
 30
0.0
 40
1.55
  0
ARC
  5
B18
330
1F
100
AcDbEntity
  8
1、実線
100
AcDbCircle
 10
1306.493923694637
 20
270.3326277836131
 30
0.0
 40
2.0
100
AcDbArc
 50
275.8773926066431
 51
0.0
  0
ARC
  5
B19
330
1F
100
AcDbEntity
  8
1、実線
100
AcDbCircle
 10
1326.993923694637
 20
259.6279411764704
 30
0.0
 40
2.0
100
AcDbArc
 50
270.0
 51
0.0
  0
LINE
  5
B20
330
1F
100
AcDbEntity
  8
1、実線
100
AcDbLine
 10
1305.793923694636
 20
259.75
 30
0.0
 11
1312.993923694637
 21
257.6279411764704
 31
0.0
  0
CIRCLE
  5
B2B
330
1F
100
AcDbEntity
  8
3、破線1
100
AcDbCircle
 10
560.0
 20
1004.0
 30
0.0
 40
5.0
  0
CIRCLE
  5
B2D
330
1F
100
AcDbEntity
  8
3、破線1
100
AcDbCircle
 10
560.0
 20
995.0
 30
0.0
 40
4.0
  0
CIRCLE
  5
B2E
330
1F
100
AcDbEntity
  8
3、破線1
100
AcDbCircle
 10
560.0
 20
995.0
 30
0.0
 40
2.75
  0
CIRCLE
  5
B31
330
1F
100
AcDbEntity
  8
3、破線1
100
AcDbCircle
 10
560.0
 20
1005.0
 30
0.0
 40
4.0
  0
ARC
  5
B33
330
1F
100
AcDbEntity
  8
3、破線1
100
AcDbCircle
 10
560.0
 20
1005.0
 30
0.0
 40
8.0
100
AcDbArc
 50
345.3945472638368
 51
194.2107435690925
  0
ARC
  5
B3B
330
1F
100
AcDbEntity
  8
3、破線1
100
AcDbCircle
 10
560.0
 20
998.7
 30
0.0
 40
6.5
100
AcDbArc
 50
187.3471992217845
 51
259.3612906849871
  0
LINE
  5
B3F
330
1F
100
AcDbEntity
  8
3、破線1
100
AcDbLine
 10
553.5533686885627
 20
997.8687691449447
 30
0.0
 11
552.2448053191673
 21
1003.036086696825
 31
0.0
  0
LINE
  5
B40
330
1F
100
AcDbEntity
  8
3、破線1
100
AcDbLine
 10
566.473926864942
 20
998.1183893506971
 30
0.0
 11
567.7414814169025
 21
1002.982708382073
 31
0.0
  0
ARC
  5
B44
330
1F
100
AcDbEntity
  8
3、破線1
100
AcDbCircle
 10
560.0
 20
996.0
 30
0.0
 40
1.200000000000044
100
AcDbArc
 50
0.0
 51
180.0
  0
LINE
  5
B45
330
1F
100
AcDbEntity
  8
3、破線1
100
AcDbLine
 10
558.8
 20
996.0
 30
0.0
 11
558.8
 21
992.3117294985264
 31
0.0
  0
LINE
  5
B46
330
1F
100
AcDbEntity
  8
3、破線1
100
AcDbLine
 10
561.2
 20
996.0
 30
0.0
 11
561.2
 21
992.3117294985264
 31
0.0
  0
ARC
  5
B47
330
1F
100
AcDbEntity
  8
3、破線1
100
AcDbCircle
 10
560.0
 20
998.7
 30
0.0
 40
6.5
100
AcDbArc
 50
280.6387093150128
 51
354.8663901689747
  0
ARC
  5
B4C
330
1F
100
AcDbEntity
  8
3、破線1
100
AcDbCircle
 10
560.0
 20
1005.0
 30
0.0
 40
6.0
100
AcDbArc
 50
54.31466528734774
 51
125.6853347126521
  0
LINE
  5
B4D
330
1F
100
AcDbEntity
  8
3、破線1
100
AcDbLine
 10
556.5
 20
1009.873397172404
 30
0.0
 11
556.5
 21
1006.936491673103
 31
0.0
  0
LINE
  5
B4F
330
1F
100
AcDbEntity
  8
3、破線1
100
AcDbLine
 10
563.4999999999998
 20
1009.873397172404
 30
0.0
 11
563.4999999999998
 21
1006.936491673103
 31
0.0
  0
LINE
  5
B5D
330
1F
100
AcDbEntity
  8
3、破線1
100
AcDbLine
 10
556.0
 20
1021.0
 30
0.0
 11
564.0
 21
1021.0
 31
0.0
  0
LINE
  5
B5E
330
1F
100
AcDbEntity
  8
3、破線1
100
AcDbLine
 10
564.0
 20
1021.0
 30
0.0
 11
564.0
 21
1001.0
 31
0.0
  0
LINE
  5
B5F
330
1F
100
AcDbEntity
  8
3、破線1
100
AcDbLine
 10
564.0
 20
1001.0
 30
0.0
 11
556.0
 21
1001.0
 31
0.0
  0
LINE
  5
B60
330
1F
100
AcDbEntity
  8
3、破線1
100
AcDbLine
 10
556.0
 20
1001.0
 30
0.0
 11
556.0
 21
1021.0
 31
0.0
  0
LINE
  5
B62
330
1F
100
AcDbEntity
  8
3、破線1
100
AcDbLine
 10
557.5
 20
1021.0
 30
0.0
 11
557.5
 21
1066.436549812319
 31
0.0
  0
LINE
  5
B63
330
1F
100
AcDbEntity
  8
3、破線1
100
AcDbLine
 10
562.5
 20
1021.0
 30
0.0
 11
562.5
 21
1066.436549812319
 31
0.0
  0
LINE
  5
B64
330
1F
100
AcDbEntity
  8
3、破線1
100
AcDbLine
 10
560.0
 20
1021.0
 30
0.0
 11
560.0
 21
1066.436549812319
 31
0.0
  0
CIRCLE
  5
B67
330
1F
100
AcDbEntity
  8
3、破線1
100
AcDbCircle
 10
590.0
 20
1004.0
 30
0.0
 40
2.2
  0
ARC
  5
B68
330
1F
100
AcDbEntity
  8
3、破線1
100
AcDbCircle
 10
590.0
 20
1004.0
 30
0.0
 40
4.0
100
AcDbArc
 50
160.8185041856181
 51
19.18149581438274
  0
LINE
  5
B6E
330
1F
100
AcDbEntity
  8
3、破線1
100
AcDbLine
 10
588.2
 20
1011.0
 30
0.0
 11
588.2
 21
1016.0
 31
0.0
  0
LINE
  5
B6F
330
1F
100
AcDbEntity
  8
3、破線1
100
AcDbLine
 10
588.2
 20
1016.0
 30
0.0
 11
591.7999999999998
 21
1016.0
 31
0.0
  0
LINE
  5
B70
330
1F
100
AcDbEntity
  8
3、破線1
100
AcDbLine
 10
591.7999999999998
 20
1016.0
 30
0.0
 11
591.7999999999998
 21
1011.0
 31
0.0
  0
LINE
  5
B71
330
1F
100
AcDbEntity
  8
3、破線1
100
AcDbLine
 10
591.7999999999998
 20
1011.0
 30
0.0
 11
593.7779301256674
 21
1005.314246539114
 31
0.0
  0
LINE
  5
B72
330
1F
100
AcDbEntity
  8
3、破線1
100
AcDbLine
 10
588.2
 20
1011.0
 30
0.0
 11
586.2220698743323
 21
1005.314246539114
 31
0.0
  0
CIRCLE
  5
B73
330
1F
100
AcDbEntity
  8
3、破線1
100
AcDbCircle
 10
590.0
 20
1004.0
 30
0.0
 40
3.5
  0
LINE
  5
B78
330
1F
100
AcDbEntity
  8
3、破線1
100
AcDbLine
 10
588.4999999999998
 20
1016.0
 30
0.0
 11
588.4999999999998
 21
1066.436549812319
 31
0.0
  0
LINE
  5
B79
330
1F
100
AcDbEntity
  8
3、破線1
100
AcDbLine
 10
591.5
 20
1016.0
 30
0.0
 11
591.5
 21
1066.436549812319
 31
0.0
  0
LINE
  5
B7E
330
1F
100
AcDbEntity
  8
1、実線
100
AcDbLine
 10
556.0
 20
277.4
 30
0.0
 11
556.0
 21
260.0
 31
0.0
  0
LINE
  5
B7F
330
1F
100
AcDbEntity
  8
1、実線
100
AcDbLine
 10
556.0
 20
260.0
 30
0.0
 11
564.0
 21
260.0
 31
0.0
  0
LINE
  5
B80
330
1F
100
AcDbEntity
  8
1、実線
100
AcDbLine
 10
564.0
 20
260.0
 30
0.0
 11
564.0
 21
277.4
 31
0.0
  0
LINE
  5
B86
330
1F
100
AcDbEntity
  8
1、実線
100
AcDbLine
 10
552.0627460668062
 20
280.0000000000001
 30
0.0
 11
552.0627460668062
 21
277.4
 31
0.0
  0
LINE
  5
B87
330
1F
100
AcDbEntity
  8
1、実線
100
AcDbLine
 10
552.0627460668062
 20
277.4
 30
0.0
 11
567.9372539331937
 21
277.4
 31
0.0
  0
LINE
  5
B88
330
1F
100
AcDbEntity
  8
1、実線
100
AcDbLine
 10
567.9372539331937
 20
277.4
 30
0.0
 11
567.9372539331937
 21
280.0
 31
0.0
  0
LINE
  5
BA7
330
1F
100
AcDbEntity
  8
電源コード
100
AcDbLine
 10
1253.852650508831
 20
265.2999999999999
 30
0.0
 11
1253.852650508831
 21
262.6999999999999
 31
0.0
  0
LINE
  5
BA8
330
1F
100
AcDbEntity
  8
電源コード
100
AcDbLine
 10
1257.483658442175
 20
265.2999999999999
 30
0.0
 11
1257.483658442175
 21
262.6999999999999
 31
0.0
  0
LINE
  5
BA9
330
1F
100
AcDbEntity
  8
電源コード
100
AcDbLine
 10
1257.483658442176
 20
262.6999999999999
 30
0.0
 11
1286.793923694637
 21
262.6999999999999
 31
0.0
  0
LINE
  5
BAA
330
1F
100
AcDbEntity
  8
電源コード
100
AcDbLine
 10
1257.483658442175
 20
265.2999999999999
 30
0.0
 11
1286.793923694637
 21
265.2999999999999
 31
0.0
  0
DIMENSION
  5
DB3
330
1F
100
AcDbEntity
  8
寸法線1
100
AcDbDimension
  2
*D3
 10
160.0
 20
1034.0
 30
0.0
 11
149.9999999999998
 21
874.0
 31
0.0
 70
    32
 71
     5
 42
320.0
  3
ISO-25
100
AcDbAlignedDimension
 13
200.0
 23
714.0
 33
0.0
 14
200.0
 24
1034.0
 34
0.0
 50
90.0
100
AcDbRotatedDimension
  0
DIMENSION
  5
DC1
330
1F
100
AcDbEntity
  8
寸法線1
100
AcDbDimension
  2
*D4
 10
160.0
 20
678.0
 30
0.0
 11
149.9999999999998
 21
696.0
 31
0.0
 70
    32
  1
37
 71
     5
 42
36.0
  3
ISO-25
100
AcDbAlignedDimension
 13
200.0
 23
714.0
 33
0.0
 14
199.9999999999998
 24
678.0
 34
0.0
 50
90.0
100
AcDbRotatedDimension
  0
DIMENSION
  5
DDC
330
1F
100
AcDbEntity
  8
寸法線1
100
AcDbDimension
  2
*D5
 10
680.0
 20
250.0
 30
0.0
 11
670.0
 21
265.0
 31
0.0
 70
    32
 71
     5
 42
29.99999999999997
  3
ISO-25
100
AcDbAlignedDimension
 13
640.0
 23
280.0
 33
0.0
 14
640.0
 24
250.0
 34
0.0
 50
90.0
100
AcDbRotatedDimension
  0
DIMENSION
  5
DE9
330
1F
100
AcDbEntity
  8
寸法線1
100
AcDbDimension
  2
*D6
 10
680.0
 20
557.0
 30
0.0
 11
669.9999999999999
 21
418.5
 31
0.0
 70
    32
 71
     5
 42
277.0
  3
ISO-25
100
AcDbAlignedDimension
 13
639.9999999999997
 23
280.0
 33
0.0
 14
643.0
 24
557.0
 34
0.0
 50
90.0
100
AcDbRotatedDimension
  0
DIMENSION
  5
E07
330
1F
100
AcDbEntity
  8
寸法線1
100
AcDbDimension
  2
*D7
 10
812.8757612889092
 20
555.0
 30
0.0
 11
802.8757612889091
 21
420.0000000000001
 31
0.0
 70
    32
 71
     5
 42
270.0
  3
ISO-25
100
AcDbAlignedDimension
 13
879.8757612889092
 23
285.0
 33
0.0
 14
879.8757612889092
 24
555.0
 34
0.0
 50
90.0
100
AcDbRotatedDimension
  0
DIMENSION
  5
E15
330
1F
100
AcDbEntity
  8
寸法線1
100
AcDbDimension
  2
*D8
 10
852.8757612889091
 20
597.0
 30
0.0
 11
818.8757612889091
 21
607.0
 31
0.0
 70
    32
 71
     5
 42
27.0
  3
ISO-25
100
AcDbAlignedDimension
 13
879.8757612889092
 23
555.0
 33
0.0
 14
852.8757612889091
 24
464.7903692875859
 34
0.0
100
AcDbRotatedDimension
  0
DIMENSION
  5
E2A
330
1F
100
AcDbEntity
  8
寸法線1
100
AcDbDimension
  2
*D9
 10
1235.8737988832
 20
597.0
 30
0.0
 11
1057.874780086054
 21
607.0
 31
0.0
 70
    32
  1
357
 71
     5
 42
355.9980375942906
  3
ISO-25
100
AcDbAlignedDimension
 13
879.8757612889092
 23
555.0
 33
0.0
 14
1235.8737988832
 24
557.0
 34
0.0
100
AcDbRotatedDimension
  0
DIMENSION
  5
E37
330
1F
100
AcDbEntity
  8
寸法線1
100
AcDbDimension
  2
*D10
 10
640.0
 20
219.658013496255
 30
0.0
 11
420.0
 21
229.658013496255
 31
0.0
 70
    32
 71
     5
 42
440.0
  3
ISO-25
100
AcDbAlignedDimension
 13
200.0
 23
280.0
 33
0.0
 14
640.0
 24
280.0
 34
0.0
100
AcDbRotatedDimension
  0
DIMENSION
  5
E45
330
1F
100
AcDbEntity
  8
寸法線1
100
AcDbDimension
  2
*D11
 10
1170.873798883198
 20
335.13327154943
 30
0.0
 11
1043.3737988832
 21
345.13327154943
 31
0.0
 70
    32
 71
     5
 42
255.0
  3
ISO-25
100
AcDbAlignedDimension
 13
915.8737988831996
 23
342.5
 33
0.0
 14
1170.873798883198
 24
335.13327154943
 34
0.0
100
AcDbRotatedDimension
  0
DIMENSION
  5
E5C
330
1F
100
AcDbEntity
  8
寸法線1
100
AcDbDimension
  2
*D12
 10
599.9999999999999
 20
335.13327154943
 30
0.0
 11
419.9999999999998
 21
335.13327154943
 31
0.0
 70
   160
 71
     5
 42
360.0
  3
ISO-25
100
AcDbAlignedDimension
 13
239.9999999999999
 23
342.5
 33
0.0
 14
599.9999999999999
 24
342.5
 34
0.0
100
AcDbRotatedDimension
  0
DIMENSION
  5
E72
330
1F
100
AcDbEntity
  8
寸法線1
100
AcDbDimension
  2
*D13
 10
555.418360609855
 20
522.5
 30
0.0
 11
545.4183606098548
 21
420.0000000000001
 31
0.0
 70
    32
 71
     5
 42
205.0
  3
ISO-25
100
AcDbAlignedDimension
 13
555.418360609855
 23
317.5
 33
0.0
 14
555.418360609855
 24
522.5
 34
0.0
 50
90.0
100
AcDbRotatedDimension
  0
CIRCLE
  5
F55
330
1F
100
AcDbEntity
  8
0
100
AcDbCircle
 10
433.1956075576581
 20
617.0
 30
0.0
 40
14.0
  0
CIRCLE
  5
F58
330
1F
100
AcDbEntity
  8
0
100
AcDbCircle
 10
339.1177109511991
 20
617.0
 30
0.0
 40
14.0
  0
CIRCLE
  5
F59
330
1F
100
AcDbEntity
  8
0
100
AcDbCircle
 10
758.8737988831999
 20
170.0
 30
0.0
 40
14.0
  0
CIRCLE
  5
F5A
330
1F
100
AcDbEntity
  8
0
100
AcDbCircle
 10
526.7202004940664
 20
170.0
 30
0.0
 40
14.0
  0
CIRCLE
  5
F5E
330
1F
100
AcDbEntity
  8
0
100
AcDbCircle
 10
852.8757612889091
 20
170.0
 30
0.0
 40
14.0
  0
CIRCLE
  5
F62
330
1F
100
AcDbEntity
  8
0
100
AcDbCircle
 10
758.8737988831999
 20
336.6312474677078
 30
0.0
 40
14.0
  0
CIRCLE
  5
F63
330
1F
100
AcDbEntity
  8
0
100
AcDbCircle
 10
758.8737988831999
 20
483.4254072062413
 30
0.0
 40
14.0
  0
CIRCLE
  5
F65
330
1F
100
AcDbEntity
  8
0
100
AcDbCircle
 10
758.8737988831999
 20
604.5870839884647
 30
0.0
 40
14.0
  0
CIRCLE
  5
F66
330
1F
100
AcDbEntity
  8
0
100
AcDbCircle
 10
1255.383717822414
 20
678.0
 30
0.0
 40
14.0
  0
CIRCLE
  5
F68
330
1F
100
AcDbEntity
  8
0
100
AcDbCircle
 10
1355.8737988832
 20
497.7079022795606
 30
0.0
 40
14.0
  0
CIRCLE
  5
F6A
330
1F
100
AcDbEntity
  8
0
100
AcDbCircle
 10
879.8757612889092
 20
678.0
 30
0.0
 40
14.0
  0
CIRCLE
  5
F6D
330
1F
100
AcDbEntity
  8
0
100
AcDbCircle
 10
970.7649868227582
 20
678.0
 30
0.0
 40
14.0
  0
CIRCLE
  5
F6F
330
1F
100
AcDbEntity
  8
0
100
AcDbCircle
 10
1179.508718122558
 20
678.0
 30
0.0
 40
14.0
  0
CIRCLE
  5
F70
330
1F
100
AcDbEntity
  8
0
100
AcDbCircle
 10
1355.8737988832
 20
413.3437993690923
 30
0.0
 40
14.0
  0
ARC
  5
F7E
330
1F
100
AcDbEntity
  8
1、実線
100
AcDbCircle
 10
590.0
 20
285.6999999999998
 30
0.0
 40
9.0
100
AcDbArc
 50
253.398450400976
 51
286.6015495990239
  0
LINE
  5
F86
330
1F
100
AcDbEntity
  8
1、実線
100
AcDbLine
 10
586.5
 20
278.3209756742521
 30
0.0
 11
586.5
 21
279.1999999999999
 31
0.0
  0
LINE
  5
F87
330
1F
100
AcDbEntity
  8
1、実線
100
AcDbLine
 10
593.5
 20
278.3209756742521
 30
0.0
 11
593.5
 21
279.1999999999999
 31
0.0
  0
LINE
  5
F88
330
1F
100
AcDbEntity
  8
1、実線
100
AcDbLine
 10
586.0
 20
280.0
 30
0.0
 11
594.0
 21
280.0
 31
0.0
  0
LINE
  5
F89
330
1F
100
AcDbEntity
  8
1、実線
100
AcDbLine
 10
594.0
 20
280.0
 30
0.0
 11
594.0
 21
279.1999999999999
 31
0.0
  0
LINE
  5
F8A
330
1F
100
AcDbEntity
  8
1、実線
100
AcDbLine
 10
594.0
 20
279.1999999999999
 30
0.0
 11
586.0
 21
279.1999999999999
 31
0.0
  0
LINE
  5
F8B
330
1F
100
AcDbEntity
  8
1、実線
100
AcDbLine
 10
586.0
 20
279.1999999999999
 30
0.0
 11
586.0
 21
280.0
 31
0.0
  0
ARC
  5
F8C
330
1F
100
AcDbEntity
  8
1、実線
100
AcDbCircle
 10
587.7999999999998
 20
278.3209756742521
 30
0.0
 40
1.3
100
AcDbArc
 50
180.0
 51
253.398450400974
  0
ARC
  5
F8D
330
1F
100
AcDbEntity
  8
1、実線
100
AcDbCircle
 10
592.2
 20
278.3209756742521
 30
0.0
 40
1.3
100
AcDbArc
 50
286.6015495990258
 51
0.0
  0
SPLINE
  5
F8F
330
1F
100
AcDbEntity
  8
1、実線
100
AcDbSpline
210
0.0
220
0.0
230
1.0
 70
     8
 71
     3
 72
    11
 73
     7
 74
     5
 42
0.0000000001
 43
0.0000000001
 44
0.0000000001
 40
0.0
 40
0.0
 40
0.0
 40
0.0
 40
18.52892701610245
 40
30.13546120738051
 40
52.81200969985289
 40
59.76789609398747
 40
59.76789609398747
 40
59.76789609398747
 40
59.76789609398747
 10
1228.873798883199
 20
280.0
 30
0.0
 10
1235.248989545675
 20
280.2056901131937
 30
0.0
 10
1245.617604562171
 20
280.54022467213
 30
0.0
 10
1260.663742995534
 20
270.4222246698298
 30
0.0
 10
1275.733285090097
 20
271.1388399975368
 30
0.0
 10
1284.895655401463
 20
274.7274641075347
 30
0.0
 10
1287.046420508371
 20
275.5698539319254
 30
0.0
 11
1228.873798883199
 21
280.0
 31
0.0
 11
1247.325305491105
 21
278.307947912608
 31
0.0
 11
1257.826291182778
 21
273.364170466506
 31
0.0
 11
1280.502329453229
 21
273.2120524580694
 31
0.0
 11
1287.046420508371
 21
275.5698539319254
 31
0.0
  0
SPLINE
  5
F90
330
1F
100
AcDbEntity
  8
1、実線
100
AcDbSpline
210
0.0
220
0.0
230
1.0
 70
     8
 71
     3
 72
    40
 73
    36
 74
     0
 42
0.0000000001
 43
0.0000000001
 40
0.0
 40
0.0
 40
0.0
 40
0.0
 40
1.806346045430064
 40
1.806346045430064
 40
5.419038136290196
 40
5.419038136290196
 40
12.64442231801044
 40
12.64442231801044
 40
15.56441962019126
 40
15.56441962019126
 40
18.61933928032965
 40
18.61933928032965
 40
21.67425894046805
 40
21.67425894046805
 40
26.44991572185031
 40
26.44991572185031
 40
28.86212094332198
 40
28.86212094332198
 40
30.3738338455353
 40
30.3738338455353
 40
31.88554674774861
 40
31.88554674774861
 40
34.90897255217524
 40
34.90897255217524
 40
40.95582416102851
 40
40.95582416102851
 40
47.34823663302242
 40
47.34823663302242
 40
51.50893273665595
 40
51.50893273665595
 40
54.2605136107142
 40
54.2605136107142
 40
57.01209448477245
 40
57.01209448477245
 40
59.76789609398739
 40
59.76789609398739
 40
59.76789609398739
 40
59.76789609398739
 10
1228.954417310323
 20
277.5013002042646
 30
0.0
 10
1229.575921212411
 20
277.5213524999118
 30
0.0
 10
1230.194591218457
 20
277.5413084927894
 30
0.0
 10
1232.040166674113
 20
277.594554804914
 30
0.0
 10
1233.256666623784
 20
277.6211582116804
 30
0.0
 10
1236.847791991284
 20
277.6258076464135
 30
0.0
 10
1239.163245967374
 20
277.5272361095043
 30
0.0
 10
1242.242317891104
 20
277.0854644395901
 30
0.0
 10
1243.108615342798
 20
276.9233078334266
 30
0.0
 10
1244.83726070435
 20
276.5061600690543
 30
0.0
 10
1245.695582668806
 20
276.2479932371886
 30
0.0
 10
1247.373208124431
 20
275.6217343588569
 30
0.0
 10
1248.22336129108
 20
275.2425635762086
 30
0.0
 10
1250.449129679806
 20
274.1639429785174
 30
0.0
 10
1251.84923383215
 20
273.4036637075536
 30
0.0
 10
1254.076522943974
 20
272.2839462347636
 30
0.0
 10
1254.844727982399
 20
271.9126845478011
 30
0.0
 10
1256.138742434652
 20
271.345052415124
 30
0.0
 10
1256.649768432553
 20
271.1346224510943
 30
0.0
 10
1257.688356717427
 20
270.743607663417
 30
0.0
 10
1258.212488101376
 20
270.5636586163753
 30
0.0
 10
1259.797009480671
 20
270.0689046824155
 30
0.0
 10
1260.86948840973
 20
269.799192769393
 30
0.0
 10
1264.117749569286
 20
269.1574665120973
 30
0.0
 10
1266.324044758206
 20
268.9526141532056
 30
0.0
 10
1270.862004959353
 20
268.9215709268216
 30
0.0
 10
1273.193911646889
 20
269.1176181880428
 30
0.0
 10
1276.969821869353
 20
269.7338667173518
 30
0.0
 10
1278.439637501927
 20
270.0520155332711
 30
0.0
 10
1280.830076199177
 20
270.6911634938853
 30
0.0
 10
1281.768965588392
 20
270.9766540565898
 30
0.0
 10
1283.596788754977
 20
271.5860217735788
 30
0.0
 10
1284.489241531696
 20
271.9094086373909
 30
0.0
 10
1286.24389122891
 20
272.5705349987338
 30
0.0
 10
1287.106060805644
 20
272.9082955674909
 30
0.0
 10
1287.958156657534
 20
273.2420358131049
 30
0.0
  0
LINE
  5
F91
330
1F
100
AcDbEntity
  8
1、実線
100
AcDbLine
 10
1287.046420508371
 20
275.5698539319254
 30
0.0
 11
1287.958156657534
 21
273.2420358131049
 31
0.0
  0
LINE
  5
F95
330
1F
100
AcDbEntity
  8
3、破線1
100
AcDbLine
 10
1228.954417310323
 20
277.5013002042646
 30
0.0
 11
1216.205883049924
 21
277.5013002042646
 31
0.0
  0
CIRCLE
  5
F98
330
1F
100
AcDbEntity
  8
0
100
AcDbCircle
 10
1355.8737988832
 20
329.7913684364938
 30
0.0
 40
14.0
  0
LEADER
  5
F99
330
1F
100
AcDbEntity
  8
寸法線
100
AcDbLeader
  3
ISO-25
 76
     2
 10
1328.993923694637
 20
268.0195497114636
 30
0.0
 10
1350.28769011959
 20
316.9541028054833
 30
0.0
1001
ACAD
1000
DSTYLE
1002
{
1070
   147
1040
1.0
1070
    77
1070
     0
1002
}
  0
LEADER
  5
F9A
330
1F
100
AcDbEntity
  8
寸法線
100
AcDbLeader
  3
ISO-25
 76
     2
 10
1249.27197720095
 20
277.4999999999999
 30
0.0
 10
1347.230945446965
 20
402.3301222138561
 30
0.0
1001
ACAD
1000
DSTYLE
1002
{
1070
   147
1040
1.0
1070
    77
1070
     0
1002
}
  0
LEADER
  5
F9B
330
1F
100
AcDbEntity
  8
寸法線
100
AcDbLeader
  3
ISO-25
 76
     2
 10
1236.7948756436
 20
460.5852161178844
 30
0.0
 10
1342.50822309002
 20
493.5412029003432
 30
0.0
1001
ACAD
1000
DSTYLE
1002
{
1070
   147
1040
1.0
1070
    77
1070
     0
1002
}
  0
LEADER
  5
FA1
330
1F
100
AcDbEntity
  8
寸法線
100
AcDbLeader
  3
ISO-25
 76
     2
 10
1110.043195296855
 20
557.0
 30
0.0
 10
1172.538379669996
 20
665.8585675533429
 30
0.0
1001
ACAD
1000
DSTYLE
1002
{
1070
   147
1040
1.0
1070
    77
1070
     0
1002
}
  0
LEADER
  5
FA4
330
1F
100
AcDbEntity
  8
寸法線
100
AcDbLeader
  3
ISO-25
 76
     2
 10
934.0843162623039
 20
560.3880681240971
 30
0.0
 10
885.7359911674304
 20
665.285531636325
 30
0.0
1001
ACAD
1000
DSTYLE
1002
{
1070
   147
1040
1.0
1070
    77
1070
     0
1002
}
  0
LEADER
  5
FA5
330
1F
100
AcDbEntity
  8
寸法線
100
AcDbLeader
  3
ISO-25
 76
     2
 10
1021.078665653311
 20
523.9753054991333
 30
0.0
 10
975.1121655462585
 20
664.6920310660886
 30
0.0
1001
ACAD
1000
DSTYLE
1002
{
1070
   147
1040
1.0
1070
    77
1070
     0
1002
}
  0
LEADER
  5
FA6
330
1F
100
AcDbEntity
  8
寸法線
100
AcDbLeader
  3
ISO-25
 76
     2
 10
1149.583717822413
 20
522.5
 30
0.0
 10
1247.508323777897
 20
666.4251061065945
 30
0.0
1001
ACAD
1000
DSTYLE
1002
{
1070
   147
1040
1.0
1070
    77
1070
     0
1002
}
  0
LEADER
  5
FAA
330
1F
100
AcDbEntity
  8
寸法線
100
AcDbLeader
  3
ISO-25
 76
     2
 10
928.0117002425066
 20
249.86843250736
 30
0.0
 10
862.4685412483168
 20
180.1969884108195
 30
0.0
1001
ACAD
1000
DSTYLE
1002
{
1070
   147
1040
1.0
1070
    77
1070
     0
1002
}
  0
CIRCLE
  5
FAB
330
1F
100
AcDbEntity
  8
0
100
AcDbCircle
 10
758.8737988831999
 20
250.0
 30
0.0
 40
14.0
  0
LEADER
  5
FAD
330
1F
100
AcDbEntity
  8
寸法線
100
AcDbLeader
  3
ISO-25
 76
     2
 10
852.262692625065
 20
452.4713561297576
 30
0.0
 10
772.1628414272203
 20
479.0207110460942
 30
0.0
1001
ACAD
1000
DSTYLE
1002
{
1070
   147
1040
1.0
1070
    77
1070
     0
1002
}
  0
LEADER
  5
FAF
330
1F
100
AcDbEntity
  8
寸法線
100
AcDbLeader
  3
ISO-25
 76
     2
 10
401.7971629694963
 20
484.2817280213846
 30
0.0
 10
345.0963400748053
 20
604.3407743600815
 30
0.0
1001
ACAD
1000
DSTYLE
1002
{
1070
   147
1040
1.0
1070
    77
1070
     0
1002
}
  0
LEADER
  5
FB0
330
1F
100
AcDbEntity
  8
寸法線
100
AcDbLeader
  3
ISO-25
 76
     2
 10
476.5745410886701
 20
317.5
 30
0.0
 10
522.2139118745324
 20
183.254937301906
 30
0.0
1001
ACAD
1000
DSTYLE
1002
{
1070
   147
1040
1.0
1070
    77
1070
     0
1002
}
  0
LINE
  5
FB2
330
1F
100
AcDbEntity
  8
寸法線
100
AcDbLine
 10
747.8280387820245
 20
258.6018128198235
 30
0.0
 11
620.0981758995476
 21
358.0706010202739
 31
0.0
  0
LEADER
  5
FB7
330
1F
100
AcDbEntity
  8
寸法線
100
AcDbLeader
  3
ISO-25
 76
     2
 10
446.5550098979384
 20
448.8999999999998
 30
0.0
 10
434.3047317385778
 20
603.0440033121492
 30
0.0
1001
ACAD
1000
DSTYLE
1002
{
1070
   147
1040
1.0
1070
    77
1070
     0
1002
}
  0
TEXT
  5
FB8
330
1F
100
AcDbEntity
  8
0
100
AcDbText
 10
1177.208161149075
 20
672.486609819728
 30
0.0
 40
12.0
  1
1
100
AcDbText
  0
TEXT
  5
FB9
330
1F
100
AcDbEntity
  8
0
100
AcDbText
 10
1249.996719262164
 20
671.9784016951843
 30
0.0
 40
12.0
  1
4
100
AcDbText
  0
TEXT
  5
FBA
330
1F
100
AcDbEntity
  8
0
100
AcDbText
 10
1352.620398859608
 20
492.1330260884659
 30
0.0
 40
12.0
  1
2
100
AcDbText
  0
TEXT
  5
FC4
330
1F
100
AcDbEntity
  8
0
100
AcDbText
 10
522.5361796961665
 20
163.9716207027868
 30
0.0
 40
12.0
  1
4
100
AcDbText
  0
TEXT
  5
FC5
330
1F
100
AcDbEntity
  8
0
100
AcDbText
 10
335.1734925435788
 20
610.4330899044947
 30
0.0
 40
12.0
  1
8
100
AcDbText
  0
TEXT
  5
FC7
330
1F
100
AcDbEntity
  8
0
100
AcDbText
 10
963.6191319981575
 20
671.80299845742
 30
0.0
 40
12.0
  1
10
100
AcDbText
  0
TEXT
  5
FC8
330
1F
100
AcDbEntity
  8
0
100
AcDbText
 10
755.321168262119
 20
329.2097352179716
 30
0.0
 40
12.0
  1
7
100
AcDbText
  0
TEXT
  5
FC9
330
1F
100
AcDbEntity
  8
0
100
AcDbText
 10
844.9902654404692
 20
163.2281441554622
 30
0.0
 40
12.0
  1
16
100
AcDbText
  0
TEXT
  5
FCA
330
1F
100
AcDbEntity
  8
0
100
AcDbText
 10
753.6299704475072
 20
477.0987106123883
 30
0.0
 40
12.0
  1
11
100
AcDbText
  0
TEXT
  5
FCB
330
1F
100
AcDbEntity
  8
0
100
AcDbText
 10
750.8925857108156
 20
598.7126358572018
 30
0.0
 40
12.0
  1
12
100
AcDbText
  0
TEXT
  5
FCC
330
1F
100
AcDbEntity
  8
0
100
AcDbText
 10
876.1280353121142
 20
671.1565053979861
 30
0.0
 40
12.0
  1
5
100
AcDbText
  0
TEXT
  5
FCD
330
1F
100
AcDbEntity
  8
0
100
AcDbText
 10
429.1576212630501
 20
610.8405345901419
 30
0.0
 40
12.0
  1
9
100
AcDbText
  0
TEXT
  5
FCE
330
1F
100
AcDbEntity
  8
0
100
AcDbText
 10
1347.631197899628
 20
324.1057264860673
 30
0.0
 40
12.0
  1
13
100
AcDbText
  0
TEXT
  5
FCF
330
1F
100
AcDbEntity
  8
0
100
AcDbText
 10
1348.30515650314
 20
406.6977039263141
 30
0.0
 40
12.0
  1
14
100
AcDbText
  0
LEADER
  5
FD2
330
1F
100
AcDbEntity
  8
寸法線
100
AcDbLeader
  3
ISO-25
 76
     2
 10
904.9825438981027
 20
416.9786365219637
 30
0.0
 10
771.1412619404226
 20
343.3773092921855
 30
0.0
1001
ACAD
1000
DSTYLE
1002
{
1070
   147
1040
1.0
1070
    77
1070
     0
1002
}
  0
LEADER
  5
FDD
330
1F
100
AcDbEntity
  8
寸法線
100
AcDbLeader
  3
ISO-25
 76
     2
 10
889.2666797222759
 20
281.314465912942
 30
0.0
 10
769.5215619863796
 20
179.089837231687
 30
0.0
1001
ACAD
1000
DSTYLE
1002
{
1070
   147
1040
1.0
1070
    77
1070
     0
1002
}
  0
TEXT
  5
FDE
330
1F
100
AcDbEntity
  8
0
100
AcDbText
 10
754.9674617344575
 20
164.2148673450195
 30
0.0
 40
12.0
  1
6
100
AcDbText
  0
LINE
  5
FE2
330
1F
100
AcDbEntity
  8
電源コード
100
AcDbLine
 10
557.5
 20
1035.0
 30
0.0
 11
557.5
 21
1066.436549812319
 31
0.0
  0
LINE
  5
FE3
330
1F
100
AcDbEntity
  8
電源コード
100
AcDbLine
 10
557.5
 20
1066.436549812319
 30
0.0
 11
562.5
 21
1066.436549812319
 31
0.0
  0
LINE
  5
FE4
330
1F
100
AcDbEntity
  8
電源コード
100
AcDbLine
 10
562.5
 20
1066.436549812319
 30
0.0
 11
562.5
 21
1035.0
 31
0.0
  0
LINE
  5
FE5
330
1F
100
AcDbEntity
  8
電源コード
100
AcDbLine
 10
588.4999999999998
 20
1035.0
 30
0.0
 11
588.4999999999998
 21
1066.436549812319
 31
0.0
  0
LINE
  5
FE6
330
1F
100
AcDbEntity
  8
電源コード
100
AcDbLine
 10
588.4999999999998
 20
1066.436549812319
 30
0.0
 11
591.5
 21
1066.436549812319
 31
0.0
  0
LINE
  5
FE7
330
1F
100
AcDbEntity
  8
電源コード
100
AcDbLine
 10
591.5
 20
1066.436549812319
 30
0.0
 11
591.5
 21
1035.0
 31
0.0
  0
LINE
  5
FE8
330
1F
100
AcDbEntity
  8
電源コード
100
AcDbLine
 10
560.0
 20
1035.0
 30
0.0
 11
560.0
 21
1066.436549812319
 31
0.0
  0
LEADER
  5
FE9
330
1F
100
AcDbEntity
  8
寸法線
100
AcDbLeader
  3
ISO-25
 76
     2
 10
879.4471447674222
 20
311.1340419087537
 30
0.0
 10
771.3604810495186
 20
256.3310953615736
 30
0.0
1001
ACAD
1000
DSTYLE
1002
{
1070
   147
1040
1.0
1070
    77
1070
     0
1002
}
  0
TEXT
  5
FEA
330
1F
100
AcDbEntity
  8
0
100
AcDbText
 10
755.7008060061197
 20
243.8729284924955
 30
0.0
 40
12.0
  1
3
100
AcDbText
  0
TEXT
  5
1022
330
1F
100
AcDbEntity
  8
0
100
AcDbText
 10
1282.431420057466
 20
85.31137634530386
 30
0.0
 40
16.0
  1
弁当温蔵庫
100
AcDbText
  0
TEXT
  5
1023
330
1F
100
AcDbEntity
  8
0
100
AcDbText
 10
1005.413320376685
 20
98.78328296838786
 30
0.0
 40
16.0
  1
G.Y
100
AcDbText
  0
TEXT
  5
1024
330
1F
100
AcDbEntity
  8
0
100
AcDbText
 10
1528.127968798155
 20
87.26422829179014
 30
0.0
 40
12.0
  1
HP-16
100
AcDbText
  0
TEXT
  5
1025
330
1F
100
AcDbEntity
  8
0
100
AcDbText
 10
1511.299044574613
 20
50.79563005333451
 30
0.0
 40
12.0
  1
HP-16-AD
100
AcDbText
  0
TEXT
  5
1026
330
1F
100
AcDbEntity
  8
0
100
AcDbText
 10
998.6069833268157
 20
67.38337945516915
 30
0.0
 40
8.000399999999999
  1
20.03.05
100
AcDbText
  0
TEXT
  5
102D
330
1F
100
AcDbEntity
  8
0
100
AcDbText
 10
1249.080347656424
 20
130.8105782632374
 30
0.0
 40
12.0
  1
1
100
AcDbText
  0
TEXT
  5
102E
330
1F
100
AcDbEntity
  8
0
100
AcDbText
 10
1266.776818027043
 20
116.9333975040025
 30
0.0
 40
12.0
  1
4
100
AcDbText
  0
LINE
  5
104E
330
1F
100
AcDbEntity
  8
0
100
AcDbLine
 10
1239.999999999999
 20
148.0
 30
0.0
 11
1239.999999999999
 21
111.9999999999998
 31
0.0
  0
LINE
  5
104F
330
1F
100
AcDbEntity
  8
0
100
AcDbLine
 10
1335.999999999998
 20
148.0
 30
0.0
 11
1335.999999999998
 21
112.0
 31
0.0
  0
LINE
  5
1050
330
1F
100
AcDbEntity
  8
0
100
AcDbLine
 10
1463.999999999999
 20
148.0
 30
0.0
 11
1463.999999999999
 21
112.0
 31
0.0
  0
LINE
  5
1051
330
1F
100
AcDbEntity
  8
0
100
AcDbLine
 10
1591.999999999999
 20
148.0
 30
0.0
 11
1591.999999999999
 21
112.0
 31
0.0
  0
LINE
  5
108A
330
1F
100
AcDbEntity
  8
1、実線
100
AcDbLine
 10
939.3737988831995
 20
487.5
 30
0.0
 11
952.3737988831999
 21
487.5
 31
0.0
  0
LINE
  5
108B
330
1F
100
AcDbEntity
  8
1、実線
100
AcDbLine
 10
953.3737988831999
 20
486.5
 30
0.0
 11
953.3737988831999
 21
467.4999999999999
 31
0.0
  0
LINE
  5
108C
330
1F
100
AcDbEntity
  8
1、実線
100
AcDbLine
 10
952.3737988831999
 20
466.5
 30
0.0
 11
939.3737988832
 21
466.5
 31
0.0
  0
LINE
  5
108D
330
1F
100
AcDbEntity
  8
1、実線
100
AcDbLine
 10
938.3737988831995
 20
467.4999999999999
 30
0.0
 11
938.3737988831995
 21
486.5
 31
0.0
  0
LINE
  5
108E
330
1F
100
AcDbEntity
  8
1、実線
100
AcDbLine
 10
940.6237988831998
 20
484.75
 30
0.0
 11
951.1237988831998
 21
484.75
 31
0.0
  0
LINE
  5
108F
330
1F
100
AcDbEntity
  8
1、実線
100
AcDbLine
 10
951.1237988831998
 20
484.75
 30
0.0
 11
951.1237988831998
 21
469.2499999999998
 31
0.0
  0
LINE
  5
1090
330
1F
100
AcDbEntity
  8
1、実線
100
AcDbLine
 10
951.1237988831998
 20
469.2499999999998
 30
0.0
 11
940.6237988831998
 21
469.2499999999998
 31
0.0
  0
LINE
  5
1091
330
1F
100
AcDbEntity
  8
1、実線
100
AcDbLine
 10
940.6237988831998
 20
469.2499999999998
 30
0.0
 11
940.6237988831998
 21
484.75
 31
0.0
  0
LINE
  5
1093
330
1F
100
AcDbEntity
  8
1、実線
100
AcDbLine
 10
940.6237988831998
 20
481.5
 30
0.0
 11
951.1237988831998
 21
481.5
 31
0.0
  0
ARC
  5
1094
330
1F
100
AcDbEntity
  8
1、実線
100
AcDbCircle
 10
939.3737988831995
 20
486.5
 30
0.0
 40
1.0
100
AcDbArc
 50
90.0
 51
180.0
  0
ARC
  5
1095
330
1F
100
AcDbEntity
  8
1、実線
100
AcDbCircle
 10
952.3737988831999
 20
486.5
 30
0.0
 40
1.0
100
AcDbArc
 50
0.0
 51
90.0
  0
ARC
  5
1096
330
1F
100
AcDbEntity
  8
1、実線
100
AcDbCircle
 10
952.3737988831999
 20
467.4999999999999
 30
0.0
 40
1.0
100
AcDbArc
 50
270.0
 51
359.9999999999997
  0
ARC
  5
1097
330
1F
100
AcDbEntity
  8
1、実線
100
AcDbCircle
 10
939.3737988832
 20
467.4999999999999
 30
0.0
 40
1.0
100
AcDbArc
 50
180.0000000000003
 51
270.0000000000001
  0
LEADER
  5
1098
330
1F
100
AcDbEntity
  8
寸法線1
100
AcDbLeader
  3
ISO-25
 76
     2
 10
938.3737988831995
 20
477.6079266457418
 30
0.0
 10
770.3031452391282
 20
596.501909786493
 30
0.0
1001
ACAD
1000
DSTYLE
1002
{
1070
   147
1040
1.0
1070
    77
1070
     0
1002
}
  0
LINE
  5
10BB
330
1F
100
AcDbEntity
  8
1、実線
100
AcDbLine
 10
640.0
 20
487.4999999999998
 30
0.0
 11
641.0
 21
487.4999999999998
 31
0.0
  0
ARC
  5
10BC
330
1F
100
AcDbEntity
  8
1、実線
100
AcDbCircle
 10
641.0
 20
486.4999999999998
 30
0.0
 40
1.0
100
AcDbArc
 50
0.0
 51
90.0
  0
LINE
  5
10BD
330
1F
100
AcDbEntity
  8
1、実線
100
AcDbLine
 10
642.0
 20
486.4999999999998
 30
0.0
 11
642.0000000000001
 21
467.4999999999999
 31
0.0
  0
LINE
  5
10BE
330
1F
100
AcDbEntity
  8
1、実線
100
AcDbLine
 10
641.0000000000001
 20
466.5
 30
0.0
 11
640.0
 21
466.5
 31
0.0
  0
ARC
  5
10BF
330
1F
100
AcDbEntity
  8
1、実線
100
AcDbCircle
 10
641.0000000000001
 20
467.4999999999999
 30
0.0
 40
1.0
100
AcDbArc
 50
270.0
 51
0.0
  0
LINE
  5
10C0
330
1F
100
AcDbEntity
  8
1、実線
100
AcDbLine
 10
640.0
 20
466.5
 30
0.0
 11
640.0
 21
487.4999999999998
 31
0.0
  0
ARC
  5
10C1
330
1F
100
AcDbEntity
  8
1、実線
100
AcDbCircle
 10
660.1840526449286
 20
470.4738956611499
 30
0.0
 40
18.0
100
AcDbArc
 50
142.2250632813834
 51
183.2250488777305
  0
ARC
  5
10C2
330
1F
100
AcDbEntity
  8
1、実線
100
AcDbCircle
 10
642.0128766324888
 20
469.4499999999998
 30
0.0
 40
0.2
100
AcDbArc
 50
269.9999999999348
 51
3.225048877724162
  0
ARC
  5
10C3
330
1F
100
AcDbEntity
  8
1、実線
100
AcDbCircle
 10
633.0080108904712
 20
469.0536411599559
 30
0.0
 40
18.0
100
AcDbArc
 50
43.7461393051831
 51
60.02943987050944
  0
LINE
  5
10C4
330
1F
100
AcDbEntity
  8
1、実線
100
AcDbLine
 10
642.0
 20
469.2499999999998
 30
0.0
 11
642.0128766324886
 21
469.2499999999998
 31
0.0
  0
LINE
  5
1C79
330
1F
100
AcDbEntity
  8
0
100
AcDbLine
 10
1255.999999999998
 20
1148.0
 30
0.0
 11
1255.999999999998
 21
808.0
 31
0.0
  0
LINE
  5
1C7A
330
1F
100
AcDbEntity
  8
0
100
AcDbLine
 10
1287.999999999998
 20
1148.0
 30
0.0
 11
1287.999999999998
 21
808.0
 31
0.0
  0
LINE
  5
1C7B
330
1F
100
AcDbEntity
  8
0
100
AcDbLine
 10
1439.999999999999
 20
1148.0
 30
0.0
 11
1439.999999999999
 21
808.0
 31
0.0
  0
LINE
  5
1C7C
330
1F
100
AcDbEntity
  8
0
100
AcDbLine
 10
1471.999999999999
 20
1148.0
 30
0.0
 11
1471.999999999999
 21
808.0
 31
0.0
  0
LINE
  5
1C7D
330
1F
100
AcDbEntity
  8
0
100
AcDbLine
 10
1255.999999999998
 20
1128.0
 30
0.0
 11
1639.999999999999
 21
1128.0
 31
0.0
  0
LINE
  5
1C7E
330
1F
100
AcDbEntity
  8
２，細線
100
AcDbLine
 10
1255.999999999998
 20
1108.0
 30
0.0
 11
1639.999999999999
 21
1108.0
 31
0.0
  0
LINE
  5
1C7F
330
1F
100
AcDbEntity
  8
２，細線
100
AcDbLine
 10
1255.999999999998
 20
1088.0
 30
0.0
 11
1639.999999999999
 21
1088.0
 31
0.0
  0
LINE
  5
1C80
330
1F
100
AcDbEntity
  8
２，細線
100
AcDbLine
 10
1255.999999999998
 20
1068.0
 30
0.0
 11
1639.999999999999
 21
1068.0
 31
0.0
  0
LINE
  5
1C81
330
1F
100
AcDbEntity
  8
２，細線
100
AcDbLine
 10
1255.999999999998
 20
1048.0
 30
0.0
 11
1639.999999999999
 21
1048.0
 31
0.0
  0
LINE
  5
1C82
330
1F
100
AcDbEntity
  8
２，細線
100
AcDbLine
 10
1255.999999999998
 20
1028.0
 30
0.0
 11
1639.999999999999
 21
1028.0
 31
0.0
  0
LINE
  5
1C83
330
1F
100
AcDbEntity
  8
２，細線
100
AcDbLine
 10
1255.999999999998
 20
1008.0
 30
0.0
 11
1639.999999999999
 21
1008.0
 31
0.0
  0
LINE
  5
1C84
330
1F
100
AcDbEntity
  8
２，細線
100
AcDbLine
 10
1255.999999999998
 20
988.0
 30
0.0
 11
1639.999999999999
 21
988.0
 31
0.0
  0
LINE
  5
1C85
330
1F
100
AcDbEntity
  8
２，細線
100
AcDbLine
 10
1255.999999999998
 20
968.0
 30
0.0
 11
1639.999999999999
 21
968.0
 31
0.0
  0
LINE
  5
1C86
330
1F
100
AcDbEntity
  8
２，細線
100
AcDbLine
 10
1255.999999999998
 20
948.0
 30
0.0
 11
1639.999999999999
 21
948.0
 31
0.0
  0
LINE
  5
1C87
330
1F
100
AcDbEntity
  8
２，細線
100
AcDbLine
 10
1255.999999999998
 20
928.0
 30
0.0
 11
1639.999999999999
 21
928.0
 31
0.0
  0
LINE
  5
1C88
330
1F
100
AcDbEntity
  8
２，細線
100
AcDbLine
 10
1255.999999999998
 20
908.0
 30
0.0
 11
1639.999999999999
 21
908.0
 31
0.0
  0
LINE
  5
1C89
330
1F
100
AcDbEntity
  8
２，細線
100
AcDbLine
 10
1255.999999999998
 20
888.0
 30
0.0
 11
1639.999999999999
 21
888.0
 31
0.0
  0
LINE
  5
1C8A
330
1F
100
AcDbEntity
  8
２，細線
100
AcDbLine
 10
1255.999999999998
 20
868.0
 30
0.0
 11
1639.999999999999
 21
868.0
 31
0.0
  0
LINE
  5
1C8B
330
1F
100
AcDbEntity
  8
２，細線
100
AcDbLine
 10
1255.999999999998
 20
848.0
 30
0.0
 11
1639.999999999999
 21
848.0
 31
0.0
  0
LINE
  5
1C8C
330
1F
100
AcDbEntity
  8
２，細線
100
AcDbLine
 10
1255.999999999998
 20
828.0
 30
0.0
 11
1639.999999999999
 21
828.0
 31
0.0
  0
LINE
  5
1C8D
330
1F
100
AcDbEntity
  8
２，細線
100
AcDbLine
 10
1255.999999999998
 20
808.0
 30
0.0
 11
1639.999999999999
 21
808.0
 31
0.0
  0
TEXT
  5
1C8F
330
1F
100
AcDbEntity
  8
0
100
AcDbText
 10
1263.029382495965
 20
1131.952161730005
 30
0.0
 40
12.0
  1
No
100
AcDbText
  0
TEXT
  5
1C90
330
1F
100
AcDbEntity
  8
0
100
AcDbText
 10
1443.338784054086
 20
1131.490548837474
 30
0.0
 40
12.0
  1
数量
100
AcDbText
  0
TEXT
  5
1C91
330
1F
100
AcDbEntity
  8
0
100
AcDbText
 10
1295.431121093005
 20
1131.929680153487
 30
0.0
 40
12.0
  1
品　名
100
AcDbText
  0
MTEXT
  5
1C92
330
1F
100
AcDbEntity
  8
0
100
AcDbMText
 10
1479.54832652015
 20
1143.786170372035
 30
0.0
 40
12.0
 41
165.1906376402875
 71
     1
 72
     5
  1
材質又は定格
 73
     1
 44
1.0
1001
ACAD
1000
MTEXTBEGIN
1070
    73
1070
     1
1070
    44
1040
1.0
1070
    74
1070
     0
1000
MTEXTEND
  0
TEXT
  5
1C93
330
1F
100
AcDbEntity
  8
0
100
AcDbText
 10
1270.029541874011
 20
1111.61558253885
 30
0.0
 40
12.0
  1
1
100
AcDbText
  0
TEXT
  5
1C94
330
1F
100
AcDbEntity
  8
0
100
AcDbText
 10
1267.907133345733
 20
1091.41993601584
 30
0.0
 40
12.0
  1
2
100
AcDbText
  0
TEXT
  5
1C95
330
1F
100
AcDbEntity
  8
0
100
AcDbText
 10
1267.842638401768
 20
1071.22428949283
 30
0.0
 40
12.0
  1
3
100
AcDbText
  0
TEXT
  5
1C96
330
1F
100
AcDbEntity
  8
0
100
AcDbText
 10
1267.617584944266
 20
1050.15038536632
 30
0.0
 40
12.0
  1
4
100
AcDbText
  0
TEXT
  5
1C97
330
1F
100
AcDbEntity
  8
0
100
AcDbText
 10
1268.373702740186
 20
1031.272132791351
 30
0.0
 40
12.0
  1
5
100
AcDbText
  0
TEXT
  5
1C98
330
1F
100
AcDbEntity
  8
0
100
AcDbText
 10
1268.295447352834
 20
1011.515612555828
 30
0.0
 40
12.0
  1
6
100
AcDbText
  0
TEXT
  5
1C99
330
1F
100
AcDbEntity
  8
0
100
AcDbText
 10
1268.795242459926
 20
990.8808347168053
 30
0.0
 40
12.0
  1
7
100
AcDbText
  0
TEXT
  5
1C9A
330
1F
100
AcDbEntity
  8
0
100
AcDbText
 10
1267.834937371137
 20
972.4417134578473
 30
0.0
 40
12.0
  1
8
100
AcDbText
  0
TEXT
  5
1C9B
330
1F
100
AcDbEntity
  8
0
100
AcDbText
 10
1267.710864008623
 20
952.6851881937943
 30
0.0
 40
12.0
  1
9
100
AcDbText
  0
TEXT
  5
1C9C
330
1F
100
AcDbEntity
  8
0
100
AcDbText
 10
1265.429453213062
 20
932.050415383299
 30
0.0
 40
12.0
  1
10
100
AcDbText
  0
TEXT
  5
1C9D
330
1F
100
AcDbEntity
  8
0
100
AcDbText
 10
1266.267601500594
 20
911.4156476013311
 30
0.0
 40
12.0
  1
11
100
AcDbText
  0
TEXT
  5
1C9E
330
1F
100
AcDbEntity
  8
0
100
AcDbText
 10
1264.912605035979
 20
892.0982586818199
 30
0.0
 40
12.0
  1
12
100
AcDbText
  0
TEXT
  5
1C9F
330
1F
100
AcDbEntity
  8
0
100
AcDbText
 10
1264.899693054468
 20
871.9026071302824
 30
0.0
 40
12.0
  1
13
100
AcDbText
  0
TEXT
  5
1CA0
330
1F
100
AcDbEntity
  8
0
100
AcDbText
 10
1264.896913488118
 20
851.7069606072718
 30
0.0
 40
12.0
  1
14
100
AcDbText
  0
TEXT
  5
1CA1
330
1F
100
AcDbEntity
  8
0
100
AcDbText
 10
1264.90411575827
 20
831.9504454002743
 30
0.0
 40
12.0
  1
15
100
AcDbText
  0
TEXT
  5
1CA2
330
1F
100
AcDbEntity
  8
0
100
AcDbText
 10
1264.902863785271
 20
811.7548039057938
 30
0.0
 40
12.0
  1
16
100
AcDbText
  0
TEXT
  5
1CA4
330
1F
100
AcDbEntity
  8
0
100
AcDbText
 10
1296.276188965403
 20
1111.024890767638
 30
0.0
 40
12.0
  1
外　箱
100
AcDbText
  0
TEXT
  5
1CA5
330
1F
100
AcDbEntity
  8
0
100
AcDbText
 10
1296.225234150753
 20
1091.024890767638
 30
0.0
 40
12.0
  1
外箱裏板
100
AcDbText
  0
TEXT
  5
1CA6
330
1F
100
AcDbEntity
  8
0
100
AcDbText
 10
1296.22523415075
 20
1071.024890767638
 30
0.0
 40
12.0
  1
扉
100
AcDbText
  0
TEXT
  5
1CA7
330
1F
100
AcDbEntity
  8
0
100
AcDbText
 10
1295.272653997442
 20
1051.540229429453
 30
0.0
 40
12.0
  1
中　箱
100
AcDbText
  0
TEXT
  5
1CA8
330
1F
100
AcDbEntity
  8
0
100
AcDbText
 10
1295.709651691558
 20
1031.540229429454
 30
0.0
 40
12.0
  1
上部ヒンジ
100
AcDbText
  0
TEXT
  5
1CA9
330
1F
100
AcDbEntity
  8
0
100
AcDbText
 10
1295.194069232363
 20
1010.509552105823
 30
0.0
 40
12.0
  1
下部ヒンジ
100
AcDbText
  0
TEXT
  5
1CAA
330
1F
100
AcDbEntity
  8
0
100
AcDbText
 10
1295.709651691558
 20
991.5402294294544
 30
0.0
 40
12.0
  1
マグネットパッキン
100
AcDbText
  0
TEXT
  5
1CAC
330
1F
100
AcDbEntity
  8
0
100
AcDbText
 10
1295.31331594615
 20
971.0248907676387
 30
0.0
 40
12.0
  1
固定サーモスタット
100
AcDbText
  0
TEXT
  5
1CAD
330
1F
100
AcDbEntity
  8
0
100
AcDbText
 10
1295.194069232363
 20
951.5402294294547
 30
0.0
 40
12.0
  1
温度ヒューズ
100
AcDbText
  0
TEXT
  5
1CAE
330
1F
100
AcDbEntity
  8
0
100
AcDbText
 10
1295.831012304812
 20
911.5402294294543
 30
0.0
 40
12.0
  1
取手
100
AcDbText
  0
TEXT
  5
1CAF
330
1F
100
AcDbEntity
  8
0
100
AcDbText
 10
1295.709651691558
 20
891.0248907676391
 30
0.0
 40
12.0
  1
電源スイッチ
100
AcDbText
  0
TEXT
  5
1CB0
330
1F
100
AcDbEntity
  8
0
100
AcDbText
 10
1294.678486773168
 20
871.0248907676387
 30
0.0
 40
12.0
  1
電源コード
100
AcDbText
  0
TEXT
  5
1CB1
330
1F
100
AcDbEntity
  8
0
100
AcDbText
 10
1295.610358523047
 20
851.0248857391111
 30
0.0
 40
12.0
  1
アース線
100
AcDbText
  0
TEXT
  5
1CB2
330
1F
100
AcDbEntity
  8
0
100
AcDbText
 10
1294.162904313973
 20
831.0248907676394
 30
0.0
 40
12.0
  1
ゴム脚
100
AcDbText
  0
TEXT
  5
1CB3
330
1F
100
AcDbEntity
  8
0
100
AcDbText
 10
1295.709651691556
 20
811.5402244009265
 30
0.0
 40
12.0
  1
Ｌ型樹脂脚
100
AcDbText
  0
TEXT
  5
1CB4
330
1F
100
AcDbEntity
  8
0
100
AcDbText
 10
1454.370165611478
 20
1112.36642667986
 30
0.0
 40
12.0
  1
1
100
AcDbText
  0
TEXT
  5
1CB5
330
1F
100
AcDbEntity
  8
0
100
AcDbText
 10
1454.832764272814
 20
1091.237511374272
 30
0.0
 40
12.0
  1
1
100
AcDbText
  0
TEXT
  5
1CB6
330
1F
100
AcDbEntity
  8
0
100
AcDbText
 10
1454.694192469388
 20
1071.139278420841
 30
0.0
 40
12.0
  1
1
100
AcDbText
  0
TEXT
  5
1CB7
330
1F
100
AcDbEntity
  8
0
100
AcDbText
 10
1454.370165611478
 20
1051.041045467409
 30
0.0
 40
12.0
  1
1
100
AcDbText
  0
TEXT
  5
1CB8
330
1F
100
AcDbEntity
  8
0
100
AcDbText
 10
1454.832764272816
 20
1031.920529377961
 30
0.0
 40
12.0
  1
1
100
AcDbText
  0
TEXT
  5
1CB9
330
1F
100
AcDbEntity
  8
0
100
AcDbText
 10
1454.912243890261
 20
1010.844579560549
 30
0.0
 40
12.0
  1
1
100
AcDbText
  0
TEXT
  5
1CBA
330
1F
100
AcDbEntity
  8
0
100
AcDbText
 10
1454.738691959228
 20
991.25912071952
 30
0.0
 40
12.0
  1
1
100
AcDbText
  0
TEXT
  5
1CBC
330
1F
100
AcDbEntity
  8
0
100
AcDbText
 10
1454.974543176038
 20
971.6557093787539
 30
0.0
 40
12.0
  1
1
100
AcDbText
  0
TEXT
  5
1CBD
330
1F
100
AcDbEntity
  8
0
100
AcDbText
 10
1454.502848583739
 20
951.8540037083711
 30
0.0
 40
12.0
  1
1
100
AcDbText
  0
TEXT
  5
1CBE
330
1F
100
AcDbEntity
  8
0
100
AcDbText
 10
1454.974543176038
 20
911.5808332852539
 30
0.0
 40
12.0
  1
1
100
AcDbText
  0
TEXT
  5
1CBF
330
1F
100
AcDbEntity
  8
0
100
AcDbText
 10
1454.502848583739
 20
892.0148599912382
 30
0.0
 40
12.0
  1
1
100
AcDbText
  0
TEXT
  5
1CC0
330
1F
100
AcDbEntity
  8
0
100
AcDbText
 10
1454.974543176038
 20
871.3036387318398
 30
0.0
 40
12.0
  1
1
100
AcDbText
  0
TEXT
  5
1CC1
330
1F
100
AcDbEntity
  8
0
100
AcDbText
 10
1454.502848583739
 20
852.0018441985657
 30
0.0
 40
12.0
  1
1
100
AcDbText
  0
TEXT
  5
1CC2
330
1F
100
AcDbEntity
  8
0
100
AcDbText
 10
1452.175388042034
 20
831.0780080149061
 30
0.0
 40
12.0
  1
2
100
AcDbText
  0
TEXT
  5
1CC3
330
1F
100
AcDbEntity
  8
0
100
AcDbText
 10
1452.662396731893
 20
811.3321642649779
 30
0.0
 40
12.0
  1
2
100
AcDbText
  0
TEXT
  5
1CC4
330
1F
100
AcDbEntity
  8
0
100
AcDbText
 10
1480.320147140225
 20
1111.970641931304
 30
0.0
 40
12.0
  1
SPCC 塗装
100
AcDbText
  0
TEXT
  5
1CC5
330
1F
100
AcDbEntity
  8
0
100
AcDbText
 10
1482.922517227999
 20
971.4939995537704
 30
0.0
 40
12.0
  1
75℃ ＯＦＦ
100
AcDbText
  0
TEXT
  5
1CC6
330
1F
100
AcDbEntity
  8
0
100
AcDbText
 10
1480.320147140225
 20
952.1180801392391
 30
0.0
 40
12.0
  1
113℃ 15Ａ
100
AcDbText
  0
TEXT
  5
1CC7
330
1F
100
AcDbEntity
  8
0
100
AcDbText
 10
1475.671220882518
 20
871.5984477756487
 30
0.0
 40
11.19999999999999
  1
ＶＦＦ 2×0.75sq 2ｍ
100
AcDbText
  0
TEXT
  5
1CC8
330
1F
100
AcDbEntity
  8
0
100
AcDbText
 10
1475.799367194205
 20
851.5984477756488
 30
0.0
 40
11.19999999999999
  1
ＶＳＦ 1.25sq 2ｍ
100
AcDbText
  0
TEXT
  5
1CC9
330
1F
100
AcDbEntity
  8
0
100
AcDbText
 10
1480.320147140226
 20
831.4939995537706
 30
0.0
 40
12.0
  1
合成ゴム
100
AcDbText
  0
TEXT
  5
1CCA
330
1F
100
AcDbEntity
  8
0
100
AcDbText
 10
1479.695774210185
 20
1052.274870917674
 30
0.0
 40
12.0
  1
アルミ
100
AcDbText
  0
TEXT
  5
1CCB
330
1F
100
AcDbEntity
  8
0
100
AcDbText
 10
1479.071401280148
 20
912.1180851677671
 30
0.0
 40
12.0
  1
ABS
100
AcDbText
  0
TEXT
  5
1CCC
330
1F
100
AcDbEntity
  8
0
100
AcDbText
 10
1480.320147140225
 20
812.2950049830542
 30
0.0
 40
12.0
  1
PP
100
AcDbText
  0
TEXT
  5
1CCD
330
1F
100
AcDbEntity
  8
0
100
AcDbText
 10
1480.320147140225
 20
891.88669347631
 30
0.0
 40
12.0
  1
15Ａ 250Ｖ 照光式
100
AcDbText
  0
TEXT
  5
1CCE
330
1F
100
AcDbEntity
  8
0
100
AcDbText
 10
1295.709651691558
 20
931.4458758198288
 30
0.0
 40
12.0
  1
発熱体
100
AcDbText
  0
TEXT
  5
1CCF
330
1F
100
AcDbEntity
  8
0
100
AcDbText
 10
1454.502848583739
 20
931.8784051298552
 30
0.0
 40
12.0
  1
1
100
AcDbText
  0
TEXT
  5
1CD0
330
1F
100
AcDbEntity
  8
0
100
AcDbText
 10
1479.844139840762
 20
932.063286341256
 30
0.0
 40
12.0
  1
アルミ箔ヒーター
100
AcDbText
  0
TEXT
  5
1CD2
330
1F
100
AcDbEntity
  8
0
100
AcDbText
 10
1481.5688930003
 20
991.4939995537704
 30
0.0
 40
12.0
  1
EPT
100
AcDbText
  0
TEXT
  5
1CD3
330
1F
100
AcDbEntity
  8
0
100
AcDbText
 10
1480.320147140225
 20
1091.970641931305
 30
0.0
 40
12.0
  1
SPCC 塗装
100
AcDbText
  0
TEXT
  5
1CD4
330
1F
100
AcDbEntity
  8
0
100
AcDbText
 10
1480.320147140225
 20
1071.970641931305
 30
0.0
 40
12.0
  1
SPCC 塗装
100
AcDbText
  0
TEXT
  5
1CD5
330
1F
100
AcDbEntity
  8
0
100
AcDbText
 10
1480.320147140225
 20
1031.970641931305
 30
0.0
 40
12.0
  1
SPCC 塗装
100
AcDbText
  0
TEXT
  5
1CD6
330
1F
100
AcDbEntity
  8
0
100
AcDbText
 10
1480.320147140225
 20
1011.970641931305
 30
0.0
 40
12.0
  1
SPCC 塗装
100
AcDbText
  0
LINE
  5
1CD7
330
1F
100
AcDbEntity
  8
0
100
AcDbLine
 10
871.9999999999991
 20
1108.0
 30
0.0
 11
1207.999999999999
 21
1108.0
 31
0.0
  0
LINE
  5
1CD8
330
1F
100
AcDbEntity
  8
0
100
AcDbLine
 10
1207.999999999999
 20
1108.0
 30
0.0
 11
1207.999999999999
 21
948.0
 31
0.0
  0
LINE
  5
1CD9
330
1F
100
AcDbEntity
  8
0
100
AcDbLine
 10
871.9999999999991
 20
948.0
 30
0.0
 11
871.9999999999991
 21
1108.0
 31
0.0
  0
LINE
  5
1CDA
330
1F
100
AcDbEntity
  8
２，細線
100
AcDbLine
 10
871.9999999999991
 20
1088.0
 30
0.0
 11
1207.999999999999
 21
1088.0
 31
0.0
  0
LINE
  5
1CDB
330
1F
100
AcDbEntity
  8
２，細線
100
AcDbLine
 10
871.9999999999991
 20
1068.0
 30
0.0
 11
1207.999999999999
 21
1068.0
 31
0.0
  0
LINE
  5
1CDC
330
1F
100
AcDbEntity
  8
２，細線
100
AcDbLine
 10
871.9999999999991
 20
1048.0
 30
0.0
 11
1207.999999999999
 21
1048.0
 31
0.0
  0
LINE
  5
1CDD
330
1F
100
AcDbEntity
  8
２，細線
100
AcDbLine
 10
871.9999999999991
 20
1028.0
 30
0.0
 11
1207.999999999999
 21
1028.0
 31
0.0
  0
LINE
  5
1CDE
330
1F
100
AcDbEntity
  8
２，細線
100
AcDbLine
 10
871.9999999999991
 20
1008.0
 30
0.0
 11
1207.999999999999
 21
1008.0
 31
0.0
  0
LINE
  5
1CDF
330
1F
100
AcDbEntity
  8
２，細線
100
AcDbLine
 10
871.9999999999991
 20
988.0
 30
0.0
 11
1207.999999999999
 21
988.0
 31
0.0
  0
LINE
  5
1CE0
330
1F
100
AcDbEntity
  8
２，細線
100
AcDbLine
 10
871.9999999999991
 20
968.0
 30
0.0
 11
1207.999999999999
 21
968.0
 31
0.0
  0
LINE
  5
1CE1
330
1F
100
AcDbEntity
  8
２，細線
100
AcDbLine
 10
871.9999999999991
 20
948.0
 30
0.0
 11
1207.999999999999
 21
948.0
 31
0.0
  0
LINE
  5
1CE2
330
1F
100
AcDbEntity
  8
２，細線
100
AcDbLine
 10
947.9999999999991
 20
1108.0
 30
0.0
 11
947.9999999999991
 21
948.0
 31
0.0
  0
TEXT
  5
1CE3
330
1F
100
AcDbEntity
  8
0
100
AcDbText
 10
882.4536771464657
 20
1091.764615194249
 30
0.0
 40
12.0
  1
電    源
100
AcDbText
  0
TEXT
  5
1CE4
330
1F
100
AcDbEntity
  8
0
100
AcDbText
 10
883.7559976379482
 20
1071.837557177063
 30
0.0
 40
12.0
  1
消費電力
100
AcDbText
  0
TEXT
  5
1CE5
330
1F
100
AcDbEntity
  8
0
100
AcDbText
 10
882.4536771464657
 20
1052.637411395325
 30
0.0
 40
12.0
  1
温度調節
100
AcDbText
  0
TEXT
  5
1CE6
330
1F
100
AcDbEntity
  8
0
100
AcDbText
 10
882.4536771464657
 20
1031.484715889332
 30
0.0
 40
12.0
  1
庫内温度
100
AcDbText
  0
TEXT
  5
1CE7
330
1F
100
AcDbEntity
  8
0
100
AcDbText
 10
882.4536771464657
 20
1010.982876682144
 30
0.0
 40
12.0
  1
安全装置
100
AcDbText
  0
TEXT
  5
1CE8
330
1F
100
AcDbEntity
  8
0
100
AcDbText
 10
882.1281044724084
 20
991.4573219231579
 30
0.0
 40
12.0
  1
内 容 積
100
AcDbText
  0
TEXT
  5
1CE9
330
1F
100
AcDbEntity
  8
0
100
AcDbText
 10
882.4536771464657
 20
970.9554827159708
 30
0.0
 40
12.0
  1
外形寸法
100
AcDbText
  0
TEXT
  5
1CEA
330
1F
100
AcDbEntity
  8
0
100
AcDbText
 10
882.4536771464657
 20
951.1044998075822
 30
0.0
 40
12.0
  1
中箱寸法
100
AcDbText
  0
TEXT
  5
1CEB
330
1F
100
AcDbEntity
  8
0
100
AcDbText
 10
959.6158906607737
 20
1090.969641810553
 30
0.0
 40
12.0
  1
単相 100Ｖ　50/60Ｈｚ
100
AcDbText
  0
TEXT
  5
1CEC
330
1F
100
AcDbEntity
  8
0
100
AcDbText
 10
960.2670360088916
 20
1071.444087051569
 30
0.0
 40
12.0
  1
205Ｗ
100
AcDbText
  0
TEXT
  5
1CED
330
1F
100
AcDbEntity
  8
0
100
AcDbText
 10
960.5926086829487
 20
1050.942247844377
 30
0.0
 40
12.0
  1
固定サーモスタット 75℃ ＯＦＦ
100
AcDbText
  0
TEXT
  5
1CEE
330
1F
100
AcDbEntity
  8
0
100
AcDbText
 10
959.6158906607737
 20
1030.765836786592
 30
0.0
 40
12.0
  1
65℃～75℃
100
AcDbText
  0
TEXT
  5
1CEF
330
1F
100
AcDbEntity
  8
0
100
AcDbText
 10
960.2670360088916
 20
1011.240262855451
 30
0.0
 40
12.0
  1
113℃温度ヒューズ(マイクロ型)
100
AcDbText
  0
TEXT
  5
1CF0
330
1F
100
AcDbEntity
  8
0
100
AcDbText
 10
960.2670360088916
 20
991.7147080964653
 30
0.0
 40
12.0
  1
18.8Ｌ
100
AcDbText
  0
TEXT
  5
1CF1
330
1F
100
AcDbEntity
  8
0
100
AcDbText
 10
959.9414633348308
 20
971.2128688892779
 30
0.0
 40
12.0
  1
440Ｗ×357Ｄ×307Ｈ
100
AcDbText
  0
TEXT
  5
1CF2
330
1F
100
AcDbEntity
  8
0
100
AcDbText
 10
959.9414633348308
 20
950.7110296820874
 30
0.0
 40
12.0
  1
360Ｗ×255Ｄ×205Ｈ
100
AcDbText
  0
LINE
  5
1D1F
330
1F
100
AcDbEntity
  8
寸法線
100
AcDbLine
 10
866.0387859322133
 20
680.1302847176347
 30
0.0
 11
633.2966991150168
 21
715.9623143278622
 31
0.0
  0
CIRCLE
  5
1D20
330
1F
100
AcDbEntity
  8
0
100
AcDbCircle
 10
203.0377411908393
 20
617.0
 30
0.0
 40
14.0
  0
LEADER
  5
1D21
330
1F
100
AcDbEntity
  8
寸法線
100
AcDbLeader
  3
ISO-25
 76
     2
 10
229.6685705601048
 20
497.5
 30
0.0
 10
206.08296953338
 20
603.3352063922726
 30
0.0
1001
ACAD
1000
DSTYLE
1002
{
1070
   147
1040
1.0
1070
    77
1070
     0
1002
}
  0
TEXT
  5
1D23
330
1F
100
AcDbEntity
  8
0
100
AcDbText
 10
197.7939127551466
 20
610.6733034061472
 30
0.0
 40
12.0
  1
11
100
AcDbText
  0
CIRCLE
  5
1D56
330
1F
100
AcDbEntity
  8
0
100
AcDbCircle
 10
1355.8737988832
 20
200.3537229133735
 30
0.0
 40
14.0
  0
LEADER
  5
1D58
330
1F
100
AcDbEntity
  8
寸法線
100
AcDbLeader
  3
ISO-25
 76
     2
 10
1225.873798883199
 20
250.0
 30
0.0
 10
1342.795073859198
 20
205.3484152709225
 30
0.0
1001
ACAD
1000
DSTYLE
1002
{
1070
   147
1040
1.0
1070
    77
1070
     0
1002
}
  0
TEXT
  5
1D59
330
1F
100
AcDbEntity
  8
0
100
AcDbText
 10
1348.383084158208
 20
194.4360920785355
 30
0.0
 40
12.0
  1
15
100
AcDbText
  0
TEXT
  5
260B
330
1F
100
AcDbEntity
  8
文字
  6
Continuous
370
    -3
100
AcDbText
 10
703.8176099336805
 20
64.46718177489279
 30
0.0
 40
12.0
  1
2020.03.03
 41
0.4584406705727556
  7
ED_VECTOR
 72
     5
 11
756.9967277201201
 21
64.46718177489279
 31
0.0
100
AcDbText
  0
TEXT
  5
260D
330
1F
100
AcDbEntity
  8
文字
100
AcDbText
 10
676.7220061751284
 20
62.77474213570522
 30
0.0
 40
9.999999999999991
  1
2
100
AcDbText
  0
TEXT
  5
260E
330
1F
100
AcDbEntity
  8
文字
 62
     3
100
AcDbText
 10
676.95728447537
 20
81.92205265864448
 30
0.0
 40
9.999999999999991
  1

100
AcDbText
  0
TEXT
  5
2610
330
1F
100
AcDbEntity
  8
文字
  6
Continuous
370
    -3
100
AcDbText
 10
886.8884417528144
 20
64.14411394148706
 30
0.0
 40
12.0
  1
福田
 41
1.006482616172881
  7
ED_VECTOR
 72
     5
 11
911.8492106339019
 21
64.14411394148706
 31
0.0
100
AcDbText
  0
LINE
  5
2611
330
1F
100
AcDbEntity
  8
0
100
AcDbLine
 10
659.9999999999998
 20
104.0
 30
0.0
 11
919.9999999999997
 21
104.0
 31
0.0
  0
LINE
  5
2612
330
1F
100
AcDbEntity
  8
0
370
    60
100
AcDbLine
 10
659.9999999999998
 20
40.0
 30
0.0
 11
659.9999999999998
 21
148.0
 31
0.0
  0
LINE
  5
2615
330
1F
100
AcDbEntity
  8
0
100
AcDbLine
 10
879.9999999999997
 20
40.00000000000005
 30
0.0
 11
879.9999999999995
 21
148.0
 31
0.0
  0
TEXT
  5
2616
330
1F
100
AcDbEntity
  8
0
100
AcDbText
 10
666.6188830025809
 20
43.74033201583293
 30
0.0
 40
12.49999999999999
  1
記号
100
AcDbText
1001
ACAD
1000
MTEXTBEGIN
1070
    73
1070
     1
1070
    44
1040
1.0
1070
    74
1070
     0
1000
MTEXTEND
  0
TEXT
  5
2617
330
1F
100
AcDbEntity
  8
0
100
AcDbText
 10
709.8323296250031
 20
43.740328558087
 30
0.0
 40
12.49999999999999
  1
日　付
100
AcDbText
1001
ACAD
1000
MTEXTBEGIN
1070
    73
1070
     1
1070
    44
1040
1.0
1070
    74
1070
     0
1000
MTEXTEND
  0
TEXT
  5
2618
330
1F
100
AcDbEntity
  8
0
100
AcDbText
 10
792.5396784766437
 20
43.74033547357889
 30
0.0
 40
12.49999999999999
  1
訂　　正
100
AcDbText
1001
ACAD
1000
MTEXTBEGIN
1070
    73
1070
     1
1070
    44
1040
1.0
1070
    74
1070
     0
1000
MTEXTEND
  0
TEXT
  5
2619
330
1F
100
AcDbEntity
  8
0
100
AcDbText
 10
886.7669862701015
 20
44.03559932792397
 30
0.0
 40
12.49999999999999
  1
担当
100
AcDbText
1001
ACAD
1000
MTEXTBEGIN
1070
    73
1070
     1
1070
    44
1040
1.0
1070
    74
1070
     0
1000
MTEXTEND
  0
LINE
  5
261A
330
1F
100
AcDbEntity
  8
0
100
AcDbLine
 10
699.9999999999999
 20
40.00000000000017
 30
0.0
 11
699.9999999999998
 21
147.9999999999999
 31
0.0
  0
LINE
  5
261B
330
1F
100
AcDbEntity
  8
0
100
AcDbLine
 10
759.9999999999997
 20
40.00000000000012
 30
0.0
 11
759.9999999999997
 21
148.0
 31
0.0
  0
LINE
  5
2620
330
1F
100
AcDbEntity
  8
0
100
AcDbLine
 10
679.9999999999998
 20
81.05336535963051
 30
0.0
 11
668.5000000000001
 21
61.05336535963053
 31
0.0
  0
LINE
  5
2621
330
1F
100
AcDbEntity
  8
0
100
AcDbLine
 10
668.5000000000001
 20
61.05336535963053
 30
0.0
 11
691.5000000000002
 21
61.05336535963053
 31
0.0
  0
LINE
  5
2622
330
1F
100
AcDbEntity
  8
0
100
AcDbLine
 10
691.5000000000002
 20
61.05336535963053
 30
0.0
 11
679.9999999999998
 21
81.05336535963051
 31
0.0
  0
LINE
  5
2624
330
1F
100
AcDbEntity
  8
0
100
AcDbLine
 10
659.9999999999998
 20
126.0
 30
0.0
 11
1191.999999999999
 21
126.0
 31
0.0
  0
LINE
  5
262C
330
1F
100
AcDbEntity
  8
0
100
AcDbLine
 10
659.9999999999998
 20
82.0
 30
0.0
 11
919.9999999999997
 21
82.0
 31
0.0
  0
LINE
  5
262E
330
1F
100
AcDbEntity
  8
0
370
    40
100
AcDbLine
 10
1639.999999999999
 20
40.0
 30
0.0
 11
1639.999999999999
 21
152.0
 31
0.0
  0
LINE
  5
262F
330
1F
100
AcDbEntity
  8
0
370
    60
100
AcDbLine
 10
1639.999999999999
 20
1148.0
 30
0.0
 11
99.99999999999978
 21
1148.0
 31
0.0
  0
LINE
  5
2630
330
1F
100
AcDbEntity
  8
0
370
    40
100
AcDbLine
 10
919.9999999999997
 20
40.0
 30
0.0
 11
1639.999999999999
 21
40.0
 31
0.0
  0
LINE
  5
2631
330
1F
100
AcDbEntity
  8
0
370
    60
100
AcDbLine
 10
99.99999999999978
 20
1148.0
 30
0.0
 11
100.0
 21
40.0
 31
0.0
  0
LINE
  5
2632
330
1F
100
AcDbEntity
  8
0
370
    60
100
AcDbLine
 10
1639.999999999999
 20
40.0
 30
0.0
 11
1639.999999999999
 21
1148.0
 31
0.0
  0
LINE
  5
2633
330
1F
100
AcDbEntity
  8
0
370
    60
100
AcDbLine
 10
100.0
 20
40.0
 30
0.0
 11
1639.999999999999
 21
40.0
 31
0.0
  0
LINE
  5
2634
330
1F
100
AcDbEntity
  8
0
100
AcDbLine
 10
1274.611900093113
 20
142.0828389854978
 30
0.0
 11
1250.611900093113
 21
118.0828389854978
 31
0.0
  0
TEXT
  5
2635
330
1F
100
AcDbEntity
  8
0
100
AcDbText
 10
1133.23158655598
 20
42.3794083581672
 30
0.0
 40
15.0
  1
承　認
100
AcDbText
  0
TEXT
  5
2636
330
1F
100
AcDbEntity
  8
0
100
AcDbText
 10
929.2814423869176
 20
42.26916503818824
 30
0.0
 40
15.0
  1
設　計
100
AcDbText
  0
TEXT
  5
2637
330
1F
100
AcDbEntity
  8
0
100
AcDbText
 10
1065.416233461646
 20
42.72598152935368
 30
0.0
 40
15.0
  1
検　図
100
AcDbText
  0
TEXT
  5
2638
330
1F
100
AcDbEntity
  8
0
100
AcDbText
 10
997.7373771661719
 20
42.4459791883446
 30
0.0
 40
15.0
  1
製　図
100
AcDbText
  0
TEXT
  5
2639
330
1F
100
AcDbEntity
  8
0
100
AcDbText
 10
1200.880143237319
 20
95.93628741163252
 30
0.0
 40
15.0
  1
品
100
AcDbText
  0
TEXT
  5
263A
330
1F
100
AcDbEntity
  8
0
100
AcDbText
 10
1200.880137670376
 20
77.90994208508412
 30
0.0
 40
15.0
  1
名
100
AcDbText
  0
TEXT
  5
263B
330
1F
100
AcDbEntity
  8
0
100
AcDbText
 10
1199.70774630631
 20
122.9675911862302
 30
0.0
 40
15.0
  1
尺度
100
AcDbText
  0
TEXT
  5
263C
330
1F
100
AcDbEntity
  8
0
100
AcDbText
 10
1423.589370413125
 20
122.7560700050194
 30
0.0
 40
15.00000000000001
  1
処理
100
AcDbText
  0
TEXT
  5
263D
330
1F
100
AcDbEntity
  8
0
100
AcDbText
 10
1449.172609249286
 20
59.88531024662435
 30
0.0
 40
15.0
  1
図
100
AcDbText
  0
TEXT
  5
263E
330
1F
100
AcDbEntity
  8
0
100
AcDbText
 10
1448.90620874378
 20
41.78727772527939
 30
0.0
 40
15.0
  1
番
100
AcDbText
  0
TEXT
  5
263F
330
1F
100
AcDbEntity
  8
0
100
AcDbText
 10
1297.094675047856
 20
122.0293920215399
 30
0.0
 40
15.00000000000001
  1
材質
100
AcDbText
  0
TEXT
  5
2640
330
1F
100
AcDbEntity
  8
0
100
AcDbText
 10
1551.04975479833
 20
122.1021641773304
 30
0.0
 40
15.00000000000001
  1
個数
100
AcDbText
  0
LINE
  5
2641
330
1F
100
AcDbEntity
  8
0
100
AcDbLine
 10
1191.999999999999
 20
76.0
 30
0.0
 11
1639.999999999999
 21
76.0
 31
0.0
  0
LINE
  5
2642
330
1F
100
AcDbEntity
  8
0
100
AcDbLine
 10
1191.999999999999
 20
112.0
 30
0.0
 11
1639.999999999999
 21
112.0
 31
0.0
  0
LINE
  5
2643
330
1F
100
AcDbEntity
  8
0
100
AcDbLine
 10
1191.999999999999
 20
148.0
 30
0.0
 11
1191.999999999999
 21
40.0
 31
0.0
  0
LINE
  5
2644
330
1F
100
AcDbEntity
  8
0
100
AcDbLine
 10
1223.999999999999
 20
112.0
 30
0.0
 11
1223.999999999999
 21
76.0
 31
0.0
  0
LINE
  5
2645
330
1F
100
AcDbEntity
  8
0
100
AcDbLine
 10
1439.999999999999
 20
112.0
 30
0.0
 11
1439.999999999999
 21
40.0
 31
0.0
  0
LINE
  5
2646
330
1F
100
AcDbEntity
  8
0
100
AcDbLine
 10
1471.999999999999
 20
112.0
 30
0.0
 11
1471.999999999999
 21
40.0
 31
0.0
  0
LINE
  5
2647
330
1F
100
AcDbEntity
  8
0
100
AcDbLine
 10
919.9999999999997
 20
148.0
 30
0.0
 11
919.9999999999997
 21
40.0
 31
0.0
  0
LINE
  5
2649
330
1F
100
AcDbEntity
  8
0
100
AcDbLine
 10
1287.999999999999
 20
148.0
 30
0.0
 11
1287.999999999999
 21
112.0
 31
0.0
  0
LINE
  5
264B
330
1F
100
AcDbEntity
  8
0
100
AcDbLine
 10
1415.999999999999
 20
148.0
 30
0.0
 11
1415.999999999999
 21
112.0
 31
0.0
  0
LINE
  5
264D
330
1F
100
AcDbEntity
  8
0
100
AcDbLine
 10
1543.999999999999
 20
148.0
 30
0.0
 11
1543.999999999999
 21
112.0
 31
0.0
  0
LINE
  5
264F
330
1F
100
AcDbEntity
  8
0
370
    60
100
AcDbLine
 10
1639.999999999999
 20
148.0
 30
0.0
 11
659.9999999999998
 21
148.0
 31
0.0
  0
LINE
  5
2651
330
1F
100
AcDbEntity
  8
0
100
AcDbLine
 10
659.9999999999998
 20
60.0
 30
0.0
 11
1191.999999999999
 21
60.0
 31
0.0
  0
LINE
  5
2652
330
1F
100
AcDbEntity
  8
0
100
AcDbLine
 10
987.9999999999997
 20
126.0
 30
0.0
 11
987.9999999999997
 21
40.0
 31
0.0
  0
LINE
  5
2653
330
1F
100
AcDbEntity
  8
0
100
AcDbLine
 10
1055.999999999999
 20
126.0
 30
0.0
 11
1055.999999999999
 21
40.0
 31
0.0
  0
TEXT
  5
2654
330
1F
100
AcDbEntity
  8
0
100
AcDbText
 10
934.7289451816573
 20
128.6696301585962
 30
0.0
 40
16.0
  1
作 成 日
100
AcDbText
1001
ACAD
1000
ACAD_MTEXT_DEFINED_HEIGHT_BEGIN
1070
    46
1040
0.0
1000
ACAD_MTEXT_DEFINED_HEIGHT_END
1000
MTEXTBEGIN
1070
    73
1070
     1
1070
    44
1040
1.0
1070
    74
1070
     0
1000
MTEXTEND
  0
LINE
  5
2655
330
1F
100
AcDbEntity
  8
0
100
AcDbLine
 10
1021.999999999999
 20
148.0
 30
0.0
 11
1021.999999999999
 21
126.0
 31
0.0
  0
LINE
  5
2656
330
1F
100
AcDbEntity
  8
0
100
AcDbLine
 10
1123.999999999999
 20
126.0
 30
0.0
 11
1123.999999999999
 21
40.0
 31
0.0
  0
TEXT
  5
2657
330
1F
100
AcDbEntity
  8
0
100
AcDbText
 10
1448.610457617541
 20
96.04200346468905
 30
0.0
 40
15.0
  1
型
100
AcDbText
  0
TEXT
  5
2658
330
1F
100
AcDbEntity
  8
0
100
AcDbText
 10
1448.925518774583
 20
77.96187119631255
 30
0.0
 40
15.0
  1
式
100
AcDbText
  0
ELLIPSE
  5
2659
330
1F
100
AcDbEntity
  8
0
100
AcDbEllipse
 10
1079.999999999999
 20
136.2722717345104
 30
0.0
 11
-1.414213562373108
 21
1.414213562373108
 31
0.0
210
0.0
220
0.0
230
1.0
 40
0.9999999999999806
 41
3.926990816987251
 42
10.21017612416683
  0
ELLIPSE
  5
265A
330
1F
100
AcDbEntity
  8
0
100
AcDbEllipse
 10
1135.999999999999
 20
136.2722717345104
 30
0.0
 11
-1.414213562373108
 21
1.414213562373108
 31
0.0
210
0.0
220
0.0
230
1.0
 40
0.9999999999999806
 41
3.926990816987251
 42
10.21017612416683
  0
ELLIPSE
  5
265B
330
1F
100
AcDbEntity
  8
0
100
AcDbEllipse
 10
1079.999999999999
 20
136.2722717345104
 30
0.0
 11
-1.131370849898442
 21
1.131370849898442
 31
0.0
210
0.0
220
0.0
230
1.0
 40
0.9999999999999985
 41
3.926990816987242
 42
10.21017612416682
  0
ELLIPSE
  5
265C
330
1F
100
AcDbEntity
  8
0
100
AcDbEllipse
 10
1079.999999999999
 20
136.2722717345104
 30
0.0
 11
-0.8485281374238834
 21
0.8485281374238834
 31
0.0
210
0.0
220
0.0
230
1.0
 40
0.9999999999999664
 41
3.926990816987258
 42
10.21017612416684
  0
ELLIPSE
  5
265D
330
1F
100
AcDbEntity
  8
0
100
AcDbEllipse
 10
1079.999999999999
 20
136.2722717345104
 30
0.0
 11
0.5656854249492264
 21
0.5656854249492262
 31
0.0
210
0.0
220
0.0
230
1.0
 40
0.9999999999999989
 41
5.497787143782137
 42
11.78097245096172
  0
ELLIPSE
  5
265E
330
1F
100
AcDbEntity
  8
0
100
AcDbEllipse
 10
1079.999999999999
 20
136.2722717345104
 30
0.0
 11
-0.282842712474666
 21
0.2828427124746662
 31
0.0
210
0.0
220
0.0
230
1.0
 40
0.9999999999999092
 41
3.926990816987286
 42
10.21017612416687
  0
ELLIPSE
  5
265F
330
1F
100
AcDbEntity
  8
0
100
AcDbEllipse
 10
1135.999999999999
 20
136.2722717345104
 30
0.0
 11
-1.414213562373108
 21
1.414213562373108
 31
0.0
210
0.0
220
0.0
230
1.0
 40
0.9999999999999806
 41
3.926990816987251
 42
10.21017612416683
  0
ELLIPSE
  5
2660
330
1F
100
AcDbEntity
  8
0
100
AcDbEllipse
 10
1135.999999999999
 20
136.2722717345104
 30
0.0
 11
-1.131370849898442
 21
1.131370849898442
 31
0.0
210
0.0
220
0.0
230
1.0
 40
0.9999999999999985
 41
3.926990816987242
 42
10.21017612416682
  0
ELLIPSE
  5
2661
330
1F
100
AcDbEntity
  8
0
100
AcDbEllipse
 10
1135.999999999999
 20
136.2722717345104
 30
0.0
 11
-0.8485281374238834
 21
0.8485281374238834
 31
0.0
210
0.0
220
0.0
230
1.0
 40
0.9999999999999664
 41
3.926990816987258
 42
10.21017612416684
  0
ELLIPSE
  5
2662
330
1F
100
AcDbEntity
  8
0
100
AcDbEllipse
 10
1135.999999999999
 20
136.2722717345104
 30
0.0
 11
0.5656854249492264
 21
0.5656854249492262
 31
0.0
210
0.0
220
0.0
230
1.0
 40
0.9999999999999989
 41
5.497787143782137
 42
11.78097245096172
  0
ELLIPSE
  5
2663
330
1F
100
AcDbEntity
  8
0
100
AcDbEllipse
 10
1135.999999999999
 20
136.2722717345104
 30
0.0
 11
-0.282842712474666
 21
0.2828427124746662
 31
0.0
210
0.0
220
0.0
230
1.0
 40
0.9999999999999092
 41
3.926990816987286
 42
10.21017612416687
  0
TEXT
  5
2664
330
1F
100
AcDbEntity
  8
0
100
AcDbText
 10
1217.997793197056
 20
48.12275387945873
 30
0.0
 40
20.0
  1
株式会社 アンナカ
100
AcDbText
1001
ACAD
1000
MTEXTBEGIN
1070
    73
1070
     1
1070
    44
1040
1.0
1070
    74
1070
     0
1000
MTEXTEND
  0
TEXT
  5
2665
330
1F
100
AcDbEntity
  8
0
100
AcDbText
 10
1037.403107490604
 20
131.4908829912565
 30
0.0
 40
10.0
  1
2008     03     05
100
AcDbText
1001
ACAD
1000
ACAD_MTEXT_DEFINED_HEIGHT_BEGIN
1070
    46
1040
0.0
1000
ACAD_MTEXT_DEFINED_HEIGHT_END
1000
MTEXTBEGIN
1070
    73
1070
     1
1070
    44
1040
1.0
1070
    74
1070
     0
1000
MTEXTEND
  0
LINE
  5
2668
330
1F
100
AcDbEntity
  8
0
100
AcDbLine
 10
679.9999999999998
 20
103.0533653596303
 30
0.0
 11
668.5000000000001
 21
83.05336535963036
 31
0.0
  0
LINE
  5
2669
330
1F
100
AcDbEntity
  8
0
100
AcDbLine
 10
668.5000000000001
 20
83.05336535963036
 30
0.0
 11
691.5000000000002
 21
83.05336535963036
 31
0.0
  0
LINE
  5
266A
330
1F
100
AcDbEntity
  8
0
100
AcDbLine
 10
691.5000000000002
 20
83.05336535963036
 30
0.0
 11
679.9999999999998
 21
103.0533653596303
 31
0.0
  0
LINE
  5
266B
330
1F
100
AcDbEntity
  8
0
100
AcDbLine
 10
679.9999999999998
 20
125.0533653596303
 30
0.0
 11
668.5
 21
105.0533653596303
 31
0.0
  0
LINE
  5
266C
330
1F
100
AcDbEntity
  8
0
100
AcDbLine
 10
668.5
 20
105.0533653596303
 30
0.0
 11
691.5
 21
105.0533653596303
 31
0.0
  0
LINE
  5
266D
330
1F
100
AcDbEntity
  8
0
100
AcDbLine
 10
691.5
 20
105.0533653596303
 30
0.0
 11
679.9999999999998
 21
125.0533653596303
 31
0.0
  0
LINE
  5
266E
330
1F
100
AcDbEntity
  8
0
100
AcDbLine
 10
679.9999999999998
 20
147.0533653596303
 30
0.0
 11
668.5
 21
127.0533653596303
 31
0.0
  0
LINE
  5
266F
330
1F
100
AcDbEntity
  8
0
100
AcDbLine
 10
668.5
 20
127.0533653596303
 30
0.0
 11
691.5
 21
127.0533653596303
 31
0.0
  0
LINE
  5
2670
330
1F
100
AcDbEntity
  8
0
100
AcDbLine
 10
691.5
 20
127.0533653596303
 30
0.0
 11
679.9999999999998
 21
147.0533653596303
 31
0.0
  0
TEXT
  5
267B
330
1F
100
AcDbEntity
  8
0
100
AcDbText
 10
767.254774052368
 20
-17.53491515700881
 30
0.0
 40
12.0
  1

100
AcDbText
1001
ACAD
1000
MTEXTBEGIN
1070
    73
1070
     1
1070
    44
1040
1.0
1070
    74
1070
     0
1000
MTEXTEND
  0
TEXT
  5
2683
330
1F
100
AcDbEntity
  8
文字
 62
     2
100
AcDbText
 10
1577.728638756882
 20
951.2496433626674
 30
0.0
 40
7.999999999999992
  1
2
100
AcDbText
  0
LINE
  5
2684
330
1F
100
AcDbEntity
  8
0
 62
     2
100
AcDbLine
 10
1580.317966711239
 20
965.945416560767
 30
0.0
 11
1571.11796671124
 21
949.9454165607669
 31
0.0
  0
LINE
  5
2685
330
1F
100
AcDbEntity
  8
0
 62
     2
100
AcDbLine
 10
1571.11796671124
 20
949.9454165607669
 30
0.0
 11
1589.51796671124
 21
949.9454165607669
 31
0.0
  0
LINE
  5
2686
330
1F
100
AcDbEntity
  8
0
 62
     2
100
AcDbLine
 10
1589.51796671124
 20
949.9454165607669
 30
0.0
 11
1580.317966711239
 21
965.945416560767
 31
0.0
  0
TEXT
  5
2688
330
1F
100
AcDbEntity
  8
0
 62
     2
100
AcDbText
 10
1595.364840021656
 20
951.3892392690094
 30
0.0
 40
12.0
  1
10Ａ
100
AcDbText
  0
LINE
  5
268C
330
1F
100
AcDbEntity
  8
0
 62
     2
100
AcDbLine
 10
1592.306312106186
 20
960.367212067551
 30
0.0
 11
1627.997109257938
 21
960.367212067551
 31
0.0
  0
LINE
  5
268D
330
1F
100
AcDbEntity
  8
0
 62
     2
100
AcDbLine
 10
1592.306312106186
 20
954.7700077903492
 30
0.0
 11
1627.997109257938
 21
954.7700077903492
 31
0.0
  0
TEXT
  5
269A
102
{ACAD_REACTORS
330
269E
102
}
330
1F
100
AcDbEntity
  8
文字
 62
     2
100
AcDbText
 10
1621.340432327497
 20
50.74202310152341
 30
0.0
 40
9.999999999999991
  1
2
100
AcDbText
  0
LINE
  5
269B
102
{ACAD_REACTORS
330
269E
102
}
330
1F
100
AcDbEntity
  8
0
 62
     2
100
AcDbLine
 10
1624.618426152368
 20
69.0206463254487
 30
0.0
 11
1613.118426152368
 21
49.02064632544872
 31
0.0
  0
LINE
  5
269C
102
{ACAD_REACTORS
330
269E
102
}
330
1F
100
AcDbEntity
  8
0
 62
     2
100
AcDbLine
 10
1613.118426152368
 20
49.02064632544872
 30
0.0
 11
1636.118426152369
 21
49.02064632544872
 31
0.0
  0
LINE
  5
269D
102
{ACAD_REACTORS
330
269E
102
}
330
1F
100
AcDbEntity
  8
0
 62
     2
100
AcDbLine
 10
1636.118426152369
 20
49.02064632544872
 30
0.0
 11
1624.618426152368
 21
69.0206463254487
 31
0.0
  0
TEXT
  5
2F99
330
1F
100
AcDbEntity
  8
文字
  6
Continuous
370
    -3
100
AcDbText
 10
763.8176099336804
 20
64.46718177489279
 30
0.0
 40
12.0
  1
温度ヒューズ定格の修正
 41
0.6930844782993575
  7
ED_VECTOR
 72
     5
 11
871.3843209657406
 21
64.46718177489279
 31
0.0
100
AcDbText
  0
DIMENSION
  5
2FB2
330
1F
100
AcDbEntity
  8
寸法線1
100
AcDbDimension
  2
*D15
 10
707.0931845583638
 20
560.0
 30
0.0
 11
707.0931845583637
 21
415.5324662818893
 31
0.0
 70
   160
 71
     5
 42
310.0
  3
ISO-25
100
AcDbAlignedDimension
 13
635.0
 23
250.0
 33
0.0
 14
640.0
 24
560.0
 34
0.0
 50
90.0
100
AcDbRotatedDimension
  0
DIMENSION
  5
2FF5
330
1F
100
AcDbEntity
  8
寸法線
100
AcDbDimension
  2
*D16
 10
680.0
 20
560.0
 30
0.0
 11
669.9999999999999
 21
588.0000000000001
 31
0.0
 70
    32
 71
     5
 42
3.0
  3
ISO-25
100
AcDbAlignedDimension
 13
640.0
 23
557.0
 33
0.0
 14
640.0
 24
560.0
 34
0.0
 50
90.0
100
AcDbRotatedDimension
  0
DIMENSION
  5
3039
330
1F
100
AcDbEntity
  8
寸法線1
100
AcDbDimension
  2
*D17
 10
136.6160416293387
 20
1037.5
 30
0.0
 11
136.6160416293385
 21
883.7752234879108
 31
0.0
 70
   160
  1
387.5
 71
     5
 42
386.5
  3
ISO-25
100
AcDbAlignedDimension
 13
221.9999999999999
 23
651.0
 33
0.0
 14
207.0
 24
1037.5
 34
0.0
 50
90.0
100
AcDbRotatedDimension
  0
DIMENSION
  5
3092
330
1F
100
AcDbEntity
  8
寸法線1
100
AcDbDimension
  2
*D18
 10
1239.373798883199
 20
597.0
 30
0.0
 11
1276.373798883199
 21
608.0
 31
0.0
 70
    32
 71
     5
 42
3.499999999998863
  3
ISO-25
100
AcDbAlignedDimension
 13
1235.8737988832
 23
557.0
 33
0.0
 14
1239.373798883199
 24
549.9999999999999
 34
0.0
100
AcDbRotatedDimension
  0
DIMENSION
  5
30AB
330
1F
100
AcDbEntity
  8
寸法線1
100
AcDbDimension
  2
*D19
 10
646.7000083044863
 20
197.2162771600373
 30
0.0
 11
421.1042538193323
 21
197.2162771600373
 31
0.0
 70
   160
 71
     5
 42
446.7000083044863
  3
ISO-25
100
AcDbAlignedDimension
 13
200.0
 23
260.9228117764496
 33
0.0
 14
646.7000083044863
 24
289.0131493234076
 34
0.0
100
AcDbRotatedDimension
1001
ACAD
1000
DSTYLE
1002
{
1070
   271
1070
     0
1002
}
  0
DIMENSION
  5
3117
330
1F
100
AcDbEntity
  8
寸法線1
100
AcDbDimension
  2
*D20
 10
646.7000083044863
 20
219.658013496255
 30
0.0
 11
674.7000083044863
 21
229.658013496255
 31
0.0
 70
    32
 71
     5
 42
6.700008304486345
  3
ISO-25
100
AcDbAlignedDimension
 13
640.0
 23
280.0
 33
0.0
 14
646.7000083044863
 24
289.0131493234076
 34
0.0
100
AcDbRotatedDimension
1001
ACAD
1000
DSTYLE
1002
{
1070
   271
1070
     0
1002
}
  0
ENDSEC
  0
SECTION
  2
OBJECTS
  0
DICTIONARY
  5
C
330
0
100
AcDbDictionary
281
     1
  3
ACAD_COLOR
350
4AE
  3
ACAD_GROUP
350
D
  3
ACAD_LAYOUT
350
1A
  3
ACAD_MATERIAL
350
4AD
  3
ACAD_MLINESTYLE
350
17
  3
ACAD_PLOTSETTINGS
350
19
  3
ACAD_PLOTSTYLENAME
350
E
  3
ACAD_TABLESTYLE
350
4AF
  3
AcadDim
350
FDC
  3
AcDbVariableDictionary
350
4B6
  0
DICTIONARY
  5
645
330
2
100
AcDbDictionary
280
     1
281
     1
  3
ACAD_LAYERFILTERS
360
1080
  3
ACLYDICTIONARY
360
107F
  0
DICTIONARY
  5
4C2
330
1F
100
AcDbDictionary
280
     1
281
     1
  3
ACAD_SORTENTS
360
4C3
  0
DICTIONARY
  5
D8C
330
D54
100
AcDbDictionary
280
     1
281
     1
  3
ACAD_SORTENTS
360
D8D
  0
DICTIONARY
  5
4AE
102
{ACAD_REACTORS
330
C
102
}
330
C
100
AcDbDictionary
281
     1
  0
DICTIONARY
  5
D
102
{ACAD_REACTORS
330
C
102
}
330
C
100
AcDbDictionary
281
     1
  3
*A1
350
25E2
  3
*A2
350
2682
  3
*A3
350
269E
  3
*A4
350
363B
  0
DICTIONARY
  5
1A
102
{ACAD_REACTORS
330
C
102
}
330
C
100
AcDbDictionary
281
     1
  3
Layout1
350
1E
  3
Layout2
350
26
  3
Model
350
22
  0
DICTIONARY
  5
4AD
102
{ACAD_REACTORS
330
C
102
}
330
C
100
AcDbDictionary
281
     1
  0
DICTIONARY
  5
17
102
{ACAD_REACTORS
330
C
102
}
330
C
100
AcDbDictionary
281
     1
  3
Standard
350
18
  0
DICTIONARY
  5
19
102
{ACAD_REACTORS
330
C
102
}
330
C
100
AcDbDictionary
281
     1
  0
ACDBDICTIONARYWDFLT
  5
E
102
{ACAD_REACTORS
330
C
102
}
330
C
100
AcDbDictionary
281
     1
  3
Normal
350
F
100
AcDbDictionaryWithDefault
340
F
  0
DICTIONARY
  5
4AF
102
{ACAD_REACTORS
330
C
102
}
330
C
100
AcDbDictionary
281
     1
  3
Standard
350
4B0
  0
XRECORD
  5
FDC
102
{ACAD_REACTORS
330
C
102
}
330
C
100
AcDbXrecord
280
     1
 90
   990106
  3

 60
     0
 61
     0
 62
     1
 63
     3
 64
     0
 65
     0
 66
     0
 67
     3
 68
     1
 69
     0
 70
     0
 71
     0
 72
     0
 40
0.0
170
     0
  0
DICTIONARY
  5
4B6
102
{ACAD_REACTORS
330
C
102
}
330
C
100
AcDbDictionary
281
     1
  3
CTABLESTYLE
350
4B7
  3
DIMASSOC
350
110A
  3
PROJECTNAME
350
110B
  0
DICTIONARY
  5
1080
102
{ACAD_REACTORS
330
645
102
}
330
645
100
AcDbDictionary
281
     1
  0
DICTIONARY
  5
107F
102
{ACAD_REACTORS
330
645
102
}
330
645
100
AcDbDictionary
281
     1
1001
ACAD
1000
<All
  0
SORTENTSTABLE
  5
4C3
102
{ACAD_REACTORS
330
4C2
102
}
330
4C2
100
AcDbSortentsTable
330
1F
331
85B
  5
89C
331
649
  5
6F0
331
95A
  5
AE2
331
F95
  5
FB0
331
B2B
  5
B5B
331
855
  5
896
331
679
  5
730
331
F8F
  5
FAB
331
770
  5
81A
331
F59
  5
F73
331
B63
  5
B79
331
58C
  5
5D4
331
673
  5
72A
331
94E
  5
976
331
F89
  5
FA6
331
B5D
  5
B72
331
5BC
  5
5A1
331
586
  5
5CE
331
849
  5
892
331
66D
  5
724
331
7A2
  5
832
331
580
  5
5C4
331
5B6
  5
65C
331
B4F
  5
B71
331
843
  5
88F
331
6AD
  5
775
331
942
  5
975
331
B87
  5
D94
331
5B0
  5
654
331
873
  5
8AF
331
1094
  5
108C
331
972
  5
AF3
331
FAD
  5
FC9
331
5AA
  5
619
331
86D
  5
8A7
331
6A1
  5
76F
331
96C
  5
AEB
331
7C6
  5
844
331
5A4
  5
60B
331
5DA
  5
66D
331
89D
  5
8EE
331
69B
  5
765
331
AE4
  5
B0B
331
4E5
  5
567
331
966
  5
AE7
331
FCF
  5
FF6
331
FA1
  5
FBA
331
897
  5
8E5
331
ADE
  5
B00
331
FC9
  5
FE5
331
7BA
  5
840
331
F9B
  5
FB8
331
5CE
  5
666
331
6BD
  5
78C
331
4D9
  5
55E
331
BA7
  5
D96
331
519
  5
599
331
6B1
  5
77A
331
6EF
  5
7A0
331
7E6
  5
85D
331
FB7
  5
FCE
331
7A8
  5
83A
331
E2A
  5
EC3
331
7E0
  5
852
331
FE7
  5
1001
331
8AF
  5
914
331
6DB
  5
799
331
AFE
  5
B29
331
4FF
  5
574
331
8EF
  5
940
331
E5C
  5
EC6
331
733
  5
7FA
331
7CC
  5
84A
331
5E0
  5
671
331
8A3
  5
90D
331
72D
  5
7EC
331
AEA
  5
B10
331
B20
  5
B4F
331
804
  5
869
331
727
  5
7B8
331
52B
  5
5A7
331
721
  5
7B0
331
B14
  5
B44
331
525
  5
59E
331
7F8
  5
861
331
662
  5
718
331
61C
  5
68A
331
E72
  5
EC8
331
71B
  5
7A4
331
B44
  5
B69
331
838
  5
88A
331
577
  5
5BC
331
832
  5
884
331
1023
  5
107D
331
656
  5
6F3
331
921
  5
960
331
59F
  5
5E9
331
571
  5
5B3
331
108B
  5
108D
331
824
  5
87D
331
696
  5
762
331
F66
  5
F8B
331
785
  5
823
331
747
  5
800
331
599
  5
5DF
331
85C
  5
89D
331
DC1
  5
EA0
331
64A
  5
6F1
331
95B
  5
AE4
331
856
  5
897
331
818
  5
86F
331
67A
  5
731
331
F90
  5
FAD
331
771
  5
81B
331
F5A
  5
F74
331
B64
  5
B7A
331
58D
  5
5D6
331
674
  5
72B
331
F8A
  5
FA9
331
5BD
  5
565
331
B5E
  5
B73
331
587
  5
5CF
331
84A
  5
893
331
66E
  5
725
331
7A3
  5
833
331
5B7
  5
65D
331
581
  5
5C5
331
844
  5
890
331
6AE
  5
776
331
668
  5
71F
331
943
  5
978
331
F7E
  5
F9A
331
5B1
  5
657
331
1095
  5
108E
331
973
  5
AF4
331
797
  5
82B
331
5AB
  5
61E
331
86E
  5
8A8
331
6A2
  5
770
331
96D
  5
AEC
331
7C7
  5
845
331
5DB
  5
66E
331
89E
  5
8EF
331
868
  5
8A2
331
6CA
  5
792
331
69C
  5
766
331
AE5
  5
B0C
331
4E6
  5
568
331
967
  5
AE8
331
898
  5
8E6
331
ADF
  5
B01
331
FCA
  5
FE6
331
7BB
  5
842
331
B70
  5
B7F
331
892
  5
8E0
331
6BE
  5
78D
331
4DA
  5
55F
331
FC4
  5
FDE
331
BA8
  5
D97
331
E37
  5
EC4
331
6B8
  5
782
331
51A
  5
59A
331
7AF
  5
83B
331
5C3
  5
65F
331
6F0
  5
7A1
331
6B2
  5
780
331
7E7
  5
85E
331
FB8
  5
FCF
331
878
  5
8B8
331
FE8
  5
1002
331
7E1
  5
858
331
FB2
  5
FCC
331
5ED
  5
55C
331
8B0
  5
91E
331
6DC
  5
79F
331
AFF
  5
B2C
331
500
  5
575
331
FE2
  5
FFC
331
5E7
  5
672
331
6D6
  5
796
331
4FA
  5
570
331
7CD
  5
84B
331
F55
  5
F6E
331
72E
  5
7ED
331
AEB
  5
B11
331
805
  5
86A
331
639
  5
6B6
331
728
  5
7B9
331
52C
  5
5A8
331
104E
  5
1087
331
722
  5
7B1
331
B15
  5
B4A
331
526
  5
5A0
331
7F9
  5
862
331
61D
  5
697
331
663
  5
71A
331
71C
  5
7A5
331
B45
  5
B6A
331
839
  5
88B
331
B3F
  5
B67
331
578
  5
5BD
331
833
  5
885
331
1024
  5
107E
331
657
  5
6F4
331
922
  5
962
331
F6D
  5
F8E
331
572
  5
5B4
331
825
  5
880
331
108C
  5
108F
331
697
  5
763
331
786
  5
824
331
748
  5
801
331
59A
  5
5E0
331
B33
  5
B5F
331
56C
  5
5AE
331
85D
  5
89E
331
64B
  5
6F2
331
691
  5
755
331
95C
  5
AE1
331
780
  5
81E
331
742
  5
7FB
331
594
  5
5DA
331
B2D
  5
B5C
331
857
  5
898
331
819
  5
870
331
67B
  5
749
331
8F0
  5
941
331
F91
  5
FAF
331
772
  5
81C
331
58E
  5
5D7
331
675
  5
72C
331
F8B
  5
FAA
331
B5F
  5
B75
331
588
  5
5D0
331
84B
  5
894
331
66F
  5
726
331
5B8
  5
65E
331
582
  5
5C6
331
669
  5
720
331
6AF
  5
777
331
944
  5
ADC
331
758
  5
817
331
5B2
  5
658
331
1096
  5
1090
331
974
  5
AF7
331
FAF
  5
FCA
331
5AC
  5
630
331
86F
  5
8AB
331
1090
  5
1095
331
4F5
  5
56A
331
96E
  5
AED
331
792
  5
827
331
5DC
  5
66F
331
89F
  5
8F0
331
869
  5
8A3
331
968
  5
AE9
331
4E7
  5
569
331
5D6
  5
66B
331
5A0
  5
5EA
331
899
  5
8EA
331
AE0
  5
B03
331
FCB
  5
FE7
331
7BC
  5
843
331
5D0
  5
667
331
B71
  5
B80
331
893
  5
8E1
331
4DB
  5
562
331
FC5
  5
FDF
331
BA9
  5
929
331
6B9
  5
783
331
51B
  5
59B
331
7B0
  5
83C
331
5C4
  5
660
331
6B3
  5
781
331
6F1
  5
7A2
331
50D
  5
57C
331
FB9
  5
FD0
331
614
  5
677
331
879
  5
8B9
331
FE9
  5
1003
331
7E2
  5
859
331
8B1
  5
91F
331
B00
  5
B30
331
FE3
  5
FFD
331
7D4
  5
84D
331
5E8
  5
673
331
8AB
  5
90E
331
4FB
  5
571
331
539
  5
5AC
331
FDD
  5
FF9
331
8EB
  5
93C
331
72F
  5
7EE
331
AEC
  5
B12
331
7C8
  5
846
331
806
  5
86B
331
63A
  5
6CB
331
8E5
  5
928
331
729
  5
7BA
331
52D
  5
5A9
331
104F
  5
1088
331
634
  5
69C
331
723
  5
7B2
331
527
  5
5A2
331
7FA
  5
864
331
664
  5
71B
331
61E
  5
698
331
8D9
  5
925
331
71D
  5
7A6
331
B46
  5
B6E
331
83A
  5
88C
331
65E
  5
711
331
618
  5
67B
331
755
  5
807
331
B40
  5
B68
331
579
  5
5BE
331
B0A
  5
B3A
331
834
  5
886
331
1025
  5
1082
331
658
  5
6F5
331
923
  5
963
331
573
  5
5B5
331
108D
  5
1091
331
826
  5
881
331
749
  5
802
331
787
  5
825
331
F68
  5
F8C
331
56D
  5
5AF
331
59B
  5
5E1
331
85E
  5
89F
331
692
  5
756
331
95D
  5
AE3
331
781
  5
81F
331
F62
  5
F87
331
743
  5
7FC
331
B2E
  5
B5D
331
595
  5
5DB
331
81A
  5
876
331
858
  5
899
331
67C
  5
74A
331
957
  5
ADE
331
773
  5
81D
331
58F
  5
5D8
331
676
  5
72D
331
F8C
  5
F9F
331
B60
  5
B76
331
589
  5
5D1
331
670
  5
727
331
94B
  5
974
331
F86
  5
FA1
331
583
  5
5C7
331
66A
  5
721
331
945
  5
ADD
331
759
  5
818
331
5B3
  5
659
331
B4C
  5
B6F
331
1097
  5
1092
331
6AA
  5
771
331
975
  5
AF8
331
5AD
  5
631
331
870
  5
8AC
331
1091
  5
1096
331
4F6
  5
56D
331
793
  5
828
331
FAA
  5
FC7
331
B7E
  5
BA5
331
86A
  5
8A4
331
AE7
  5
B0D
331
FA4
  5
FC3
331
B78
  5
B86
331
5A1
  5
5EB
331
864
  5
8A0
331
89A
  5
8EB
331
E07
  5
EC1
331
E45
  5
EC5
331
AE1
  5
B04
331
FCC
  5
FE8
331
5D1
  5
668
331
B72
  5
B81
331
894
  5
8E2
331
4DC
  5
563
331
7B7
  5
83F
331
F98
  5
FB2
331
BAA
  5
93B
331
6BA
  5
788
331
4D6
  5
55A
331
7B1
  5
83D
331
880
  5
8C3
331
50E
  5
57F
331
FBA
  5
FD2
331
615
  5
678
331
87A
  5
8BD
331
8B8
  5
922
331
508
  5
577
331
7E3
  5
85A
331
FEA
  5
1004
331
B88
  5
D95
331
8B2
  5
920
331
FE4
  5
FFE
331
7D5
  5
84E
331
5E9
  5
674
331
8AC
  5
90F
331
53A
  5
5AD
331
AFB
  5
B25
331
815
  5
86C
331
FDE
  5
FFA
331
7CF
  5
84C
331
8EC
  5
93D
331
730
  5
7F4
331
AED
  5
B14
331
7C9
  5
849
331
8E6
  5
92C
331
8A0
  5
905
331
72A
  5
7BB
331
52E
  5
5AA
331
FD2
  5
FF8
331
1050
  5
1089
331
635
  5
6A0
331
8E0
  5
927
331
724
  5
7B4
331
B17
  5
B4C
331
528
  5
5A4
331
7FB
  5
865
331
61F
  5
699
331
665
  5
71C
331
71E
  5
7A7
331
B47
  5
B66
331
83B
  5
88D
331
65F
  5
712
331
619
  5
67C
331
756
  5
815
331
B0B
  5
B3B
331
57A
  5
5C0
331
835
  5
887
331
1026
  5
1083
331
F6F
  5
F8F
331
750
  5
805
331
B3B
  5
B64
331
574
  5
5B6
331
108E
  5
1093
331
827
  5
882
331
74A
  5
803
331
59C
  5
5E2
331
56E
  5
5B0
331
693
  5
757
331
F63
  5
F88
331
782
  5
820
331
744
  5
7FD
331
596
  5
5DC
331
859
  5
89A
331
81B
  5
878
331
67D
  5
74B
331
958
  5
ADF
331
B67
  5
B7B
331
590
  5
5D9
331
677
  5
72E
331
F8D
  5
F9B
331
58A
  5
5D2
331
671
  5
728
331
94C
  5
977
331
F87
  5
FA4
331
584
  5
5CC
331
66B
  5
722
331
7A0
  5
82D
331
B4D
  5
B70
331
5B4
  5
65A
331
6AB
  5
772
331
DDC
  5
EAA
331
976
  5
AFC
331
79A
  5
82C
331
5AE
  5
634
331
871
  5
8AD
331
4F7
  5
56E
331
FAB
  5
FC8
331
794
  5
829
331
B7F
  5
BA6
331
5A8
  5
613
331
86B
  5
8A5
331
FA5
  5
FC4
331
B79
  5
B87
331
5D8
  5
66C
331
5A2
  5
5ED
331
89B
  5
8EC
331
865
  5
8A1
331
6C7
  5
78E
331
AE2
  5
B05
331
FCD
  5
FE9
331
788
  5
826
331
B73
  5
B82
331
5D2
  5
669
331
895
  5
8E3
331
ADC
  5
AF6
331
4DD
  5
564
331
FC7
  5
FE3
331
F99
  5
FB5
331
5CC
  5
661
331
4D7
  5
55B
331
7B2
  5
83E
331
881
  5
8C4
331
50F
  5
580
331
616
  5
679
331
8B9
  5
923
331
509
  5
578
331
7E4
  5
85B
331
503
  5
576
331
FE5
  5
FFF
331
7D6
  5
84F
331
5EA
  5
675
331
8AD
  5
910
331
AFC
  5
B26
331
4FD
  5
572
331
816
  5
86D
331
8ED
  5
93F
331
731
  5
7F5
331
6D3
  5
794
331
AEE
  5
B15
331
DB3
  5
E9B
331
8A1
  5
90A
331
72B
  5
7BC
331
AE8
  5
B0E
331
1051
  5
108A
331
636
  5
6A4
331
725
  5
7B6
331
B18
  5
B2E
331
666
  5
71D
331
630
  5
69A
331
71F
  5
7A8
331
523
  5
59C
331
7F6
  5
85F
331
102D
  5
1085
331
61A
  5
67D
331
660
  5
716
331
757
  5
816
331
57B
  5
5C1
331
B0C
  5
B3F
331
836
  5
888
331
F70
  5
F90
331
751
  5
806
331
575
  5
5B8
331
108F
  5
1094
331
917
  5
95D
331
F6A
  5
F8D
331
74B
  5
804
331
59D
  5
5E7
331
56F
  5
5B1
331
822
  5
87A
331
694
  5
758
331
783
  5
821
331
745
  5
7FE
331
B6E
  5
B7D
331
597
  5
5DD
331
85A
  5
89B
331
81C
  5
879
331
648
  5
6EF
331
959
  5
AE0
331
F5E
  5
F7E
331
B68
  5
B7C
331
854
  5
895
331
678
  5
72F
331
F58
  5
F71
331
76F
  5
819
331
58B
  5
5D3
331
B62
  5
B78
331
DE9
  5
EAB
331
672
  5
729
331
94D
  5
973
331
F88
  5
FA5
331
5BB
  5
59F
331
585
  5
5CD
331
66C
  5
723
331
7A1
  5
830
331
5B5
  5
65B
331
842
  5
88E
331
6AC
  5
773
331
941
  5
972
331
B86
  5
D93
331
5AF
  5
638
331
872
  5
8AE
331
1093
  5
1097
331
E15
  5
EC2
331
795
  5
82A
331
5DF
  5
670
331
B80
  5
BA9
331
5A9
  5
618
331
86C
  5
8A6
331
6A0
  5
767
331
6CE
  5
793
331
96B
  5
AEA
331
FA6
  5
FC5
331
5A3
  5
608
331
89C
  5
8ED
331
69A
  5
764
331
6C8
  5
790
331
965
  5
AE5
331
AE3
  5
B0A
331
4E4
  5
566
331
FCE
  5
FEA
331
5D3
  5
66A
331
896
  5
8E4
331
ADD
  5
AF5
331
F9A
  5
FB7
331
FC8
  5
FE4
331
5CD
  5
662
331
6BC
  5
78A
331
4D8
  5
55D
331
882
  5
8C9
331
518
  5
598
331
617
  5
67A
331
8BA
  5
924
331
6B0
  5
778
331
7E5
  5
85C
331
FE6
  5
1000
331
7D7
  5
850
331
FB0
  5
FCB
331
5EB
  5
676
331
8AE
  5
912
331
AFD
  5
B28
331
4FE
  5
573
331
817
  5
86E
331
732
  5
7F6
331
6D4
  5
795
331
4F8
  5
56F
331
536
  5
5AB
331
8A2
  5
90C
331
72C
  5
7EB
331
AE9
  5
B0F
331
803
  5
868
331
726
  5
7B7
331
B19
  5
B41
331
667
  5
71E
331
631
  5
69B
331
720
  5
7AF
331
B13
  5
B43
331
524
  5
59D
331
102E
  5
1086
331
7F7
  5
860
331
661
  5
717
331
61B
  5
683
331
B0D
  5
B40
331
57C
  5
5C3
331
837
  5
889
331
576
  5
5BB
331
1022
  5
1051
331
570
  5
5B2
331
59E
  5
5E8
331
108A
  5
108B
331
823
  5
87C
331
695
  5
759
331
784
  5
822
331
F65
  5
F8A
331
746
  5
7FF
331
B31
  5
B5E
331
B6F
  5
B7E
331
598
  5
5DE
  0
SORTENTSTABLE
  5
D8D
102
{ACAD_REACTORS
330
D8C
102
}
330
D8C
100
AcDbSortentsTable
330
D54
331
D85
  5
D84
331
D82
  5
D81
331
D84
  5
D83
331
D81
  5
D85
331
D83
  5
D82
  0
GROUP
  5
25E2
102
{ACAD_REACTORS
330
D
102
}
330
D
100
AcDbGroup
300

 70
     1
 71
     1
  0
GROUP
  5
2682
102
{ACAD_REACTORS
330
D
102
}
330
D
100
AcDbGroup
300

 70
     1
 71
     1
  0
GROUP
  5
269E
102
{ACAD_REACTORS
330
D
102
}
330
D
100
AcDbGroup
300

 70
     1
 71
     1
340
269C
340
269B
340
269D
340
269A
  0
GROUP
  5
363B
102
{ACAD_REACTORS
330
D
102
}
330
D
100
AcDbGroup
300

 70
     1
 71
     1
  0
LAYOUT
  5
1E
102
{ACAD_XDICTIONARY
360
1104
102
}
102
{ACAD_REACTORS
330
1A
102
}
330
1A
100
AcDbPlotSettings
  1

  2

  4

  6

 40
0.0
 41
0.0
 42
0.0
 43
0.0
 44
0.0
 45
0.0
 46
0.0
 47
0.0
 48
0.0
 49
0.0
140
0.0
141
0.0
142
1.0
143
1.0
 70
   688
 72
     0
 73
     0
 74
     5
  7
monochrome.ctb
 75
    16
147
1.0
148
0.0
149
0.0
100
AcDbLayout
  1
Layout1
 70
     1
 71
     1
 10
0.0
 20
0.0
 11
420.0
 21
297.0
 12
0.0
 22
0.0
 32
0.0
 14
1.000000000000000E+20
 24
1.000000000000000E+20
 34
1.000000000000000E+20
 15
-1.000000000000000E+20
 25
-1.000000000000000E+20
 35
-1.000000000000000E+20
146
0.0
 13
0.0
 23
0.0
 33
0.0
 16
1.0
 26
0.0
 36
0.0
 17
0.0
 27
1.0
 37
0.0
 76
     0
330
1B
  0
LAYOUT
  5
26
102
{ACAD_XDICTIONARY
360
1108
102
}
102
{ACAD_REACTORS
330
1A
102
}
330
1A
100
AcDbPlotSettings
  1

  2

  4

  6

 40
0.0
 41
0.0
 42
0.0
 43
0.0
 44
0.0
 45
0.0
 46
0.0
 47
0.0
 48
0.0
 49
0.0
140
0.0
141
0.0
142
1.0
143
1.0
 70
   688
 72
     0
 73
     0
 74
     5
  7
monochrome.ctb
 75
    16
147
1.0
148
0.0
149
0.0
100
AcDbLayout
  1
Layout2
 70
     1
 71
     2
 10
0.0
 20
0.0
 11
12.0
 21
9.0
 12
0.0
 22
0.0
 32
0.0
 14
0.0
 24
0.0
 34
0.0
 15
0.0
 25
0.0
 35
0.0
146
0.0
 13
0.0
 23
0.0
 33
0.0
 16
1.0
 26
0.0
 36
0.0
 17
0.0
 27
1.0
 37
0.0
 76
     0
330
23
  0
LAYOUT
  5
22
102
{ACAD_XDICTIONARY
360
1106
102
}
102
{ACAD_REACTORS
330
1A
102
}
330
1A
100
AcDbPlotSettings
  1

  2
PrimoPDF
  4
A3
  6

 40
3.174999952316283
 41
3.174999952316283
 42
3.17498779296875
 43
3.17498779296875
 44
297.0106506347656
 45
419.9889831542968
 46
6.83
 47
14.32
 48
100.0
 49
40.0
140
1639.999999999999
141
1148.0
142
1.0
143
4.0
 70
 11956
 72
     1
 73
     1
 74
     4
  7
monochrome.ctb
 75
    18
147
0.25
148
-100.0
149
-40.0
100
AcDbLayout
  1
Model
 70
     1
 71
     0
 10
0.0
 20
0.0
 11
12.0
 21
9.0
 12
0.0
 22
0.0
 32
0.0
 14
0.0
 24
0.0
 34
0.0
 15
0.0
 25
0.0
 35
0.0
146
0.0
 13
0.0
 23
0.0
 33
0.0
 16
1.0
 26
0.0
 36
0.0
 17
0.0
 27
1.0
 37
0.0
 76
     0
330
1F
1001
ACAD_PSEXT
1000
なし
1000
なし
1000
適切ではありません
1000
新しいプロッタ環境設定名を選択しない限り、レイアウトは印刷されません。
1070
     0
  0
MLINESTYLE
  5
18
102
{ACAD_REACTORS
330
17
102
}
330
17
100
AcDbMlineStyle
  2
STANDARD
 70
     0
  3

 62
   256
 51
90.0
 52
90.0
 71
     2
 49
0.5
 62
   256
  6
BYLAYER
 49
-0.5
 62
   256
  6
BYLAYER
  0
ACDBPLACEHOLDER
  5
F
102
{ACAD_REACTORS
330
E
102
}
330
E
  0
ACAD_PROXY_OBJECT
  5
4B0
102
{ACAD_REACTORS
330
4AF
102
}
330
4AF
100
AcDbProxyObject
 90
      499
 91
      503
 95
   393239
 70
     0
 93
     1841
310
4214DD185B99185C9928000000000000F83F0000000000003E0FC00000000000004901028000000C1008070000C3001FDFF8000000C1003FBFF000000182007F7FE00000030400FEFFC00000060801FDFF8000000C1003FBFF000000182000000000000000C2020B0000001820100E000186003FBFF000000182007F7FE000
310
00030400FEFFC00000060801FDFF8000000C1003FBFF000000182007F7FE0000003040000000000000012404160000003040201C00030C007F7FE00000030400FEFFC00000060801FDFF8000000C1003FBFF000000182007F7FE00000030400FEFFC000000608000
340
11
340
11
340
11
 94
        0
  0
DICTIONARYVAR
  5
4B7
102
{ACAD_REACTORS
330
4B6
102
}
330
4B6
100
DictionaryVariables
280
     0
  1
STANDARD
  0
DICTIONARYVAR
  5
110A
102
{ACAD_REACTORS
330
4B6
102
}
330
4B6
100
DictionaryVariables
280
     0
  1
1
  0
DICTIONARYVAR
  5
110B
102
{ACAD_REACTORS
330
4B6
102
}
330
4B6
100
DictionaryVariables
280
     0
  1

  0
DICTIONARY
  5
1104
330
1E
100
AcDbDictionary
280
     1
281
     1
  3
ACAD_XREC_ROUNDTRIP
360
1105
  0
DICTIONARY
  5
1108
330
26
100
AcDbDictionary
280
     1
281
     1
  3
ACAD_XREC_ROUNDTRIP
360
1109
  0
DICTIONARY
  5
1106
330
22
100
AcDbDictionary
280
     1
281
     1
  3
ACAD_XREC_ROUNDTRIP
360
1107
  0
XRECORD
  5
1105
102
{ACAD_REACTORS
330
1104
102
}
330
1104
100
AcDbXrecord
280
     1
102
SHADEPLOT
 70
     0
102
SHADEPLOTRESLEVEL
 70
     2
102
SHADEPLOTCUSTOMDPI
 70
   300
  0
XRECORD
  5
1109
102
{ACAD_REACTORS
330
1108
102
}
330
1108
100
AcDbXrecord
280
     1
102
SHADEPLOT
 70
     0
102
SHADEPLOTRESLEVEL
 70
     2
102
SHADEPLOTCUSTOMDPI
 70
   300
  0
XRECORD
  5
1107
102
{ACAD_REACTORS
330
1106
102
}
330
1106
100
AcDbXrecord
280
     1
102
SHADEPLOT
 70
     0
102
SHADEPLOTRESLEVEL
 70
     2
102
SHADEPLOTCUSTOMDPI
 70
   300
  0
ENDSEC
  0
EOF
