  0
SECTION
  2
HEADER
  9
$ACADVER
  1
AC1015
  9
$ACADMAINTVER
 70
     6
  9
$DWGCODEPAGE
  3
ANSI_932
  9
$INSBASE
 10
0.0
 20
0.0
 30
0.0
  9
$EXTMIN
 10
124.9999999999995
 20
50.0
 30
-0.00000001
  9
$EXTMAX
 10
2049.999999999999
 20
3055.792336206222
 30
0.00000001
  9
$LIMMIN
 10
0.0
 20
0.0
  9
$LIMMAX
 10
1682.0
 20
1189.0
  9
$ORTHOMODE
 70
     1
  9
$REGENMODE
 70
     1
  9
$FILLMODE
 70
     1
  9
$QTEXTMODE
 70
     0
  9
$MIRRTEXT
 70
     1
  9
$LTSCALE
 40
1.0
  9
$ATTMODE
 70
     1
  9
$TEXTSIZE
 40
12.0
  9
$TRACEWID
 40
1.0
  9
$TEXTSTYLE
  7
Standard
  9
$CLAYER
  8
寸法線1
  9
$CELTYPE
  6
ByLayer
  9
$CECOLOR
 62
   256
  9
$CELTSCALE
 40
1.0
  9
$DISPSILH
 70
     0
  9
$DIMSCALE
 40
5.0
  9
$DIMASZ
 40
2.5
  9
$DIMEXO
 40
1.0
  9
$DIMDLI
 40
3.75
  9
$DIMRND
 40
0.0
  9
$DIMDLE
 40
0.0
  9
$DIMEXE
 40
1.25
  9
$DIMTP
 40
0.0
  9
$DIMTM
 40
0.0
  9
$DIMTXT
 40
3.0
  9
$DIMCEN
 40
2.5
  9
$DIMTSZ
 40
0.0
  9
$DIMTOL
 70
     0
  9
$DIMLIM
 70
     0
  9
$DIMTIH
 70
     0
  9
$DIMTOH
 70
     0
  9
$DIMSE1
 70
     0
  9
$DIMSE2
 70
     0
  9
$DIMTAD
 70
     1
  9
$DIMZIN
 70
     8
  9
$DIMBLK
  1
Open
  9
$DIMASO
 70
     1
  9
$DIMSHO
 70
     1
  9
$DIMPOST
  1

  9
$DIMAPOST
  1

  9
$DIMALT
 70
     0
  9
$DIMALTD
 70
     3
  9
$DIMALTF
 40
0.03937007874016
  9
$DIMLFAC
 40
1.0
  9
$DIMTOFL
 70
     1
  9
$DIMTVP
 40
0.0
  9
$DIMTIX
 70
     0
  9
$DIMSOXD
 70
     0
  9
$DIMSAH
 70
     0
  9
$DIMBLK1
  1

  9
$DIMBLK2
  1

  9
$DIMSTYLE
  2
ISO-25
  9
$DIMCLRD
 70
     0
  9
$DIMCLRE
 70
     0
  9
$DIMCLRT
 70
     0
  9
$DIMTFAC
 40
1.0
  9
$DIMGAP
 40
1.0
  9
$DIMJUST
 70
     0
  9
$DIMSD1
 70
     0
  9
$DIMSD2
 70
     0
  9
$DIMTOLJ
 70
     0
  9
$DIMTZIN
 70
     8
  9
$DIMALTZ
 70
     0
  9
$DIMALTTZ
 70
     0
  9
$DIMUPT
 70
     0
  9
$DIMDEC
 70
     2
  9
$DIMTDEC
 70
     2
  9
$DIMALTU
 70
     2
  9
$DIMALTTD
 70
     3
  9
$DIMTXSTY
  7
Standard
  9
$DIMAUNIT
 70
     0
  9
$DIMADEC
 70
     0
  9
$DIMALTRND
 40
0.0
  9
$DIMAZIN
 70
     0
  9
$DIMDSEP
 70
    44
  9
$DIMATFIT
 70
     3
  9
$DIMFRAC
 70
     0
  9
$DIMLDRBLK
  1
Open
  9
$DIMLUNIT
 70
     2
  9
$DIMLWD
 70
    -2
  9
$DIMLWE
 70
    -2
  9
$DIMTMOVE
 70
     0
  9
$LUNITS
 70
     2
  9
$LUPREC
 70
     4
  9
$SKETCHINC
 40
1.0
  9
$FILLETRAD
 40
0.0
  9
$AUNITS
 70
     0
  9
$AUPREC
 70
     0
  9
$MENU
  1
.
  9
$ELEVATION
 40
0.0
  9
$PELEVATION
 40
0.0
  9
$THICKNESS
 40
0.0
  9
$LIMCHECK
 70
     0
  9
$CHAMFERA
 40
10.0
  9
$CHAMFERB
 40
10.0
  9
$CHAMFERC
 40
20.0
  9
$CHAMFERD
 40
0.0
  9
$SKPOLY
 70
     0
  9
$TDCREATE
 40
2453036.777387036
  9
$TDUCREATE
 40
2453036.402387037
  9
$TDUPDATE
 40
2459382.536953437
  9
$TDUUPDATE
 40
2459382.161953437
  9
$TDINDWG
 40
2.8095543519
  9
$TDUSRTIMER
 40
2.8095532639
  9
$USRTIMER
 70
     1
  9
$ANGBASE
 50
0.0
  9
$ANGDIR
 70
     0
  9
$PDMODE
 70
     0
  9
$PDSIZE
 40
0.0
  9
$PLINEWID
 40
0.0
  9
$SPLFRAME
 70
     0
  9
$SPLINETYPE
 70
     6
  9
$SPLINESEGS
 70
     8
  9
$HANDSEED
  5
33F1
  9
$SURFTAB1
 70
     6
  9
$SURFTAB2
 70
     6
  9
$SURFTYPE
 70
     6
  9
$SURFU
 70
     6
  9
$SURFV
 70
     6
  9
$UCSBASE
  2

  9
$UCSNAME
  2

  9
$UCSORG
 10
0.0
 20
0.0
 30
0.0
  9
$UCSXDIR
 10
1.0
 20
0.0
 30
0.0
  9
$UCSYDIR
 10
0.0
 20
1.0
 30
0.0
  9
$UCSORTHOREF
  2

  9
$UCSORTHOVIEW
 70
     0
  9
$UCSORGTOP
 10
0.0
 20
0.0
 30
0.0
  9
$UCSORGBOTTOM
 10
0.0
 20
0.0
 30
0.0
  9
$UCSORGLEFT
 10
0.0
 20
0.0
 30
0.0
  9
$UCSORGRIGHT
 10
0.0
 20
0.0
 30
0.0
  9
$UCSORGFRONT
 10
0.0
 20
0.0
 30
0.0
  9
$UCSORGBACK
 10
0.0
 20
0.0
 30
0.0
  9
$PUCSBASE
  2

  9
$PUCSNAME
  2

  9
$PUCSORG
 10
0.0
 20
0.0
 30
0.0
  9
$PUCSXDIR
 10
1.0
 20
0.0
 30
0.0
  9
$PUCSYDIR
 10
0.0
 20
1.0
 30
0.0
  9
$PUCSORTHOREF
  2

  9
$PUCSORTHOVIEW
 70
     0
  9
$PUCSORGTOP
 10
0.0
 20
0.0
 30
0.0
  9
$PUCSORGBOTTOM
 10
0.0
 20
0.0
 30
0.0
  9
$PUCSORGLEFT
 10
0.0
 20
0.0
 30
0.0
  9
$PUCSORGRIGHT
 10
0.0
 20
0.0
 30
0.0
  9
$PUCSORGFRONT
 10
0.0
 20
0.0
 30
0.0
  9
$PUCSORGBACK
 10
0.0
 20
0.0
 30
0.0
  9
$USERI1
 70
     0
  9
$USERI2
 70
     0
  9
$USERI3
 70
     0
  9
$USERI4
 70
     0
  9
$USERI5
 70
     0
  9
$USERR1
 40
0.0
  9
$USERR2
 40
0.0
  9
$USERR3
 40
0.0
  9
$USERR4
 40
0.0
  9
$USERR5
 40
0.0
  9
$WORLDVIEW
 70
     1
  9
$SHADEDGE
 70
     3
  9
$SHADEDIF
 70
    70
  9
$TILEMODE
 70
     1
  9
$MAXACTVP
 70
    64
  9
$PINSBASE
 10
0.0
 20
0.0
 30
0.0
  9
$PLIMCHECK
 70
     0
  9
$PEXTMIN
 10
1.000000000000000E+20
 20
1.000000000000000E+20
 30
1.000000000000000E+20
  9
$PEXTMAX
 10
-1.000000000000000E+20
 20
-1.000000000000000E+20
 30
-1.000000000000000E+20
  9
$PLIMMIN
 10
0.0
 20
0.0
  9
$PLIMMAX
 10
420.0
 20
297.0
  9
$UNITMODE
 70
     0
  9
$VISRETAIN
 70
     1
  9
$PLINEGEN
 70
     0
  9
$PSLTSCALE
 70
     1
  9
$TREEDEPTH
 70
  3020
  9
$CMLSTYLE
  2
Standard
  9
$CMLJUST
 70
     0
  9
$CMLSCALE
 40
20.0
  9
$PROXYGRAPHICS
 70
     1
  9
$MEASUREMENT
 70
     1
  9
$CELWEIGHT
370
    -1
  9
$ENDCAPS
280
     0
  9
$JOINSTYLE
280
     0
  9
$LWDISPLAY
290
     1
  9
$INSUNITS
 70
     4
  9
$HYPERLINKBASE
  1

  9
$STYLESHEET
  1
monochrome.ctb
  9
$XEDIT
290
     1
  9
$CEPSNTYPE
380
     0
  9
$PSTYLEMODE
290
     1
  9
$FINGERPRINTGUID
  2
{FDEAD578-A652-11D2-9A35-0060089B3A3F}
  9
$VERSIONGUID
  2
{9435FA1C-9B59-432D-B1B5-BA0A0F342F19}
  9
$EXTNAMES
290
     1
  9
$PSVPSCALE
 40
0.0
  9
$OLESTARTUP
290
     0
  0
ENDSEC
  0
SECTION
  2
CLASSES
  0
CLASS
  1
ACDBDICTIONARYWDFLT
  2
AcDbDictionaryWithDefault
  3
AutoCAD 2000
 90
        0
280
     0
281
     0
  0
CLASS
  1
ACDBPLACEHOLDER
  2
AcDbPlaceHolder
  3
AutoCAD 2000
 90
        0
280
     0
281
     0
  0
CLASS
  1
LAYOUT
  2
AcDbLayout
  3
AutoCAD 2000
 90
        0
280
     0
281
     0
  0
CLASS
  1
TABLESTYLE
  2
AcDbTableStyle
  3
ObjectDBX Classes
 90
     2047
280
     0
281
     0
  0
CLASS
  1
DICTIONARYVAR
  2
AcDbDictionaryVar
  3
AutoCAD 2000
 90
        0
280
     0
281
     0
  0
CLASS
  1
SORTENTSTABLE
  2
AcDbSortentsTable
  3
AutoCAD 2000
 90
        0
280
     0
281
     0
  0
ENDSEC
  0
SECTION
  2
TABLES
  0
TABLE
  2
VPORT
  5
8
330
0
100
AcDbSymbolTable
 70
     2
  0
VPORT
  5
33F0
330
8
100
AcDbSymbolTableRecord
100
AcDbViewportTableRecord
  2
*Active
 70
     0
 10
0.0
 20
0.0
 11
1.0
 21
1.0
 12
1124.796305611349
 22
758.387351413607
 13
0.0
 23
0.0
 14
10.0
 24
10.0
 15
10.0
 25
10.0
 16
0.0
 26
0.0
 36
1.0
 17
0.0
 27
0.0
 37
0.0
 40
2001.674107454027
 41
1.46679499518768
 42
50.0
 43
0.0
 44
0.0
 50
0.0
 51
0.0
 71
     0
 72
   100
 73
     1
 74
     3
 75
     0
 76
     0
 77
     0
 78
     0
281
     0
 65
     1
110
0.0
120
0.0
130
0.0
111
1.0
121
0.0
131
0.0
112
0.0
122
1.0
132
0.0
 79
     0
146
0.0
  0
ENDTAB
  0
TABLE
  2
LTYPE
  5
5
330
0
100
AcDbSymbolTable
 70
     7
  0
LTYPE
  5
14
330
5
100
AcDbSymbolTableRecord
100
AcDbLinetypeTableRecord
  2
ByBlock
 70
     0
  3

 72
    65
 73
     0
 40
0.0
  0
LTYPE
  5
15
330
5
100
AcDbSymbolTableRecord
100
AcDbLinetypeTableRecord
  2
ByLayer
 70
     0
  3

 72
    65
 73
     0
 40
0.0
  0
LTYPE
  5
16
330
5
100
AcDbSymbolTableRecord
100
AcDbLinetypeTableRecord
  2
Continuous
 70
     0
  3
Solid line
 72
    65
 73
     0
 40
0.0
  0
LTYPE
  5
47
330
5
100
AcDbSymbolTableRecord
100
AcDbLinetypeTableRecord
  2
CENTER
 70
     0
  3
Center ____ _ ____ _ ____ _ ____ _ ____ _ ____
 72
    65
 73
     4
 40
50.8
 49
31.75
 74
     0
 49
-6.349999999999998
 74
     0
 49
6.349999999999998
 74
     0
 49
-6.349999999999998
 74
     0
  0
LTYPE
  5
48
330
5
100
AcDbSymbolTableRecord
100
AcDbLinetypeTableRecord
  2
CENTER2
 70
     0
  3
Center (.5x) ___ _ ___ _ ___ _ ___ _ ___ _ ___
 72
    65
 73
     4
 40
28.57499999999999
 49
19.05
 74
     0
 49
-3.174999999999998
 74
     0
 49
3.174999999999998
 74
     0
 49
-3.174999999999998
 74
     0
  0
LTYPE
  5
49
330
5
100
AcDbSymbolTableRecord
100
AcDbLinetypeTableRecord
  2
CENTERX2
 70
     0
  3
Center (2x) ________  __  ________  __  _____
 72
    65
 73
     4
 40
101.6
 49
63.5
 74
     0
 49
-12.7
 74
     0
 49
12.7
 74
     0
 49
-12.7
 74
     0
  0
LTYPE
  5
4A
330
5
100
AcDbSymbolTableRecord
100
AcDbLinetypeTableRecord
  2
HIDDEN
 70
     0
  3
Hidden __ __ __ __ __ __ __ __ __ __ __ __ __ _
 72
    65
 73
     2
 40
9.524999999999996
 49
6.349999999999998
 74
     0
 49
-3.174999999999998
 74
     0
  0
LTYPE
  5
4B
330
5
100
AcDbSymbolTableRecord
100
AcDbLinetypeTableRecord
  2
HIDDEN2
 70
     0
  3
Hidden (.5x) _ _ _ _ _ _ _ _ _ _ _ _ _ _ _ _ _
 72
    65
 73
     2
 40
4.762499999999998
 49
3.174999999999998
 74
     0
 49
-1.587499999999999
 74
     0
  0
LTYPE
  5
4C
330
5
100
AcDbSymbolTableRecord
100
AcDbLinetypeTableRecord
  2
HIDDENX2
 70
     0
  3
Hidden (2x) ____ ____ ____ ____ ____ ____ ____
 72
    65
 73
     2
 40
19.04999999999998
 49
12.7
 74
     0
 49
-6.349999999999998
 74
     0
  0
ENDTAB
  0
TABLE
  2
LAYER
  5
2
102
{ACAD_XDICTIONARY
360
645
102
}
330
0
100
AcDbSymbolTable
 70
    12
  0
LAYER
  5
10
330
2
100
AcDbSymbolTableRecord
100
AcDbLayerTableRecord
  2
0
 70
     0
 62
     7
  6
Continuous
370
    -3
390
F
  0
LAYER
  5
4D
330
2
100
AcDbSymbolTableRecord
100
AcDbLayerTableRecord
  2
1、実線
 70
     0
 62
     7
  6
Continuous
370
    35
390
F
  0
LAYER
  5
4E
330
2
100
AcDbSymbolTableRecord
100
AcDbLayerTableRecord
  2
２，細線
 70
     0
 62
     7
  6
Continuous
370
    18
390
F
  0
LAYER
  5
4F
330
2
100
AcDbSymbolTableRecord
100
AcDbLayerTableRecord
  2
4、破線2
 70
     0
 62
     3
  6
HIDDEN
370
    15
390
F
  0
LAYER
  5
50
330
2
100
AcDbSymbolTableRecord
100
AcDbLayerTableRecord
  2
寸法線1
 70
     0
 62
     6
  6
Continuous
370
    15
390
F
  0
LAYER
  5
53
330
2
100
AcDbSymbolTableRecord
100
AcDbLayerTableRecord
  2
3、破線1
 70
     0
 62
     3
  6
HIDDEN
370
    15
390
F
  0
LAYER
  5
73
330
2
100
AcDbSymbolTableRecord
100
AcDbLayerTableRecord
  2
Defpoints
 70
     0
 62
     7
  6
Continuous
290
     0
370
    -3
390
F
  0
LAYER
  5
53C
330
2
100
AcDbSymbolTableRecord
100
AcDbLayerTableRecord
  2
引き出し線
 70
     0
 62
     6
  6
Continuous
370
    15
390
F
  0
LAYER
  5
643
330
2
100
AcDbSymbolTableRecord
100
AcDbLayerTableRecord
  2
中箱
 70
     0
 62
     1
  6
HIDDENX2
370
    15
390
F
1001
AcAecLayerStandard
1000

1000

  0
LAYER
  5
8CC
330
2
100
AcDbSymbolTableRecord
100
AcDbLayerTableRecord
  2
電源コード
 70
     0
 62
     1
  6
Continuous
370
    35
390
F
1001
AcAecLayerStandard
1000

1000

  0
LAYER
  5
D53
330
2
100
AcDbSymbolTableRecord
100
AcDbLayerTableRecord
  2
構築線
 70
     0
 62
     4
  6
Continuous
370
    18
390
F
1001
AcAecLayerStandard
1000

1000

  0
LAYER
  5
2972
330
2
100
AcDbSymbolTableRecord
100
AcDbLayerTableRecord
  2
文字
 70
     0
 62
     7
  6
Continuous
370
    -3
390
F
  0
ENDTAB
  0
TABLE
  2
STYLE
  5
3
330
0
100
AcDbSymbolTable
 70
     3
  0
STYLE
  5
11
330
3
100
AcDbSymbolTableRecord
100
AcDbTextStyleTableRecord
  2
Standard
 70
     0
 40
0.0
 41
1.0
 50
0.0
 71
     0
 42
12.0
  3
txt.shx
  4
bigfont.shx
  0
STYLE
  5
46
330
3
100
AcDbSymbolTableRecord
100
AcDbTextStyleTableRecord
  2

 70
     1
 40
0.0
 41
1.0
 50
0.0
 71
     0
 42
2.5
  3
ltypeshp.shx
  4

  0
STYLE
  5
2973
330
3
100
AcDbSymbolTableRecord
100
AcDbTextStyleTableRecord
  2
ED_VECTOR
 70
     0
 40
0.0
 41
1.0
 50
0.0
 71
     0
 42
0.2
  3
MONOTXT.SHX
  4
BIGFONT.SHX
  0
ENDTAB
  0
TABLE
  2
VIEW
  5
6
330
0
100
AcDbSymbolTable
 70
     0
  0
ENDTAB
  0
TABLE
  2
UCS
  5
7
330
0
100
AcDbSymbolTable
 70
     0
  0
ENDTAB
  0
TABLE
  2
APPID
  5
9
330
0
100
AcDbSymbolTable
 70
    12
  0
APPID
  5
12
330
9
100
AcDbSymbolTableRecord
100
AcDbRegAppTableRecord
  2
ACAD
 70
     0
  0
APPID
  5
4D0
330
9
100
AcDbSymbolTableRecord
100
AcDbRegAppTableRecord
  2
ACAD_EXEMPT_FROM_CAD_STANDARDS
 70
     0
  0
APPID
  5
644
330
9
100
AcDbSymbolTableRecord
100
AcDbRegAppTableRecord
  2
AcAecLayerStandard
 70
     0
  0
APPID
  5
6DE
330
9
100
AcDbSymbolTableRecord
100
AcDbRegAppTableRecord
  2
ACAD_PSEXT
 70
     0
  0
APPID
  5
97A
330
9
100
AcDbSymbolTableRecord
100
AcDbRegAppTableRecord
  2
ACAD_DSTYLE_DIMTEXT_FILL
 70
     0
  0
APPID
  5
97B
330
9
100
AcDbSymbolTableRecord
100
AcDbRegAppTableRecord
  2
ACAD_DSTYLE_DIMEXT_LENGTH
 70
     0
  0
APPID
  5
97C
330
9
100
AcDbSymbolTableRecord
100
AcDbRegAppTableRecord
  2
ACAD_DSTYLE_DIMEXT_ENABLED
 70
     0
  0
APPID
  5
97D
330
9
100
AcDbSymbolTableRecord
100
AcDbRegAppTableRecord
  2
ACAD_DSTYLE_DIM_LINETYPE
 70
     0
  0
APPID
  5
97E
330
9
100
AcDbSymbolTableRecord
100
AcDbRegAppTableRecord
  2
ACAD_DSTYLE_DIM_EXT1_LINETYPE
 70
     0
  0
APPID
  5
97F
330
9
100
AcDbSymbolTableRecord
100
AcDbRegAppTableRecord
  2
ACAD_DSTYLE_DIM_EXT2_LINETYPE
 70
     0
  0
APPID
  5
A3B
330
9
100
AcDbSymbolTableRecord
100
AcDbRegAppTableRecord
  2
ACAD_DSTYLE_DIMJOGGED_JOGANGLE_SYMBOL
 70
     0
  0
APPID
  5
A9F
330
9
100
AcDbSymbolTableRecord
100
AcDbRegAppTableRecord
  2
ACAD_DSTYLE_DIMARC_LENGTH_SYMBOL
 70
     0
  0
ENDTAB
  0
TABLE
  2
DIMSTYLE
  5
A
330
0
100
AcDbSymbolTable
 70
     1
100
AcDbDimStyleTable
 71
     1
340
27
  0
DIMSTYLE
105
27
102
{ACAD_REACTORS
330
E5C
330
E72
330
1581
330
158E
330
159B
330
15B7
330
15C4
330
15D2
330
15FC
330
1609
330
16D6
330
FAA
330
FAD
330
FDD
330
FE9
330
161B
330
161C
330
2917
330
2BAE
330
2BBD
330
2C3C
330
2CE0
330
2D4D
330
3106
330
30D3
330
3219
330
30CD
330
3217
330
30D1
330
30D2
330
321A
330
2F76
330
2F75
330
31C2
330
30D0
330
30CE
330
30CF
330
3218
330
30D4
330
3216
102
}
330
A
100
AcDbSymbolTableRecord
100
AcDbDimStyleTableRecord
  2
ISO-25
 70
     0
 40
5.0
 41
2.5
 42
1.0
 43
3.75
 44
1.25
 73
     0
 74
     0
 77
     1
 78
     8
140
3.0
141
2.5
143
0.03937007874016
147
1.0
171
     3
172
     1
271
     2
272
     2
274
     3
278
    44
283
     0
284
     8
340
11
341
1AE
342
1AE
1001
ACAD_DSTYLE_DIMEXT_LENGTH
1070
   378
1040
1.25
1001
ACAD_DSTYLE_DIMEXT_ENABLED
1070
   383
1070
     0
1001
ACAD_DSTYLE_DIMARC_LENGTH_SYMBOL
1070
   379
1070
     0
1001
ACAD_DSTYLE_DIMJOGGED_JOGANGLE_SYMBOL
1070
   384
1040
1.570796326794896
  0
ENDTAB
  0
TABLE
  2
BLOCK_RECORD
  5
1
330
0
100
AcDbSymbolTable
 70
    38
  0
BLOCK_RECORD
  5
1F
102
{ACAD_XDICTIONARY
360
4C2
102
}
330
1
100
AcDbSymbolTableRecord
100
AcDbBlockTableRecord
  2
*Model_Space
340
22
  0
BLOCK_RECORD
  5
1B
330
1
100
AcDbSymbolTableRecord
100
AcDbBlockTableRecord
  2
*Paper_Space
340
1E
  0
BLOCK_RECORD
  5
23
330
1
100
AcDbSymbolTableRecord
100
AcDbBlockTableRecord
  2
*Paper_Space0
340
26
  0
BLOCK_RECORD
  5
1AE
330
1
100
AcDbSymbolTableRecord
100
AcDbBlockTableRecord
  2
_Open
340
0
102
{BLKREFS
331
190F
331
1910
331
1918
331
1919
331
1921
331
1922
331
192A
331
192B
331
1950
331
1951
331
196C
331
196D
331
1977
331
1978
331
2930
331
2931
331
295D
331
295E
331
2BB5
331
2BB6
331
2C8A
331
2C8B
331
2CCD
331
2CCE
331
2CD8
331
2CD9
331
2D30
331
2D31
331
2D61
331
2D62
331
32FB
331
32FC
331
3306
331
3307
331
330F
331
3310
331
331A
331
331B
331
3323
331
3324
331
332E
331
332F
331
3337
331
3338
331
3340
331
3341
331
3349
331
334A
331
3352
331
3353
331
335D
331
335E
331
3366
331
3367
331
336F
331
3370
331
337A
331
337B
331
3383
331
3384
331
338E
331
338F
331
3395
331
3396
331
33C2
331
33C3
331
33CD
331
33CE
331
33DF
331
33E0
331
33EA
331
33EB
102
}
  0
BLOCK_RECORD
  5
D54
102
{ACAD_XDICTIONARY
360
D8C
102
}
330
1
100
AcDbSymbolTableRecord
100
AcDbBlockTableRecord
  2
Ａ－３－タイトルブロック　（株）アンナカ
340
0
1001
ACAD
1000
DesignCenter Data
1002
{
1070
     1
1070
     4
1002
}
  0
BLOCK_RECORD
  5
E5D
330
1
100
AcDbSymbolTableRecord
100
AcDbBlockTableRecord
  2
*D3
340
0
  0
BLOCK_RECORD
  5
E73
330
1
100
AcDbSymbolTableRecord
100
AcDbBlockTableRecord
  2
*D4
340
0
  0
BLOCK_RECORD
  5
1582
330
1
100
AcDbSymbolTableRecord
100
AcDbBlockTableRecord
  2
*D5
340
0
  0
BLOCK_RECORD
  5
158F
330
1
100
AcDbSymbolTableRecord
100
AcDbBlockTableRecord
  2
*D6
340
0
  0
BLOCK_RECORD
  5
159C
330
1
100
AcDbSymbolTableRecord
100
AcDbBlockTableRecord
  2
*D7
340
0
  0
BLOCK_RECORD
  5
15B8
330
1
100
AcDbSymbolTableRecord
100
AcDbBlockTableRecord
  2
*D8
340
0
  0
BLOCK_RECORD
  5
15C5
330
1
100
AcDbSymbolTableRecord
100
AcDbBlockTableRecord
  2
*D9
340
0
  0
BLOCK_RECORD
  5
15D3
330
1
100
AcDbSymbolTableRecord
100
AcDbBlockTableRecord
  2
*D10
340
0
  0
BLOCK_RECORD
  5
15FD
330
1
100
AcDbSymbolTableRecord
100
AcDbBlockTableRecord
  2
*D11
340
0
  0
BLOCK_RECORD
  5
160A
330
1
100
AcDbSymbolTableRecord
100
AcDbBlockTableRecord
  2
*D12
340
0
  0
BLOCK_RECORD
  5
16D7
330
1
100
AcDbSymbolTableRecord
100
AcDbBlockTableRecord
  2
*D13
340
0
  0
BLOCK_RECORD
  5
2918
330
1
100
AcDbSymbolTableRecord
100
AcDbBlockTableRecord
  2
*D14
340
0
  0
BLOCK_RECORD
  5
2A03
330
1
100
AcDbSymbolTableRecord
100
AcDbBlockTableRecord
  2
Ａ－３　アンナカ用紙
340
0
1001
ACAD
1000
DesignCenter Data
1002
{
1070
     1
1070
     4
1002
}
  0
BLOCK_RECORD
  5
2BAF
330
1
100
AcDbSymbolTableRecord
100
AcDbBlockTableRecord
  2
*D16
340
0
  0
BLOCK_RECORD
  5
2BBE
330
1
100
AcDbSymbolTableRecord
100
AcDbBlockTableRecord
  2
*D17
340
0
  0
BLOCK_RECORD
  5
2C3D
330
1
100
AcDbSymbolTableRecord
100
AcDbBlockTableRecord
  2
*D18
340
0
  0
BLOCK_RECORD
  5
2CE1
330
1
100
AcDbSymbolTableRecord
100
AcDbBlockTableRecord
  2
*D19
340
0
  0
BLOCK_RECORD
  5
2D4E
330
1
100
AcDbSymbolTableRecord
100
AcDbBlockTableRecord
  2
*D20
340
0
  0
BLOCK_RECORD
  5
3222
330
1
100
AcDbSymbolTableRecord
100
AcDbBlockTableRecord
  2
*D21
340
0
  0
BLOCK_RECORD
  5
322E
330
1
100
AcDbSymbolTableRecord
100
AcDbBlockTableRecord
  2
*D22
340
0
  0
BLOCK_RECORD
  5
323C
330
1
100
AcDbSymbolTableRecord
100
AcDbBlockTableRecord
  2
*D23
340
0
  0
BLOCK_RECORD
  5
3248
330
1
100
AcDbSymbolTableRecord
100
AcDbBlockTableRecord
  2
*D24
340
0
  0
BLOCK_RECORD
  5
3256
330
1
100
AcDbSymbolTableRecord
100
AcDbBlockTableRecord
  2
*D25
340
0
  0
BLOCK_RECORD
  5
3262
330
1
100
AcDbSymbolTableRecord
100
AcDbBlockTableRecord
  2
*D26
340
0
  0
BLOCK_RECORD
  5
3270
330
1
100
AcDbSymbolTableRecord
100
AcDbBlockTableRecord
  2
*D27
340
0
  0
BLOCK_RECORD
  5
327C
330
1
100
AcDbSymbolTableRecord
100
AcDbBlockTableRecord
  2
*D28
340
0
  0
BLOCK_RECORD
  5
3288
330
1
100
AcDbSymbolTableRecord
100
AcDbBlockTableRecord
  2
*D29
340
0
  0
BLOCK_RECORD
  5
3294
330
1
100
AcDbSymbolTableRecord
100
AcDbBlockTableRecord
  2
*D30
340
0
  0
BLOCK_RECORD
  5
32A0
330
1
100
AcDbSymbolTableRecord
100
AcDbBlockTableRecord
  2
*D31
340
0
  0
BLOCK_RECORD
  5
32AE
330
1
100
AcDbSymbolTableRecord
100
AcDbBlockTableRecord
  2
*D32
340
0
  0
BLOCK_RECORD
  5
32BA
330
1
100
AcDbSymbolTableRecord
100
AcDbBlockTableRecord
  2
*D33
340
0
  0
BLOCK_RECORD
  5
32C6
330
1
100
AcDbSymbolTableRecord
100
AcDbBlockTableRecord
  2
*D34
340
0
  0
BLOCK_RECORD
  5
32D4
330
1
100
AcDbSymbolTableRecord
100
AcDbBlockTableRecord
  2
*D35
340
0
  0
BLOCK_RECORD
  5
32E0
330
1
100
AcDbSymbolTableRecord
100
AcDbBlockTableRecord
  2
*D36
340
0
  0
BLOCK_RECORD
  5
32EE
330
1
100
AcDbSymbolTableRecord
100
AcDbBlockTableRecord
  2
*D37
340
0
  0
ENDTAB
  0
ENDSEC
  0
SECTION
  2
BLOCKS
  0
BLOCK
  5
20
330
1F
100
AcDbEntity
  8
0
100
AcDbBlockBegin
  2
*Model_Space
 70
     0
 10
0.0
 20
0.0
 30
0.0
  3
*Model_Space
  1

  0
ENDBLK
  5
21
330
1F
100
AcDbEntity
  8
0
100
AcDbBlockEnd
  0
BLOCK
  5
1C
330
1B
100
AcDbEntity
 67
     1
  8
0
100
AcDbBlockBegin
  2
*Paper_Space
 70
     0
 10
0.0
 20
0.0
 30
0.0
  3
*Paper_Space
  1

  0
ENDBLK
  5
1D
330
1B
100
AcDbEntity
 67
     1
  8
0
100
AcDbBlockEnd
  0
BLOCK
  5
24
330
23
100
AcDbEntity
  8
0
100
AcDbBlockBegin
  2
*Paper_Space0
 70
     0
 10
0.0
 20
0.0
 30
0.0
  3
*Paper_Space0
  1

  0
ENDBLK
  5
25
330
23
100
AcDbEntity
  8
0
100
AcDbBlockEnd
  0
BLOCK
  5
1B2
330
1AE
100
AcDbEntity
  8
0
100
AcDbBlockBegin
  2
_Open
 70
     0
 10
0.0
 20
0.0
 30
0.0
  3
_Open
  1

  0
LINE
  5
1AF
330
1AE
100
AcDbEntity
  8
寸法線1
 62
     0
370
    -2
100
AcDbLine
 10
-1.0
 20
0.1666666666666666
 30
0.0
 11
0.0
 21
0.0
 31
0.0
  0
LINE
  5
1B0
330
1AE
100
AcDbEntity
  8
寸法線1
 62
     0
370
    -2
100
AcDbLine
 10
-1.0
 20
-0.1666666666666666
 30
0.0
 11
0.0
 21
0.0
 31
0.0
  0
LINE
  5
1B1
330
1AE
100
AcDbEntity
  8
寸法線1
 62
     0
370
    -2
100
AcDbLine
 10
0.0
 20
0.0
 30
0.0
 11
-1.0
 21
0.0
 31
0.0
  0
ENDBLK
  5
1B3
330
1AE
100
AcDbEntity
  8
0
100
AcDbBlockEnd
  0
BLOCK
  5
D8E
330
D54
100
AcDbEntity
  8
0
100
AcDbBlockBegin
  2
Ａ－３－タイトルブロック　（株）アンナカ
 70
     0
 10
0.0
 20
0.0
 30
0.0
  3
Ａ－３－タイトルブロック　（株）アンナカ
  1

  0
LINE
  5
18B7
330
D54
100
AcDbEntity
  8
0
370
    40
100
AcDbLine
 10
409.9999999999998
 20
10.0
 30
0.0
 11
409.9999999999998
 21
38.0
 31
0.0
  0
LINE
  5
18B8
330
D54
100
AcDbEntity
  8
0
370
    60
100
AcDbLine
 10
409.9999999999998
 20
287.0
 30
0.0
 11
24.99999999999994
 21
287.0
 31
0.0
  0
LINE
  5
18B9
330
D54
100
AcDbEntity
  8
0
370
    40
100
AcDbLine
 10
229.9999999999999
 20
10.0
 30
0.0
 11
409.9999999999998
 21
10.0
 31
0.0
  0
LINE
  5
18BA
330
D54
100
AcDbEntity
  8
0
370
    60
100
AcDbLine
 10
24.99999999999994
 20
287.0
 30
0.0
 11
25.0
 21
10.0
 31
0.0
  0
LINE
  5
18BB
330
D54
100
AcDbEntity
  8
0
370
    60
100
AcDbLine
 10
409.9999999999998
 20
10.0
 30
0.0
 11
409.9999999999998
 21
287.0
 31
0.0
  0
LINE
  5
18BC
330
D54
100
AcDbEntity
  8
0
370
    60
100
AcDbLine
 10
25.0
 20
10.0
 30
0.0
 11
409.9999999999998
 21
10.0
 31
0.0
  0
LINE
  5
18BD
330
D54
100
AcDbEntity
  8
0
100
AcDbLine
 10
318.6529750232782
 20
35.52070974637445
 30
0.0
 11
312.6529750232782
 21
29.52070974637445
 31
0.0
  0
TEXT
  5
18BE
330
D54
100
AcDbEntity
  8
0
100
AcDbText
 10
283.307896638995
 20
10.5948520895418
 30
0.0
 40
3.75
  1
承　認
100
AcDbText
  0
TEXT
  5
18BF
330
D54
100
AcDbEntity
  8
0
100
AcDbText
 10
232.3203605967294
 20
10.56729125954706
 30
0.0
 40
3.75
  1
設　計
100
AcDbText
  0
TEXT
  5
18C0
330
D54
100
AcDbEntity
  8
0
100
AcDbText
 10
266.3540583654115
 20
10.68149538233842
 30
0.0
 40
3.75
  1
検　図
100
AcDbText
  0
TEXT
  5
18C1
330
D54
100
AcDbEntity
  8
0
100
AcDbText
 10
249.4343442915429
 20
10.61149479708615
 30
0.0
 40
3.75
  1
製　図
100
AcDbText
  0
TEXT
  5
18C2
330
D54
100
AcDbEntity
  8
0
100
AcDbText
 10
300.2200358093297
 20
23.98407185290813
 30
0.0
 40
3.75
  1
品
100
AcDbText
  0
TEXT
  5
18C3
330
D54
100
AcDbEntity
  8
0
100
AcDbText
 10
300.2200344175939
 20
19.47748552127103
 30
0.0
 40
3.75
  1
名
100
AcDbText
  0
TEXT
  5
18C4
330
D54
100
AcDbEntity
  8
0
100
AcDbText
 10
299.9269365765777
 20
30.74189779655756
 30
0.0
 40
3.75
  1
尺度
100
AcDbText
  0
TEXT
  5
18C5
330
D54
100
AcDbEntity
  8
0
100
AcDbText
 10
355.8973426032813
 20
30.68901750125485
 30
0.0
 40
3.75
  1
処理
100
AcDbText
  0
TEXT
  5
18C6
330
D54
100
AcDbEntity
  8
0
100
AcDbText
 10
362.2931523123214
 20
14.97132756165608
 30
0.0
 40
3.75
  1
図
100
AcDbText
  0
TEXT
  5
18C7
330
D54
100
AcDbEntity
  8
0
100
AcDbText
 10
362.2265521859451
 20
10.44681943131984
 30
0.0
 40
3.75
  1
番
100
AcDbText
  0
TEXT
  5
18C8
330
D54
100
AcDbEntity
  8
0
100
AcDbText
 10
324.2736687619641
 20
30.50734800538497
 30
0.0
 40
3.75
  1
材質
100
AcDbText
  0
TEXT
  5
18C9
330
D54
100
AcDbEntity
  8
0
100
AcDbText
 10
387.7624386995826
 20
30.5255410443326
 30
0.0
 40
3.75
  1
個数
100
AcDbText
  0
LINE
  5
18CA
330
D54
100
AcDbEntity
  8
0
100
AcDbLine
 10
297.9999999999999
 20
19.0
 30
0.0
 11
409.9999999999998
 21
19.0
 31
0.0
  0
LINE
  5
18CB
330
D54
100
AcDbEntity
  8
0
100
AcDbLine
 10
297.9999999999999
 20
28.0
 30
0.0
 11
409.9999999999998
 21
28.0
 31
0.0
  0
LINE
  5
18CC
330
D54
100
AcDbEntity
  8
0
100
AcDbLine
 10
297.9999999999999
 20
37.0
 30
0.0
 11
297.9999999999999
 21
10.0
 31
0.0
  0
LINE
  5
18CD
330
D54
100
AcDbEntity
  8
0
100
AcDbLine
 10
305.9999999999998
 20
28.0
 30
0.0
 11
305.9999999999998
 21
19.0
 31
0.0
  0
LINE
  5
18CE
330
D54
100
AcDbEntity
  8
0
100
AcDbLine
 10
359.9999999999998
 20
28.0
 30
0.0
 11
359.9999999999998
 21
10.0
 31
0.0
  0
LINE
  5
18CF
330
D54
100
AcDbEntity
  8
0
100
AcDbLine
 10
367.9999999999998
 20
28.0
 30
0.0
 11
367.9999999999998
 21
10.0
 31
0.0
  0
LINE
  5
18D0
330
D54
100
AcDbEntity
  8
0
370
    60
100
AcDbLine
 10
229.9999999999999
 20
37.0
 30
0.0
 11
229.9999999999999
 21
10.0
 31
0.0
  0
LINE
  5
18D1
330
D54
100
AcDbEntity
  8
構築線
100
AcDbLine
 10
309.9999999999998
 20
37.0
 30
0.0
 11
309.9999999999998
 21
27.99999999999998
 31
0.0
  0
LINE
  5
18D2
330
D54
100
AcDbEntity
  8
0
100
AcDbLine
 10
321.9999999999998
 20
37.0
 30
0.0
 11
321.9999999999998
 21
28.0
 31
0.0
  0
LINE
  5
18D3
330
D54
100
AcDbEntity
  8
構築線
100
AcDbLine
 10
333.9999999999998
 20
37.0
 30
0.0
 11
333.9999999999998
 21
28.0
 31
0.0
  0
LINE
  5
18D4
330
D54
100
AcDbEntity
  8
0
100
AcDbLine
 10
353.9999999999998
 20
37.0
 30
0.0
 11
353.9999999999998
 21
28.0
 31
0.0
  0
LINE
  5
18D5
330
D54
100
AcDbEntity
  8
構築線
100
AcDbLine
 10
365.9999999999998
 20
37.0
 30
0.0
 11
365.9999999999998
 21
28.0
 31
0.0
  0
LINE
  5
18D6
330
D54
100
AcDbEntity
  8
0
100
AcDbLine
 10
385.9999999999998
 20
37.0
 30
0.0
 11
385.9999999999998
 21
28.0
 31
0.0
  0
LINE
  5
18D7
330
D54
100
AcDbEntity
  8
構築線
100
AcDbLine
 10
397.9999999999998
 20
37.0
 30
0.0
 11
397.9999999999998
 21
28.0
 31
0.0
  0
LINE
  5
18D8
330
D54
100
AcDbEntity
  8
0
370
    60
100
AcDbLine
 10
409.9999999999998
 20
37.0
 30
0.0
 11
229.9999999999999
 21
37.0
 31
0.0
  0
LINE
  5
18D9
330
D54
100
AcDbEntity
  8
0
100
AcDbLine
 10
229.9999999999999
 20
32.0
 30
0.0
 11
297.9999999999999
 21
32.0
 31
0.0
  0
LINE
  5
18DA
330
D54
100
AcDbEntity
  8
0
100
AcDbLine
 10
229.9999999999999
 20
15.0
 30
0.0
 11
297.9999999999999
 21
15.0
 31
0.0
  0
LINE
  5
18DB
330
D54
100
AcDbEntity
  8
0
100
AcDbLine
 10
246.9999999999999
 20
32.0
 30
0.0
 11
246.9999999999999
 21
10.0
 31
0.0
  0
LINE
  5
18DC
330
D54
100
AcDbEntity
  8
0
100
AcDbLine
 10
263.9999999999999
 20
32.0
 30
0.0
 11
263.9999999999999
 21
10.0
 31
0.0
  0
MTEXT
  5
18DD
330
D54
100
AcDbEntity
  8
0
100
AcDbMText
 10
233.6822362954143
 20
36.53613805254554
 30
0.0
 40
4.0
 41
51.15817715169351
 71
     1
 72
     5
  1
作 成 日
 73
     1
 44
1.0
1001
ACAD
1000
ACAD_MTEXT_DEFINED_HEIGHT_BEGIN
1070
    46
1040
0.0
1000
ACAD_MTEXT_DEFINED_HEIGHT_END
1000
MTEXTBEGIN
1070
    73
1070
     1
1070
    44
1040
1.0
1070
    74
1070
     0
1000
MTEXTEND
  0
LINE
  5
18DE
330
D54
100
AcDbEntity
  8
0
100
AcDbLine
 10
255.4999999999999
 20
37.0
 30
0.0
 11
255.4999999999999
 21
32.0
 31
0.0
  0
LINE
  5
18DF
330
D54
100
AcDbEntity
  8
0
100
AcDbLine
 10
280.9999999999999
 20
32.0
 30
0.0
 11
280.9999999999999
 21
10.0
 31
0.0
  0
TEXT
  5
18E0
330
D54
100
AcDbEntity
  8
0
100
AcDbText
 10
362.1526144043853
 20
24.01050086617226
 30
0.0
 40
3.75
  1
型
100
AcDbText
  0
TEXT
  5
18E1
330
D54
100
AcDbEntity
  8
0
100
AcDbText
 10
362.2313796936458
 20
19.49046779907813
 30
0.0
 40
3.75
  1
式
100
AcDbText
  0
CIRCLE
  5
18E2
330
D54
100
AcDbEntity
  8
0
100
AcDbCircle
 10
269.9999999999999
 20
34.56806793362761
 30
0.0
 40
0.5
  0
CIRCLE
  5
18E3
330
D54
100
AcDbEntity
  8
0
100
AcDbCircle
 10
283.9999999999998
 20
34.56806793362761
 30
0.0
 40
0.5
  0
CIRCLE
  5
18E4
330
D54
100
AcDbEntity
  8
0
100
AcDbCircle
 10
269.9999999999999
 20
34.56806793362761
 30
0.0
 40
0.4
  0
CIRCLE
  5
18E5
330
D54
100
AcDbEntity
  8
0
100
AcDbCircle
 10
269.9999999999999
 20
34.56806793362761
 30
0.0
 40
0.3
  0
CIRCLE
  5
18E6
330
D54
100
AcDbEntity
  8
0
100
AcDbCircle
 10
269.9999999999999
 20
34.56806793362761
 30
0.0
 40
0.2
  0
CIRCLE
  5
18E7
330
D54
100
AcDbEntity
  8
0
100
AcDbCircle
 10
269.9999999999999
 20
34.56806793362761
 30
0.0
 40
0.1
  0
CIRCLE
  5
18E8
330
D54
100
AcDbEntity
  8
0
100
AcDbCircle
 10
283.9999999999998
 20
34.56806793362761
 30
0.0
 40
0.5
  0
CIRCLE
  5
18E9
330
D54
100
AcDbEntity
  8
0
100
AcDbCircle
 10
283.9999999999998
 20
34.56806793362761
 30
0.0
 40
0.4
  0
CIRCLE
  5
18EA
330
D54
100
AcDbEntity
  8
0
100
AcDbCircle
 10
283.9999999999998
 20
34.56806793362761
 30
0.0
 40
0.3
  0
CIRCLE
  5
18EB
330
D54
100
AcDbEntity
  8
0
100
AcDbCircle
 10
283.9999999999998
 20
34.56806793362761
 30
0.0
 40
0.2
  0
CIRCLE
  5
18EC
330
D54
100
AcDbEntity
  8
0
100
AcDbCircle
 10
283.9999999999998
 20
34.56806793362761
 30
0.0
 40
0.1
  0
MTEXT
  5
18ED
330
D54
100
AcDbEntity
  8
0
100
AcDbMText
 10
304.4994482992639
 20
17.03068846986468
 30
0.0
 40
5.0
 41
78.66862485691355
 71
     1
 72
     5
  1
株式会社 アンナカ
 73
     1
 44
1.0
1001
ACAD
1000
MTEXTBEGIN
1070
    73
1070
     1
1070
    44
1040
1.0
1070
    74
1070
     0
1000
MTEXTEND
  0
ENDBLK
  5
D8F
330
D54
100
AcDbEntity
  8
0
100
AcDbBlockEnd
  0
BLOCK
  5
E67
330
E5D
100
AcDbEntity
  8
0
100
AcDbBlockBegin
  2
*D3
 70
     1
 10
0.0
 20
0.0
 30
0.0
  3
*D3
  1

  0
LINE
  5
190C
330
E5D
100
AcDbEntity
  8
寸法線1
 62
     0
370
    -2
100
AcDbLine
 10
390.5121499897596
 20
428.1002157011061
 30
0.0
 11
390.5121499897596
 21
429.3502157011062
 31
0.0
  0
LINE
  5
190D
330
E5D
100
AcDbEntity
  8
寸法線1
 62
     0
370
    -2
100
AcDbLine
 10
670.5121499897598
 20
428.1002157011061
 30
0.0
 11
670.5121499897598
 21
429.3502157011062
 31
0.0
  0
LINE
  5
190E
330
E5D
100
AcDbEntity
  8
寸法線1
 62
     0
370
    -2
100
AcDbLine
 10
403.0121499897596
 20
423.1002157011062
 30
0.0
 11
658.0121499897598
 21
423.1002157011062
 31
0.0
  0
INSERT
  5
190F
330
E5D
100
AcDbEntity
  8
寸法線1
 62
     0
370
    -2
100
AcDbBlockReference
  2
_Open
 10
390.5121499897596
 20
423.1002157011062
 30
0.0
 41
12.5
 42
12.5
 43
12.5
 50
180.0
  0
INSERT
  5
1910
330
E5D
100
AcDbEntity
  8
寸法線1
 62
     0
370
    -2
100
AcDbBlockReference
  2
_Open
 10
670.5121499897598
 20
423.1002157011062
 30
0.0
 41
12.5
 42
12.5
 43
12.5
  0
MTEXT
  5
1911
330
E5D
100
AcDbEntity
  8
寸法線1
 62
     0
100
AcDbMText
 10
530.5121499897595
 20
435.6002157011062
 30
0.0
 40
15.0
 41
0.0
 71
     5
 72
     1
  1
280
 73
     1
 44
1.0
1001
ACAD
1000
MTEXTBEGIN
1070
    73
1070
     1
1070
    44
1040
1.0
1070
    74
1070
     0
1000
MTEXTEND
  0
POINT
  5
1912
330
E5D
100
AcDbEntity
  8
Defpoints
 62
     0
100
AcDbPoint
 10
390.5121499897596
 20
423.1002157011062
 30
0.0
  0
POINT
  5
1913
330
E5D
100
AcDbEntity
  8
Defpoints
 62
     0
100
AcDbPoint
 10
670.5121499897598
 20
423.1002157011062
 30
0.0
  0
POINT
  5
1914
330
E5D
100
AcDbEntity
  8
Defpoints
 62
     0
100
AcDbPoint
 10
670.5121499897598
 20
423.1002157011062
 30
0.0
  0
ENDBLK
  5
E68
330
E5D
100
AcDbEntity
  8
0
100
AcDbBlockEnd
  0
BLOCK
  5
E7D
330
E73
100
AcDbEntity
  8
0
100
AcDbBlockBegin
  2
*D4
 70
     1
 10
0.0
 20
0.0
 30
0.0
  3
*D4
  1

  0
LINE
  5
1915
330
E73
100
AcDbEntity
  8
寸法線1
 62
     0
370
    -2
100
AcDbLine
 10
630.9305105996146
 20
364.8940015499002
 30
0.0
 11
629.6805105996146
 21
364.8940015499002
 31
0.0
  0
LINE
  5
1916
330
E73
100
AcDbEntity
  8
寸法線1
 62
     0
370
    -2
100
AcDbLine
 10
630.9305105996146
 20
714.8940015499
 30
0.0
 11
629.6805105996146
 21
714.8940015499
 31
0.0
  0
LINE
  5
1917
330
E73
100
AcDbEntity
  8
寸法線1
 62
     0
370
    -2
100
AcDbLine
 10
635.9305105996146
 20
377.3940015499002
 30
0.0
 11
635.9305105996146
 21
702.3940015499
 31
0.0
  0
INSERT
  5
1918
330
E73
100
AcDbEntity
  8
寸法線1
 62
     0
370
    -2
100
AcDbBlockReference
  2
_Open
 10
635.9305105996146
 20
364.8940015499002
 30
0.0
 41
12.5
 42
12.5
 43
12.5
 50
270.0
  0
INSERT
  5
1919
330
E73
100
AcDbEntity
  8
寸法線1
 62
     0
370
    -2
100
AcDbBlockReference
  2
_Open
 10
635.9305105996146
 20
714.8940015499
 30
0.0
 41
12.5
 42
12.5
 43
12.5
 50
90.0
  0
MTEXT
  5
191A
330
E73
100
AcDbEntity
  8
寸法線1
 62
     0
100
AcDbMText
 10
623.4305105996145
 20
539.8940015499001
 30
0.0
 40
15.0
 41
0.0
 71
     5
 72
     1
  1
350
 11
0.0000000000000001
 21
1.0
 31
0.0
 73
     1
 44
1.0
1001
ACAD
1000
MTEXTBEGIN
1070
    73
1070
     1
1070
    44
1040
1.0
1070
    74
1070
     0
1000
MTEXTEND
  0
POINT
  5
191B
330
E73
100
AcDbEntity
  8
Defpoints
 62
     0
100
AcDbPoint
 10
635.9305105996146
 20
364.8940015499002
 30
0.0
  0
POINT
  5
191C
330
E73
100
AcDbEntity
  8
Defpoints
 62
     0
100
AcDbPoint
 10
635.9305105996146
 20
714.8940015499
 30
0.0
  0
POINT
  5
191D
330
E73
100
AcDbEntity
  8
Defpoints
 62
     0
100
AcDbPoint
 10
635.9305105996146
 20
714.8940015499
 30
0.0
  0
ENDBLK
  5
E7E
330
E73
100
AcDbEntity
  8
0
100
AcDbBlockEnd
  0
BLOCK
  5
158C
330
1582
100
AcDbEntity
  8
0
100
AcDbBlockBegin
  2
*D5
 70
     1
 10
0.0
 20
0.0
 30
0.0
  3
*D5
  1

  0
LINE
  5
191E
330
1582
100
AcDbEntity
  8
寸法線1
 62
     0
370
    -2
100
AcDbLine
 10
340.5121499897595
 20
314.8940015499001
 30
0.0
 11
340.5121499897595
 21
233.6440015499
 31
0.0
  0
LINE
  5
191F
330
1582
100
AcDbEntity
  8
寸法線1
 62
     0
370
    -2
100
AcDbLine
 10
720.5121499897597
 20
314.8940015499001
 30
0.0
 11
720.5121499897597
 21
233.6440015499
 31
0.0
  0
LINE
  5
1920
330
1582
100
AcDbEntity
  8
寸法線1
 62
     0
370
    -2
100
AcDbLine
 10
353.0121499897595
 20
239.8940015499
 30
0.0
 11
708.0121499897597
 21
239.8940015499
 31
0.0
  0
INSERT
  5
1921
330
1582
100
AcDbEntity
  8
寸法線1
 62
     0
370
    -2
100
AcDbBlockReference
  2
_Open
 10
340.5121499897595
 20
239.8940015499
 30
0.0
 41
12.5
 42
12.5
 43
12.5
 50
180.0
  0
INSERT
  5
1922
330
1582
100
AcDbEntity
  8
寸法線1
 62
     0
370
    -2
100
AcDbBlockReference
  2
_Open
 10
720.5121499897597
 20
239.8940015499
 30
0.0
 41
12.5
 42
12.5
 43
12.5
  0
MTEXT
  5
1923
330
1582
100
AcDbEntity
  8
寸法線1
 62
     0
100
AcDbMText
 10
530.5121499897595
 20
252.3940015499
 30
0.0
 40
15.0
 41
0.0
 71
     5
 72
     1
  1
380
 73
     1
 44
1.0
1001
ACAD
1000
MTEXTBEGIN
1070
    73
1070
     1
1070
    44
1040
1.0
1070
    74
1070
     0
1000
MTEXTEND
  0
POINT
  5
1924
330
1582
100
AcDbEntity
  8
Defpoints
 62
     0
100
AcDbPoint
 10
340.5121499897595
 20
319.8940015499001
 30
0.0
  0
POINT
  5
1925
330
1582
100
AcDbEntity
  8
Defpoints
 62
     0
100
AcDbPoint
 10
720.5121499897597
 20
319.8940015499001
 30
0.0
  0
POINT
  5
1926
330
1582
100
AcDbEntity
  8
Defpoints
 62
     0
100
AcDbPoint
 10
720.5121499897597
 20
239.8940015499
 30
0.0
  0
ENDBLK
  5
158D
330
1582
100
AcDbEntity
  8
0
100
AcDbBlockEnd
  0
BLOCK
  5
1599
330
158F
100
AcDbEntity
  8
0
100
AcDbBlockBegin
  2
*D6
 70
     1
 10
0.0
 20
0.0
 30
0.0
  3
*D6
  1

  0
LINE
  5
1927
330
158F
100
AcDbEntity
  8
寸法線1
 62
     0
370
    -2
100
AcDbLine
 10
733.5121499897597
 20
759.8940015499
 30
0.0
 11
776.7621499897597
 21
759.8940015499
 31
0.0
  0
LINE
  5
1928
330
158F
100
AcDbEntity
  8
寸法線1
 62
     0
370
    -2
100
AcDbLine
 10
733.5121499897597
 20
319.8940015499001
 30
0.0
 11
776.7621499897597
 21
319.8940015499001
 31
0.0
  0
LINE
  5
1929
330
158F
100
AcDbEntity
  8
寸法線1
 62
     0
370
    -2
100
AcDbLine
 10
770.5121499897597
 20
747.3940015499
 30
0.0
 11
770.5121499897597
 21
332.3940015499001
 31
0.0
  0
INSERT
  5
192A
330
158F
100
AcDbEntity
  8
寸法線1
 62
     0
370
    -2
100
AcDbBlockReference
  2
_Open
 10
770.5121499897597
 20
759.8940015499
 30
0.0
 41
12.5
 42
12.5
 43
12.5
 50
90.0
  0
INSERT
  5
192B
330
158F
100
AcDbEntity
  8
寸法線1
 62
     0
370
    -2
100
AcDbBlockReference
  2
_Open
 10
770.5121499897597
 20
319.8940015499001
 30
0.0
 41
12.5
 42
12.5
 43
12.5
 50
270.0
  0
MTEXT
  5
192C
330
158F
100
AcDbEntity
  8
寸法線1
 62
     0
100
AcDbMText
 10
758.0121499897595
 20
539.8940015499001
 30
0.0
 40
15.0
 41
0.0
 71
     5
 72
     1
  1
440
 11
0.0000000000000001
 21
1.0
 31
0.0
 73
     1
 44
1.0
1001
ACAD
1000
MTEXTBEGIN
1070
    73
1070
     1
1070
    44
1040
1.0
1070
    74
1070
     0
1000
MTEXTEND
  0
POINT
  5
192D
330
158F
100
AcDbEntity
  8
Defpoints
 62
     0
100
AcDbPoint
 10
728.5121499897597
 20
759.8940015499
 30
0.0
  0
POINT
  5
192E
330
158F
100
AcDbEntity
  8
Defpoints
 62
     0
100
AcDbPoint
 10
728.5121499897597
 20
319.8940015499001
 30
0.0
  0
POINT
  5
192F
330
158F
100
AcDbEntity
  8
Defpoints
 62
     0
100
AcDbPoint
 10
770.5121499897597
 20
319.8940015499001
 30
0.0
  0
ENDBLK
  5
159A
330
158F
100
AcDbEntity
  8
0
100
AcDbBlockEnd
  0
BLOCK
  5
15A8
330
159C
100
AcDbEntity
  8
0
100
AcDbBlockBegin
  2
*D7
 70
     1
 10
0.0
 20
0.0
 30
0.0
  3
*D7
  1

  0
LINE
  5
33E5
330
159C
100
AcDbEntity
  8
寸法線1
 62
     0
370
    -2
100
AcDbLine
 10
731.4121499897596
 20
319.8940015499001
 30
0.0
 11
776.7621499897597
 21
319.8940015499001
 31
0.0
  0
LINE
  5
33E6
330
159C
100
AcDbEntity
  8
寸法線1
 62
     0
370
    -2
100
AcDbLine
 10
731.4121499897596
 20
289.8940015499001
 30
0.0
 11
776.7621499897597
 21
289.8940015499001
 31
0.0
  0
LINE
  5
33E7
330
159C
100
AcDbEntity
  8
寸法線1
 62
     0
370
    -2
100
AcDbLine
 10
770.5121499897597
 20
332.3940015499001
 30
0.0
 11
770.5121499897597
 21
344.8940015499001
 31
0.0
  0
LINE
  5
33E8
330
159C
100
AcDbEntity
  8
寸法線1
 62
     0
370
    -2
100
AcDbLine
 10
770.5121499897597
 20
277.3940015499001
 30
0.0
 11
770.5121499897597
 21
264.8940015499001
 31
0.0
  0
LINE
  5
33E9
330
159C
100
AcDbEntity
  8
寸法線1
 62
     0
370
    -2
100
AcDbLine
 10
770.5121499897597
 20
319.8940015499001
 30
0.0
 11
770.5121499897597
 21
289.8940015499001
 31
0.0
  0
INSERT
  5
33EA
330
159C
100
AcDbEntity
  8
寸法線1
 62
     0
370
    -2
100
AcDbBlockReference
  2
_Open
 10
770.5121499897597
 20
319.8940015499001
 30
0.0
 41
12.5
 42
12.5
 43
12.5
 50
270.0
  0
INSERT
  5
33EB
330
159C
100
AcDbEntity
  8
寸法線1
 62
     0
370
    -2
100
AcDbBlockReference
  2
_Open
 10
770.5121499897597
 20
289.8940015499001
 30
0.0
 41
12.5
 42
12.5
 43
12.5
 50
90.0
  0
MTEXT
  5
33EC
330
159C
100
AcDbEntity
  8
寸法線1
 62
     0
100
AcDbMText
 10
758.0121499897595
 20
304.8940015499002
 30
0.0
 40
15.0
 41
0.0
 71
     5
 72
     1
  1
30
 11
0.0000000000000001
 21
1.0
 31
0.0
 73
     1
 44
1.0
  0
POINT
  5
33ED
330
159C
100
AcDbEntity
  8
Defpoints
 62
     0
100
AcDbPoint
 10
726.4121499897596
 20
319.8940015499001
 30
0.0
  0
POINT
  5
33EE
330
159C
100
AcDbEntity
  8
Defpoints
 62
     0
100
AcDbPoint
 10
726.4121499897596
 20
289.8940015499001
 30
0.0
  0
POINT
  5
33EF
330
159C
100
AcDbEntity
  8
Defpoints
 62
     0
100
AcDbPoint
 10
770.5121499897597
 20
289.8940015499001
 30
0.0
  0
ENDBLK
  5
15A9
330
159C
100
AcDbEntity
  8
0
100
AcDbBlockEnd
  0
BLOCK
  5
15C2
330
15B8
100
AcDbEntity
  8
0
100
AcDbBlockBegin
  2
*D8
 70
     1
 10
0.0
 20
0.0
 30
0.0
  3
*D8
  1

  0
LINE
  5
33DC
330
15B8
100
AcDbEntity
  8
寸法線1
 62
     0
370
    -2
100
AcDbLine
 10
725.5121499897597
 20
762.8940015499
 30
0.0
 11
811.8754086312184
 21
762.8940015498999
 31
0.0
  0
LINE
  5
33DD
330
15B8
100
AcDbEntity
  8
寸法線1
 62
     0
370
    -2
100
AcDbLine
 10
720.5121499897597
 20
289.8940015499001
 30
0.0
 11
811.8754086312184
 21
289.8940015499001
 31
0.0
  0
LINE
  5
33DE
330
15B8
100
AcDbEntity
  8
寸法線1
 62
     0
370
    -2
100
AcDbLine
 10
805.6254086312184
 20
750.3940015498999
 30
0.0
 11
805.6254086312184
 21
302.3940015499001
 31
0.0
  0
INSERT
  5
33DF
330
15B8
100
AcDbEntity
  8
寸法線1
 62
     0
370
    -2
100
AcDbBlockReference
  2
_Open
 10
805.6254086312184
 20
762.8940015498999
 30
0.0
 41
12.5
 42
12.5
 43
12.5
 50
90.0
  0
INSERT
  5
33E0
330
15B8
100
AcDbEntity
  8
寸法線1
 62
     0
370
    -2
100
AcDbBlockReference
  2
_Open
 10
805.6254086312184
 20
289.8940015499001
 30
0.0
 41
12.5
 42
12.5
 43
12.5
 50
270.0
  0
MTEXT
  5
33E1
330
15B8
100
AcDbEntity
  8
寸法線1
 62
     0
100
AcDbMText
 10
793.1254086312183
 20
540.5135305938647
 30
0.0
 40
15.0
 41
0.0
 71
     5
 72
     1
  1
473
 11
0.0000000000000001
 21
1.0
 31
0.0
 73
     1
 44
1.0
  0
POINT
  5
33E2
330
15B8
100
AcDbEntity
  8
Defpoints
 62
     0
100
AcDbPoint
 10
720.5121499897597
 20
762.8940015499
 30
0.0
  0
POINT
  5
33E3
330
15B8
100
AcDbEntity
  8
Defpoints
 62
     0
100
AcDbPoint
 10
715.5121499897596
 20
289.8940015499001
 30
0.0
  0
POINT
  5
33E4
330
15B8
100
AcDbEntity
  8
Defpoints
 62
     0
100
AcDbPoint
 10
805.6254086312184
 20
289.8940015499001
 30
0.0
  0
ENDBLK
  5
15C3
330
15B8
100
AcDbEntity
  8
0
100
AcDbBlockEnd
  0
BLOCK
  5
15CF
330
15C5
100
AcDbEntity
  8
0
100
AcDbBlockBegin
  2
*D9
 70
     1
 10
0.0
 20
0.0
 30
0.0
  3
*D9
  1

  0
LINE
  5
194D
330
15C5
100
AcDbEntity
  8
寸法線1
 62
     0
370
    -2
100
AcDbLine
 10
330.5121499897598
 20
1331.832009914906
 30
0.0
 11
284.2621499897596
 21
1331.832009914906
 31
0.0
  0
LINE
  5
194E
330
15C5
100
AcDbEntity
  8
寸法線1
 62
     0
370
    -2
100
AcDbLine
 10
330.5121499897598
 20
931.832009914906
 30
0.0
 11
284.2621499897596
 21
931.832009914906
 31
0.0
  0
LINE
  5
194F
330
15C5
100
AcDbEntity
  8
寸法線1
 62
     0
370
    -2
100
AcDbLine
 10
290.5121499897596
 20
1319.332009914906
 30
0.0
 11
290.5121499897596
 21
944.332009914906
 31
0.0
  0
INSERT
  5
1950
330
15C5
100
AcDbEntity
  8
寸法線1
 62
     0
370
    -2
100
AcDbBlockReference
  2
_Open
 10
290.5121499897596
 20
1331.832009914906
 30
0.0
 41
12.5
 42
12.5
 43
12.5
 50
90.0
  0
INSERT
  5
1951
330
15C5
100
AcDbEntity
  8
寸法線1
 62
     0
370
    -2
100
AcDbBlockReference
  2
_Open
 10
290.5121499897596
 20
931.832009914906
 30
0.0
 41
12.5
 42
12.5
 43
12.5
 50
270.0
  0
MTEXT
  5
1952
330
15C5
100
AcDbEntity
  8
寸法線1
 62
     0
100
AcDbMText
 10
278.0121499897595
 20
1131.832009914906
 30
0.0
 40
15.0
 41
0.0
 71
     5
 72
     1
  1
400
 11
0.0000000000000001
 21
1.0
 31
0.0
 73
     1
 44
1.0
1001
ACAD
1000
MTEXTBEGIN
1070
    73
1070
     1
1070
    44
1040
1.0
1070
    74
1070
     0
1000
MTEXTEND
  0
POINT
  5
1953
330
15C5
100
AcDbEntity
  8
Defpoints
 62
     0
100
AcDbPoint
 10
335.5121499897598
 20
1331.832009914906
 30
0.0
  0
POINT
  5
1954
330
15C5
100
AcDbEntity
  8
Defpoints
 62
     0
100
AcDbPoint
 10
335.5121499897598
 20
931.832009914906
 30
0.0
  0
POINT
  5
1955
330
15C5
100
AcDbEntity
  8
Defpoints
 62
     0
100
AcDbPoint
 10
290.5121499897596
 20
931.832009914906
 30
0.0
  0
ENDBLK
  5
15D0
330
15C5
100
AcDbEntity
  8
0
100
AcDbBlockEnd
  0
BLOCK
  5
15DE
330
15D3
100
AcDbEntity
  8
0
100
AcDbBlockBegin
  2
*D10
 70
     1
 10
0.0
 20
0.0
 30
0.0
  3
*D10
  1

  0
LINE
  5
2CD3
330
15D3
100
AcDbEntity
  8
寸法線1
 62
     0
370
    -2
100
AcDbLine
 10
330.5121499897598
 20
931.832009914906
 30
0.0
 11
284.2621499897596
 21
931.832009914906
 31
0.0
  0
LINE
  5
2CD4
330
15D3
100
AcDbEntity
  8
寸法線1
 62
     0
370
    -2
100
AcDbLine
 10
330.5121499897596
 20
896.8320099149059
 30
0.0
 11
284.2621499897596
 21
896.8320099149059
 31
0.0
  0
LINE
  5
2CD5
330
15D3
100
AcDbEntity
  8
寸法線1
 62
     0
370
    -2
100
AcDbLine
 10
290.5121499897596
 20
944.332009914906
 30
0.0
 11
290.5121499897596
 21
956.832009914906
 31
0.0
  0
LINE
  5
2CD6
330
15D3
100
AcDbEntity
  8
寸法線1
 62
     0
370
    -2
100
AcDbLine
 10
290.5121499897595
 20
884.3320099149059
 30
0.0
 11
290.5121499897595
 21
871.8320099149059
 31
0.0
  0
LINE
  5
2CD7
330
15D3
100
AcDbEntity
  8
寸法線1
 62
     0
370
    -2
100
AcDbLine
 10
290.5121499897596
 20
931.832009914906
 30
0.0
 11
290.5121499897596
 21
896.8320099149059
 31
0.0
  0
INSERT
  5
2CD8
330
15D3
100
AcDbEntity
  8
寸法線1
 62
     0
370
    -2
100
AcDbBlockReference
  2
_Open
 10
290.5121499897596
 20
931.832009914906
 30
0.0
 41
12.5
 42
12.5
 43
12.5
 50
270.0
  0
INSERT
  5
2CD9
330
15D3
100
AcDbEntity
  8
寸法線1
 62
     0
370
    -2
100
AcDbBlockReference
  2
_Open
 10
290.5121499897596
 20
896.8320099149059
 30
0.0
 41
12.5
 42
12.5
 43
12.5
 50
90.0
  0
MTEXT
  5
2CDA
330
15D3
100
AcDbEntity
  8
寸法線1
 62
     0
100
AcDbMText
 10
278.0121499897594
 20
913.3856389352896
 30
0.0
 40
15.0
 41
0.0
 71
     5
 72
     1
  1
35
 11
0.0000000000000001
 21
1.0
 31
0.0
 73
     1
 44
1.0
  0
POINT
  5
2CDB
330
15D3
100
AcDbEntity
  8
Defpoints
 62
     0
100
AcDbPoint
 10
335.5121499897598
 20
931.832009914906
 30
0.0
  0
POINT
  5
2CDC
330
15D3
100
AcDbEntity
  8
Defpoints
 62
     0
100
AcDbPoint
 10
335.5121499897596
 20
896.8320099149059
 30
0.0
  0
POINT
  5
2CDD
330
15D3
100
AcDbEntity
  8
Defpoints
 62
     0
100
AcDbPoint
 10
290.5121499897596
 20
896.8320099149059
 30
0.0
  0
ENDBLK
  5
15DF
330
15D3
100
AcDbEntity
  8
0
100
AcDbBlockEnd
  0
BLOCK
  5
1607
330
15FD
100
AcDbEntity
  8
0
100
AcDbBlockBegin
  2
*D11
 70
     1
 10
0.0
 20
0.0
 30
0.0
  3
*D11
  1

  0
LINE
  5
1969
330
15FD
100
AcDbEntity
  8
寸法線1
 62
     0
370
    -2
100
AcDbLine
 10
1416.514112395469
 20
769.8940015499
 30
0.0
 11
1416.514112395469
 21
816.1440015499
 31
0.0
  0
LINE
  5
196A
330
15FD
100
AcDbEntity
  8
寸法線1
 62
     0
370
    -2
100
AcDbLine
 10
981.5141123954687
 20
769.8940015499
 30
0.0
 11
981.5141123954687
 21
816.1440015499
 31
0.0
  0
LINE
  5
196B
330
15FD
100
AcDbEntity
  8
寸法線1
 62
     0
370
    -2
100
AcDbLine
 10
1404.014112395469
 20
809.8940015499
 30
0.0
 11
994.0141123954687
 21
809.8940015499
 31
0.0
  0
INSERT
  5
196C
330
15FD
100
AcDbEntity
  8
寸法線1
 62
     0
370
    -2
100
AcDbBlockReference
  2
_Open
 10
1416.514112395469
 20
809.8940015499
 30
0.0
 41
12.5
 42
12.5
 43
12.5
  0
INSERT
  5
196D
330
15FD
100
AcDbEntity
  8
寸法線1
 62
     0
370
    -2
100
AcDbBlockReference
  2
_Open
 10
981.5141123954687
 20
809.8940015499
 30
0.0
 41
12.5
 42
12.5
 43
12.5
 50
180.0
  0
MTEXT
  5
196E
330
15FD
100
AcDbEntity
  8
寸法線1
 62
     0
100
AcDbMText
 10
1199.014112395469
 20
822.3940015499
 30
0.0
 40
15.0
 41
0.0
 71
     5
 72
     1
  1
435
 73
     1
 44
1.0
1001
ACAD
1000
MTEXTBEGIN
1070
    73
1070
     1
1070
    44
1040
1.0
1070
    74
1070
     0
1000
MTEXTEND
  0
POINT
  5
196F
330
15FD
100
AcDbEntity
  8
Defpoints
 62
     0
100
AcDbPoint
 10
1416.514112395469
 20
764.8940015499
 30
0.0
  0
POINT
  5
1970
330
15FD
100
AcDbEntity
  8
Defpoints
 62
     0
100
AcDbPoint
 10
981.5141123954687
 20
764.8940015499
 30
0.0
  0
POINT
  5
1971
330
15FD
100
AcDbEntity
  8
Defpoints
 62
     0
100
AcDbPoint
 10
981.5141123954687
 20
809.8940015499
 30
0.0
  0
ENDBLK
  5
1608
330
15FD
100
AcDbEntity
  8
0
100
AcDbBlockEnd
  0
BLOCK
  5
1616
330
160A
100
AcDbEntity
  8
0
100
AcDbBlockBegin
  2
*D12
 70
     1
 10
0.0
 20
0.0
 30
0.0
  3
*D12
  1

  0
LINE
  5
1972
330
160A
100
AcDbEntity
  8
寸法線1
 62
     0
370
    -2
100
AcDbLine
 10
981.5141123954687
 20
767.8940015499001
 30
0.0
 11
981.5141123954687
 21
816.1440015499
 31
0.0
  0
LINE
  5
1973
330
160A
100
AcDbEntity
  8
寸法線1
 62
     0
370
    -2
100
AcDbLine
 10
954.5141123954687
 20
677.6843708374861
 30
0.0
 11
954.5141123954687
 21
816.1440015499
 31
0.0
  0
LINE
  5
1974
330
160A
100
AcDbEntity
  8
寸法線1
 62
     0
370
    -2
100
AcDbLine
 10
994.0141123954687
 20
809.8940015499
 30
0.0
 11
1006.514112395467
 21
809.8940015499
 31
0.0
  0
LINE
  5
1975
330
160A
100
AcDbEntity
  8
寸法線1
 62
     0
370
    -2
100
AcDbLine
 10
942.0141123954687
 20
809.8940015499
 30
0.0
 11
894.5141123954689
 21
809.8940015499
 31
0.0
  0
LINE
  5
1976
330
160A
100
AcDbEntity
  8
寸法線1
 62
     0
370
    -2
100
AcDbLine
 10
981.5141123954687
 20
809.8940015499
 30
0.0
 11
954.5141123954687
 21
809.8940015499
 31
0.0
  0
INSERT
  5
1977
330
160A
100
AcDbEntity
  8
寸法線1
 62
     0
370
    -2
100
AcDbBlockReference
  2
_Open
 10
981.5141123954687
 20
809.8940015499
 30
0.0
 41
12.5
 42
12.5
 43
12.5
 50
180.0
  0
INSERT
  5
1978
330
160A
100
AcDbEntity
  8
寸法線1
 62
     0
370
    -2
100
AcDbBlockReference
  2
_Open
 10
954.5141123954687
 20
809.8940015499
 30
0.0
 41
12.5
 42
12.5
 43
12.5
  0
MTEXT
  5
1979
330
160A
100
AcDbEntity
  8
寸法線1
 62
     0
100
AcDbMText
 10
912.014112395469
 20
822.3940015499
 30
0.0
 40
15.0
 41
0.0
 71
     5
 72
     1
  1
27
 73
     1
 44
1.0
1001
ACAD
1000
MTEXTBEGIN
1070
    73
1070
     1
1070
    44
1040
1.0
1070
    74
1070
     0
1000
MTEXTEND
  0
POINT
  5
197A
330
160A
100
AcDbEntity
  8
Defpoints
 62
     0
100
AcDbPoint
 10
981.5141123954687
 20
762.8940015499002
 30
0.0
  0
POINT
  5
197B
330
160A
100
AcDbEntity
  8
Defpoints
 62
     0
100
AcDbPoint
 10
954.5141123954687
 20
672.6843708374859
 30
0.0
  0
POINT
  5
197C
330
160A
100
AcDbEntity
  8
Defpoints
 62
     0
100
AcDbPoint
 10
954.5141123954687
 20
809.8940015499
 30
0.0
  0
ENDBLK
  5
1617
330
160A
100
AcDbEntity
  8
0
100
AcDbBlockEnd
  0
BLOCK
  5
16E1
330
16D7
100
AcDbEntity
  8
0
100
AcDbBlockBegin
  2
*D13
 70
     1
 10
0.0
 20
0.0
 30
0.0
  3
*D13
  1

  0
LINE
  5
295C
330
16D7
100
AcDbEntity
  8
寸法線1
 62
     0
370
    -2
100
AcDbLine
 10
1352.812149989759
 20
423.1002157011062
 30
0.0
 11
1027.812149989759
 21
423.1002157011062
 31
0.0
  0
INSERT
  5
295D
330
16D7
100
AcDbEntity
  8
寸法線1
 62
     0
370
    -2
100
AcDbBlockReference
  2
_Open
 10
1365.312149989759
 20
423.1002157011062
 30
0.0
 41
12.5
 42
12.5
 43
12.5
  0
INSERT
  5
295E
330
16D7
100
AcDbEntity
  8
寸法線1
 62
     0
370
    -2
100
AcDbBlockReference
  2
_Open
 10
1015.312149989759
 20
423.1002157011062
 30
0.0
 41
12.5
 42
12.5
 43
12.5
 50
180.0
  0
MTEXT
  5
295F
330
16D7
100
AcDbEntity
  8
寸法線1
 62
     0
100
AcDbMText
 10
1190.312149989759
 20
435.6002157011062
 30
0.0
 40
15.0
 41
0.0
 71
     5
 72
     1
  1
350
 73
     1
 44
1.0
  0
POINT
  5
2960
330
16D7
100
AcDbEntity
  8
Defpoints
 62
     0
100
AcDbPoint
 10
1365.312149989759
 20
545.3940015499001
 30
0.0
  0
POINT
  5
2961
330
16D7
100
AcDbEntity
  8
Defpoints
 62
     0
100
AcDbPoint
 10
1015.312149989759
 20
545.3940015499001
 30
0.0
  0
POINT
  5
2962
330
16D7
100
AcDbEntity
  8
Defpoints
 62
     0
100
AcDbPoint
 10
1015.312149989759
 20
423.1002157011062
 30
0.0
  0
ENDBLK
  5
16E2
330
16D7
100
AcDbEntity
  8
0
100
AcDbBlockEnd
  0
BLOCK
  5
2922
330
2918
100
AcDbEntity
  8
0
100
AcDbBlockBegin
  2
*D14
 70
     1
 10
0.0
 20
0.0
 30
0.0
  3
*D14
  1

  0
LINE
  5
292D
330
2918
100
AcDbEntity
  8
寸法線1
 62
     0
370
    -2
100
AcDbLine
 10
976.5141123954688
 20
757.8940015499
 30
0.0
 11
898.2660748011785
 21
757.8940015499
 31
0.0
  0
LINE
  5
292E
330
2918
100
AcDbEntity
  8
寸法線1
 62
     0
370
    -2
100
AcDbLine
 10
976.5141123954688
 20
324.8940015499001
 30
0.0
 11
898.2660748011785
 21
324.8940015499001
 31
0.0
  0
LINE
  5
292F
330
2918
100
AcDbEntity
  8
寸法線1
 62
     0
370
    -2
100
AcDbLine
 10
904.5160748011785
 20
745.3940015499
 30
0.0
 11
904.5160748011785
 21
337.3940015499001
 31
0.0
  0
INSERT
  5
2930
330
2918
100
AcDbEntity
  8
寸法線1
 62
     0
370
    -2
100
AcDbBlockReference
  2
_Open
 10
904.5160748011785
 20
757.8940015499
 30
0.0
 41
12.5
 42
12.5
 43
12.5
 50
90.0
  0
INSERT
  5
2931
330
2918
100
AcDbEntity
  8
寸法線1
 62
     0
370
    -2
100
AcDbBlockReference
  2
_Open
 10
904.5160748011785
 20
324.8940015499001
 30
0.0
 41
12.5
 42
12.5
 43
12.5
 50
270.0
  0
MTEXT
  5
2932
330
2918
100
AcDbEntity
  8
寸法線1
 62
     0
100
AcDbMText
 10
892.0160748011785
 20
541.3940015499004
 30
0.0
 40
15.0
 41
0.0
 71
     5
 72
     1
  1
433
 11
0.0000000000000001
 21
1.0
 31
0.0
 73
     1
 44
1.0
  0
POINT
  5
2933
330
2918
100
AcDbEntity
  8
Defpoints
 62
     0
100
AcDbPoint
 10
981.514112395469
 20
757.8940015499
 30
0.0
  0
POINT
  5
2934
330
2918
100
AcDbEntity
  8
Defpoints
 62
     0
100
AcDbPoint
 10
981.514112395469
 20
324.8940015499001
 30
0.0
  0
POINT
  5
2935
330
2918
100
AcDbEntity
  8
Defpoints
 62
     0
100
AcDbPoint
 10
904.5160748011785
 20
324.8940015499001
 30
0.0
  0
ENDBLK
  5
2923
330
2918
100
AcDbEntity
  8
0
100
AcDbBlockEnd
  0
BLOCK
  5
2A64
330
2A03
100
AcDbEntity
  8
0
100
AcDbBlockBegin
  2
Ａ－３　アンナカ用紙
 70
     0
 10
0.0
 20
0.0
 30
0.0
  3
Ａ－３　アンナカ用紙
  1

  0
LINE
  5
2A04
330
2A03
100
AcDbEntity
  8
0
370
    40
100
AcDbLine
 10
409.9999999999999
 20
10.0
 30
0.0
 11
409.9999999999999
 21
38.0
 31
0.0
  0
LINE
  5
2A05
330
2A03
100
AcDbEntity
  8
0
370
    60
100
AcDbLine
 10
409.9999999999999
 20
287.0
 30
0.0
 11
24.99999999999994
 21
287.0
 31
0.0
  0
LINE
  5
2A06
330
2A03
100
AcDbEntity
  8
0
370
    40
100
AcDbLine
 10
229.9999999999999
 20
10.0
 30
0.0
 11
409.9999999999999
 21
10.0
 31
0.0
  0
LINE
  5
2A07
330
2A03
100
AcDbEntity
  8
0
370
    60
100
AcDbLine
 10
24.99999999999994
 20
287.0
 30
0.0
 11
25.0
 21
10.0
 31
0.0
  0
LINE
  5
2A08
330
2A03
100
AcDbEntity
  8
0
370
    40
100
AcDbLine
 10
304.9999999999999
 20
22.0
 30
0.0
 11
409.9999999999999
 21
22.0
 31
0.0
  0
LINE
  5
2A09
330
2A03
100
AcDbEntity
  8
0
370
    40
100
AcDbLine
 10
304.9999999999999
 20
30.0
 30
0.0
 11
409.9999999999999
 21
30.0
 31
0.0
  0
LINE
  5
2A0A
330
2A03
100
AcDbEntity
  8
0
370
    40
100
AcDbLine
 10
229.9999999999999
 20
38.0
 30
0.0
 11
409.9999999999999
 21
38.0
 31
0.0
  0
LINE
  5
2A0B
330
2A03
100
AcDbEntity
  8
0
370
    40
100
AcDbLine
 10
304.9999999999999
 20
10.0
 30
0.0
 11
304.9999999999999
 21
38.0
 31
0.0
  0
LINE
  5
2A0C
330
2A03
100
AcDbEntity
  8
0
370
    40
100
AcDbLine
 10
229.9999999999999
 20
10.0
 30
0.0
 11
229.9999999999999
 21
38.0
 31
0.0
  0
LINE
  5
2A0D
330
2A03
100
AcDbEntity
  8
0
370
    40
100
AcDbLine
 10
328.9999999999999
 20
30.0
 30
0.0
 11
328.9999999999999
 21
38.0
 31
0.0
  0
LINE
  5
2A0E
330
2A03
100
AcDbEntity
  8
0
370
    15
100
AcDbLine
 10
336.9999999999999
 20
30.0
 30
0.0
 11
336.9999999999999
 21
38.0
 31
0.0
  0
LINE
  5
2A0F
330
2A03
100
AcDbEntity
  8
0
370
    40
100
AcDbLine
 10
344.9999999999999
 20
30.0
 30
0.0
 11
344.9999999999999
 21
38.0
 31
0.0
  0
LINE
  5
2A10
330
2A03
100
AcDbEntity
  8
0
370
    15
100
AcDbLine
 10
352.9999999999999
 20
30.0
 30
0.0
 11
352.9999999999999
 21
38.0
 31
0.0
  0
LINE
  5
2A11
330
2A03
100
AcDbEntity
  8
0
370
    40
100
AcDbLine
 10
367.9999999999999
 20
30.0
 30
0.0
 11
367.9999999999999
 21
38.0
 31
0.0
  0
LINE
  5
2A12
330
2A03
100
AcDbEntity
  8
0
370
    15
100
AcDbLine
 10
375.9999999999999
 20
30.0
 30
0.0
 11
375.9999999999999
 21
38.0
 31
0.0
  0
LINE
  5
2A13
330
2A03
100
AcDbEntity
  8
0
370
    40
100
AcDbLine
 10
393.9999999999999
 20
30.0
 30
0.0
 11
393.9999999999999
 21
38.0
 31
0.0
  0
LINE
  5
2A14
330
2A03
100
AcDbEntity
  8
0
370
    15
100
AcDbLine
 10
401.9999999999999
 20
30.0
 30
0.0
 11
401.9999999999999
 21
38.0
 31
0.0
  0
LINE
  5
2A15
330
2A03
100
AcDbEntity
  8
0
370
    40
100
AcDbLine
 10
362.9999999999999
 20
10.0
 30
0.0
 11
362.9999999999999
 21
30.0
 31
0.0
  0
LINE
  5
2A16
330
2A03
100
AcDbEntity
  8
0
100
AcDbLine
 10
304.9999999999999
 20
30.0
 30
0.0
 11
230.0
 21
30.00000000000005
 31
0.0
  0
LINE
  5
2A17
330
2A03
100
AcDbEntity
  8
0
100
AcDbLine
 10
304.9999999999999
 20
34.0
 30
0.0
 11
230.0
 21
34.00000000000005
 31
0.0
  0
LINE
  5
2A18
330
2A03
100
AcDbEntity
  8
0
100
AcDbLine
 10
304.9999999999999
 20
26.0
 30
0.0
 11
229.9999999999999
 21
26.00000000000005
 31
0.0
  0
LINE
  5
2A19
330
2A03
100
AcDbEntity
  8
0
100
AcDbLine
 10
229.9999999999999
 20
14.0
 30
0.0
 11
304.9999999999999
 21
14.0
 31
0.0
  0
LINE
  5
2A1A
330
2A03
100
AcDbEntity
  8
0
100
AcDbLine
 10
304.9999999999999
 20
34.0
 30
0.0
 11
328.9999999999999
 21
34.0
 31
0.0
  0
LINE
  5
2A1B
330
2A03
100
AcDbEntity
  8
0
370
    40
100
AcDbLine
 10
281.9999999999999
 20
10.0
 30
0.0
 11
281.9999999999999
 21
38.0
 31
0.0
  0
LINE
  5
2A1C
330
2A03
100
AcDbEntity
  8
0
100
AcDbLine
 10
281.9999999999999
 20
18.0
 30
0.0
 11
304.9999999999999
 21
18.0
 31
0.0
  0
LINE
  5
2A1D
330
2A03
100
AcDbEntity
  8
0
100
AcDbLine
 10
281.9999999999999
 20
22.0
 30
0.0
 11
304.9999999999999
 21
22.0
 31
0.0
  0
LINE
  5
2A1E
330
2A03
100
AcDbEntity
  8
0
100
AcDbLine
 10
268.9999999999999
 20
10.0
 30
0.0
 11
268.9999999999999
 21
26.00000000000003
 31
0.0
  0
LINE
  5
2A1F
330
2A03
100
AcDbEntity
  8
0
100
AcDbLine
 10
255.9999999999999
 20
10.0
 30
0.0
 11
255.9999999999999
 21
26.00000000000004
 31
0.0
  0
LINE
  5
2A20
330
2A03
100
AcDbEntity
  8
0
100
AcDbLine
 10
242.9999999999999
 20
10.0
 30
0.0
 11
242.9999999999999
 21
26.00000000000004
 31
0.0
  0
LINE
  5
2A21
330
2A03
100
AcDbEntity
  8
0
100
AcDbLine
 10
293.9999999999999
 20
10.0
 30
0.0
 11
294.0
 21
34.00000000000001
 31
0.0
  0
LINE
  5
2A22
330
2A03
100
AcDbEntity
  8
0
100
AcDbLine
 10
273.9999999999999
 20
26.00000000000002
 30
0.0
 11
273.9999999999999
 21
38.0
 31
0.0
  0
LINE
  5
2A23
330
2A03
100
AcDbEntity
  8
0
100
AcDbLine
 10
309.9999999999999
 20
22.0
 30
0.0
 11
309.9999999999999
 21
30.0
 31
0.0
  0
LINE
  5
2A24
330
2A03
100
AcDbEntity
  8
0
100
AcDbLine
 10
367.9999999999999
 20
10.0
 30
0.0
 11
367.9999999999999
 21
30.0
 31
0.0
  0
MTEXT
  5
2A25
330
2A03
100
AcDbEntity
  8
0
100
AcDbMText
 10
231.3237766005161
 20
29.2480664031666
 30
0.0
 40
2.5
 41
10.9292
 71
     1
 72
     5
  1
記号
 73
     1
 44
1.0
1001
ACAD
1000
MTEXTBEGIN
1070
    73
1070
     1
1070
    44
1040
1.0
1070
    74
1070
     0
1000
MTEXTEND
  0
MTEXT
  5
2A26
330
2A03
100
AcDbEntity
  8
0
100
AcDbMText
 10
239.9664659250005
 20
29.24806571161741
 30
0.0
 40
2.5
 41
9.8658
 71
     1
 72
     5
  1
日　付
 73
     1
 44
1.0
1001
ACAD
1000
MTEXTBEGIN
1070
    73
1070
     1
1070
    44
1040
1.0
1070
    74
1070
     0
1000
MTEXTEND
  0
MTEXT
  5
2A27
330
2A03
100
AcDbEntity
  8
0
100
AcDbMText
 10
256.5079356953286
 20
29.24806709471579
 30
0.0
 40
2.5
 41
16.4233
 71
     1
 72
     5
  1
訂　　正
 73
     1
 44
1.0
1001
ACAD
1000
MTEXTBEGIN
1070
    73
1070
     1
1070
    44
1040
1.0
1070
    74
1070
     0
1000
MTEXTEND
  0
MTEXT
  5
2A28
330
2A03
100
AcDbEntity
  8
0
100
AcDbMText
 10
275.3533972540202
 20
29.30711986558481
 30
0.0
 40
2.5
 41
10.6929
 71
     1
 72
     5
  1
担当
 73
     1
 44
1.0
1001
ACAD
1000
MTEXTBEGIN
1070
    73
1070
     1
1070
    44
1040
1.0
1070
    74
1070
     0
1000
MTEXTEND
  0
LINE
  5
2A29
330
2A03
100
AcDbEntity
  8
0
100
AcDbLine
 10
238.0
 20
26.00000000000004
 30
0.0
 11
237.9999999999999
 21
38.0
 31
0.0
  0
LINE
  5
2A2A
330
2A03
100
AcDbEntity
  8
0
100
AcDbLine
 10
250.0
 20
26.00000000000004
 30
0.0
 11
249.9999999999999
 21
38.0
 31
0.0
  0
LINE
  5
2A2B
330
2A03
100
AcDbEntity
  8
0
100
AcDbLine
 10
231.9999999999999
 20
34.00000000000005
 30
0.0
 11
235.9999999999999
 21
34.00000000000005
 31
0.0
  0
MTEXT
  5
2A2C
330
2A03
100
AcDbEntity
  8
0
100
AcDbMText
 10
232.1683446627442
 20
13.36253702110434
 30
0.0
 40
2.5
 41
15.3009
 71
     1
 72
     5
  1
設　計
 73
     1
 44
1.0
1001
ACAD
1000
MTEXTBEGIN
1070
    73
1070
     1
1070
    44
1040
1.0
1070
    74
1070
     0
1000
MTEXTEND
  0
MTEXT
  5
2A2D
330
2A03
100
AcDbEntity
  8
0
100
AcDbMText
 10
245.2242900941809
 20
13.2444294047184
 30
0.0
 40
2.5
 41
13.2332
 71
     1
 72
     5
  1
製　図
 73
     1
 44
1.0
1001
ACAD
1000
MTEXTBEGIN
1070
    73
1070
     1
1070
    44
1040
1.0
1070
    74
1070
     0
1000
MTEXTEND
  0
MTEXT
  5
2A2E
330
2A03
100
AcDbEntity
  8
0
100
AcDbMText
 10
258.2802355256168
 20
13.24442871316921
 30
0.0
 40
2.5
 41
12.2289
 71
     1
 72
     5
  1
検　図
 73
     1
 44
1.0
1001
ACAD
1000
MTEXTBEGIN
1070
    73
1070
     1
1070
    44
1040
1.0
1070
    74
1070
     0
1000
MTEXTEND
  0
MTEXT
  5
2A2F
330
2A03
100
AcDbEntity
  8
0
100
AcDbMText
 10
271.2180283046965
 20
13.24442871316921
 30
0.0
 40
2.5
 41
8.5661
 71
     1
 72
     5
  1
承　認
 73
     1
 44
1.0
1001
ACAD
1000
MTEXTBEGIN
1070
    73
1070
     1
1070
    44
1040
1.0
1070
    74
1070
     0
1000
MTEXTEND
  0
LINE
  5
2A30
330
2A03
100
AcDbEntity
  8
0
370
    60
100
AcDbLine
 10
409.9999999999999
 20
10.0
 30
0.0
 11
409.9999999999999
 21
287.0
 31
0.0
  0
LINE
  5
2A31
330
2A03
100
AcDbEntity
  8
0
370
    60
100
AcDbLine
 10
25.0
 20
10.0
 30
0.0
 11
409.9999999999999
 21
10.0
 31
0.0
  0
MTEXT
  5
2A32
330
2A03
100
AcDbEntity
  8
0
100
AcDbMText
 10
286.8057466895101
 20
37.28748650804993
 30
0.0
 40
2.5
 41
21.2646
 71
     1
 72
     5
  1
寸 法 差
 73
     1
 44
1.0
1001
ACAD
1000
MTEXTBEGIN
1070
    73
1070
     1
1070
    44
1040
1.0
1070
    74
1070
     0
1000
MTEXTEND
  0
TEXT
  5
2A33
330
2A03
100
AcDbEntity
  8
0
100
AcDbText
 10
294.5342705509705
 20
30.5835318381587
 30
0.0
 40
2.5
  1
±
100
AcDbText
  0
TEXT
  5
2A34
330
2A03
100
AcDbEntity
  8
0
100
AcDbText
 10
297.0342705509705
 20
30.5835318381587
 30
0.0
 40
2.5
  1
0.05
100
AcDbText
  0
TEXT
  5
2A35
330
2A03
100
AcDbEntity
  8
0
100
AcDbText
 10
292.5686336695338
 20
26.86342893006538
 30
0.0
 40
2.5
  1
　 0.1
100
AcDbText
  0
TEXT
  5
2A36
330
2A03
100
AcDbEntity
  8
0
100
AcDbText
 10
292.3899411426205
 20
22.69676226339872
 30
0.0
 40
2.5
  1
　 0.15
100
AcDbText
  0
TEXT
  5
2A37
330
2A03
100
AcDbEntity
  8
0
100
AcDbText
 10
292.4792879083246
 20
18.61940848675658
 30
0.0
 40
2.5
  1
　 0.2
100
AcDbText
  0
TEXT
  5
2A38
330
2A03
100
AcDbEntity
  8
0
100
AcDbText
 10
292.5686346740281
 20
14.72068049016351
 30
0.0
 40
2.5
  1
　 0.3
100
AcDbText
  0
TEXT
  5
2A39
330
2A03
100
AcDbEntity
  8
0
100
AcDbText
 10
292.4792879083246
 20
10.7326389119966
 30
0.0
 40
2.5
  1
　 0.5
100
AcDbText
  0
TEXT
  5
2A3A
330
2A03
100
AcDbEntity
  8
0
100
AcDbText
 10
288.9947509874531
 20
30.76215761820765
 30
0.0
 40
2.5
  1
0～
100
AcDbText
  0
TEXT
  5
2A3B
330
2A03
100
AcDbEntity
  8
0
100
AcDbText
 10
288.6373629201438
 20
26.68480315001632
 30
0.0
 40
2.5
  1
6～
100
AcDbText
  0
TEXT
  5
2A3C
330
2A03
100
AcDbEntity
  8
0
100
AcDbText
 10
286.4930325072999
 20
22.78607515342325
 30
0.0
 40
2.5
  1
30～
100
AcDbText
  0
TEXT
  5
2A3D
330
2A03
100
AcDbEntity
  8
0
100
AcDbText
 10
284.9741314633705
 20
18.79803426680553
 30
0.0
 40
2.5
  1
120～
100
AcDbText
  0
TEXT
  5
2A3E
330
2A03
100
AcDbEntity
  8
0
100
AcDbText
 10
284.2593543242577
 20
14.7206797986142
 30
0.0
 40
2.5
  1
315～
100
AcDbText
  0
TEXT
  5
2A3F
330
2A03
100
AcDbEntity
  8
0
100
AcDbText
 10
283.1871901223302
 20
10.64332602197207
 30
0.0
 40
2.5
  1
1000～
100
AcDbText
  0
LINE
  5
2A40
330
2A03
100
AcDbEntity
  8
0
100
AcDbLine
 10
310.3995670880194
 20
37.12761554280757
 30
0.0
 11
311.5995670880193
 21
34.62761554280757
 31
0.0
  0
LINE
  5
2A41
330
2A03
100
AcDbEntity
  8
0
100
AcDbLine
 10
311.5995670880193
 20
34.62761554280757
 30
0.0
 11
312.7995670880193
 21
37.12761554280757
 31
0.0
  0
LINE
  5
2A42
330
2A03
100
AcDbEntity
  8
0
100
AcDbLine
 10
312.7995670880193
 20
37.12761554280757
 30
0.0
 11
310.3995670880194
 21
37.12761554280757
 31
0.0
  0
LINE
  5
2A43
330
2A03
100
AcDbEntity
  8
0
100
AcDbLine
 10
315.6201866121019
 20
34.62761554280757
 30
0.0
 11
316.8201866121019
 21
37.12761554280757
 31
0.0
  0
LINE
  5
2A44
330
2A03
100
AcDbEntity
  8
0
100
AcDbLine
 10
314.420186612102
 20
37.12761554280757
 30
0.0
 11
315.6201866121019
 21
34.62761554280757
 31
0.0
  0
LINE
  5
2A45
330
2A03
100
AcDbEntity
  8
0
100
AcDbLine
 10
316.8201866121019
 20
37.12761554280757
 30
0.0
 11
314.420186612102
 21
37.12761554280757
 31
0.0
  0
LINE
  5
2A46
330
2A03
100
AcDbEntity
  8
0
100
AcDbLine
 10
318.0201866121019
 20
34.62761554280757
 30
0.0
 11
319.2201866121019
 21
37.12761554280757
 31
0.0
  0
LINE
  5
2A47
330
2A03
100
AcDbEntity
  8
0
100
AcDbLine
 10
316.8201866121019
 20
37.12761554280757
 30
0.0
 11
318.0201866121019
 21
34.62761554280757
 31
0.0
  0
LINE
  5
2A48
330
2A03
100
AcDbEntity
  8
0
100
AcDbLine
 10
319.2201866121019
 20
37.12761554280757
 30
0.0
 11
316.8201866121019
 21
37.12761554280757
 31
0.0
  0
LINE
  5
2A49
330
2A03
100
AcDbEntity
  8
0
100
AcDbLine
 10
323.0236245769026
 20
37.12761554280757
 30
0.0
 11
324.2236245769026
 21
34.62761554280757
 31
0.0
  0
LINE
  5
2A4A
330
2A03
100
AcDbEntity
  8
0
100
AcDbLine
 10
324.2236245769026
 20
34.62761554280757
 30
0.0
 11
325.4236245769026
 21
37.12761554280757
 31
0.0
  0
LINE
  5
2A4B
330
2A03
100
AcDbEntity
  8
0
100
AcDbLine
 10
320.6236245769026
 20
37.12761554280757
 30
0.0
 11
321.8236245769026
 21
34.62761554280757
 31
0.0
  0
LINE
  5
2A4C
330
2A03
100
AcDbEntity
  8
0
100
AcDbLine
 10
321.8236245769026
 20
34.62761554280757
 30
0.0
 11
323.0236245769026
 21
37.12761554280757
 31
0.0
  0
LINE
  5
2A4D
330
2A03
100
AcDbEntity
  8
0
100
AcDbLine
 10
323.0236245769026
 20
37.12761554280757
 30
0.0
 11
320.6236245769026
 21
37.12761554280757
 31
0.0
  0
LINE
  5
2A4E
330
2A03
100
AcDbEntity
  8
0
100
AcDbLine
 10
325.4236245769026
 20
37.12761554280757
 30
0.0
 11
323.0236245769026
 21
37.12761554280757
 31
0.0
  0
LINE
  5
2A4F
330
2A03
100
AcDbEntity
  8
0
100
AcDbLine
 10
326.6236245769026
 20
34.62761554280757
 30
0.0
 11
327.8236245769026
 21
37.12761554280757
 31
0.0
  0
LINE
  5
2A50
330
2A03
100
AcDbEntity
  8
0
100
AcDbLine
 10
325.4236245769026
 20
37.12761554280757
 30
0.0
 11
326.6236245769026
 21
34.62761554280757
 31
0.0
  0
LINE
  5
2A51
330
2A03
100
AcDbEntity
  8
0
100
AcDbLine
 10
327.8236245769026
 20
37.12761554280757
 30
0.0
 11
325.4236245769026
 21
37.12761554280757
 31
0.0
  0
MTEXT
  5
2A52
330
2A03
100
AcDbEntity
  8
0
100
AcDbMText
 10
306.4174345873165
 20
37.12761623435687
 30
0.0
 40
2.5
 41
5.450199999999999
 71
     1
 72
     5
  1
～
 73
     1
 44
1.0
1001
ACAD
1000
MTEXTBEGIN
1070
    73
1070
     1
1070
    44
1040
1.0
1070
    74
1070
     0
1000
MTEXTEND
  0
MTEXT
  5
2A53
330
2A03
100
AcDbEntity
  8
0
100
AcDbMText
 10
311.6889138537229
 20
33.10853964099931
 30
0.0
 40
2.5
 41
37.4364
 71
     1
 72
     5
  1
仕　　上
 73
     1
 44
1.0
1001
ACAD
1000
MTEXTBEGIN
1070
    73
1070
     1
1070
    44
1040
1.0
1070
    74
1070
     0
1000
MTEXTEND
  0
MTEXT
  5
2A54
330
2A03
100
AcDbEntity
  8
0
100
AcDbMText
 10
306.4174345873165
 20
29.26808813614161
 30
0.0
 40
2.5
 41
6.5223
 71
     1
 72
     5
  1
品\P名
 73
     1
 44
1.0
1001
ACAD
1000
MTEXTBEGIN
1070
    73
1070
     1
1070
    44
1040
1.0
1070
    74
1070
     0
1000
MTEXTEND
  0
MTEXT
  5
2A55
330
2A03
100
AcDbEntity
  8
0
100
AcDbMText
 10
364.3058466618232
 20
19.26505206043634
 30
0.0
 40
2.5
 41
4.1993
 71
     1
 72
     5
  1
図\P番
 73
     1
 44
1.0
1001
ACAD
1000
MTEXTBEGIN
1070
    73
1070
     1
1070
    44
1040
1.0
1070
    74
1070
     0
1000
MTEXTEND
  0
MTEXT
  5
2A56
330
2A03
100
AcDbEntity
  8
0
100
AcDbMText
 10
330.4673263719777
 20
39.36043710187152
 30
0.0
 40
2.5
 41
11.79379999999999
 71
     1
 72
     5
  1
\P尺度
 73
     1
 44
1.0
1001
ACAD
1000
MTEXTBEGIN
1070
    73
1070
     1
1070
    44
1040
1.0
1070
    74
1070
     0
1000
MTEXTEND
  0
LINE
  5
2A57
330
2A03
100
AcDbEntity
  8
0
100
AcDbLine
 10
343.9999999999999
 20
37.0
 30
0.0
 11
337.9999999999999
 21
31.0
 31
0.0
  0
MTEXT
  5
2A58
330
2A03
100
AcDbEntity
  8
0
100
AcDbMText
 10
346.3533324320559
 20
35.34135981696477
 30
0.0
 40
2.5
 41
8.934699999999999
 71
     1
 72
     5
  1
材質
 73
     1
 44
1.0
1001
ACAD
1000
MTEXTBEGIN
1070
    73
1070
     1
1070
    44
1040
1.0
1070
    74
1070
     0
1000
MTEXTEND
  0
MTEXT
  5
2A59
330
2A03
100
AcDbEntity
  8
0
100
AcDbMText
 10
369.3153826917365
 20
35.16273472846501
 30
0.0
 40
2.5
 41
9.1134
 71
     1
 72
     5
  1
処理
 73
     1
 44
1.0
1001
ACAD
1000
MTEXTBEGIN
1070
    73
1070
     1
1070
    44
1040
1.0
1070
    74
1070
     0
1000
MTEXTEND
  0
MTEXT
  5
2A5A
330
2A03
100
AcDbEntity
  8
0
100
AcDbMText
 10
395.315542855665
 20
35.25204692694023
 30
0.0
 40
2.5
 41
7.9519
 71
     1
 72
     5
  1
個数
 73
     1
 44
1.0
1001
ACAD
1000
MTEXTBEGIN
1070
    73
1070
     1
1070
    44
1040
1.0
1070
    74
1070
     0
1000
MTEXTEND
  0
LINE
  5
2A5B
330
2A03
100
AcDbEntity
  8
0
100
AcDbLine
 10
233.9999999999999
 20
38.0
 30
0.0
 11
231.6999999999999
 21
34.00000000000005
 31
0.0
  0
LINE
  5
2A5C
330
2A03
100
AcDbEntity
  8
0
100
AcDbLine
 10
231.6999999999999
 20
34.00000000000005
 30
0.0
 11
236.2999999999999
 21
34.00000000000005
 31
0.0
  0
LINE
  5
2A5D
330
2A03
100
AcDbEntity
  8
0
100
AcDbLine
 10
236.2999999999999
 20
34.00000000000005
 30
0.0
 11
233.9999999999999
 21
38.0
 31
0.0
  0
LINE
  5
2A5E
330
2A03
100
AcDbEntity
  8
0
100
AcDbLine
 10
233.9999999999999
 20
34.00000000000005
 30
0.0
 11
231.6999999999999
 21
30.00000000000005
 31
0.0
  0
LINE
  5
2A5F
330
2A03
100
AcDbEntity
  8
0
100
AcDbLine
 10
231.6999999999999
 20
30.00000000000005
 30
0.0
 11
236.2999999999999
 21
30.00000000000005
 31
0.0
  0
LINE
  5
2A60
330
2A03
100
AcDbEntity
  8
0
100
AcDbLine
 10
236.2999999999999
 20
30.00000000000005
 30
0.0
 11
233.9999999999999
 21
34.00000000000005
 31
0.0
  0
TEXT
  5
2A61
330
2A03
100
AcDbEntity
  8
文字
100
AcDbText
 10
306.9310155476451
 20
13.22386510844346
 30
0.0
 40
5.5
  1
株式会社 アンナカ
100
AcDbText
  0
TEXT
  5
2A62
330
2A03
100
AcDbEntity
  8
文字
100
AcDbText
 10
364.2164998961196
 20
26.76808813614161
 30
0.0
 40
2.5
  1
機
100
AcDbText
1001
ACAD
1000
MTEXTBEGIN
1070
    73
1070
     1
1070
    44
1040
1.0
1070
    74
1070
     0
1000
MTEXTEND
  0
TEXT
  5
2A63
330
2A03
100
AcDbEntity
  8
文字
100
AcDbText
 10
364.3522785898913
 20
22.68285433934473
 30
0.0
 40
2.5
  1
名
100
AcDbText
1001
ACAD
1000
MTEXTBEGIN
1070
    73
1070
     1
1070
    44
1040
1.0
1070
    74
1070
     0
1000
MTEXTEND
  0
ENDBLK
  5
2A65
330
2A03
100
AcDbEntity
  8
0
100
AcDbBlockEnd
  0
BLOCK
  5
2BBB
330
2BAF
100
AcDbEntity
  8
0
100
AcDbBlockBegin
  2
*D16
 70
     1
 10
0.0
 20
0.0
 30
0.0
  3
*D16
  1

  0
LINE
  5
2BB0
330
2BAF
100
AcDbEntity
  8
寸法線1
 62
     0
370
    -2
100
AcDbLine
 10
1416.514112395469
 20
764.8940015499
 30
0.0
 11
1416.514112395469
 21
816.1440015499
 31
0.0
  0
LINE
  5
2BB1
330
2BAF
100
AcDbEntity
  8
寸法線1
 62
     0
370
    -2
100
AcDbLine
 10
1420.014112395468
 20
758.8940015499
 30
0.0
 11
1420.014112395468
 21
816.1440015499
 31
0.0
  0
LINE
  5
2BB2
330
2BAF
100
AcDbEntity
  8
寸法線1
 62
     0
370
    -2
100
AcDbLine
 10
1404.014112395469
 20
809.8940015499
 30
0.0
 11
1391.514112395469
 21
809.8940015499
 31
0.0
  0
LINE
  5
2BB3
330
2BAF
100
AcDbEntity
  8
寸法線1
 62
     0
370
    -2
100
AcDbLine
 10
1432.514112395468
 20
809.8940015499
 30
0.0
 11
1487.514112395468
 21
809.8940015499
 31
0.0
  0
LINE
  5
2BB4
330
2BAF
100
AcDbEntity
  8
寸法線1
 62
     0
370
    -2
100
AcDbLine
 10
1416.514112395469
 20
809.8940015499
 30
0.0
 11
1420.014112395468
 21
809.8940015499
 31
0.0
  0
INSERT
  5
2BB5
330
2BAF
100
AcDbEntity
  8
寸法線1
 62
     0
370
    -2
100
AcDbBlockReference
  2
_Open
 10
1416.514112395469
 20
809.8940015499
 30
0.0
 41
12.5
 42
12.5
 43
12.5
  0
INSERT
  5
2BB6
330
2BAF
100
AcDbEntity
  8
寸法線1
 62
     0
370
    -2
100
AcDbBlockReference
  2
_Open
 10
1420.014112395468
 20
809.8940015499
 30
0.0
 41
12.5
 42
12.5
 43
12.5
 50
180.0
  0
MTEXT
  5
2BB7
330
2BAF
100
AcDbEntity
  8
寸法線1
 62
     0
100
AcDbMText
 10
1466.264112395468
 20
823.6440015499001
 30
0.0
 40
15.0
 41
0.0
 71
     5
 72
     1
  1
3,5
 73
     1
 44
1.0
  0
POINT
  5
2BB8
330
2BAF
100
AcDbEntity
  8
Defpoints
 62
     0
100
AcDbPoint
 10
1416.514112395469
 20
759.8940015499
 30
0.0
  0
POINT
  5
2BB9
330
2BAF
100
AcDbEntity
  8
Defpoints
 62
     0
100
AcDbPoint
 10
1420.014112395468
 20
753.8940015499
 30
0.0
  0
POINT
  5
2BBA
330
2BAF
100
AcDbEntity
  8
Defpoints
 62
     0
100
AcDbPoint
 10
1420.014112395468
 20
809.8940015499
 30
0.0
  0
ENDBLK
  5
2BBC
330
2BAF
100
AcDbEntity
  8
0
100
AcDbBlockEnd
  0
BLOCK
  5
2BC8
330
2BBE
100
AcDbEntity
  8
0
100
AcDbBlockBegin
  2
*D17
 70
     1
 10
0.0
 20
0.0
 30
0.0
  3
*D17
  1

  0
LINE
  5
2CCA
330
2BBE
100
AcDbEntity
  8
寸法線1
 62
     0
370
    -2
100
AcDbLine
 10
341.0958048359062
 20
1335.317784862508
 30
0.0
 11
249.1488913483008
 21
1335.317784862508
 31
0.0
  0
LINE
  5
2CCB
330
2BBE
100
AcDbEntity
  8
寸法線1
 62
     0
370
    -2
100
AcDbLine
 10
367.5121499897596
 20
869.8320099149057
 30
0.0
 11
249.1488913483007
 21
869.8320099149059
 31
0.0
  0
LINE
  5
2CCC
330
2BBE
100
AcDbEntity
  8
寸法線1
 62
     0
370
    -2
100
AcDbLine
 10
255.3988913483008
 20
1322.817784862508
 30
0.0
 11
255.3988913483007
 21
882.3320099149059
 31
0.0
  0
INSERT
  5
2CCD
330
2BBE
100
AcDbEntity
  8
寸法線1
 62
     0
370
    -2
100
AcDbBlockReference
  2
_Open
 10
255.3988913483008
 20
1335.317784862508
 30
0.0
 41
12.5
 42
12.5
 43
12.5
 50
90.0
  0
INSERT
  5
2CCE
330
2BBE
100
AcDbEntity
  8
寸法線1
 62
     0
370
    -2
100
AcDbBlockReference
  2
_Open
 10
255.3988913483007
 20
869.8320099149059
 30
0.0
 41
12.5
 42
12.5
 43
12.5
 50
270.0
  0
MTEXT
  5
2CCF
330
2BBE
100
AcDbEntity
  8
寸法線1
 62
     0
100
AcDbMText
 10
241.6488913483006
 20
1132.184580396019
 30
0.0
 40
15.0
 41
0.0
 71
     5
 72
     1
  1
465,5
 11
0.0000000000000001
 21
1.0
 31
0.0
 73
     1
 44
1.0
  0
POINT
  5
2CD0
330
2BBE
100
AcDbEntity
  8
Defpoints
 62
     0
100
AcDbPoint
 10
346.0958048359062
 20
1335.317784862508
 30
0.0
  0
POINT
  5
2CD1
330
2BBE
100
AcDbEntity
  8
Defpoints
 62
     0
100
AcDbPoint
 10
372.5121499897596
 20
869.8320099149057
 30
0.0
  0
POINT
  5
2CD2
330
2BBE
100
AcDbEntity
  8
Defpoints
 62
     0
100
AcDbPoint
 10
255.3988913483007
 20
869.8320099149059
 30
0.0
  0
ENDBLK
  5
2BC9
330
2BBE
100
AcDbEntity
  8
0
100
AcDbBlockEnd
  0
BLOCK
  5
2C49
330
2C3D
100
AcDbEntity
  8
0
100
AcDbBlockBegin
  2
*D18
 70
     1
 10
0.0
 20
0.0
 30
0.0
  3
*D18
  1

  0
LINE
  5
2C85
330
2C3D
100
AcDbEntity
  8
寸法線1
 62
     0
370
    -2
100
AcDbLine
 10
725.5121499897597
 20
762.8940015499002
 30
0.0
 11
776.7621499897597
 21
762.8940015499
 31
0.0
  0
LINE
  5
2C86
330
2C3D
100
AcDbEntity
  8
寸法線1
 62
     0
370
    -2
100
AcDbLine
 10
725.5121499897597
 20
759.8940015499
 30
0.0
 11
776.7621499897597
 21
759.8940015498999
 31
0.0
  0
LINE
  5
2C87
330
2C3D
100
AcDbEntity
  8
寸法線1
 62
     0
370
    -2
100
AcDbLine
 10
770.5121499897597
 20
747.3940015498999
 30
0.0
 11
770.5121499897597
 21
734.8940015498999
 31
0.0
  0
LINE
  5
2C88
330
2C3D
100
AcDbEntity
  8
寸法線1
 62
     0
370
    -2
100
AcDbLine
 10
770.5121499897598
 20
775.3940015499
 30
0.0
 11
770.5121499897598
 21
807.8940015499002
 31
0.0
  0
LINE
  5
2C89
330
2C3D
100
AcDbEntity
  8
寸法線1
 62
     0
370
    -2
100
AcDbLine
 10
770.5121499897597
 20
759.8940015498999
 30
0.0
 11
770.5121499897597
 21
762.8940015499
 31
0.0
  0
INSERT
  5
2C8A
330
2C3D
100
AcDbEntity
  8
寸法線1
 62
     0
370
    -2
100
AcDbBlockReference
  2
_Open
 10
770.5121499897597
 20
759.8940015498999
 30
0.0
 41
12.5
 42
12.5
 43
12.5
 50
90.0
  0
INSERT
  5
2C8B
330
2C3D
100
AcDbEntity
  8
寸法線1
 62
     0
370
    -2
100
AcDbBlockReference
  2
_Open
 10
770.5121499897597
 20
762.8940015499
 30
0.0
 41
12.5
 42
12.5
 43
12.5
 50
270.0
  0
MTEXT
  5
2C8C
330
2C3D
100
AcDbEntity
  8
寸法線1
 62
     0
100
AcDbMText
 10
758.0121499897595
 20
797.8940015499004
 30
0.0
 40
15.0
 41
0.0
 71
     5
 72
     1
  1
3
 11
0.0000000000000001
 21
1.0
 31
0.0
 73
     1
 44
1.0
  0
POINT
  5
2C8D
330
2C3D
100
AcDbEntity
  8
Defpoints
 62
     0
100
AcDbPoint
 10
720.5121499897597
 20
762.8940015499002
 30
0.0
  0
POINT
  5
2C8E
330
2C3D
100
AcDbEntity
  8
Defpoints
 62
     0
100
AcDbPoint
 10
720.5121499897597
 20
759.8940015499
 30
0.0
  0
POINT
  5
2C8F
330
2C3D
100
AcDbEntity
  8
Defpoints
 62
     0
100
AcDbPoint
 10
770.5121499897597
 20
759.8940015498999
 30
0.0
  0
ENDBLK
  5
2C4A
330
2C3D
100
AcDbEntity
  8
0
100
AcDbBlockEnd
  0
BLOCK
  5
2CEB
330
2CE1
100
AcDbEntity
  8
0
100
AcDbBlockBegin
  2
*D19
 70
     1
 10
0.0
 20
0.0
 30
0.0
  3
*D19
  1

  0
LINE
  5
2D2D
330
2CE1
100
AcDbEntity
  8
寸法線1
 62
     0
370
    -2
100
AcDbLine
 10
340.5121499897595
 20
314.8940015499001
 30
0.0
 11
340.5121499897595
 21
198.5307429084413
 31
0.0
  0
LINE
  5
2D2E
330
2CE1
100
AcDbEntity
  8
寸法線1
 62
     0
370
    -2
100
AcDbLine
 10
727.212158294246
 20
323.9071508733077
 30
0.0
 11
727.212158294246
 21
198.5307429084413
 31
0.0
  0
LINE
  5
2D2F
330
2CE1
100
AcDbEntity
  8
寸法線1
 62
     0
370
    -2
100
AcDbLine
 10
353.0121499897595
 20
204.7807429084413
 30
0.0
 11
714.712158294246
 21
204.7807429084413
 31
0.0
  0
INSERT
  5
2D30
330
2CE1
100
AcDbEntity
  8
寸法線1
 62
     0
370
    -2
100
AcDbBlockReference
  2
_Open
 10
340.5121499897595
 20
204.7807429084413
 30
0.0
 41
12.5
 42
12.5
 43
12.5
 50
180.0
  0
INSERT
  5
2D31
330
2CE1
100
AcDbEntity
  8
寸法線1
 62
     0
370
    -2
100
AcDbBlockReference
  2
_Open
 10
727.212158294246
 20
204.7807429084413
 30
0.0
 41
12.5
 42
12.5
 43
12.5
  0
MTEXT
  5
2D32
330
2CE1
100
AcDbEntity
  8
寸法線1
 62
     0
100
AcDbMText
 10
533.8621541420027
 20
217.2807429084413
 30
0.0
 40
15.0
 41
0.0
 71
     5
 72
     1
  1
387
 73
     1
 44
1.0
  0
POINT
  5
2D33
330
2CE1
100
AcDbEntity
  8
Defpoints
 62
     0
100
AcDbPoint
 10
340.5121499897595
 20
319.8940015499001
 30
0.0
  0
POINT
  5
2D34
330
2CE1
100
AcDbEntity
  8
Defpoints
 62
     0
100
AcDbPoint
 10
727.212158294246
 20
328.9071508733077
 30
0.0
  0
POINT
  5
2D35
330
2CE1
100
AcDbEntity
  8
Defpoints
 62
     0
100
AcDbPoint
 10
727.212158294246
 20
204.7807429084413
 30
0.0
  0
ENDBLK
  5
2CEC
330
2CE1
100
AcDbEntity
  8
0
100
AcDbBlockEnd
  0
BLOCK
  5
2D5A
330
2D4E
100
AcDbEntity
  8
0
100
AcDbBlockBegin
  2
*D20
 70
     1
 10
0.0
 20
0.0
 30
0.0
  3
*D20
  1

  0
LINE
  5
2D5C
330
2D4E
100
AcDbEntity
  8
寸法線1
 62
     0
370
    -2
100
AcDbLine
 10
720.5121499897597
 20
314.8940015499001
 30
0.0
 11
720.5121499897597
 21
233.6440015499
 31
0.0
  0
LINE
  5
2D5D
330
2D4E
100
AcDbEntity
  8
寸法線1
 62
     0
370
    -2
100
AcDbLine
 10
727.212158294246
 20
318.9071508733078
 30
0.0
 11
727.212158294246
 21
233.6440015499
 31
0.0
  0
LINE
  5
2D5E
330
2D4E
100
AcDbEntity
  8
寸法線1
 62
     0
370
    -2
100
AcDbLine
 10
708.0121499897597
 20
239.8940015499
 30
0.0
 11
695.5121499897597
 21
239.8940015499
 31
0.0
  0
LINE
  5
2D5F
330
2D4E
100
AcDbEntity
  8
寸法線1
 62
     0
370
    -2
100
AcDbLine
 10
739.712158294246
 20
239.8940015499
 30
0.0
 11
772.212158294246
 21
239.8940015499
 31
0.0
  0
LINE
  5
2D60
330
2D4E
100
AcDbEntity
  8
寸法線1
 62
     0
370
    -2
100
AcDbLine
 10
720.5121499897597
 20
239.8940015499
 30
0.0
 11
727.212158294246
 21
239.8940015499
 31
0.0
  0
INSERT
  5
2D61
330
2D4E
100
AcDbEntity
  8
寸法線1
 62
     0
370
    -2
100
AcDbBlockReference
  2
_Open
 10
720.5121499897597
 20
239.8940015499
 30
0.0
 41
12.5
 42
12.5
 43
12.5
  0
INSERT
  5
2D62
330
2D4E
100
AcDbEntity
  8
寸法線1
 62
     0
370
    -2
100
AcDbBlockReference
  2
_Open
 10
727.212158294246
 20
239.8940015499
 30
0.0
 41
12.5
 42
12.5
 43
12.5
 50
180.0
  0
MTEXT
  5
2D63
330
2D4E
100
AcDbEntity
  8
寸法線1
 62
     0
100
AcDbMText
 10
762.212158294246
 20
252.3940015499
 30
0.0
 40
15.0
 41
0.0
 71
     5
 72
     1
  1
7
 73
     1
 44
1.0
  0
POINT
  5
2D64
330
2D4E
100
AcDbEntity
  8
Defpoints
 62
     0
100
AcDbPoint
 10
720.5121499897597
 20
319.8940015499001
 30
0.0
  0
POINT
  5
2D65
330
2D4E
100
AcDbEntity
  8
Defpoints
 62
     0
100
AcDbPoint
 10
727.212158294246
 20
323.9071508733077
 30
0.0
  0
POINT
  5
2D66
330
2D4E
100
AcDbEntity
  8
Defpoints
 62
     0
100
AcDbPoint
 10
727.212158294246
 20
239.8940015499
 30
0.0
  0
ENDBLK
  5
2D5B
330
2D4E
100
AcDbEntity
  8
0
100
AcDbBlockEnd
  0
BLOCK
  5
322C
330
3222
100
AcDbEntity
  8
0
100
AcDbBlockBegin
  2
*D21
 70
     1
 10
0.0
 20
0.0
 30
0.0
  3
*D21
  1

  0
LINE
  5
32F8
330
3222
100
AcDbEntity
  8
寸法線1
 62
     0
370
    -2
100
AcDbLine
 10
976.5141123954689
 20
2378.686337756122
 30
0.0
 11
898.2660748011785
 21
2378.686337756122
 31
0.0
  0
LINE
  5
32F9
330
3222
100
AcDbEntity
  8
寸法線1
 62
     0
370
    -2
100
AcDbLine
 10
976.5141123954689
 20
1945.686337756122
 30
0.0
 11
898.2660748011785
 21
1945.686337756122
 31
0.0
  0
LINE
  5
32FA
330
3222
100
AcDbEntity
  8
寸法線1
 62
     0
370
    -2
100
AcDbLine
 10
904.5160748011785
 20
2366.186337756122
 30
0.0
 11
904.5160748011785
 21
1958.186337756122
 31
0.0
  0
INSERT
  5
32FB
330
3222
100
AcDbEntity
  8
寸法線1
 62
     0
370
    -2
100
AcDbBlockReference
  2
_Open
 10
904.5160748011785
 20
2378.686337756122
 30
0.0
 41
12.5
 42
12.5
 43
12.5
 50
90.0
  0
INSERT
  5
32FC
330
3222
100
AcDbEntity
  8
寸法線1
 62
     0
370
    -2
100
AcDbBlockReference
  2
_Open
 10
904.5160748011785
 20
1945.686337756122
 30
0.0
 41
12.5
 42
12.5
 43
12.5
 50
270.0
  0
MTEXT
  5
32FD
330
3222
100
AcDbEntity
  8
寸法線1
 62
     0
100
AcDbMText
 10
892.0160748011781
 20
2162.186337756122
 30
0.0
 40
15.0
 41
0.0
 71
     5
 72
     1
  1
433
 11
0.0000000000000001
 21
1.0
 31
0.0
 73
     1
 44
1.0
  0
POINT
  5
32FE
330
3222
100
AcDbEntity
  8
Defpoints
 62
     0
100
AcDbPoint
 10
981.514112395469
 20
2378.686337756122
 30
0.0
  0
POINT
  5
32FF
330
3222
100
AcDbEntity
  8
Defpoints
 62
     0
100
AcDbPoint
 10
981.514112395469
 20
1945.686337756122
 30
0.0
  0
POINT
  5
3300
330
3222
100
AcDbEntity
  8
Defpoints
 62
     0
100
AcDbPoint
 10
904.5160748011785
 20
1945.686337756122
 30
0.0
  0
ENDBLK
  5
322D
330
3222
100
AcDbEntity
  8
0
100
AcDbBlockEnd
  0
BLOCK
  5
323A
330
322E
100
AcDbEntity
  8
0
100
AcDbBlockBegin
  2
*D22
 70
     1
 10
0.0
 20
0.0
 30
0.0
  3
*D22
  1

  0
LINE
  5
3301
330
322E
100
AcDbEntity
  8
寸法線1
 62
     0
370
    -2
100
AcDbLine
 10
1416.514112395469
 20
2385.686337756122
 30
0.0
 11
1416.514112395469
 21
2436.936337756122
 31
0.0
  0
LINE
  5
3302
330
322E
100
AcDbEntity
  8
寸法線1
 62
     0
370
    -2
100
AcDbLine
 10
1420.014112395468
 20
2379.686337756122
 30
0.0
 11
1420.014112395468
 21
2436.936337756122
 31
0.0
  0
LINE
  5
3303
330
322E
100
AcDbEntity
  8
寸法線1
 62
     0
370
    -2
100
AcDbLine
 10
1404.014112395469
 20
2430.686337756122
 30
0.0
 11
1391.514112395469
 21
2430.686337756122
 31
0.0
  0
LINE
  5
3304
330
322E
100
AcDbEntity
  8
寸法線1
 62
     0
370
    -2
100
AcDbLine
 10
1432.514112395468
 20
2430.686337756122
 30
0.0
 11
1487.514112395468
 21
2430.686337756122
 31
0.0
  0
LINE
  5
3305
330
322E
100
AcDbEntity
  8
寸法線1
 62
     0
370
    -2
100
AcDbLine
 10
1416.514112395469
 20
2430.686337756122
 30
0.0
 11
1420.014112395468
 21
2430.686337756122
 31
0.0
  0
INSERT
  5
3306
330
322E
100
AcDbEntity
  8
寸法線1
 62
     0
370
    -2
100
AcDbBlockReference
  2
_Open
 10
1416.514112395469
 20
2430.686337756122
 30
0.0
 41
12.5
 42
12.5
 43
12.5
  0
INSERT
  5
3307
330
322E
100
AcDbEntity
  8
寸法線1
 62
     0
370
    -2
100
AcDbBlockReference
  2
_Open
 10
1420.014112395468
 20
2430.686337756122
 30
0.0
 41
12.5
 42
12.5
 43
12.5
 50
180.0
  0
MTEXT
  5
3308
330
322E
100
AcDbEntity
  8
寸法線1
 62
     0
100
AcDbMText
 10
1466.264112395468
 20
2444.436337756122
 30
0.0
 40
15.0
 41
0.0
 71
     5
 72
     1
  1
3,5
 73
     1
 44
1.0
  0
POINT
  5
3309
330
322E
100
AcDbEntity
  8
Defpoints
 62
     0
100
AcDbPoint
 10
1416.514112395469
 20
2380.686337756122
 30
0.0
  0
POINT
  5
330A
330
322E
100
AcDbEntity
  8
Defpoints
 62
     0
100
AcDbPoint
 10
1420.014112395468
 20
2374.686337756122
 30
0.0
  0
POINT
  5
330B
330
322E
100
AcDbEntity
  8
Defpoints
 62
     0
100
AcDbPoint
 10
1420.014112395468
 20
2430.686337756122
 30
0.0
  0
ENDBLK
  5
323B
330
322E
100
AcDbEntity
  8
0
100
AcDbBlockEnd
  0
BLOCK
  5
3246
330
323C
100
AcDbEntity
  8
0
100
AcDbBlockBegin
  2
*D23
 70
     1
 10
0.0
 20
0.0
 30
0.0
  3
*D23
  1

  0
LINE
  5
330C
330
323C
100
AcDbEntity
  8
寸法線1
 62
     0
370
    -2
100
AcDbLine
 10
341.0958048359062
 20
2956.11012106873
 30
0.0
 11
249.1488913483011
 21
2956.11012106873
 31
0.0
  0
LINE
  5
330D
330
323C
100
AcDbEntity
  8
寸法線1
 62
     0
370
    -2
100
AcDbLine
 10
367.5121499897596
 20
2490.624346121128
 30
0.0
 11
249.148891348301
 21
2490.624346121128
 31
0.0
  0
LINE
  5
330E
330
323C
100
AcDbEntity
  8
寸法線1
 62
     0
370
    -2
100
AcDbLine
 10
255.3988913483011
 20
2943.61012106873
 30
0.0
 11
255.398891348301
 21
2503.124346121127
 31
0.0
  0
INSERT
  5
330F
330
323C
100
AcDbEntity
  8
寸法線1
 62
     0
370
    -2
100
AcDbBlockReference
  2
_Open
 10
255.3988913483011
 20
2956.11012106873
 30
0.0
 41
12.5
 42
12.5
 43
12.5
 50
90.0
  0
INSERT
  5
3310
330
323C
100
AcDbEntity
  8
寸法線1
 62
     0
370
    -2
100
AcDbBlockReference
  2
_Open
 10
255.398891348301
 20
2490.624346121128
 30
0.0
 41
12.5
 42
12.5
 43
12.5
 50
270.0
  0
MTEXT
  5
3311
330
323C
100
AcDbEntity
  8
寸法線1
 62
     0
100
AcDbMText
 10
241.6488913483006
 20
2752.976916602241
 30
0.0
 40
15.0
 41
0.0
 71
     5
 72
     1
  1
465,5
 11
0.0000000000000001
 21
1.0
 31
0.0
 73
     1
 44
1.0
  0
POINT
  5
3312
330
323C
100
AcDbEntity
  8
Defpoints
 62
     0
100
AcDbPoint
 10
346.0958048359062
 20
2956.11012106873
 30
0.0
  0
POINT
  5
3313
330
323C
100
AcDbEntity
  8
Defpoints
 62
     0
100
AcDbPoint
 10
372.5121499897596
 20
2490.624346121128
 30
0.0
  0
POINT
  5
3314
330
323C
100
AcDbEntity
  8
Defpoints
 62
     0
100
AcDbPoint
 10
255.398891348301
 20
2490.624346121128
 30
0.0
  0
ENDBLK
  5
3247
330
323C
100
AcDbEntity
  8
0
100
AcDbBlockEnd
  0
BLOCK
  5
3254
330
3248
100
AcDbEntity
  8
0
100
AcDbBlockBegin
  2
*D24
 70
     1
 10
0.0
 20
0.0
 30
0.0
  3
*D24
  1

  0
LINE
  5
3315
330
3248
100
AcDbEntity
  8
寸法線1
 62
     0
370
    -2
100
AcDbLine
 10
725.5121499897597
 20
2383.686337756122
 30
0.0
 11
776.76214998976
 21
2383.686337756122
 31
0.0
  0
LINE
  5
3316
330
3248
100
AcDbEntity
  8
寸法線1
 62
     0
370
    -2
100
AcDbLine
 10
725.5121499897597
 20
2380.686337756122
 30
0.0
 11
776.76214998976
 21
2380.686337756122
 31
0.0
  0
LINE
  5
3317
330
3248
100
AcDbEntity
  8
寸法線1
 62
     0
370
    -2
100
AcDbLine
 10
770.51214998976
 20
2368.186337756122
 30
0.0
 11
770.51214998976
 21
2355.686337756122
 31
0.0
  0
LINE
  5
3318
330
3248
100
AcDbEntity
  8
寸法線1
 62
     0
370
    -2
100
AcDbLine
 10
770.51214998976
 20
2396.186337756122
 30
0.0
 11
770.51214998976
 21
2428.686337756122
 31
0.0
  0
LINE
  5
3319
330
3248
100
AcDbEntity
  8
寸法線1
 62
     0
370
    -2
100
AcDbLine
 10
770.51214998976
 20
2380.686337756122
 30
0.0
 11
770.51214998976
 21
2383.686337756122
 31
0.0
  0
INSERT
  5
331A
330
3248
100
AcDbEntity
  8
寸法線1
 62
     0
370
    -2
100
AcDbBlockReference
  2
_Open
 10
770.51214998976
 20
2380.686337756122
 30
0.0
 41
12.5
 42
12.5
 43
12.5
 50
90.0
  0
INSERT
  5
331B
330
3248
100
AcDbEntity
  8
寸法線1
 62
     0
370
    -2
100
AcDbBlockReference
  2
_Open
 10
770.51214998976
 20
2383.686337756122
 30
0.0
 41
12.5
 42
12.5
 43
12.5
 50
270.0
  0
MTEXT
  5
331C
330
3248
100
AcDbEntity
  8
寸法線1
 62
     0
100
AcDbMText
 10
758.0121499897595
 20
2418.686337756122
 30
0.0
 40
15.0
 41
0.0
 71
     5
 72
     1
  1
3
 11
0.0000000000000001
 21
1.0
 31
0.0
 73
     1
 44
1.0
  0
POINT
  5
331D
330
3248
100
AcDbEntity
  8
Defpoints
 62
     0
100
AcDbPoint
 10
720.5121499897597
 20
2383.686337756122
 30
0.0
  0
POINT
  5
331E
330
3248
100
AcDbEntity
  8
Defpoints
 62
     0
100
AcDbPoint
 10
720.5121499897597
 20
2380.686337756122
 30
0.0
  0
POINT
  5
331F
330
3248
100
AcDbEntity
  8
Defpoints
 62
     0
100
AcDbPoint
 10
770.51214998976
 20
2380.686337756122
 30
0.0
  0
ENDBLK
  5
3255
330
3248
100
AcDbEntity
  8
0
100
AcDbBlockEnd
  0
BLOCK
  5
3260
330
3256
100
AcDbEntity
  8
0
100
AcDbBlockBegin
  2
*D25
 70
     1
 10
0.0
 20
0.0
 30
0.0
  3
*D25
  1

  0
LINE
  5
3320
330
3256
100
AcDbEntity
  8
寸法線1
 62
     0
370
    -2
100
AcDbLine
 10
340.5121499897595
 20
1935.686337756122
 30
0.0
 11
340.5121499897595
 21
1819.323079114663
 31
0.0
  0
LINE
  5
3321
330
3256
100
AcDbEntity
  8
寸法線1
 62
     0
370
    -2
100
AcDbLine
 10
727.212158294246
 20
1944.699487079529
 30
0.0
 11
727.212158294246
 21
1819.323079114663
 31
0.0
  0
LINE
  5
3322
330
3256
100
AcDbEntity
  8
寸法線1
 62
     0
370
    -2
100
AcDbLine
 10
353.0121499897595
 20
1825.573079114663
 30
0.0
 11
714.712158294246
 21
1825.573079114663
 31
0.0
  0
INSERT
  5
3323
330
3256
100
AcDbEntity
  8
寸法線1
 62
     0
370
    -2
100
AcDbBlockReference
  2
_Open
 10
340.5121499897595
 20
1825.573079114663
 30
0.0
 41
12.5
 42
12.5
 43
12.5
 50
180.0
  0
INSERT
  5
3324
330
3256
100
AcDbEntity
  8
寸法線1
 62
     0
370
    -2
100
AcDbBlockReference
  2
_Open
 10
727.212158294246
 20
1825.573079114663
 30
0.0
 41
12.5
 42
12.5
 43
12.5
  0
MTEXT
  5
3325
330
3256
100
AcDbEntity
  8
寸法線1
 62
     0
100
AcDbMText
 10
533.8621541420027
 20
1838.073079114663
 30
0.0
 40
15.0
 41
0.0
 71
     5
 72
     1
  1
387
 73
     1
 44
1.0
  0
POINT
  5
3326
330
3256
100
AcDbEntity
  8
Defpoints
 62
     0
100
AcDbPoint
 10
340.5121499897595
 20
1940.686337756122
 30
0.0
  0
POINT
  5
3327
330
3256
100
AcDbEntity
  8
Defpoints
 62
     0
100
AcDbPoint
 10
727.212158294246
 20
1949.699487079529
 30
0.0
  0
POINT
  5
3328
330
3256
100
AcDbEntity
  8
Defpoints
 62
     0
100
AcDbPoint
 10
727.212158294246
 20
1825.573079114663
 30
0.0
  0
ENDBLK
  5
3261
330
3256
100
AcDbEntity
  8
0
100
AcDbBlockEnd
  0
BLOCK
  5
326E
330
3262
100
AcDbEntity
  8
0
100
AcDbBlockBegin
  2
*D26
 70
     1
 10
0.0
 20
0.0
 30
0.0
  3
*D26
  1

  0
LINE
  5
3329
330
3262
100
AcDbEntity
  8
寸法線1
 62
     0
370
    -2
100
AcDbLine
 10
720.5121499897597
 20
1935.686337756122
 30
0.0
 11
720.5121499897597
 21
1854.436337756122
 31
0.0
  0
LINE
  5
332A
330
3262
100
AcDbEntity
  8
寸法線1
 62
     0
370
    -2
100
AcDbLine
 10
727.212158294246
 20
1939.699487079529
 30
0.0
 11
727.212158294246
 21
1854.436337756122
 31
0.0
  0
LINE
  5
332B
330
3262
100
AcDbEntity
  8
寸法線1
 62
     0
370
    -2
100
AcDbLine
 10
708.0121499897597
 20
1860.686337756122
 30
0.0
 11
695.5121499897597
 21
1860.686337756122
 31
0.0
  0
LINE
  5
332C
330
3262
100
AcDbEntity
  8
寸法線1
 62
     0
370
    -2
100
AcDbLine
 10
739.712158294246
 20
1860.686337756122
 30
0.0
 11
772.212158294246
 21
1860.686337756122
 31
0.0
  0
LINE
  5
332D
330
3262
100
AcDbEntity
  8
寸法線1
 62
     0
370
    -2
100
AcDbLine
 10
720.5121499897597
 20
1860.686337756122
 30
0.0
 11
727.212158294246
 21
1860.686337756122
 31
0.0
  0
INSERT
  5
332E
330
3262
100
AcDbEntity
  8
寸法線1
 62
     0
370
    -2
100
AcDbBlockReference
  2
_Open
 10
720.5121499897597
 20
1860.686337756122
 30
0.0
 41
12.5
 42
12.5
 43
12.5
  0
INSERT
  5
332F
330
3262
100
AcDbEntity
  8
寸法線1
 62
     0
370
    -2
100
AcDbBlockReference
  2
_Open
 10
727.212158294246
 20
1860.686337756122
 30
0.0
 41
12.5
 42
12.5
 43
12.5
 50
180.0
  0
MTEXT
  5
3330
330
3262
100
AcDbEntity
  8
寸法線1
 62
     0
100
AcDbMText
 10
762.212158294246
 20
1873.186337756122
 30
0.0
 40
15.0
 41
0.0
 71
     5
 72
     1
  1
7
 73
     1
 44
1.0
  0
POINT
  5
3331
330
3262
100
AcDbEntity
  8
Defpoints
 62
     0
100
AcDbPoint
 10
720.5121499897597
 20
1940.686337756122
 30
0.0
  0
POINT
  5
3332
330
3262
100
AcDbEntity
  8
Defpoints
 62
     0
100
AcDbPoint
 10
727.212158294246
 20
1944.699487079529
 30
0.0
  0
POINT
  5
3333
330
3262
100
AcDbEntity
  8
Defpoints
 62
     0
100
AcDbPoint
 10
727.212158294246
 20
1860.686337756122
 30
0.0
  0
ENDBLK
  5
326F
330
3262
100
AcDbEntity
  8
0
100
AcDbBlockEnd
  0
BLOCK
  5
327A
330
3270
100
AcDbEntity
  8
0
100
AcDbBlockBegin
  2
*D27
 70
     1
 10
0.0
 20
0.0
 30
0.0
  3
*D27
  1

  0
LINE
  5
3334
330
3270
100
AcDbEntity
  8
寸法線1
 62
     0
370
    -2
100
AcDbLine
 10
390.5121499897596
 20
2048.892551907328
 30
0.0
 11
390.5121499897596
 21
2050.142551907328
 31
0.0
  0
LINE
  5
3335
330
3270
100
AcDbEntity
  8
寸法線1
 62
     0
370
    -2
100
AcDbLine
 10
670.5121499897598
 20
2048.892551907328
 30
0.0
 11
670.5121499897598
 21
2050.142551907328
 31
0.0
  0
LINE
  5
3336
330
3270
100
AcDbEntity
  8
寸法線1
 62
     0
370
    -2
100
AcDbLine
 10
403.0121499897596
 20
2043.892551907328
 30
0.0
 11
658.0121499897598
 21
2043.892551907328
 31
0.0
  0
INSERT
  5
3337
330
3270
100
AcDbEntity
  8
寸法線1
 62
     0
370
    -2
100
AcDbBlockReference
  2
_Open
 10
390.5121499897596
 20
2043.892551907328
 30
0.0
 41
12.5
 42
12.5
 43
12.5
 50
180.0
  0
INSERT
  5
3338
330
3270
100
AcDbEntity
  8
寸法線1
 62
     0
370
    -2
100
AcDbBlockReference
  2
_Open
 10
670.5121499897598
 20
2043.892551907328
 30
0.0
 41
12.5
 42
12.5
 43
12.5
  0
MTEXT
  5
3339
330
3270
100
AcDbEntity
  8
寸法線1
 62
     0
100
AcDbMText
 10
530.5121499897596
 20
2056.392551907328
 30
0.0
 40
15.0
 41
0.0
 71
     5
 72
     1
  1
280
 73
     1
 44
1.0
  0
POINT
  5
333A
330
3270
100
AcDbEntity
  8
Defpoints
 62
     0
100
AcDbPoint
 10
390.5121499897596
 20
2043.892551907328
 30
0.0
  0
POINT
  5
333B
330
3270
100
AcDbEntity
  8
Defpoints
 62
     0
100
AcDbPoint
 10
670.5121499897598
 20
2043.892551907328
 30
0.0
  0
POINT
  5
333C
330
3270
100
AcDbEntity
  8
Defpoints
 62
     0
100
AcDbPoint
 10
670.5121499897598
 20
2043.892551907328
 30
0.0
  0
ENDBLK
  5
327B
330
3270
100
AcDbEntity
  8
0
100
AcDbBlockEnd
  0
BLOCK
  5
3286
330
327C
100
AcDbEntity
  8
0
100
AcDbBlockBegin
  2
*D28
 70
     1
 10
0.0
 20
0.0
 30
0.0
  3
*D28
  1

  0
LINE
  5
333D
330
327C
100
AcDbEntity
  8
寸法線1
 62
     0
370
    -2
100
AcDbLine
 10
630.9305105996146
 20
1985.686337756122
 30
0.0
 11
629.6805105996145
 21
1985.686337756122
 31
0.0
  0
LINE
  5
333E
330
327C
100
AcDbEntity
  8
寸法線1
 62
     0
370
    -2
100
AcDbLine
 10
630.9305105996146
 20
2335.686337756122
 30
0.0
 11
629.6805105996146
 21
2335.686337756122
 31
0.0
  0
LINE
  5
333F
330
327C
100
AcDbEntity
  8
寸法線1
 62
     0
370
    -2
100
AcDbLine
 10
635.9305105996145
 20
1998.186337756122
 30
0.0
 11
635.9305105996146
 21
2323.186337756122
 31
0.0
  0
INSERT
  5
3340
330
327C
100
AcDbEntity
  8
寸法線1
 62
     0
370
    -2
100
AcDbBlockReference
  2
_Open
 10
635.9305105996145
 20
1985.686337756122
 30
0.0
 41
12.5
 42
12.5
 43
12.5
 50
270.0
  0
INSERT
  5
3341
330
327C
100
AcDbEntity
  8
寸法線1
 62
     0
370
    -2
100
AcDbBlockReference
  2
_Open
 10
635.9305105996146
 20
2335.686337756122
 30
0.0
 41
12.5
 42
12.5
 43
12.5
 50
90.0
  0
MTEXT
  5
3342
330
327C
100
AcDbEntity
  8
寸法線1
 62
     0
100
AcDbMText
 10
623.4305105996142
 20
2160.686337756122
 30
0.0
 40
15.0
 41
0.0
 71
     5
 72
     1
  1
350
 11
0.0000000000000001
 21
1.0
 31
0.0
 73
     1
 44
1.0
  0
POINT
  5
3343
330
327C
100
AcDbEntity
  8
Defpoints
 62
     0
100
AcDbPoint
 10
635.9305105996146
 20
1985.686337756122
 30
0.0
  0
POINT
  5
3344
330
327C
100
AcDbEntity
  8
Defpoints
 62
     0
100
AcDbPoint
 10
635.9305105996146
 20
2335.686337756122
 30
0.0
  0
POINT
  5
3345
330
327C
100
AcDbEntity
  8
Defpoints
 62
     0
100
AcDbPoint
 10
635.9305105996146
 20
2335.686337756122
 30
0.0
  0
ENDBLK
  5
3287
330
327C
100
AcDbEntity
  8
0
100
AcDbBlockEnd
  0
BLOCK
  5
3292
330
3288
100
AcDbEntity
  8
0
100
AcDbBlockBegin
  2
*D29
 70
     1
 10
0.0
 20
0.0
 30
0.0
  3
*D29
  1

  0
LINE
  5
3346
330
3288
100
AcDbEntity
  8
寸法線1
 62
     0
370
    -2
100
AcDbLine
 10
340.5121499897595
 20
1935.686337756122
 30
0.0
 11
340.5121499897595
 21
1854.436337756122
 31
0.0
  0
LINE
  5
3347
330
3288
100
AcDbEntity
  8
寸法線1
 62
     0
370
    -2
100
AcDbLine
 10
720.5121499897597
 20
1935.686337756122
 30
0.0
 11
720.5121499897597
 21
1854.436337756122
 31
0.0
  0
LINE
  5
3348
330
3288
100
AcDbEntity
  8
寸法線1
 62
     0
370
    -2
100
AcDbLine
 10
353.0121499897595
 20
1860.686337756122
 30
0.0
 11
708.0121499897597
 21
1860.686337756122
 31
0.0
  0
INSERT
  5
3349
330
3288
100
AcDbEntity
  8
寸法線1
 62
     0
370
    -2
100
AcDbBlockReference
  2
_Open
 10
340.5121499897595
 20
1860.686337756122
 30
0.0
 41
12.5
 42
12.5
 43
12.5
 50
180.0
  0
INSERT
  5
334A
330
3288
100
AcDbEntity
  8
寸法線1
 62
     0
370
    -2
100
AcDbBlockReference
  2
_Open
 10
720.5121499897597
 20
1860.686337756122
 30
0.0
 41
12.5
 42
12.5
 43
12.5
  0
MTEXT
  5
334B
330
3288
100
AcDbEntity
  8
寸法線1
 62
     0
100
AcDbMText
 10
530.5121499897595
 20
1873.186337756122
 30
0.0
 40
15.0
 41
0.0
 71
     5
 72
     1
  1
380
 73
     1
 44
1.0
  0
POINT
  5
334C
330
3288
100
AcDbEntity
  8
Defpoints
 62
     0
100
AcDbPoint
 10
340.5121499897595
 20
1940.686337756122
 30
0.0
  0
POINT
  5
334D
330
3288
100
AcDbEntity
  8
Defpoints
 62
     0
100
AcDbPoint
 10
720.5121499897597
 20
1940.686337756122
 30
0.0
  0
POINT
  5
334E
330
3288
100
AcDbEntity
  8
Defpoints
 62
     0
100
AcDbPoint
 10
720.5121499897597
 20
1860.686337756122
 30
0.0
  0
ENDBLK
  5
3293
330
3288
100
AcDbEntity
  8
0
100
AcDbBlockEnd
  0
BLOCK
  5
329E
330
3294
100
AcDbEntity
  8
0
100
AcDbBlockBegin
  2
*D30
 70
     1
 10
0.0
 20
0.0
 30
0.0
  3
*D30
  1

  0
LINE
  5
334F
330
3294
100
AcDbEntity
  8
寸法線1
 62
     0
370
    -2
100
AcDbLine
 10
733.5121499897597
 20
2380.686337756122
 30
0.0
 11
776.7621499897598
 21
2380.686337756122
 31
0.0
  0
LINE
  5
3350
330
3294
100
AcDbEntity
  8
寸法線1
 62
     0
370
    -2
100
AcDbLine
 10
733.5121499897597
 20
1940.686337756122
 30
0.0
 11
776.7621499897597
 21
1940.686337756122
 31
0.0
  0
LINE
  5
3351
330
3294
100
AcDbEntity
  8
寸法線1
 62
     0
370
    -2
100
AcDbLine
 10
770.5121499897598
 20
2368.186337756122
 30
0.0
 11
770.5121499897597
 21
1953.186337756122
 31
0.0
  0
INSERT
  5
3352
330
3294
100
AcDbEntity
  8
寸法線1
 62
     0
370
    -2
100
AcDbBlockReference
  2
_Open
 10
770.5121499897598
 20
2380.686337756122
 30
0.0
 41
12.5
 42
12.5
 43
12.5
 50
90.0
  0
INSERT
  5
3353
330
3294
100
AcDbEntity
  8
寸法線1
 62
     0
370
    -2
100
AcDbBlockReference
  2
_Open
 10
770.5121499897597
 20
1940.686337756122
 30
0.0
 41
12.5
 42
12.5
 43
12.5
 50
270.0
  0
MTEXT
  5
3354
330
3294
100
AcDbEntity
  8
寸法線1
 62
     0
100
AcDbMText
 10
758.0121499897593
 20
2160.686337756122
 30
0.0
 40
15.0
 41
0.0
 71
     5
 72
     1
  1
440
 11
0.0000000000000001
 21
1.0
 31
0.0
 73
     1
 44
1.0
  0
POINT
  5
3355
330
3294
100
AcDbEntity
  8
Defpoints
 62
     0
100
AcDbPoint
 10
728.5121499897597
 20
2380.686337756122
 30
0.0
  0
POINT
  5
3356
330
3294
100
AcDbEntity
  8
Defpoints
 62
     0
100
AcDbPoint
 10
728.5121499897597
 20
1940.686337756122
 30
0.0
  0
POINT
  5
3357
330
3294
100
AcDbEntity
  8
Defpoints
 62
     0
100
AcDbPoint
 10
770.5121499897597
 20
1940.686337756122
 30
0.0
  0
ENDBLK
  5
329F
330
3294
100
AcDbEntity
  8
0
100
AcDbBlockEnd
  0
BLOCK
  5
32AC
330
32A0
100
AcDbEntity
  8
0
100
AcDbBlockBegin
  2
*D31
 70
     1
 10
0.0
 20
0.0
 30
0.0
  3
*D31
  1

  0
LINE
  5
3358
330
32A0
100
AcDbEntity
  8
寸法線1
 62
     0
370
    -2
100
AcDbLine
 10
731.4121499897596
 20
1940.686337756122
 30
0.0
 11
776.7621499897598
 21
1940.686337756122
 31
0.0
  0
LINE
  5
3359
330
32A0
100
AcDbEntity
  8
寸法線1
 62
     0
370
    -2
100
AcDbLine
 10
731.4121499897596
 20
1910.686337756122
 30
0.0
 11
776.7621499897598
 21
1910.686337756122
 31
0.0
  0
LINE
  5
335A
330
32A0
100
AcDbEntity
  8
寸法線1
 62
     0
370
    -2
100
AcDbLine
 10
770.5121499897598
 20
1953.186337756122
 30
0.0
 11
770.5121499897598
 21
1965.686337756122
 31
0.0
  0
LINE
  5
335B
330
32A0
100
AcDbEntity
  8
寸法線1
 62
     0
370
    -2
100
AcDbLine
 10
770.5121499897598
 20
1898.186337756122
 30
0.0
 11
770.5121499897598
 21
1885.686337756122
 31
0.0
  0
LINE
  5
335C
330
32A0
100
AcDbEntity
  8
寸法線1
 62
     0
370
    -2
100
AcDbLine
 10
770.5121499897598
 20
1940.686337756122
 30
0.0
 11
770.5121499897598
 21
1910.686337756122
 31
0.0
  0
INSERT
  5
335D
330
32A0
100
AcDbEntity
  8
寸法線1
 62
     0
370
    -2
100
AcDbBlockReference
  2
_Open
 10
770.5121499897598
 20
1940.686337756122
 30
0.0
 41
12.5
 42
12.5
 43
12.5
 50
270.0
  0
INSERT
  5
335E
330
32A0
100
AcDbEntity
  8
寸法線1
 62
     0
370
    -2
100
AcDbBlockReference
  2
_Open
 10
770.5121499897598
 20
1910.686337756122
 30
0.0
 41
12.5
 42
12.5
 43
12.5
 50
90.0
  0
MTEXT
  5
335F
330
32A0
100
AcDbEntity
  8
寸法線1
 62
     0
100
AcDbMText
 10
758.0121499897595
 20
1925.686337756122
 30
0.0
 40
15.0
 41
0.0
 71
     5
 72
     1
  1
31
 11
0.0000000000000001
 21
1.0
 31
0.0
 73
     1
 44
1.0
  0
POINT
  5
3360
330
32A0
100
AcDbEntity
  8
Defpoints
 62
     0
100
AcDbPoint
 10
726.4121499897596
 20
1940.686337756122
 30
0.0
  0
POINT
  5
3361
330
32A0
100
AcDbEntity
  8
Defpoints
 62
     0
100
AcDbPoint
 10
726.4121499897596
 20
1910.686337756122
 30
0.0
  0
POINT
  5
3362
330
32A0
100
AcDbEntity
  8
Defpoints
 62
     0
100
AcDbPoint
 10
770.5121499897598
 20
1910.686337756122
 30
0.0
  0
ENDBLK
  5
32AD
330
32A0
100
AcDbEntity
  8
0
100
AcDbBlockEnd
  0
BLOCK
  5
32B8
330
32AE
100
AcDbEntity
  8
0
100
AcDbBlockBegin
  2
*D32
 70
     1
 10
0.0
 20
0.0
 30
0.0
  3
*D32
  1

  0
LINE
  5
3363
330
32AE
100
AcDbEntity
  8
寸法線1
 62
     0
370
    -2
100
AcDbLine
 10
725.5121499897597
 20
2383.686337756122
 30
0.0
 11
811.8754086312188
 21
2383.686337756122
 31
0.0
  0
LINE
  5
3364
330
32AE
100
AcDbEntity
  8
寸法線1
 62
     0
370
    -2
100
AcDbLine
 10
720.5121499897597
 20
1910.686337756122
 30
0.0
 11
811.8754086312186
 21
1910.686337756122
 31
0.0
  0
LINE
  5
3365
330
32AE
100
AcDbEntity
  8
寸法線1
 62
     0
370
    -2
100
AcDbLine
 10
805.6254086312188
 20
2371.186337756122
 30
0.0
 11
805.6254086312186
 21
1923.186337756122
 31
0.0
  0
INSERT
  5
3366
330
32AE
100
AcDbEntity
  8
寸法線1
 62
     0
370
    -2
100
AcDbBlockReference
  2
_Open
 10
805.6254086312188
 20
2383.686337756122
 30
0.0
 41
12.5
 42
12.5
 43
12.5
 50
90.0
  0
INSERT
  5
3367
330
32AE
100
AcDbEntity
  8
寸法線1
 62
     0
370
    -2
100
AcDbBlockReference
  2
_Open
 10
805.6254086312186
 20
1910.686337756122
 30
0.0
 41
12.5
 42
12.5
 43
12.5
 50
270.0
  0
MTEXT
  5
3368
330
32AE
100
AcDbEntity
  8
寸法線1
 62
     0
100
AcDbMText
 10
793.1254086312183
 20
2161.305866800086
 30
0.0
 40
15.0
 41
0.0
 71
     5
 72
     1
  1
474
 11
0.0000000000000001
 21
1.0
 31
0.0
 73
     1
 44
1.0
  0
POINT
  5
3369
330
32AE
100
AcDbEntity
  8
Defpoints
 62
     0
100
AcDbPoint
 10
720.5121499897597
 20
2383.686337756122
 30
0.0
  0
POINT
  5
336A
330
32AE
100
AcDbEntity
  8
Defpoints
 62
     0
100
AcDbPoint
 10
715.5121499897596
 20
1910.686337756122
 30
0.0
  0
POINT
  5
336B
330
32AE
100
AcDbEntity
  8
Defpoints
 62
     0
100
AcDbPoint
 10
805.6254086312186
 20
1910.686337756122
 30
0.0
  0
ENDBLK
  5
32B9
330
32AE
100
AcDbEntity
  8
0
100
AcDbBlockEnd
  0
BLOCK
  5
32C4
330
32BA
100
AcDbEntity
  8
0
100
AcDbBlockBegin
  2
*D33
 70
     1
 10
0.0
 20
0.0
 30
0.0
  3
*D33
  1

  0
LINE
  5
336C
330
32BA
100
AcDbEntity
  8
寸法線1
 62
     0
370
    -2
100
AcDbLine
 10
330.5121499897598
 20
2952.624346121128
 30
0.0
 11
284.2621499897597
 21
2952.624346121128
 31
0.0
  0
LINE
  5
336D
330
32BA
100
AcDbEntity
  8
寸法線1
 62
     0
370
    -2
100
AcDbLine
 10
330.5121499897598
 20
2552.624346121127
 30
0.0
 11
284.2621499897596
 21
2552.624346121127
 31
0.0
  0
LINE
  5
336E
330
32BA
100
AcDbEntity
  8
寸法線1
 62
     0
370
    -2
100
AcDbLine
 10
290.5121499897596
 20
2940.124346121128
 30
0.0
 11
290.5121499897596
 21
2565.124346121128
 31
0.0
  0
INSERT
  5
336F
330
32BA
100
AcDbEntity
  8
寸法線1
 62
     0
370
    -2
100
AcDbBlockReference
  2
_Open
 10
290.5121499897597
 20
2952.624346121128
 30
0.0
 41
12.5
 42
12.5
 43
12.5
 50
90.0
  0
INSERT
  5
3370
330
32BA
100
AcDbEntity
  8
寸法線1
 62
     0
370
    -2
100
AcDbBlockReference
  2
_Open
 10
290.5121499897596
 20
2552.624346121127
 30
0.0
 41
12.5
 42
12.5
 43
12.5
 50
270.0
  0
MTEXT
  5
3371
330
32BA
100
AcDbEntity
  8
寸法線1
 62
     0
100
AcDbMText
 10
278.0121499897592
 20
2752.624346121128
 30
0.0
 40
15.0
 41
0.0
 71
     5
 72
     1
  1
400
 11
0.0000000000000001
 21
1.0
 31
0.0
 73
     1
 44
1.0
  0
POINT
  5
3372
330
32BA
100
AcDbEntity
  8
Defpoints
 62
     0
100
AcDbPoint
 10
335.5121499897598
 20
2952.624346121128
 30
0.0
  0
POINT
  5
3373
330
32BA
100
AcDbEntity
  8
Defpoints
 62
     0
100
AcDbPoint
 10
335.5121499897598
 20
2552.624346121127
 30
0.0
  0
POINT
  5
3374
330
32BA
100
AcDbEntity
  8
Defpoints
 62
     0
100
AcDbPoint
 10
290.5121499897596
 20
2552.624346121127
 30
0.0
  0
ENDBLK
  5
32C5
330
32BA
100
AcDbEntity
  8
0
100
AcDbBlockEnd
  0
BLOCK
  5
32D2
330
32C6
100
AcDbEntity
  8
0
100
AcDbBlockBegin
  2
*D34
 70
     1
 10
0.0
 20
0.0
 30
0.0
  3
*D34
  1

  0
LINE
  5
3375
330
32C6
100
AcDbEntity
  8
寸法線1
 62
     0
370
    -2
100
AcDbLine
 10
330.5121499897598
 20
2552.624346121127
 30
0.0
 11
284.2621499897598
 21
2552.624346121127
 31
0.0
  0
LINE
  5
3376
330
32C6
100
AcDbEntity
  8
寸法線1
 62
     0
370
    -2
100
AcDbLine
 10
330.5121499897596
 20
2517.624346121127
 30
0.0
 11
284.2621499897598
 21
2517.624346121127
 31
0.0
  0
LINE
  5
3377
330
32C6
100
AcDbEntity
  8
寸法線1
 62
     0
370
    -2
100
AcDbLine
 10
290.5121499897598
 20
2565.124346121128
 30
0.0
 11
290.5121499897598
 21
2577.624346121128
 31
0.0
  0
LINE
  5
3378
330
32C6
100
AcDbEntity
  8
寸法線1
 62
     0
370
    -2
100
AcDbLine
 10
290.5121499897598
 20
2505.124346121128
 30
0.0
 11
290.5121499897598
 21
2492.624346121127
 31
0.0
  0
LINE
  5
3379
330
32C6
100
AcDbEntity
  8
寸法線1
 62
     0
370
    -2
100
AcDbLine
 10
290.5121499897598
 20
2552.624346121127
 30
0.0
 11
290.5121499897598
 21
2517.624346121127
 31
0.0
  0
INSERT
  5
337A
330
32C6
100
AcDbEntity
  8
寸法線1
 62
     0
370
    -2
100
AcDbBlockReference
  2
_Open
 10
290.5121499897598
 20
2552.624346121127
 30
0.0
 41
12.5
 42
12.5
 43
12.5
 50
270.0
  0
INSERT
  5
337B
330
32C6
100
AcDbEntity
  8
寸法線1
 62
     0
370
    -2
100
AcDbBlockReference
  2
_Open
 10
290.5121499897598
 20
2517.624346121127
 30
0.0
 41
12.5
 42
12.5
 43
12.5
 50
90.0
  0
MTEXT
  5
337C
330
32C6
100
AcDbEntity
  8
寸法線1
 62
     0
100
AcDbMText
 10
278.0121499897594
 20
2534.177975141512
 30
0.0
 40
15.0
 41
0.0
 71
     5
 72
     1
  1
35
 11
0.0000000000000001
 21
1.0
 31
0.0
 73
     1
 44
1.0
  0
POINT
  5
337D
330
32C6
100
AcDbEntity
  8
Defpoints
 62
     0
100
AcDbPoint
 10
335.5121499897598
 20
2552.624346121127
 30
0.0
  0
POINT
  5
337E
330
32C6
100
AcDbEntity
  8
Defpoints
 62
     0
100
AcDbPoint
 10
335.5121499897596
 20
2517.624346121127
 30
0.0
  0
POINT
  5
337F
330
32C6
100
AcDbEntity
  8
Defpoints
 62
     0
100
AcDbPoint
 10
290.5121499897598
 20
2517.624346121127
 30
0.0
  0
ENDBLK
  5
32D3
330
32C6
100
AcDbEntity
  8
0
100
AcDbBlockEnd
  0
BLOCK
  5
32DE
330
32D4
100
AcDbEntity
  8
0
100
AcDbBlockBegin
  2
*D35
 70
     1
 10
0.0
 20
0.0
 30
0.0
  3
*D35
  1

  0
LINE
  5
3380
330
32D4
100
AcDbEntity
  8
寸法線1
 62
     0
370
    -2
100
AcDbLine
 10
1416.514112395469
 20
2390.686337756122
 30
0.0
 11
1416.514112395469
 21
2436.936337756122
 31
0.0
  0
LINE
  5
3381
330
32D4
100
AcDbEntity
  8
寸法線1
 62
     0
370
    -2
100
AcDbLine
 10
981.5141123954687
 20
2390.686337756122
 30
0.0
 11
981.5141123954687
 21
2436.936337756122
 31
0.0
  0
LINE
  5
3382
330
32D4
100
AcDbEntity
  8
寸法線1
 62
     0
370
    -2
100
AcDbLine
 10
1404.014112395469
 20
2430.686337756122
 30
0.0
 11
994.0141123954687
 21
2430.686337756122
 31
0.0
  0
INSERT
  5
3383
330
32D4
100
AcDbEntity
  8
寸法線1
 62
     0
370
    -2
100
AcDbBlockReference
  2
_Open
 10
1416.514112395469
 20
2430.686337756122
 30
0.0
 41
12.5
 42
12.5
 43
12.5
  0
INSERT
  5
3384
330
32D4
100
AcDbEntity
  8
寸法線1
 62
     0
370
    -2
100
AcDbBlockReference
  2
_Open
 10
981.5141123954687
 20
2430.686337756122
 30
0.0
 41
12.5
 42
12.5
 43
12.5
 50
180.0
  0
MTEXT
  5
3385
330
32D4
100
AcDbEntity
  8
寸法線1
 62
     0
100
AcDbMText
 10
1199.014112395468
 20
2443.186337756122
 30
0.0
 40
15.0
 41
0.0
 71
     5
 72
     1
  1
435
 73
     1
 44
1.0
  0
POINT
  5
3386
330
32D4
100
AcDbEntity
  8
Defpoints
 62
     0
100
AcDbPoint
 10
1416.514112395469
 20
2385.686337756122
 30
0.0
  0
POINT
  5
3387
330
32D4
100
AcDbEntity
  8
Defpoints
 62
     0
100
AcDbPoint
 10
981.5141123954687
 20
2385.686337756122
 30
0.0
  0
POINT
  5
3388
330
32D4
100
AcDbEntity
  8
Defpoints
 62
     0
100
AcDbPoint
 10
981.5141123954687
 20
2430.686337756122
 30
0.0
  0
ENDBLK
  5
32DF
330
32D4
100
AcDbEntity
  8
0
100
AcDbBlockEnd
  0
BLOCK
  5
32EC
330
32E0
100
AcDbEntity
  8
0
100
AcDbBlockBegin
  2
*D36
 70
     1
 10
0.0
 20
0.0
 30
0.0
  3
*D36
  1

  0
LINE
  5
3389
330
32E0
100
AcDbEntity
  8
寸法線1
 62
     0
370
    -2
100
AcDbLine
 10
981.5141123954687
 20
2388.686337756122
 30
0.0
 11
981.5141123954687
 21
2436.936337756122
 31
0.0
  0
LINE
  5
338A
330
32E0
100
AcDbEntity
  8
寸法線1
 62
     0
370
    -2
100
AcDbLine
 10
954.5141123954687
 20
2298.476707043707
 30
0.0
 11
954.5141123954687
 21
2436.936337756122
 31
0.0
  0
LINE
  5
338B
330
32E0
100
AcDbEntity
  8
寸法線1
 62
     0
370
    -2
100
AcDbLine
 10
994.0141123954687
 20
2430.686337756122
 30
0.0
 11
1006.514112395468
 21
2430.686337756122
 31
0.0
  0
LINE
  5
338C
330
32E0
100
AcDbEntity
  8
寸法線1
 62
     0
370
    -2
100
AcDbLine
 10
942.0141123954687
 20
2430.686337756122
 30
0.0
 11
894.5141123954687
 21
2430.686337756122
 31
0.0
  0
LINE
  5
338D
330
32E0
100
AcDbEntity
  8
寸法線1
 62
     0
370
    -2
100
AcDbLine
 10
981.5141123954687
 20
2430.686337756122
 30
0.0
 11
954.5141123954687
 21
2430.686337756122
 31
0.0
  0
INSERT
  5
338E
330
32E0
100
AcDbEntity
  8
寸法線1
 62
     0
370
    -2
100
AcDbBlockReference
  2
_Open
 10
981.5141123954687
 20
2430.686337756122
 30
0.0
 41
12.5
 42
12.5
 43
12.5
 50
180.0
  0
INSERT
  5
338F
330
32E0
100
AcDbEntity
  8
寸法線1
 62
     0
370
    -2
100
AcDbBlockReference
  2
_Open
 10
954.5141123954687
 20
2430.686337756122
 30
0.0
 41
12.5
 42
12.5
 43
12.5
  0
MTEXT
  5
3390
330
32E0
100
AcDbEntity
  8
寸法線1
 62
     0
100
AcDbMText
 10
912.0141123954686
 20
2443.186337756122
 30
0.0
 40
15.0
 41
0.0
 71
     5
 72
     1
  1
27
 73
     1
 44
1.0
  0
POINT
  5
3391
330
32E0
100
AcDbEntity
  8
Defpoints
 62
     0
100
AcDbPoint
 10
981.5141123954687
 20
2383.686337756122
 30
0.0
  0
POINT
  5
3392
330
32E0
100
AcDbEntity
  8
Defpoints
 62
     0
100
AcDbPoint
 10
954.5141123954687
 20
2293.476707043708
 30
0.0
  0
POINT
  5
3393
330
32E0
100
AcDbEntity
  8
Defpoints
 62
     0
100
AcDbPoint
 10
954.5141123954687
 20
2430.686337756122
 30
0.0
  0
ENDBLK
  5
32ED
330
32E0
100
AcDbEntity
  8
0
100
AcDbBlockEnd
  0
BLOCK
  5
32F6
330
32EE
100
AcDbEntity
  8
0
100
AcDbBlockBegin
  2
*D37
 70
     1
 10
0.0
 20
0.0
 30
0.0
  3
*D37
  1

  0
LINE
  5
3394
330
32EE
100
AcDbEntity
  8
寸法線1
 62
     0
370
    -2
100
AcDbLine
 10
1352.812149989759
 20
2043.892551907328
 30
0.0
 11
1027.812149989759
 21
2043.892551907328
 31
0.0
  0
INSERT
  5
3395
330
32EE
100
AcDbEntity
  8
寸法線1
 62
     0
370
    -2
100
AcDbBlockReference
  2
_Open
 10
1365.312149989759
 20
2043.892551907328
 30
0.0
 41
12.5
 42
12.5
 43
12.5
  0
INSERT
  5
3396
330
32EE
100
AcDbEntity
  8
寸法線1
 62
     0
370
    -2
100
AcDbBlockReference
  2
_Open
 10
1015.312149989759
 20
2043.892551907328
 30
0.0
 41
12.5
 42
12.5
 43
12.5
 50
180.0
  0
MTEXT
  5
3397
330
32EE
100
AcDbEntity
  8
寸法線1
 62
     0
100
AcDbMText
 10
1190.312149989759
 20
2056.392551907328
 30
0.0
 40
15.0
 41
0.0
 71
     5
 72
     1
  1
350
 73
     1
 44
1.0
  0
POINT
  5
3398
330
32EE
100
AcDbEntity
  8
Defpoints
 62
     0
100
AcDbPoint
 10
1365.312149989759
 20
2166.186337756122
 30
0.0
  0
POINT
  5
3399
330
32EE
100
AcDbEntity
  8
Defpoints
 62
     0
100
AcDbPoint
 10
1015.312149989759
 20
2166.186337756122
 30
0.0
  0
POINT
  5
339A
330
32EE
100
AcDbEntity
  8
Defpoints
 62
     0
100
AcDbPoint
 10
1015.312149989759
 20
2043.892551907328
 30
0.0
  0
ENDBLK
  5
32F7
330
32EE
100
AcDbEntity
  8
0
100
AcDbBlockEnd
  0
ENDSEC
  0
SECTION
  2
ENTITIES
  0
LINE
  5
4D6
330
1F
100
AcDbEntity
  8
1、実線
100
AcDbLine
 10
340.5121499897596
 20
759.8940015499
 30
0.0
 11
720.5121499897597
 21
759.8940015499
 31
0.0
  0
LINE
  5
4D7
330
1F
100
AcDbEntity
  8
1、実線
100
AcDbLine
 10
720.5121499897597
 20
759.8940015499
 30
0.0
 11
720.5121499897597
 21
323.8940015499001
 31
0.0
  0
LINE
  5
4D8
330
1F
100
AcDbEntity
  8
1、実線
100
AcDbLine
 10
720.5121499897597
 20
319.8940015499001
 30
0.0
 11
340.5121499897595
 21
319.8940015499001
 31
0.0
  0
LINE
  5
4D9
330
1F
100
AcDbEntity
  8
1、実線
100
AcDbLine
 10
340.5121499897595
 20
319.8940015499001
 30
0.0
 11
340.5121499897595
 21
759.8940015499
 31
0.0
  0
LINE
  5
4DA
330
1F
100
AcDbEntity
  8
1、実線
100
AcDbLine
 10
1064.512149989759
 20
759.8940015499
 30
0.0
 11
1416.514112395469
 21
759.8940015499
 31
0.0
  0
LINE
  5
4DB
330
1F
100
AcDbEntity
  8
1、実線
100
AcDbLine
 10
1416.514112395469
 20
759.8940015499
 30
0.0
 11
1416.514112395469
 21
319.8940015499001
 31
0.0
  0
LINE
  5
4DC
330
1F
100
AcDbEntity
  8
1、実線
100
AcDbLine
 10
1416.514112395469
 20
319.8940015499001
 30
0.0
 11
1017.512149989759
 21
319.8940015499001
 31
0.0
  0
LINE
  5
4DD
330
1F
100
AcDbEntity
  8
1、実線
100
AcDbLine
 10
1017.512149989759
 20
319.8940015499001
 30
0.0
 11
1017.512149989759
 21
320.8940015499001
 31
0.0
  0
LINE
  5
4E4
330
1F
100
AcDbEntity
  8
1、実線
100
AcDbLine
 10
340.5121499897596
 20
1331.832009914906
 30
0.0
 11
720.5121499897597
 21
1331.832009914906
 31
0.0
  0
LINE
  5
4E5
330
1F
100
AcDbEntity
  8
1、実線
100
AcDbLine
 10
720.5121499897597
 20
1331.832009914906
 30
0.0
 11
720.5121499897597
 21
979.832009914906
 31
0.0
  0
LINE
  5
4E6
330
1F
100
AcDbEntity
  8
1、実線
100
AcDbLine
 10
704.5121499897597
 20
931.832009914906
 30
0.0
 11
340.5121499897596
 21
931.832009914906
 31
0.0
  0
LINE
  5
4E7
330
1F
100
AcDbEntity
  8
1、実線
100
AcDbLine
 10
340.5121499897596
 20
931.832009914906
 30
0.0
 11
340.5121499897596
 21
1331.832009914906
 31
0.0
  0
LINE
  5
4F5
330
1F
100
AcDbEntity
  8
1、実線
100
AcDbLine
 10
981.5141123954687
 20
757.8940015499
 30
0.0
 11
1001.514112395468
 21
757.8940015499
 31
0.0
  0
LINE
  5
4F6
330
1F
100
AcDbEntity
  8
1、実線
100
AcDbLine
 10
1001.512149989759
 20
757.8940015499
 30
0.0
 11
1001.512149989759
 21
324.8940015499001
 31
0.0
  0
LINE
  5
4F7
330
1F
100
AcDbEntity
  8
1、実線
100
AcDbLine
 10
1001.514112395468
 20
324.8940015499001
 30
0.0
 11
981.514112395469
 21
324.8940015499001
 31
0.0
  0
LINE
  5
4F8
330
1F
100
AcDbEntity
  8
1、実線
100
AcDbLine
 10
981.5141123954687
 20
324.8940015499001
 30
0.0
 11
981.5141123954687
 21
757.8940015499
 31
0.0
  0
LINE
  5
4FA
330
1F
100
AcDbEntity
  8
1、実線
100
AcDbLine
 10
983.5121499897596
 20
762.8940015499002
 30
0.0
 11
1064.512149989759
 21
762.8940015499002
 31
0.0
  0
LINE
  5
4FB
330
1F
100
AcDbEntity
  8
1、実線
100
AcDbLine
 10
1064.512149989759
 20
762.8940015499002
 30
0.0
 11
1064.512149989759
 21
754.8940015499002
 31
0.0
  0
LINE
  5
4FD
330
1F
100
AcDbEntity
  8
1、実線
100
AcDbLine
 10
983.5121499897596
 20
762.8940015499002
 30
0.0
 11
983.5121499897596
 21
759.8940015499
 31
0.0
  0
LINE
  5
4FE
330
1F
100
AcDbEntity
  8
1、実線
100
AcDbLine
 10
983.5121499897596
 20
759.8940015499
 30
0.0
 11
1003.012149989759
 21
759.8940015499
 31
0.0
  0
LINE
  5
4FF
330
1F
100
AcDbEntity
  8
1、実線
100
AcDbLine
 10
1003.012149989759
 20
762.8940015499002
 30
0.0
 11
1003.012149989759
 21
757.6940015499002
 31
0.0
  0
LINE
  5
500
330
1F
100
AcDbEntity
  8
1、実線
100
AcDbLine
 10
1011.812149989758
 20
746.8940015499001
 30
0.0
 11
1056.512149989759
 21
746.8940015499001
 31
0.0
  0
ARC
  5
503
330
1F
100
AcDbEntity
  8
1、実線
100
AcDbCircle
 10
1056.512149989759
 20
754.8940015499002
 30
0.0
 40
8.0
100
AcDbArc
 50
270.0
 51
0.0
  0
LINE
  5
508
330
1F
100
AcDbEntity
  8
1、実線
100
AcDbLine
 10
984.5121499897597
 20
759.8940015499
 30
0.0
 11
984.5121499897597
 21
758.8940015499002
 31
0.0
  0
LINE
  5
509
330
1F
100
AcDbEntity
  8
1、実線
100
AcDbLine
 10
998.5121499897596
 20
759.8940015499
 30
0.0
 11
998.5121499897596
 21
758.8940015499002
 31
0.0
  0
LINE
  5
50D
330
1F
100
AcDbEntity
  8
1、実線
100
AcDbLine
 10
984.5121499897597
 20
324.8940015499001
 30
0.0
 11
984.5121499897597
 21
323.8940015499001
 31
0.0
  0
LINE
  5
50E
330
1F
100
AcDbEntity
  8
1、実線
100
AcDbLine
 10
984.5121499897597
 20
323.8940015499001
 30
0.0
 11
998.5121499897596
 21
323.8940015499001
 31
0.0
  0
LINE
  5
50F
330
1F
100
AcDbEntity
  8
1、実線
100
AcDbLine
 10
998.5121499897596
 20
323.8940015499001
 30
0.0
 11
998.5121499897596
 21
324.8940015499001
 31
0.0
  0
LINE
  5
518
330
1F
100
AcDbEntity
  8
1、実線
100
AcDbLine
 10
1001.812149989759
 20
757.6940015498999
 30
0.0
 11
1001.812149989759
 21
745.6940015499
 31
0.0
  0
LINE
  5
519
330
1F
100
AcDbEntity
  8
1、実線
100
AcDbLine
 10
1001.812149989759
 20
745.6940015499
 30
0.0
 11
1011.812149989758
 21
745.6940015499
 31
0.0
  0
LINE
  5
51A
330
1F
100
AcDbEntity
  8
1、実線
100
AcDbLine
 10
1011.812149989758
 20
745.6940015499
 30
0.0
 11
1011.812149989758
 21
757.6940015498999
 31
0.0
  0
LINE
  5
51B
330
1F
100
AcDbEntity
  8
1、実線
100
AcDbLine
 10
1011.812149989758
 20
757.6940015498999
 30
0.0
 11
1001.812149989759
 21
757.6940015498999
 31
0.0
  0
LINE
  5
523
330
1F
100
AcDbEntity
  8
1、実線
100
AcDbLine
 10
983.5121499897596
 20
323.8940015499001
 30
0.0
 11
1003.012149989759
 21
323.8940015499001
 31
0.0
  0
LINE
  5
524
330
1F
100
AcDbEntity
  8
1、実線
100
AcDbLine
 10
1003.012149989759
 20
323.8940015499001
 30
0.0
 11
1003.012149989759
 21
326.0940015499001
 31
0.0
  0
LINE
  5
525
330
1F
100
AcDbEntity
  8
1、実線
100
AcDbLine
 10
1011.812149989758
 20
336.8940015499001
 30
0.0
 11
1056.512149989759
 21
336.8940015499001
 31
0.0
  0
LINE
  5
526
330
1F
100
AcDbEntity
  8
1、実線
100
AcDbLine
 10
1064.512149989759
 20
328.8940015499001
 30
0.0
 11
1064.512149989759
 21
328.8940015499
 31
0.0
  0
LINE
  5
527
330
1F
100
AcDbEntity
  8
1、実線
100
AcDbLine
 10
1056.512149989759
 20
320.8940015499001
 30
0.0
 11
983.5121499897596
 21
320.8940015499001
 31
0.0
  0
LINE
  5
528
330
1F
100
AcDbEntity
  8
1、実線
100
AcDbLine
 10
983.5121499897596
 20
320.8940015499001
 30
0.0
 11
983.5121499897596
 21
323.8940015499001
 31
0.0
  0
LINE
  5
52B
330
1F
100
AcDbEntity
  8
1、実線
100
AcDbLine
 10
1011.812149989758
 20
338.0940015499001
 30
0.0
 11
1001.812149989759
 21
338.0940015499001
 31
0.0
  0
LINE
  5
52C
330
1F
100
AcDbEntity
  8
1、実線
100
AcDbLine
 10
1001.812149989759
 20
338.0940015499001
 30
0.0
 11
1001.812149989759
 21
326.0940015499
 31
0.0
  0
LINE
  5
52D
330
1F
100
AcDbEntity
  8
1、実線
100
AcDbLine
 10
1001.812149989759
 20
326.0940015499
 30
0.0
 11
1011.812149989758
 21
326.0940015499
 31
0.0
  0
LINE
  5
52E
330
1F
100
AcDbEntity
  8
1、実線
100
AcDbLine
 10
1011.812149989758
 20
326.0940015499
 30
0.0
 11
1011.812149989758
 21
338.0940015499001
 31
0.0
  0
LINE
  5
536
330
1F
100
AcDbEntity
  8
1、実線
100
AcDbLine
 10
984.5121499897597
 20
758.8940015499002
 30
0.0
 11
998.5121499897596
 21
758.8940015499002
 31
0.0
  0
LINE
  5
539
330
1F
100
AcDbEntity
  8
1、実線
100
AcDbLine
 10
987.5121499897597
 20
758.8940015499002
 30
0.0
 11
987.5121499897597
 21
757.8940015499
 31
0.0
  0
LINE
  5
53A
330
1F
100
AcDbEntity
  8
1、実線
100
AcDbLine
 10
995.5121499897597
 20
758.8940015499002
 30
0.0
 11
995.5121499897597
 21
757.8940015499
 31
0.0
  0
LINE
  5
56C
330
1F
100
AcDbEntity
  8
２，細線
100
AcDbLine
 10
1057.784942195895
 20
754.6011083310867
 30
0.0
 11
1058.288729626863
 21
755.1048957620544
 31
0.0
  0
LINE
  5
56D
330
1F
100
AcDbEntity
  8
２，細線
100
AcDbLine
 10
1057.219256770946
 20
755.1667937560361
 30
0.0
 11
1057.723044201914
 21
755.6705811870037
 31
0.0
  0
LINE
  5
56E
330
1F
100
AcDbEntity
  8
２，細線
100
AcDbLine
 10
1055.239357783623
 20
754.6011083310867
 30
0.0
 11
1054.735570352655
 21
755.1048957620544
 31
0.0
  0
LINE
  5
56F
330
1F
100
AcDbEntity
  8
２，細線
100
AcDbLine
 10
1055.805043208571
 20
755.1667937560361
 30
0.0
 11
1055.301255777605
 21
755.6705811870037
 31
0.0
  0
ARC
  5
570
330
1F
100
AcDbEntity
  8
２，細線
100
AcDbCircle
 10
1056.512149989759
 20
755.8739005372224
 30
0.0
 40
1.0
100
AcDbArc
 50
225.0
 51
315.0
  0
LINE
  5
571
330
1F
100
AcDbEntity
  8
２，細線
100
AcDbLine
 10
1055.805043208571
 20
752.6212093437642
 30
0.0
 11
1055.301255777605
 21
752.1174219127964
 31
0.0
  0
ARC
  5
572
330
1F
100
AcDbEntity
  8
２，細線
100
AcDbCircle
 10
1056.512149989759
 20
751.9141025625778
 30
0.0
 40
1.0
100
AcDbArc
 50
45.0
 51
135.0
  0
LINE
  5
573
330
1F
100
AcDbEntity
  8
２，細線
100
AcDbLine
 10
1055.239357783623
 20
753.1868947687136
 30
0.0
 11
1054.735570352655
 21
752.6831073377458
 31
0.0
  0
ARC
  5
574
330
1F
100
AcDbEntity
  8
２，細線
100
AcDbCircle
 10
1054.532251002437
 20
753.8940015499
 30
0.0
 40
1.0
100
AcDbArc
 50
315.0
 51
45.0
  0
LINE
  5
575
330
1F
100
AcDbEntity
  8
２，細線
100
AcDbLine
 10
1057.219256770946
 20
752.6212093437642
 30
0.0
 11
1057.723044201914
 21
752.1174219127964
 31
0.0
  0
LINE
  5
576
330
1F
100
AcDbEntity
  8
２，細線
100
AcDbLine
 10
1057.784942195895
 20
753.1868947687136
 30
0.0
 11
1058.288729626863
 21
752.6831073377458
 31
0.0
  0
ARC
  5
577
330
1F
100
AcDbEntity
  8
２，細線
100
AcDbCircle
 10
1058.492048977082
 20
753.8940015499
 30
0.0
 40
1.0
100
AcDbArc
 50
135.0
 51
225.0
  0
ARC
  5
578
330
1F
100
AcDbEntity
  8
２，細線
100
AcDbCircle
 10
1056.512149989759
 20
753.8940015499
 30
0.0
 40
2.149999999999999
100
AcDbArc
 50
304.2778475844623
 51
325.7221524155411
  0
ARC
  5
579
330
1F
100
AcDbEntity
  8
２，細線
100
AcDbCircle
 10
1056.512149989759
 20
753.8940015499
 30
0.0
 40
2.149999999999999
100
AcDbArc
 50
34.27784758446245
 51
55.72215241553753
  0
ARC
  5
57A
330
1F
100
AcDbEntity
  8
２，細線
100
AcDbCircle
 10
1056.512149989759
 20
753.8940015499
 30
0.0
 40
2.149999999999999
100
AcDbArc
 50
124.2778475844568
 51
145.7221524155374
  0
ARC
  5
57B
330
1F
100
AcDbEntity
  8
２，細線
100
AcDbCircle
 10
1056.512149989759
 20
753.8940015499
 30
0.0
 40
2.149999999999999
100
AcDbArc
 50
214.2778475844624
 51
235.7221524155375
  0
LINE
  5
57C
330
1F
100
AcDbEntity
  8
２，細線
100
AcDbLine
 10
1055.239357783623
 20
754.6011083310867
 30
0.0
 11
1054.735570352655
 21
755.1048957620544
 31
0.0
  0
LINE
  5
580
330
1F
100
AcDbEntity
  8
２，細線
100
AcDbLine
 10
1027.784942195894
 20
754.6011083310867
 30
0.0
 11
1028.288729626863
 21
755.1048957620544
 31
0.0
  0
LINE
  5
581
330
1F
100
AcDbEntity
  8
２，細線
100
AcDbLine
 10
1027.219256770946
 20
755.1667937560361
 30
0.0
 11
1027.723044201914
 21
755.6705811870037
 31
0.0
  0
LINE
  5
582
330
1F
100
AcDbEntity
  8
２，細線
100
AcDbLine
 10
1025.239357783622
 20
754.6011083310867
 30
0.0
 11
1024.735570352656
 21
755.1048957620544
 31
0.0
  0
LINE
  5
583
330
1F
100
AcDbEntity
  8
２，細線
100
AcDbLine
 10
1025.805043208573
 20
755.1667937560361
 30
0.0
 11
1025.301255777605
 21
755.6705811870037
 31
0.0
  0
ARC
  5
584
330
1F
100
AcDbEntity
  8
２，細線
100
AcDbCircle
 10
1026.512149989759
 20
755.8739005372224
 30
0.0
 40
1.0
100
AcDbArc
 50
225.0
 51
315.0
  0
LINE
  5
585
330
1F
100
AcDbEntity
  8
２，細線
100
AcDbLine
 10
1025.805043208573
 20
752.6212093437642
 30
0.0
 11
1025.301255777605
 21
752.1174219127964
 31
0.0
  0
ARC
  5
586
330
1F
100
AcDbEntity
  8
２，細線
100
AcDbCircle
 10
1026.512149989759
 20
751.9141025625778
 30
0.0
 40
1.0
100
AcDbArc
 50
45.0
 51
135.0
  0
LINE
  5
587
330
1F
100
AcDbEntity
  8
２，細線
100
AcDbLine
 10
1025.239357783622
 20
753.1868947687136
 30
0.0
 11
1024.735570352656
 21
752.6831073377458
 31
0.0
  0
ARC
  5
588
330
1F
100
AcDbEntity
  8
２，細線
100
AcDbCircle
 10
1024.532251002437
 20
753.8940015499
 30
0.0
 40
1.0
100
AcDbArc
 50
315.0
 51
45.0
  0
LINE
  5
589
330
1F
100
AcDbEntity
  8
２，細線
100
AcDbLine
 10
1027.219256770946
 20
752.6212093437642
 30
0.0
 11
1027.723044201914
 21
752.1174219127964
 31
0.0
  0
LINE
  5
58A
330
1F
100
AcDbEntity
  8
２，細線
100
AcDbLine
 10
1027.784942195894
 20
753.1868947687136
 30
0.0
 11
1028.288729626863
 21
752.6831073377458
 31
0.0
  0
ARC
  5
58B
330
1F
100
AcDbEntity
  8
２，細線
100
AcDbCircle
 10
1028.492048977082
 20
753.8940015499
 30
0.0
 40
1.0
100
AcDbArc
 50
135.0
 51
225.0
  0
ARC
  5
58C
330
1F
100
AcDbEntity
  8
２，細線
100
AcDbCircle
 10
1026.512149989759
 20
753.8940015499
 30
0.0
 40
2.149999999999999
100
AcDbArc
 50
304.2778475844623
 51
325.7221524155411
  0
ARC
  5
58D
330
1F
100
AcDbEntity
  8
２，細線
100
AcDbCircle
 10
1026.512149989759
 20
753.8940015499
 30
0.0
 40
2.149999999999999
100
AcDbArc
 50
34.27784758446245
 51
55.72215241553753
  0
ARC
  5
58E
330
1F
100
AcDbEntity
  8
２，細線
100
AcDbCircle
 10
1026.512149989759
 20
753.8940015499
 30
0.0
 40
2.149999999999999
100
AcDbArc
 50
124.2778475844568
 51
145.7221524155374
  0
ARC
  5
58F
330
1F
100
AcDbEntity
  8
２，細線
100
AcDbCircle
 10
1026.512149989759
 20
753.8940015499
 30
0.0
 40
2.149999999999999
100
AcDbArc
 50
214.2778475844624
 51
235.7221524155375
  0
LINE
  5
590
330
1F
100
AcDbEntity
  8
２，細線
100
AcDbLine
 10
1025.239357783622
 20
754.6011083310867
 30
0.0
 11
1024.735570352656
 21
755.1048957620544
 31
0.0
  0
LINE
  5
594
330
1F
100
AcDbEntity
  8
２，細線
100
AcDbLine
 10
1057.784942195895
 20
329.6011083310867
 30
0.0
 11
1058.288729626863
 21
330.1048957620544
 31
0.0
  0
LINE
  5
595
330
1F
100
AcDbEntity
  8
２，細線
100
AcDbLine
 10
1057.219256770946
 20
330.166793756036
 30
0.0
 11
1057.723044201914
 21
330.6705811870036
 31
0.0
  0
LINE
  5
596
330
1F
100
AcDbEntity
  8
２，細線
100
AcDbLine
 10
1055.239357783623
 20
329.6011083310867
 30
0.0
 11
1054.735570352655
 21
330.1048957620544
 31
0.0
  0
LINE
  5
597
330
1F
100
AcDbEntity
  8
２，細線
100
AcDbLine
 10
1055.805043208571
 20
330.166793756036
 30
0.0
 11
1055.301255777605
 21
330.6705811870036
 31
0.0
  0
ARC
  5
598
330
1F
100
AcDbEntity
  8
２，細線
100
AcDbCircle
 10
1056.512149989759
 20
330.8739005372223
 30
0.0
 40
1.0
100
AcDbArc
 50
225.0
 51
315.0
  0
LINE
  5
599
330
1F
100
AcDbEntity
  8
２，細線
100
AcDbLine
 10
1055.805043208571
 20
327.6212093437643
 30
0.0
 11
1055.301255777605
 21
327.1174219127965
 31
0.0
  0
ARC
  5
59A
330
1F
100
AcDbEntity
  8
２，細線
100
AcDbCircle
 10
1056.512149989759
 20
326.9141025625778
 30
0.0
 40
1.0
100
AcDbArc
 50
45.0
 51
135.0
  0
LINE
  5
59B
330
1F
100
AcDbEntity
  8
２，細線
100
AcDbLine
 10
1055.239357783623
 20
328.1868947687136
 30
0.0
 11
1054.735570352655
 21
327.6831073377458
 31
0.0
  0
ARC
  5
59C
330
1F
100
AcDbEntity
  8
２，細線
100
AcDbCircle
 10
1054.532251002437
 20
328.8940015499001
 30
0.0
 40
1.0
100
AcDbArc
 50
315.0
 51
45.0
  0
LINE
  5
59D
330
1F
100
AcDbEntity
  8
２，細線
100
AcDbLine
 10
1057.219256770946
 20
327.6212093437643
 30
0.0
 11
1057.723044201914
 21
327.1174219127966
 31
0.0
  0
LINE
  5
59E
330
1F
100
AcDbEntity
  8
２，細線
100
AcDbLine
 10
1057.784942195895
 20
328.1868947687136
 30
0.0
 11
1058.288729626863
 21
327.6831073377458
 31
0.0
  0
ARC
  5
59F
330
1F
100
AcDbEntity
  8
２，細線
100
AcDbCircle
 10
1058.492048977082
 20
328.8940015499001
 30
0.0
 40
1.0
100
AcDbArc
 50
135.0
 51
225.0
  0
ARC
  5
5A0
330
1F
100
AcDbEntity
  8
２，細線
100
AcDbCircle
 10
1056.512149989759
 20
328.8940015499001
 30
0.0
 40
2.149999999999999
100
AcDbArc
 50
304.2778475844642
 51
325.7221524155426
  0
ARC
  5
5A1
330
1F
100
AcDbEntity
  8
２，細線
100
AcDbCircle
 10
1056.512149989759
 20
328.8940015499001
 30
0.0
 40
2.149999999999999
100
AcDbArc
 50
34.27784758446178
 51
55.72215241553575
  0
ARC
  5
5A2
330
1F
100
AcDbEntity
  8
２，細線
100
AcDbCircle
 10
1056.512149989759
 20
328.8940015499001
 30
0.0
 40
2.149999999999999
100
AcDbArc
 50
124.2778475844583
 51
145.7221524155382
  0
ARC
  5
5A3
330
1F
100
AcDbEntity
  8
２，細線
100
AcDbCircle
 10
1056.512149989759
 20
328.8940015499001
 30
0.0
 40
2.149999999999999
100
AcDbArc
 50
214.2778475844616
 51
235.7221524155356
  0
LINE
  5
5A4
330
1F
100
AcDbEntity
  8
２，細線
100
AcDbLine
 10
1055.239357783623
 20
329.6011083310867
 30
0.0
 11
1054.735570352655
 21
330.1048957620544
 31
0.0
  0
LINE
  5
5A8
330
1F
100
AcDbEntity
  8
２，細線
100
AcDbLine
 10
1027.784942195894
 20
329.6011083310867
 30
0.0
 11
1028.288729626863
 21
330.1048957620544
 31
0.0
  0
LINE
  5
5A9
330
1F
100
AcDbEntity
  8
２，細線
100
AcDbLine
 10
1027.219256770946
 20
330.166793756036
 30
0.0
 11
1027.723044201914
 21
330.6705811870036
 31
0.0
  0
LINE
  5
5AA
330
1F
100
AcDbEntity
  8
２，細線
100
AcDbLine
 10
1025.239357783622
 20
329.6011083310867
 30
0.0
 11
1024.735570352656
 21
330.1048957620544
 31
0.0
  0
LINE
  5
5AB
330
1F
100
AcDbEntity
  8
２，細線
100
AcDbLine
 10
1025.805043208573
 20
330.166793756036
 30
0.0
 11
1025.301255777605
 21
330.6705811870036
 31
0.0
  0
ARC
  5
5AC
330
1F
100
AcDbEntity
  8
２，細線
100
AcDbCircle
 10
1026.512149989759
 20
330.8739005372223
 30
0.0
 40
1.0
100
AcDbArc
 50
225.0
 51
315.0
  0
LINE
  5
5AD
330
1F
100
AcDbEntity
  8
２，細線
100
AcDbLine
 10
1025.805043208573
 20
327.6212093437643
 30
0.0
 11
1025.301255777605
 21
327.1174219127965
 31
0.0
  0
ARC
  5
5AE
330
1F
100
AcDbEntity
  8
２，細線
100
AcDbCircle
 10
1026.512149989759
 20
326.9141025625778
 30
0.0
 40
1.0
100
AcDbArc
 50
45.0
 51
135.0
  0
LINE
  5
5AF
330
1F
100
AcDbEntity
  8
２，細線
100
AcDbLine
 10
1025.239357783622
 20
328.1868947687136
 30
0.0
 11
1024.735570352656
 21
327.6831073377458
 31
0.0
  0
ARC
  5
5B0
330
1F
100
AcDbEntity
  8
２，細線
100
AcDbCircle
 10
1024.532251002437
 20
328.8940015499001
 30
0.0
 40
1.0
100
AcDbArc
 50
315.0
 51
45.0
  0
LINE
  5
5B1
330
1F
100
AcDbEntity
  8
２，細線
100
AcDbLine
 10
1027.219256770946
 20
327.6212093437643
 30
0.0
 11
1027.723044201914
 21
327.1174219127966
 31
0.0
  0
LINE
  5
5B2
330
1F
100
AcDbEntity
  8
２，細線
100
AcDbLine
 10
1027.784942195894
 20
328.1868947687136
 30
0.0
 11
1028.288729626863
 21
327.6831073377458
 31
0.0
  0
ARC
  5
5B3
330
1F
100
AcDbEntity
  8
２，細線
100
AcDbCircle
 10
1028.492048977082
 20
328.8940015499001
 30
0.0
 40
1.0
100
AcDbArc
 50
135.0
 51
225.0
  0
ARC
  5
5B4
330
1F
100
AcDbEntity
  8
２，細線
100
AcDbCircle
 10
1026.512149989759
 20
328.8940015499001
 30
0.0
 40
2.149999999999999
100
AcDbArc
 50
304.2778475844642
 51
325.7221524155426
  0
ARC
  5
5B5
330
1F
100
AcDbEntity
  8
２，細線
100
AcDbCircle
 10
1026.512149989759
 20
328.8940015499001
 30
0.0
 40
2.149999999999999
100
AcDbArc
 50
34.27784758446019
 51
55.72215241553575
  0
ARC
  5
5B6
330
1F
100
AcDbEntity
  8
２，細線
100
AcDbCircle
 10
1026.512149989759
 20
328.8940015499001
 30
0.0
 40
2.149999999999999
100
AcDbArc
 50
124.2778475844583
 51
145.7221524155398
  0
ARC
  5
5B7
330
1F
100
AcDbEntity
  8
２，細線
100
AcDbCircle
 10
1026.512149989759
 20
328.8940015499001
 30
0.0
 40
2.149999999999999
100
AcDbArc
 50
214.2778475844601
 51
235.7221524155356
  0
LINE
  5
5B8
330
1F
100
AcDbEntity
  8
２，細線
100
AcDbLine
 10
1025.239357783622
 20
329.6011083310867
 30
0.0
 11
1024.735570352656
 21
330.1048957620544
 31
0.0
  0
ARC
  5
5BB
330
1F
100
AcDbEntity
  8
1、実線
100
AcDbCircle
 10
1056.512149989759
 20
328.8940015499001
 30
0.0
 40
8.0
100
AcDbArc
 50
0.0
 51
90.0
  0
ARC
  5
5BC
330
1F
100
AcDbEntity
  8
1、実線
100
AcDbCircle
 10
1056.512149989759
 20
328.8940015499001
 30
0.0
 40
8.0
100
AcDbArc
 50
270.0
 51
359.9999999999991
  0
LINE
  5
5BD
330
1F
100
AcDbEntity
  8
1、実線
100
AcDbLine
 10
1017.512149989759
 20
336.8940015499001
 30
0.0
 11
1017.512149989759
 21
746.8940015499001
 31
0.0
  0
LINE
  5
5C3
330
1F
100
AcDbEntity
  8
1、実線
370
     9
100
AcDbLine
 10
1006.512149989759
 20
338.0940015499001
 30
0.0
 11
1006.512149989759
 21
745.6940015499
 31
0.0
  0
LINE
  5
5C4
330
1F
100
AcDbEntity
  8
1、実線
370
     9
100
AcDbLine
 10
1010.512149989759
 20
745.6940015499
 30
0.0
 11
1010.512149989759
 21
338.0940015499001
 31
0.0
  0
LINE
  5
5CC
330
1F
100
AcDbEntity
  8
1、実線
100
AcDbLine
 10
704.5121499897597
 20
759.8940015499
 30
0.0
 11
704.5121499897597
 21
762.8940015499002
 31
0.0
  0
LINE
  5
5CD
330
1F
100
AcDbEntity
  8
1、実線
100
AcDbLine
 10
704.5121499897597
 20
762.8940015499002
 30
0.0
 11
720.5121499897597
 21
762.8940015499002
 31
0.0
  0
LINE
  5
5CE
330
1F
100
AcDbEntity
  8
1、実線
100
AcDbLine
 10
723.5121499897596
 20
759.8940015499
 30
0.0
 11
723.5121499897596
 21
758.8940015499002
 31
0.0
  0
LINE
  5
5D0
330
1F
100
AcDbEntity
  8
1、実線
100
AcDbLine
 10
720.5121499897597
 20
758.8940015499002
 30
0.0
 11
724.7121499897597
 21
758.8940015499002
 31
0.0
  0
LINE
  5
5D1
330
1F
100
AcDbEntity
  8
1、実線
100
AcDbLine
 10
724.7121499897597
 20
758.8940015499002
 30
0.0
 11
724.7121499897597
 21
745.6940015499
 31
0.0
  0
LINE
  5
5D2
330
1F
100
AcDbEntity
  8
1、実線
100
AcDbLine
 10
724.7121499897597
 20
745.6940015499
 30
0.0
 11
720.5121499897597
 21
745.6940015499
 31
0.0
  0
ARC
  5
5D3
330
1F
100
AcDbEntity
  8
1、実線
100
AcDbCircle
 10
720.5121499897597
 20
759.8940015499
 30
0.0
 40
3.0
100
AcDbArc
 50
0.0
 51
90.0
  0
LINE
  5
5D6
330
1F
100
AcDbEntity
  8
1、実線
100
AcDbLine
 10
720.5121499897597
 20
757.8940015499
 30
0.0
 11
340.5121499897596
 21
757.8940015499
 31
0.0
  0
LINE
  5
5D8
330
1F
100
AcDbEntity
  8
1、実線
100
AcDbLine
 10
720.5121499897597
 20
324.8940015499001
 30
0.0
 11
340.5121499897595
 21
324.8940015499001
 31
0.0
  0
LINE
  5
5DA
330
1F
100
AcDbEntity
  8
1、実線
100
AcDbLine
 10
704.5121499897597
 20
323.8940015499001
 30
0.0
 11
720.5121499897595
 21
323.8940015499001
 31
0.0
  0
LINE
  5
5DB
330
1F
100
AcDbEntity
  8
1、実線
100
AcDbLine
 10
704.5121499897597
 20
323.8940015499001
 30
0.0
 11
704.5121499897597
 21
320.8940015499001
 31
0.0
  0
LINE
  5
5DC
330
1F
100
AcDbEntity
  8
1、実線
100
AcDbLine
 10
704.5121499897597
 20
320.8940015499001
 30
0.0
 11
720.5121499897593
 21
320.8940015499001
 31
0.0
  0
LINE
  5
5DF
330
1F
100
AcDbEntity
  8
1、実線
100
AcDbLine
 10
705.5121499897595
 20
324.8940015499001
 30
0.0
 11
705.5121499897595
 21
323.8940015499001
 31
0.0
  0
LINE
  5
5E0
330
1F
100
AcDbEntity
  8
1、実線
100
AcDbLine
 10
719.5121499897595
 20
324.8940015499001
 30
0.0
 11
719.5121499897595
 21
323.8940015499001
 31
0.0
  0
LINE
  5
5E7
330
1F
100
AcDbEntity
  8
1、実線
100
AcDbLine
 10
720.5121499897595
 20
338.0940015499001
 30
0.0
 11
724.7121499897597
 21
338.0940015499001
 31
0.0
  0
LINE
  5
5E8
330
1F
100
AcDbEntity
  8
1、実線
100
AcDbLine
 10
724.7121499897597
 20
338.0940015499001
 30
0.0
 11
724.7121499897597
 21
326.0940015499
 31
0.0
  0
LINE
  5
5E9
330
1F
100
AcDbEntity
  8
1、実線
100
AcDbLine
 10
724.7121499897597
 20
326.0940015499
 30
0.0
 11
720.5121499897597
 21
326.0940015499
 31
0.0
  0
LINE
  5
5EA
330
1F
100
AcDbEntity
  8
1、実線
100
AcDbLine
 10
723.5121499897593
 20
323.8940015499001
 30
0.0
 11
723.5121499897595
 21
326.0940015499
 31
0.0
  0
ARC
  5
5EB
330
1F
100
AcDbEntity
  8
1、実線
100
AcDbCircle
 10
720.5121499897593
 20
323.8940015499001
 30
0.0
 40
3.0
100
AcDbArc
 50
270.0
 51
0.0
  0
LINE
  5
5ED
330
1F
100
AcDbEntity
  8
1、実線
100
AcDbLine
 10
720.5121499897597
 20
320.8940015499001
 30
0.0
 11
720.5121499897597
 21
319.8940015499001
 31
0.0
  0
ARC
  5
614
330
1F
100
AcDbEntity
  8
1、実線
100
AcDbCircle
 10
716.8018350191179
 20
328.9071508733077
 30
0.0
 40
10.41032327512807
100
AcDbArc
 50
337.3913822040796
 51
22.60861779592035
  0
LINE
  5
615
330
1F
100
AcDbEntity
  8
1、実線
100
AcDbLine
 10
724.7121499897597
 20
333.0440015499001
 30
0.0
 11
724.7121499897597
 21
324.7440015499002
 31
0.0
  0
LINE
  5
616
330
1F
100
AcDbEntity
  8
1、実線
100
AcDbLine
 10
724.7121499897597
 20
324.7440015499002
 30
0.0
 11
726.4121499897596
 21
324.9050668090068
 31
0.0
  0
LINE
  5
617
330
1F
100
AcDbEntity
  8
1、実線
100
AcDbLine
 10
724.7121499897597
 20
333.0440015499001
 30
0.0
 11
726.4121499897596
 21
332.9092349376088
 31
0.0
  0
ARC
  5
618
330
1F
100
AcDbEntity
  8
1、実線
100
AcDbCircle
 10
716.801835019118
 20
753.9071508733078
 30
0.0
 40
10.41032327512807
100
AcDbArc
 50
337.3913822040788
 51
22.6086177959196
  0
LINE
  5
619
330
1F
100
AcDbEntity
  8
1、実線
100
AcDbLine
 10
724.7121499897597
 20
758.0440015499
 30
0.0
 11
724.7121499897597
 21
749.7440015499002
 31
0.0
  0
LINE
  5
61A
330
1F
100
AcDbEntity
  8
1、実線
100
AcDbLine
 10
724.7121499897597
 20
749.7440015499002
 30
0.0
 11
726.4121499897596
 21
749.9050668090068
 31
0.0
  0
LINE
  5
61B
330
1F
100
AcDbEntity
  8
1、実線
100
AcDbLine
 10
724.7121499897597
 20
758.0440015499
 30
0.0
 11
726.4121499897596
 21
757.9092349376089
 31
0.0
  0
CIRCLE
  5
61C
330
1F
100
AcDbEntity
  8
1、実線
100
AcDbCircle
 10
1026.512149989759
 20
753.8940015499
 30
0.0
 40
4.15
  0
CIRCLE
  5
61D
330
1F
100
AcDbEntity
  8
1、実線
100
AcDbCircle
 10
1056.512149989759
 20
753.8940015499
 30
0.0
 40
4.15
  0
CIRCLE
  5
61E
330
1F
100
AcDbEntity
  8
1、実線
100
AcDbCircle
 10
1056.512149989759
 20
328.8940015499001
 30
0.0
 40
4.15
  0
CIRCLE
  5
61F
330
1F
100
AcDbEntity
  8
1、実線
100
AcDbCircle
 10
1026.512149989759
 20
328.8940015499001
 30
0.0
 40
4.15
  0
LINE
  5
630
330
1F
100
AcDbEntity
  8
1、実線
100
AcDbLine
 10
726.4121499897596
 20
332.9092349376088
 30
0.0
 11
726.4121499897596
 21
324.8940015499001
 31
0.0
  0
LINE
  5
631
330
1F
100
AcDbEntity
  8
1、実線
100
AcDbLine
 10
726.4121499897596
 20
749.9050668090068
 30
0.0
 11
726.4121499897596
 21
757.9092349376089
 31
0.0
  0
LINE
  5
634
330
1F
100
AcDbEntity
  8
1、実線
100
AcDbLine
 10
705.5121499897596
 20
757.8940015499
 30
0.0
 11
705.5121499897596
 21
758.8940015499002
 31
0.0
  0
LINE
  5
635
330
1F
100
AcDbEntity
  8
1、実線
100
AcDbLine
 10
705.5121499897596
 20
758.8940015499002
 30
0.0
 11
719.5121499897596
 21
758.8940015499002
 31
0.0
  0
LINE
  5
636
330
1F
100
AcDbEntity
  8
1、実線
100
AcDbLine
 10
719.5121499897596
 20
758.8940015499002
 30
0.0
 11
719.5121499897596
 21
757.8940015499
 31
0.0
  0
LINE
  5
639
330
1F
100
AcDbEntity
  8
1、実線
100
AcDbLine
 10
708.5121499897597
 20
759.8940015499
 30
0.0
 11
708.5121499897597
 21
758.8940015499002
 31
0.0
  0
LINE
  5
63A
330
1F
100
AcDbEntity
  8
1、実線
100
AcDbLine
 10
716.5121499897597
 20
759.8940015499
 30
0.0
 11
716.5121499897597
 21
758.8940015499002
 31
0.0
  0
LINE
  5
648
330
1F
100
AcDbEntity
  8
中箱
100
AcDbLine
 10
400.5121499897597
 20
714.8940015499
 30
0.0
 11
660.5121499897595
 21
714.8940015499
 31
0.0
  0
LINE
  5
649
330
1F
100
AcDbEntity
  8
中箱
100
AcDbLine
 10
670.5121499897598
 20
704.8940015499
 30
0.0
 11
670.5121499897598
 21
374.8940015499002
 31
0.0
  0
LINE
  5
64A
330
1F
100
AcDbEntity
  8
中箱
100
AcDbLine
 10
660.5121499897595
 20
364.8940015499002
 30
0.0
 11
400.5121499897597
 21
364.8940015499002
 31
0.0
  0
LINE
  5
64B
330
1F
100
AcDbEntity
  8
中箱
100
AcDbLine
 10
390.5121499897596
 20
374.8940015499002
 30
0.0
 11
390.5121499897596
 21
704.8940015499002
 31
0.0
  0
LINE
  5
656
330
1F
100
AcDbEntity
  8
中箱
100
AcDbLine
 10
1016.512149989759
 20
714.8940015499
 30
0.0
 11
1365.312149989759
 21
714.8940015499
 31
0.0
  0
LINE
  5
657
330
1F
100
AcDbEntity
  8
中箱
100
AcDbLine
 10
1365.312149989759
 20
714.8940015499
 30
0.0
 11
1365.312149989759
 21
364.8940015499001
 31
0.0
  0
LINE
  5
658
330
1F
100
AcDbEntity
  8
中箱
100
AcDbLine
 10
1365.312149989759
 20
364.8940015499001
 30
0.0
 11
1016.512149989759
 21
364.8940015499001
 31
0.0
  0
CIRCLE
  5
65E
330
1F
100
AcDbEntity
  8
２，細線
100
AcDbCircle
 10
1077.872209164626
 20
363.8940015499001
 30
0.0
 40
0.5
  0
CIRCLE
  5
65F
330
1F
100
AcDbEntity
  8
２，細線
100
AcDbCircle
 10
1072.872209164626
 20
715.8940015499
 30
0.0
 40
0.5
  0
ARC
  5
691
330
1F
100
AcDbEntity
  8
1、実線
100
AcDbCircle
 10
712.5121499897597
 20
906.832009914906
 30
0.0
 40
8.0
100
AcDbArc
 50
180.0
 51
0.0
  0
LINE
  5
692
330
1F
100
AcDbEntity
  8
1、実線
100
AcDbLine
 10
704.5121499897597
 20
906.832009914906
 30
0.0
 11
704.5121499897597
 21
979.832009914906
 31
0.0
  0
LINE
  5
693
330
1F
100
AcDbEntity
  8
1、実線
100
AcDbLine
 10
704.5121499897597
 20
979.832009914906
 30
0.0
 11
723.5121499897596
 21
979.832009914906
 31
0.0
  0
LINE
  5
694
330
1F
100
AcDbEntity
  8
1、実線
100
AcDbLine
 10
720.5121499897597
 20
916.832009914906
 30
0.0
 11
720.5121499897597
 21
896.8320099149059
 31
0.0
  0
LINE
  5
695
330
1F
100
AcDbEntity
  8
1、実線
100
AcDbLine
 10
720.5121499897597
 20
896.8320099149059
 30
0.0
 11
340.5121499897596
 21
896.8320099149059
 31
0.0
  0
LINE
  5
696
330
1F
100
AcDbEntity
  8
1、実線
100
AcDbLine
 10
340.5121499897596
 20
896.8320099149059
 30
0.0
 11
340.5121499897596
 21
915.832009914906
 31
0.0
  0
LINE
  5
697
330
1F
100
AcDbEntity
  8
1、実線
100
AcDbLine
 10
340.5121499897596
 20
915.832009914906
 30
0.0
 11
704.5121499897597
 21
915.832009914906
 31
0.0
  0
LINE
  5
6A0
330
1F
100
AcDbEntity
  8
1、実線
100
AcDbLine
 10
720.5121499897597
 20
906.832009914906
 30
0.0
 11
720.5121499897597
 21
918.3320099149057
 31
0.0
  0
LINE
  5
6A1
330
1F
100
AcDbEntity
  8
1、実線
100
AcDbLine
 10
720.5121499897597
 20
918.3320099149057
 30
0.0
 11
723.5121499897596
 21
918.3320099149057
 31
0.0
  0
LINE
  5
6A2
330
1F
100
AcDbEntity
  8
1、実線
100
AcDbLine
 10
723.5121499897596
 20
918.3320099149057
 30
0.0
 11
723.5121499897596
 21
979.832009914906
 31
0.0
  0
ARC
  5
6AA
330
1F
100
AcDbEntity
  8
1、実線
100
AcDbCircle
 10
716.801835019118
 20
971.8451592383134
 30
0.0
 40
10.41032327512807
100
AcDbArc
 50
337.3913822040788
 51
22.60861779592111
  0
LINE
  5
6AB
330
1F
100
AcDbEntity
  8
1、実線
100
AcDbLine
 10
724.7121499897597
 20
975.982009914906
 30
0.0
 11
724.7121499897597
 21
967.6820099149058
 31
0.0
  0
LINE
  5
6AC
330
1F
100
AcDbEntity
  8
1、実線
100
AcDbLine
 10
724.7121499897597
 20
967.6820099149058
 30
0.0
 11
726.4121499897596
 21
967.8430751740124
 31
0.0
  0
LINE
  5
6AD
330
1F
100
AcDbEntity
  8
1、実線
100
AcDbLine
 10
724.7121499897597
 20
975.982009914906
 30
0.0
 11
726.4121499897596
 21
975.8472433026144
 31
0.0
  0
LINE
  5
6AE
330
1F
100
AcDbEntity
  8
1、実線
100
AcDbLine
 10
726.4121499897596
 20
967.8430751740124
 30
0.0
 11
726.4121499897596
 21
975.8472433026147
 31
0.0
  0
ARC
  5
6AF
330
1F
100
AcDbEntity
  8
1、実線
100
AcDbCircle
 10
716.801835019118
 20
941.8451592383135
 30
0.0
 40
10.41032327512807
100
AcDbArc
 50
337.3913822040788
 51
22.60861779592111
  0
LINE
  5
6B0
330
1F
100
AcDbEntity
  8
1、実線
100
AcDbLine
 10
724.7121499897597
 20
945.9820099149061
 30
0.0
 11
724.7121499897597
 21
937.6820099149059
 31
0.0
  0
LINE
  5
6B1
330
1F
100
AcDbEntity
  8
1、実線
100
AcDbLine
 10
724.7121499897597
 20
937.6820099149059
 30
0.0
 11
726.4121499897596
 21
937.8430751740124
 31
0.0
  0
LINE
  5
6B2
330
1F
100
AcDbEntity
  8
1、実線
100
AcDbLine
 10
724.7121499897597
 20
945.9820099149061
 30
0.0
 11
726.4121499897596
 21
945.8472433026143
 31
0.0
  0
LINE
  5
6B3
330
1F
100
AcDbEntity
  8
1、実線
100
AcDbLine
 10
726.4121499897596
 20
937.8430751740124
 30
0.0
 11
726.4121499897596
 21
945.8472433026146
 31
0.0
  0
LINE
  5
6B8
330
1F
100
AcDbEntity
  8
1、実線
100
AcDbLine
 10
723.5121499897596
 20
975.6320099149061
 30
0.0
 11
724.7121499897597
 21
975.6320099149061
 31
0.0
  0
LINE
  5
6B9
330
1F
100
AcDbEntity
  8
1、実線
100
AcDbLine
 10
723.5121499897596
 20
968.032009914906
 30
0.0
 11
724.7121499897597
 21
968.032009914906
 31
0.0
  0
LINE
  5
6BA
330
1F
100
AcDbEntity
  8
1、実線
100
AcDbLine
 10
723.5121499897596
 20
945.6320099149056
 30
0.0
 11
723.5121499897596
 21
945.6320099149056
 31
0.0
  0
LINE
  5
6BC
330
1F
100
AcDbEntity
  8
1、実線
100
AcDbLine
 10
723.5121499897596
 20
945.6320099149056
 30
0.0
 11
724.7121499897597
 21
945.6320099149056
 31
0.0
  0
LINE
  5
6BD
330
1F
100
AcDbEntity
  8
1、実線
100
AcDbLine
 10
723.5121499897596
 20
938.0320099149059
 30
0.0
 11
724.7121499897597
 21
938.0320099149059
 31
0.0
  0
LINE
  5
6BE
330
1F
100
AcDbEntity
  8
1、実線
100
AcDbLine
 10
340.5121499897596
 20
931.832009914906
 30
0.0
 11
704.5121499897597
 21
931.832009914906
 31
0.0
  0
LINE
  5
6C7
330
1F
100
AcDbEntity
  8
1、実線
100
AcDbLine
 10
343.5121499897596
 20
931.832009914906
 30
0.0
 11
343.5121499897596
 21
926.8320099149061
 31
0.0
  0
LINE
  5
6C8
330
1F
100
AcDbEntity
  8
1、実線
100
AcDbLine
 10
343.5121499897596
 20
926.8320099149061
 30
0.0
 11
704.5121499897597
 21
926.8320099149061
 31
0.0
  0
LINE
  5
6CA
330
1F
100
AcDbEntity
  8
1、実線
100
AcDbLine
 10
342.5121499897596
 20
922.8320099149057
 30
0.0
 11
341.5121499897596
 21
915.832009914906
 31
0.0
  0
ARC
  5
6CE
330
1F
100
AcDbEntity
  8
1、実線
100
AcDbCircle
 10
343.0121499897596
 20
924.832009914906
 30
0.0
 40
1.5
100
AcDbArc
 50
90.0
 51
270.0
  0
LINE
  5
6D3
330
1F
100
AcDbEntity
  8
1、実線
100
AcDbLine
 10
343.0121499897596
 20
926.3320099149057
 30
0.0
 11
704.5121499897597
 21
926.3320099149057
 31
0.0
  0
LINE
  5
6D4
330
1F
100
AcDbEntity
  8
1、実線
100
AcDbLine
 10
704.5121499897597
 20
923.3320099149061
 30
0.0
 11
343.0121499897596
 21
923.3320099149061
 31
0.0
  0
LINE
  5
6D6
330
1F
100
AcDbEntity
  8
1、実線
100
AcDbLine
 10
342.5121499897596
 20
922.8320099149057
 30
0.0
 11
704.5121499897597
 21
922.8320099149057
 31
0.0
  0
LINE
  5
6DB
330
1F
100
AcDbEntity
  8
1、実線
100
AcDbLine
 10
346.5121499897596
 20
926.8320099149061
 30
0.0
 11
346.5121499897596
 21
926.3320099149057
 31
0.0
  0
LINE
  5
6DC
330
1F
100
AcDbEntity
  8
1、実線
100
AcDbLine
 10
344.5121499897596
 20
923.3320099149061
 30
0.0
 11
344.5121499897596
 21
922.8320099149057
 31
0.0
  0
LINE
  5
6EF
330
1F
100
AcDbEntity
  8
1、実線
100
AcDbLine
 10
719.5121499897596
 20
1331.832009914906
 30
0.0
 11
719.5121499897596
 21
1332.832009914906
 31
0.0
  0
LINE
  5
6F0
330
1F
100
AcDbEntity
  8
1、実線
100
AcDbLine
 10
719.5121499897596
 20
1332.832009914906
 30
0.0
 11
341.5121499897596
 21
1332.832009914906
 31
0.0
  0
LINE
  5
6F1
330
1F
100
AcDbEntity
  8
1、実線
100
AcDbLine
 10
341.5121499897596
 20
1332.832009914906
 30
0.0
 11
341.5121499897596
 21
1331.832009914906
 31
0.0
  0
ARC
  5
725
330
1F
100
AcDbEntity
  8
２，細線
100
AcDbCircle
 10
530.51214998976
 20
1329.232009914906
 30
0.0
 40
6.100000000000001
100
AcDbArc
 50
39.60192708110677
 51
140.3980729188932
  0
LINE
  5
726
330
1F
100
AcDbEntity
  8
２，細線
100
AcDbLine
 10
525.8121499897598
 20
1333.12045433395
 30
0.0
 11
535.2121499897599
 21
1333.12045433395
 31
0.0
  0
LINE
  5
727
330
1F
100
AcDbEntity
  8
２，細線
100
AcDbLine
 10
525.8121499897598
 20
1333.12045433395
 30
0.0
 11
525.8121499897598
 21
1332.832009914906
 31
0.0
  0
LINE
  5
728
330
1F
100
AcDbEntity
  8
２，細線
100
AcDbLine
 10
525.8121499897598
 20
1332.832009914906
 30
0.0
 11
535.2121499897599
 21
1332.832009914906
 31
0.0
  0
LINE
  5
729
330
1F
100
AcDbEntity
  8
２，細線
100
AcDbLine
 10
535.2121499897599
 20
1332.832009914906
 30
0.0
 11
535.2121499897599
 21
1333.12045433395
 31
0.0
  0
ARC
  5
72F
330
1F
100
AcDbEntity
  8
２，細線
100
AcDbCircle
 10
714.5121499897596
 20
1329.232009914906
 30
0.0
 40
6.100000000000001
100
AcDbArc
 50
39.60192708110677
 51
140.3980729188932
  0
LINE
  5
730
330
1F
100
AcDbEntity
  8
２，細線
100
AcDbLine
 10
709.8121499897596
 20
1333.12045433395
 30
0.0
 11
719.2121499897597
 21
1333.12045433395
 31
0.0
  0
LINE
  5
731
330
1F
100
AcDbEntity
  8
２，細線
100
AcDbLine
 10
709.8121499897596
 20
1333.12045433395
 30
0.0
 11
709.8121499897596
 21
1332.832009914906
 31
0.0
  0
LINE
  5
732
330
1F
100
AcDbEntity
  8
２，細線
100
AcDbLine
 10
709.8121499897596
 20
1332.832009914906
 30
0.0
 11
719.2121499897597
 21
1332.832009914906
 31
0.0
  0
LINE
  5
733
330
1F
100
AcDbEntity
  8
２，細線
100
AcDbLine
 10
719.2121499897597
 20
1332.832009914906
 30
0.0
 11
719.2121499897597
 21
1333.12045433395
 31
0.0
  0
ARC
  5
742
330
1F
100
AcDbEntity
  8
２，細線
100
AcDbCircle
 10
1413.914112395469
 20
548.8940015499001
 30
0.0
 40
6.100000000000001
100
AcDbArc
 50
309.6019270811066
 51
50.39807291889322
  0
LINE
  5
743
330
1F
100
AcDbEntity
  8
２，細線
100
AcDbLine
 10
1417.802556814512
 20
553.5940015499002
 30
0.0
 11
1417.802556814512
 21
544.1940015499002
 31
0.0
  0
LINE
  5
744
330
1F
100
AcDbEntity
  8
２，細線
100
AcDbLine
 10
1417.802556814512
 20
553.5940015499002
 30
0.0
 11
1417.514112395469
 21
553.5940015499002
 31
0.0
  0
LINE
  5
745
330
1F
100
AcDbEntity
  8
２，細線
100
AcDbLine
 10
1417.514112395469
 20
553.5940015499002
 30
0.0
 11
1417.514112395469
 21
544.1940015499002
 31
0.0
  0
LINE
  5
746
330
1F
100
AcDbEntity
  8
２，細線
100
AcDbLine
 10
1417.514112395469
 20
544.1940015499002
 30
0.0
 11
1417.802556814512
 21
544.1940015499002
 31
0.0
  0
ARC
  5
747
330
1F
100
AcDbEntity
  8
２，細線
100
AcDbCircle
 10
1413.914112395469
 20
343.8940015499001
 30
0.0
 40
6.100000000000001
100
AcDbArc
 50
309.6019270811069
 51
50.39807291889296
  0
LINE
  5
748
330
1F
100
AcDbEntity
  8
２，細線
100
AcDbLine
 10
1417.802556814513
 20
348.5940015499002
 30
0.0
 11
1417.802556814513
 21
339.1940015499003
 31
0.0
  0
LINE
  5
749
330
1F
100
AcDbEntity
  8
２，細線
100
AcDbLine
 10
1417.802556814513
 20
348.5940015499002
 30
0.0
 11
1417.514112395469
 21
348.5940015499002
 31
0.0
  0
LINE
  5
74A
330
1F
100
AcDbEntity
  8
２，細線
100
AcDbLine
 10
1417.514112395469
 20
348.5940015499002
 30
0.0
 11
1417.514112395469
 21
339.1940015499003
 31
0.0
  0
LINE
  5
74B
330
1F
100
AcDbEntity
  8
２，細線
100
AcDbLine
 10
1417.514112395469
 20
339.1940015499003
 30
0.0
 11
1417.802556814513
 21
339.1940015499003
 31
0.0
  0
LINE
  5
750
330
1F
100
AcDbEntity
  8
1、実線
100
AcDbLine
 10
1416.514112395469
 20
338.8940015499001
 30
0.0
 11
1417.514112395469
 21
338.8940015499001
 31
0.0
  0
LINE
  5
751
330
1F
100
AcDbEntity
  8
1、実線
100
AcDbLine
 10
1417.514112395468
 20
338.8940015499001
 30
0.0
 11
1417.514112395468
 21
758.8940015499002
 31
0.0
  0
ARC
  5
755
330
1F
100
AcDbEntity
  8
２，細線
100
AcDbCircle
 10
1413.914112395468
 20
753.8940015499
 30
0.0
 40
6.100000000000001
100
AcDbArc
 50
309.6019270811085
 51
50.39807291889146
  0
LINE
  5
756
330
1F
100
AcDbEntity
  8
２，細線
100
AcDbLine
 10
1417.802556814512
 20
758.5940015499001
 30
0.0
 11
1417.802556814512
 21
749.1940015499002
 31
0.0
  0
LINE
  5
757
330
1F
100
AcDbEntity
  8
２，細線
100
AcDbLine
 10
1417.802556814512
 20
758.5940015499001
 30
0.0
 11
1417.514112395468
 21
758.5940015499001
 31
0.0
  0
LINE
  5
758
330
1F
100
AcDbEntity
  8
２，細線
100
AcDbLine
 10
1417.514112395468
 20
758.5940015499001
 30
0.0
 11
1417.514112395468
 21
749.1940015499002
 31
0.0
  0
LINE
  5
759
330
1F
100
AcDbEntity
  8
1、実線
100
AcDbLine
 10
1417.802556814512
 20
749.1940015498999
 30
0.0
 11
1417.514112395468
 21
749.1940015498999
 31
0.0
  0
LINE
  5
76F
330
1F
100
AcDbEntity
  8
4、破線2
100
AcDbLine
 10
1365.312149989759
 20
689.8940015499
 30
0.0
 11
1369.31214998976
 21
689.8940015499
 31
0.0
  0
LINE
  5
770
330
1F
100
AcDbEntity
  8
4、破線2
100
AcDbLine
 10
1369.31214998976
 20
689.8940015499
 30
0.0
 11
1369.31214998976
 21
639.8940015499001
 31
0.0
  0
LINE
  5
771
330
1F
100
AcDbEntity
  8
4、破線2
100
AcDbLine
 10
1369.31214998976
 20
639.8940015499001
 30
0.0
 11
1365.312149989759
 21
639.8940015499001
 31
0.0
  0
LINE
  5
772
330
1F
100
AcDbEntity
  8
4、破線2
100
AcDbLine
 10
1365.312149989759
 20
639.8940015499001
 30
0.0
 11
1365.312149989759
 21
689.8940015499
 31
0.0
  0
LINE
  5
773
330
1F
100
AcDbEntity
  8
4、破線2
100
AcDbLine
 10
1366.512149989759
 20
689.8940015499
 30
0.0
 11
1366.512149989759
 21
639.8940015499001
 31
0.0
  0
LINE
  5
780
330
1F
100
AcDbEntity
  8
4、破線2
100
AcDbLine
 10
1369.31214998976
 20
670.4940015499
 30
0.0
 11
1382.312149989759
 21
670.4940015499
 31
0.0
  0
LINE
  5
781
330
1F
100
AcDbEntity
  8
4、破線2
100
AcDbLine
 10
1382.312149989759
 20
670.4940015499
 30
0.0
 11
1382.312149989759
 21
659.2940015499001
 31
0.0
  0
LINE
  5
782
330
1F
100
AcDbEntity
  8
4、破線2
100
AcDbLine
 10
1382.312149989759
 20
659.2940015499001
 30
0.0
 11
1369.31214998976
 21
659.2940015499001
 31
0.0
  0
LINE
  5
783
330
1F
100
AcDbEntity
  8
4、破線2
100
AcDbLine
 10
1369.31214998976
 20
659.2940015499001
 30
0.0
 11
1369.31214998976
 21
670.4940015499
 31
0.0
  0
LINE
  5
784
330
1F
100
AcDbEntity
  8
4、破線2
100
AcDbLine
 10
1381.112149989759
 20
670.4940015499
 30
0.0
 11
1381.112149989759
 21
679.9940015499003
 31
0.0
  0
LINE
  5
785
330
1F
100
AcDbEntity
  8
4、破線2
100
AcDbLine
 10
1381.112149989759
 20
679.9940015499003
 30
0.0
 11
1382.312149989759
 21
679.9940015499003
 31
0.0
  0
LINE
  5
786
330
1F
100
AcDbEntity
  8
4、破線2
100
AcDbLine
 10
1382.312149989759
 20
679.9940015499003
 30
0.0
 11
1382.312149989759
 21
649.2940015499002
 31
0.0
  0
LINE
  5
787
330
1F
100
AcDbEntity
  8
4、破線2
100
AcDbLine
 10
1382.312149989759
 20
649.2940015499002
 30
0.0
 11
1381.112149989759
 21
649.2940015499002
 31
0.0
  0
LINE
  5
788
330
1F
100
AcDbEntity
  8
4、破線2
100
AcDbLine
 10
1381.112149989759
 20
649.2940015499002
 30
0.0
 11
1381.112149989759
 21
659.2940015499001
 31
0.0
  0
LINE
  5
792
330
1F
100
AcDbEntity
  8
4、破線2
100
AcDbLine
 10
1383.112149989759
 20
643.2940015499001
 30
0.0
 11
1380.112149989759
 21
643.2940015499001
 31
0.0
  0
LINE
  5
793
330
1F
100
AcDbEntity
  8
4、破線2
100
AcDbLine
 10
1380.112149989759
 20
643.2940015499001
 30
0.0
 11
1380.112149989759
 21
648.2940015499001
 31
0.0
  0
LINE
  5
794
330
1F
100
AcDbEntity
  8
4、破線2
100
AcDbLine
 10
1380.112149989759
 20
648.2940015499001
 30
0.0
 11
1382.312149989759
 21
648.2940015499001
 31
0.0
  0
LINE
  5
795
330
1F
100
AcDbEntity
  8
4、破線2
100
AcDbLine
 10
1382.312149989759
 20
648.2940015499001
 30
0.0
 11
1382.312149989759
 21
657.3940015499001
 31
0.0
  0
LINE
  5
797
330
1F
100
AcDbEntity
  8
4、破線2
100
AcDbLine
 10
1383.112149989759
 20
654.8940015499002
 30
0.0
 11
1383.112149989759
 21
643.2940015499001
 31
0.0
  0
LINE
  5
79A
330
1F
100
AcDbEntity
  8
4、破線2
100
AcDbLine
 10
1382.312149989759
 20
654.8940015499002
 30
0.0
 11
1383.112149989759
 21
654.8940015498999
 31
0.0
  0
LINE
  5
7A0
330
1F
100
AcDbEntity
  8
4、破線2
100
AcDbLine
 10
1383.112149989759
 20
657.3940015499001
 30
0.0
 11
1383.612149989759
 21
657.3940015499001
 31
0.0
  0
LINE
  5
7A1
330
1F
100
AcDbEntity
  8
4、破線2
100
AcDbLine
 10
1383.612149989759
 20
657.3940015499001
 30
0.0
 11
1383.612149989759
 21
649.6940015499001
 31
0.0
  0
LINE
  5
7A2
330
1F
100
AcDbEntity
  8
4、破線2
100
AcDbLine
 10
1383.612149989759
 20
649.6940015499001
 30
0.0
 11
1383.112149989759
 21
649.6940015499001
 31
0.0
  0
LINE
  5
7A3
330
1F
100
AcDbEntity
  8
4、破線2
100
AcDbLine
 10
1383.112149989759
 20
649.6940015499001
 30
0.0
 11
1383.112149989759
 21
657.3940015499001
 31
0.0
  0
ARC
  5
7A8
330
1F
100
AcDbEntity
  8
4、破線2
100
AcDbCircle
 10
1378.612149989759
 20
653.5440015499001
 30
0.0
 40
7.0
100
AcDbArc
 50
343.5407503717397
 51
16.45924962826028
  0
LINE
  5
7AF
330
1F
100
AcDbEntity
  8
4、破線2
100
AcDbLine
 10
1383.612149989759
 20
656.2440015499
 30
0.0
 11
1384.366278942086
 21
656.2440015499
 31
0.0
  0
LINE
  5
7B0
330
1F
100
AcDbEntity
  8
4、破線2
100
AcDbLine
 10
1383.612149989759
 20
650.8440015499001
 30
0.0
 11
1384.366278942086
 21
650.8440015499001
 31
0.0
  0
ARC
  5
7B1
330
1F
100
AcDbEntity
  8
4、破線2
100
AcDbCircle
 10
1384.366278942086
 20
655.2440015499001
 30
0.0
 40
1.0
100
AcDbArc
 50
16.45924962826028
 51
90.0
  0
ARC
  5
7B2
330
1F
100
AcDbEntity
  8
4、破線2
100
AcDbCircle
 10
1384.366278942086
 20
651.8440015499001
 30
0.0
 40
1.0
100
AcDbArc
 50
270.0
 51
343.5407503717397
  0
ARC
  5
7B7
330
1F
100
AcDbEntity
  8
4、破線2
100
AcDbCircle
 10
1381.612149989759
 20
635.9940015499002
 30
0.0
 40
2.149999999999999
100
AcDbArc
 50
103.4477270445092
 51
76.55227295549062
  0
ARC
  5
7BA
330
1F
100
AcDbEntity
  8
4、破線2
100
AcDbCircle
 10
1381.612149989759
 20
635.9940015499002
 30
0.0
 40
0.5
100
AcDbArc
 50
180.0
 51
0.0
  0
LINE
  5
7BB
330
1F
100
AcDbEntity
  8
4、破線2
100
AcDbLine
 10
1381.112149989759
 20
635.9940015499002
 30
0.0
 11
1381.112149989759
 21
648.2940015499001
 31
0.0
  0
LINE
  5
7BC
330
1F
100
AcDbEntity
  8
4、破線2
100
AcDbLine
 10
1382.112149989759
 20
635.9940015499002
 30
0.0
 11
1382.112149989759
 21
648.2940015499001
 31
0.0
  0
LINE
  5
7C6
330
1F
100
AcDbEntity
  8
4、破線2
100
AcDbLine
 10
478.0121499897596
 20
689.8940015499
 30
0.0
 11
583.0121499897598
 21
689.8940015499
 31
0.0
  0
LINE
  5
7C7
330
1F
100
AcDbEntity
  8
4、破線2
100
AcDbLine
 10
583.0121499897598
 20
689.8940015499
 30
0.0
 11
583.0121499897598
 21
639.8940015499001
 31
0.0
  0
LINE
  5
7C8
330
1F
100
AcDbEntity
  8
4、破線2
100
AcDbLine
 10
583.0121499897598
 20
639.8940015499001
 30
0.0
 11
478.0121499897596
 21
639.8940015499001
 31
0.0
  0
LINE
  5
7C9
330
1F
100
AcDbEntity
  8
4、破線2
100
AcDbLine
 10
478.0121499897596
 20
639.8940015499001
 30
0.0
 11
478.0121499897596
 21
689.8940015499001
 31
0.0
  0
LINE
  5
7CC
330
1F
100
AcDbEntity
  8
4、破線2
100
AcDbLine
 10
487.5121499897597
 20
689.8940015499
 30
0.0
 11
487.5121499897597
 21
639.8940015499001
 31
0.0
  0
LINE
  5
7CD
330
1F
100
AcDbEntity
  8
4、破線2
100
AcDbLine
 10
573.5121499897595
 20
689.8940015499
 30
0.0
 11
573.5121499897598
 21
639.8940015499001
 31
0.0
  0
CIRCLE
  5
7CF
330
1F
100
AcDbEntity
  8
4、破線2
100
AcDbCircle
 10
515.5121499897595
 20
664.8940015499001
 30
0.0
 40
7.5
  0
LINE
  5
7D4
330
1F
100
AcDbEntity
  8
4、破線2
100
AcDbLine
 10
537.5121499897597
 20
670.4940015499
 30
0.0
 11
571.5121499897596
 21
670.4940015499
 31
0.0
  0
LINE
  5
7D5
330
1F
100
AcDbEntity
  8
4、破線2
100
AcDbLine
 10
571.5121499897596
 20
670.4940015499
 30
0.0
 11
571.5121499897596
 21
659.2940015499001
 31
0.0
  0
LINE
  5
7D6
330
1F
100
AcDbEntity
  8
4、破線2
100
AcDbLine
 10
571.5121499897596
 20
659.2940015499001
 30
0.0
 11
537.5121499897597
 21
659.2940015499001
 31
0.0
  0
LINE
  5
7D7
330
1F
100
AcDbEntity
  8
4、破線2
100
AcDbLine
 10
537.5121499897597
 20
659.2940015499001
 30
0.0
 11
537.5121499897597
 21
670.4940015499
 31
0.0
  0
LINE
  5
7E0
330
1F
100
AcDbEntity
  8
4、破線2
100
AcDbLine
 10
540.2621499897596
 20
679.8940015499002
 30
0.0
 11
548.7621499897596
 21
679.8940015499002
 31
0.0
  0
LINE
  5
7E1
330
1F
100
AcDbEntity
  8
4、破線2
100
AcDbLine
 10
548.7621499897596
 20
679.8940015499002
 30
0.0
 11
548.7621499897596
 21
649.2940015499002
 31
0.0
  0
LINE
  5
7E2
330
1F
100
AcDbEntity
  8
4、破線2
100
AcDbLine
 10
548.7621499897596
 20
649.2940015499002
 30
0.0
 11
540.2621499897596
 21
649.2940015499002
 31
0.0
  0
LINE
  5
7E3
330
1F
100
AcDbEntity
  8
4、破線2
100
AcDbLine
 10
540.2621499897596
 20
649.2940015499002
 30
0.0
 11
540.2621499897596
 21
679.8940015499002
 31
0.0
  0
LINE
  5
7E4
330
1F
100
AcDbEntity
  8
4、破線2
100
AcDbLine
 10
560.2621499897597
 20
679.8940015499002
 30
0.0
 11
568.7621499897598
 21
679.8940015499002
 31
0.0
  0
LINE
  5
7E5
330
1F
100
AcDbEntity
  8
4、破線2
100
AcDbLine
 10
568.7621499897598
 20
679.8940015499002
 30
0.0
 11
568.7621499897598
 21
649.2940015499002
 31
0.0
  0
LINE
  5
7E6
330
1F
100
AcDbEntity
  8
4、破線2
100
AcDbLine
 10
568.7621499897598
 20
649.2940015499002
 30
0.0
 11
560.2621499897597
 21
649.2940015499002
 31
0.0
  0
LINE
  5
7E7
330
1F
100
AcDbEntity
  8
4、破線2
100
AcDbLine
 10
560.2621499897597
 20
649.2940015499002
 30
0.0
 11
560.2621499897597
 21
679.8940015499002
 31
0.0
  0
LINE
  5
7F6
330
1F
100
AcDbEntity
  8
4、破線2
100
AcDbLine
 10
561.5121499897595
 20
636.2940015499001
 30
0.0
 11
561.5121499897595
 21
632.2940015499001
 31
0.0
  0
LINE
  5
7F7
330
1F
100
AcDbEntity
  8
4、破線2
100
AcDbLine
 10
561.5121499897595
 20
632.2940015499001
 30
0.0
 11
550.5121499897597
 21
632.2940015499001
 31
0.0
  0
LINE
  5
7F8
330
1F
100
AcDbEntity
  8
4、破線2
100
AcDbLine
 10
550.5121499897597
 20
632.2940015499001
 30
0.0
 11
547.5121499897595
 21
633.0440015499001
 31
0.0
  0
LINE
  5
7F9
330
1F
100
AcDbEntity
  8
4、破線2
100
AcDbLine
 10
547.5121499897595
 20
633.0440015499001
 30
0.0
 11
547.5121499897595
 21
635.5440015499001
 31
0.0
  0
LINE
  5
7FA
330
1F
100
AcDbEntity
  8
4、破線2
100
AcDbLine
 10
547.5121499897595
 20
635.5440015499001
 30
0.0
 11
550.5121499897597
 21
636.2940015499001
 31
0.0
  0
LINE
  5
7FB
330
1F
100
AcDbEntity
  8
4、破線2
100
AcDbLine
 10
550.5121499897597
 20
636.2940015499001
 30
0.0
 11
561.5121499897595
 21
636.2940015499001
 31
0.0
  0
CIRCLE
  5
803
330
1F
100
AcDbEntity
  8
4、破線2
100
AcDbCircle
 10
544.5121499897595
 20
653.5440015499001
 30
0.0
 40
3.85
  0
CIRCLE
  5
804
330
1F
100
AcDbEntity
  8
4、破線2
100
AcDbCircle
 10
564.5121499897595
 20
653.5440015499001
 30
0.0
 40
3.85
  0
CIRCLE
  5
805
330
1F
100
AcDbEntity
  8
4、破線2
100
AcDbCircle
 10
544.5121499897595
 20
653.5440015499001
 30
0.0
 40
2.75
  0
CIRCLE
  5
806
330
1F
100
AcDbEntity
  8
4、破線2
100
AcDbCircle
 10
564.5121499897595
 20
653.5440015499001
 30
0.0
 40
2.75
  0
LINE
  5
815
330
1F
100
AcDbEntity
  8
4、破線2
100
AcDbLine
 10
544.0121499897595
 20
643.2940015499001
 30
0.0
 11
544.0121499897595
 21
633.7940015499001
 31
0.0
  0
LINE
  5
816
330
1F
100
AcDbEntity
  8
4、破線2
100
AcDbLine
 10
544.0121499897595
 20
633.7940015499001
 30
0.0
 11
547.5121499897595
 21
633.7940015499001
 31
0.0
  0
LINE
  5
817
330
1F
100
AcDbEntity
  8
4、破線2
100
AcDbLine
 10
547.5121499897595
 20
634.7940015499001
 30
0.0
 11
545.0121499897597
 21
634.7940015499001
 31
0.0
  0
LINE
  5
818
330
1F
100
AcDbEntity
  8
4、破線2
100
AcDbLine
 10
545.0121499897597
 20
634.7940015499001
 30
0.0
 11
545.0121499897597
 21
643.2940015499001
 31
0.0
  0
LINE
  5
819
330
1F
100
AcDbEntity
  8
4、破線2
100
AcDbLine
 10
561.5121499897595
 20
633.7940015499001
 30
0.0
 11
565.0121499897595
 21
633.7940015499001
 31
0.0
  0
LINE
  5
81A
330
1F
100
AcDbEntity
  8
4、破線2
100
AcDbLine
 10
565.0121499897595
 20
633.7940015499001
 30
0.0
 11
565.0121499897595
 21
643.2940015499001
 31
0.0
  0
LINE
  5
81B
330
1F
100
AcDbEntity
  8
4、破線2
100
AcDbLine
 10
564.0121499897595
 20
643.2940015499001
 30
0.0
 11
564.0121499897595
 21
634.7940015499001
 31
0.0
  0
LINE
  5
81C
330
1F
100
AcDbEntity
  8
4、破線2
100
AcDbLine
 10
564.0121499897595
 20
634.7940015499001
 30
0.0
 11
561.5121499897595
 21
634.7940015499001
 31
0.0
  0
LINE
  5
822
330
1F
100
AcDbEntity
  8
4、破線2
100
AcDbLine
 10
542.5121499897596
 20
649.2940015499002
 30
0.0
 11
542.5121499897596
 21
643.2940015499001
 31
0.0
  0
LINE
  5
823
330
1F
100
AcDbEntity
  8
4、破線2
100
AcDbLine
 10
542.5121499897596
 20
643.2940015499001
 30
0.0
 11
546.5121499897596
 21
643.2940015499001
 31
0.0
  0
LINE
  5
824
330
1F
100
AcDbEntity
  8
4、破線2
100
AcDbLine
 10
546.5121499897596
 20
643.2940015499001
 30
0.0
 11
546.5121499897596
 21
649.2940015499002
 31
0.0
  0
LINE
  5
825
330
1F
100
AcDbEntity
  8
4、破線2
100
AcDbLine
 10
562.5121499897597
 20
649.2940015499002
 30
0.0
 11
562.5121499897597
 21
643.2940015499001
 31
0.0
  0
LINE
  5
826
330
1F
100
AcDbEntity
  8
4、破線2
100
AcDbLine
 10
562.5121499897597
 20
643.2940015499001
 30
0.0
 11
566.5121499897598
 21
643.2940015499001
 31
0.0
  0
LINE
  5
827
330
1F
100
AcDbEntity
  8
4、破線2
100
AcDbLine
 10
566.5121499897598
 20
643.2940015499001
 30
0.0
 11
566.5121499897598
 21
649.2940015499002
 31
0.0
  0
LINE
  5
832
330
1F
100
AcDbEntity
  8
4、破線2
100
AcDbLine
 10
478.0121499897599
 20
1280.632009914905
 30
0.0
 11
478.0121499897599
 21
1281.832009914904
 31
0.0
  0
LINE
  5
833
330
1F
100
AcDbEntity
  8
4、破線2
100
AcDbLine
 10
478.0121499897599
 20
1281.832009914904
 30
0.0
 11
487.5121499897598
 21
1281.832009914904
 31
0.0
  0
LINE
  5
834
330
1F
100
AcDbEntity
  8
4、破線2
100
AcDbLine
 10
487.5121499897598
 20
1281.832009914904
 30
0.0
 11
487.5121499897598
 21
1284.632009914905
 31
0.0
  0
LINE
  5
835
330
1F
100
AcDbEntity
  8
4、破線2
100
AcDbLine
 10
487.5121499897598
 20
1284.632009914905
 30
0.0
 11
573.5121499897599
 21
1284.632009914905
 31
0.0
  0
LINE
  5
836
330
1F
100
AcDbEntity
  8
4、破線2
100
AcDbLine
 10
573.5121499897599
 20
1284.632009914905
 30
0.0
 11
573.5121499897599
 21
1281.832009914904
 31
0.0
  0
LINE
  5
837
330
1F
100
AcDbEntity
  8
4、破線2
100
AcDbLine
 10
573.5121499897599
 20
1281.832009914904
 30
0.0
 11
583.0121499897598
 21
1281.832009914904
 31
0.0
  0
LINE
  5
838
330
1F
100
AcDbEntity
  8
4、破線2
100
AcDbLine
 10
583.0121499897598
 20
1281.832009914904
 30
0.0
 11
583.0121499897598
 21
1280.632009914905
 31
0.0
  0
LINE
  5
839
330
1F
100
AcDbEntity
  8
4、破線2
100
AcDbLine
 10
572.3121499897597
 20
1280.632009914905
 30
0.0
 11
572.3121499897597
 21
1283.432009914905
 31
0.0
  0
LINE
  5
83A
330
1F
100
AcDbEntity
  8
4、破線2
100
AcDbLine
 10
572.3121499897597
 20
1283.432009914905
 30
0.0
 11
488.7121499897599
 21
1283.432009914905
 31
0.0
  0
LINE
  5
83B
330
1F
100
AcDbEntity
  8
4、破線2
100
AcDbLine
 10
488.7121499897599
 20
1283.432009914905
 30
0.0
 11
488.7121499897599
 21
1280.632009914905
 31
0.0
  0
LINE
  5
842
330
1F
100
AcDbEntity
  8
4、破線2
100
AcDbLine
 10
508.0121499897598
 20
1280.632009914905
 30
0.0
 11
508.0121499897598
 21
1292.632009914905
 31
0.0
  0
LINE
  5
843
330
1F
100
AcDbEntity
  8
4、破線2
100
AcDbLine
 10
508.0121499897598
 20
1292.632009914905
 30
0.0
 11
523.01214998976
 21
1292.632009914905
 31
0.0
  0
LINE
  5
844
330
1F
100
AcDbEntity
  8
4、破線2
100
AcDbLine
 10
523.01214998976
 20
1292.632009914905
 30
0.0
 11
523.01214998976
 21
1280.632009914905
 31
0.0
  0
LINE
  5
849
330
1F
100
AcDbEntity
  8
4、破線2
100
AcDbLine
 10
513.01214998976
 20
1292.632009914905
 30
0.0
 11
513.01214998976
 21
1298.132009914905
 31
0.0
  0
LINE
  5
84A
330
1F
100
AcDbEntity
  8
4、破線2
100
AcDbLine
 10
513.01214998976
 20
1298.132009914905
 30
0.0
 11
518.01214998976
 21
1298.132009914905
 31
0.0
  0
LINE
  5
84B
330
1F
100
AcDbEntity
  8
4、破線2
100
AcDbLine
 10
518.01214998976
 20
1298.132009914905
 30
0.0
 11
518.01214998976
 21
1292.632009914905
 31
0.0
  0
LINE
  5
854
330
1F
100
AcDbEntity
  8
4、破線2
100
AcDbLine
 10
537.4121499897598
 20
1284.632009914905
 30
0.0
 11
537.4121499897598
 21
1297.732009914905
 31
0.0
  0
LINE
  5
855
330
1F
100
AcDbEntity
  8
4、破線2
100
AcDbLine
 10
537.4121499897598
 20
1297.732009914905
 30
0.0
 11
540.2621499897597
 21
1297.732009914905
 31
0.0
  0
LINE
  5
856
330
1F
100
AcDbEntity
  8
4、破線2
100
AcDbLine
 10
540.2621499897597
 20
1297.732009914905
 30
0.0
 11
540.2621499897597
 21
1296.232009914906
 31
0.0
  0
LINE
  5
857
330
1F
100
AcDbEntity
  8
4、破線2
100
AcDbLine
 10
540.2621499897597
 20
1296.232009914906
 30
0.0
 11
548.7621499897597
 21
1296.232009914906
 31
0.0
  0
LINE
  5
858
330
1F
100
AcDbEntity
  8
4、破線2
100
AcDbLine
 10
548.7621499897597
 20
1296.232009914906
 30
0.0
 11
548.7621499897597
 21
1297.732009914905
 31
0.0
  0
LINE
  5
859
330
1F
100
AcDbEntity
  8
4、破線2
100
AcDbLine
 10
548.7621499897597
 20
1297.732009914905
 30
0.0
 11
560.2621499897598
 21
1297.732009914905
 31
0.0
  0
LINE
  5
85A
330
1F
100
AcDbEntity
  8
4、破線2
100
AcDbLine
 10
560.2621499897598
 20
1297.732009914905
 30
0.0
 11
560.2621499897598
 21
1296.232009914906
 31
0.0
  0
LINE
  5
85B
330
1F
100
AcDbEntity
  8
4、破線2
100
AcDbLine
 10
560.2621499897598
 20
1296.232009914906
 30
0.0
 11
568.7621499897598
 21
1296.232009914906
 31
0.0
  0
LINE
  5
85C
330
1F
100
AcDbEntity
  8
4、破線2
100
AcDbLine
 10
568.7621499897598
 20
1296.232009914906
 30
0.0
 11
568.7621499897598
 21
1297.732009914905
 31
0.0
  0
LINE
  5
85D
330
1F
100
AcDbEntity
  8
4、破線2
100
AcDbLine
 10
568.7621499897598
 20
1297.732009914905
 30
0.0
 11
571.6121499897599
 21
1297.732009914905
 31
0.0
  0
LINE
  5
85E
330
1F
100
AcDbEntity
  8
4、破線2
100
AcDbLine
 10
571.6121499897599
 20
1297.732009914905
 30
0.0
 11
571.6121499897599
 21
1284.632009914905
 31
0.0
  0
CIRCLE
  5
864
330
1F
100
AcDbEntity
  8
4、破線2
100
AcDbCircle
 10
544.5121499897599
 20
1299.482009914904
 30
0.0
 40
1.75
  0
CIRCLE
  5
865
330
1F
100
AcDbEntity
  8
4、破線2
100
AcDbCircle
 10
564.5121499897599
 20
1299.482009914904
 30
0.0
 40
1.75
  0
LINE
  5
868
330
1F
100
AcDbEntity
  8
4、破線2
100
AcDbLine
 10
561.5121499897599
 20
1301.482009914906
 30
0.0
 11
561.5121499897599
 21
1297.482009914904
 31
0.0
  0
LINE
  5
869
330
1F
100
AcDbEntity
  8
4、破線2
100
AcDbLine
 10
561.5121499897599
 20
1297.482009914904
 30
0.0
 11
550.5121499897597
 21
1297.482009914904
 31
0.0
  0
LINE
  5
86A
330
1F
100
AcDbEntity
  8
4、破線2
100
AcDbLine
 10
550.5121499897597
 20
1297.482009914904
 30
0.0
 11
547.5121499897599
 21
1298.232009914904
 31
0.0
  0
LINE
  5
86B
330
1F
100
AcDbEntity
  8
4、破線2
100
AcDbLine
 10
547.5121499897599
 20
1298.232009914904
 30
0.0
 11
547.5121499897599
 21
1300.732009914906
 31
0.0
  0
LINE
  5
86C
330
1F
100
AcDbEntity
  8
4、破線2
100
AcDbLine
 10
547.5121499897599
 20
1300.732009914906
 30
0.0
 11
550.5121499897597
 21
1301.482009914906
 31
0.0
  0
LINE
  5
86D
330
1F
100
AcDbEntity
  8
4、破線2
100
AcDbLine
 10
550.5121499897597
 20
1301.482009914906
 30
0.0
 11
561.5121499897599
 21
1301.482009914906
 31
0.0
  0
LINE
  5
86E
330
1F
100
AcDbEntity
  8
4、破線2
100
AcDbLine
 10
544.0121499897599
 20
1298.982009914904
 30
0.0
 11
547.5121499897599
 21
1298.982009914904
 31
0.0
  0
LINE
  5
86F
330
1F
100
AcDbEntity
  8
4、破線2
100
AcDbLine
 10
547.5121499897599
 20
1299.982009914905
 30
0.0
 11
545.0121499897599
 21
1299.982009914905
 31
0.0
  0
LINE
  5
870
330
1F
100
AcDbEntity
  8
4、破線2
100
AcDbLine
 10
561.5121499897599
 20
1298.982009914904
 30
0.0
 11
565.0121499897599
 21
1298.982009914904
 31
0.0
  0
LINE
  5
871
330
1F
100
AcDbEntity
  8
4、破線2
100
AcDbLine
 10
564.0121499897599
 20
1299.982009914905
 30
0.0
 11
561.5121499897599
 21
1299.982009914905
 31
0.0
  0
LINE
  5
872
330
1F
100
AcDbEntity
  8
4、破線2
100
AcDbLine
 10
540.2621499897597
 20
1297.732009914905
 30
0.0
 11
548.7621499897597
 21
1297.732009914905
 31
0.0
  0
LINE
  5
873
330
1F
100
AcDbEntity
  8
4、破線2
100
AcDbLine
 10
560.2621499897598
 20
1297.732009914905
 30
0.0
 11
568.7621499897598
 21
1297.732009914905
 31
0.0
  0
LINE
  5
878
330
1F
100
AcDbEntity
  8
1、実線
100
AcDbLine
 10
723.5121499897596
 20
927.1320099149059
 30
0.0
 11
724.7121499897597
 21
927.1320099149059
 31
0.0
  0
LINE
  5
879
330
1F
100
AcDbEntity
  8
1、実線
100
AcDbLine
 10
724.7121499897597
 20
927.1320099149059
 30
0.0
 11
724.7121499897597
 21
917.1320099149056
 31
0.0
  0
LINE
  5
87A
330
1F
100
AcDbEntity
  8
1、実線
100
AcDbLine
 10
724.7121499897597
 20
917.1320099149056
 30
0.0
 11
720.5121499897597
 21
917.132009914906
 31
0.0
  0
LINE
  5
880
330
1F
100
AcDbEntity
  8
中箱
100
AcDbLine
 10
390.5121499897596
 20
931.832009914906
 30
0.0
 11
390.5121499897596
 21
1279.632009914904
 31
0.0
  0
LINE
  5
881
330
1F
100
AcDbEntity
  8
中箱
100
AcDbLine
 10
390.5121499897596
 20
1279.632009914904
 30
0.0
 11
670.5121499897598
 21
1279.632009914904
 31
0.0
  0
LINE
  5
882
330
1F
100
AcDbEntity
  8
中箱
100
AcDbLine
 10
670.5121499897598
 20
1279.632009914904
 30
0.0
 11
670.5121499897598
 21
932.832009914906
 31
0.0
  0
LINE
  5
892
330
1F
100
AcDbEntity
  8
1、実線
100
AcDbLine
 10
345.5121499897594
 20
319.8940015499001
 30
0.0
 11
345.5121499897594
 21
289.8940015499001
 31
0.0
  0
LINE
  5
893
330
1F
100
AcDbEntity
  8
1、実線
100
AcDbLine
 10
345.5121499897594
 20
289.8940015499001
 30
0.0
 11
385.5121499897595
 21
289.8940015499001
 31
0.0
  0
LINE
  5
894
330
1F
100
AcDbEntity
  8
1、実線
100
AcDbLine
 10
385.5121499897595
 20
289.8940015499001
 30
0.0
 11
385.5121499897595
 21
297.8940015499001
 31
0.0
  0
LINE
  5
895
330
1F
100
AcDbEntity
  8
1、実線
100
AcDbLine
 10
385.5121499897595
 20
297.8940015499001
 30
0.0
 11
397.5121499897595
 21
297.8940015499001
 31
0.0
  0
LINE
  5
896
330
1F
100
AcDbEntity
  8
1、実線
100
AcDbLine
 10
397.5121499897595
 20
297.8940015499001
 30
0.0
 11
397.5121499897595
 21
299.8940015499001
 31
0.0
  0
LINE
  5
897
330
1F
100
AcDbEntity
  8
1、実線
100
AcDbLine
 10
397.5121499897595
 20
299.8940015499001
 30
0.0
 11
385.5121499897595
 21
299.8940015499001
 31
0.0
  0
LINE
  5
898
330
1F
100
AcDbEntity
  8
1、実線
100
AcDbLine
 10
385.5121499897595
 20
299.8940015499001
 30
0.0
 11
385.5121499897595
 21
319.8940015499001
 31
0.0
  0
LINE
  5
899
330
1F
100
AcDbEntity
  8
1、実線
100
AcDbLine
 10
385.5121499897595
 20
299.8940015499001
 30
0.0
 11
345.5121499897594
 21
299.8940015499001
 31
0.0
  0
LINE
  5
89A
330
1F
100
AcDbEntity
  8
1、実線
100
AcDbLine
 10
385.5121499897595
 20
297.8940015499001
 30
0.0
 11
345.5121499897594
 21
297.8940015499001
 31
0.0
  0
LINE
  5
89B
330
1F
100
AcDbEntity
  8
1、実線
100
AcDbLine
 10
345.5121499897594
 20
295.8940015499001
 30
0.0
 11
385.5121499897595
 21
295.8940015499001
 31
0.0
  0
LINE
  5
89C
330
1F
100
AcDbEntity
  8
1、実線
100
AcDbLine
 10
715.5121499897596
 20
299.8940015499001
 30
0.0
 11
663.5121499897596
 21
299.8940015499001
 31
0.0
  0
LINE
  5
89D
330
1F
100
AcDbEntity
  8
1、実線
100
AcDbLine
 10
663.5121499897596
 20
299.8940015499001
 30
0.0
 11
663.5121499897596
 21
297.8940015499001
 31
0.0
  0
LINE
  5
89E
330
1F
100
AcDbEntity
  8
1、実線
100
AcDbLine
 10
663.5121499897596
 20
297.8940015499001
 30
0.0
 11
715.5121499897596
 21
297.8940015499001
 31
0.0
  0
LINE
  5
89F
330
1F
100
AcDbEntity
  8
1、実線
100
AcDbLine
 10
715.5121499897596
 20
319.8940015499001
 30
0.0
 11
715.5121499897596
 21
289.8940015499001
 31
0.0
  0
LINE
  5
8A0
330
1F
100
AcDbEntity
  8
1、実線
100
AcDbLine
 10
715.5121499897596
 20
289.8940015499001
 30
0.0
 11
675.5121499897597
 21
289.8940015499001
 31
0.0
  0
LINE
  5
8A1
330
1F
100
AcDbEntity
  8
1、実線
100
AcDbLine
 10
675.5121499897597
 20
289.8940015499001
 30
0.0
 11
675.5121499897597
 21
297.8940015499001
 31
0.0
  0
LINE
  5
8A2
330
1F
100
AcDbEntity
  8
1、実線
100
AcDbLine
 10
675.5121499897597
 20
299.8940015499001
 30
0.0
 11
675.5121499897597
 21
319.8940015499001
 31
0.0
  0
LINE
  5
8A3
330
1F
100
AcDbEntity
  8
1、実線
100
AcDbLine
 10
675.5121499897597
 20
295.8940015499001
 30
0.0
 11
715.5121499897596
 21
295.8940015499001
 31
0.0
  0
LINE
  5
8AB
330
1F
100
AcDbEntity
  8
1、実線
100
AcDbLine
 10
1057.512149989759
 20
319.8940015499001
 30
0.0
 11
1057.512149989759
 21
289.8940015499001
 31
0.0
  0
LINE
  5
8AC
330
1F
100
AcDbEntity
  8
1、実線
100
AcDbLine
 10
1057.512149989759
 20
289.8940015499001
 30
0.0
 11
983.5121499897596
 21
289.8940015499001
 31
0.0
  0
LINE
  5
8AD
330
1F
100
AcDbEntity
  8
1、実線
100
AcDbLine
 10
983.5121499897596
 20
289.8940015499001
 30
0.0
 11
983.5121499897596
 21
295.8940015499001
 31
0.0
  0
LINE
  5
8AE
330
1F
100
AcDbEntity
  8
1、実線
100
AcDbLine
 10
983.5121499897596
 20
295.8940015499001
 30
0.0
 11
1002.512149989759
 21
297.8940015499001
 31
0.0
  0
LINE
  5
8AF
330
1F
100
AcDbEntity
  8
1、実線
100
AcDbLine
 10
1002.512149989759
 20
297.8940015499001
 30
0.0
 11
1002.512149989759
 21
299.8940015499001
 31
0.0
  0
LINE
  5
8B0
330
1F
100
AcDbEntity
  8
1、実線
100
AcDbLine
 10
1002.512149989759
 20
299.8940015499001
 30
0.0
 11
1024.012149989759
 21
299.8940015499001
 31
0.0
  0
LINE
  5
8B2
330
1F
100
AcDbEntity
  8
1、実線
100
AcDbLine
 10
1024.012149989759
 20
299.8940015499001
 30
0.0
 11
1024.012149989759
 21
319.8940015499001
 31
0.0
  0
LINE
  5
8B8
330
1F
100
AcDbEntity
  8
1、実線
100
AcDbLine
 10
1383.514112395468
 20
319.8940015499001
 30
0.0
 11
1386.514112395468
 21
289.8940015499001
 31
0.0
  0
LINE
  5
8B9
330
1F
100
AcDbEntity
  8
1、実線
100
AcDbLine
 10
1386.514112395468
 20
289.8940015499001
 30
0.0
 11
1406.514112395468
 21
289.8940015499001
 31
0.0
  0
LINE
  5
8BA
330
1F
100
AcDbEntity
  8
1、実線
100
AcDbLine
 10
1406.514112395468
 20
289.8940015499001
 30
0.0
 11
1409.514112395468
 21
319.8940015499001
 31
0.0
  0
LINE
  5
917
330
1F
100
AcDbEntity
  8
1、実線
100
AcDbLine
 10
720.5121499897597
 20
665.8940015499001
 30
0.0
 11
720.5121499897597
 21
693.8940015499
 31
0.0
  0
LINE
  5
921
330
1F
100
AcDbEntity
  8
1、実線
100
AcDbLine
 10
726.4121499897596
 20
968.8320099149061
 30
0.0
 11
728.0121499897596
 21
968.8320099149061
 31
0.0
  0
LINE
  5
922
330
1F
100
AcDbEntity
  8
1、実線
100
AcDbLine
 10
728.0121499897596
 20
968.8320099149061
 30
0.0
 11
728.0121499897596
 21
956.832009914906
 31
0.0
  0
LINE
  5
923
330
1F
100
AcDbEntity
  8
1、実線
100
AcDbLine
 10
728.0121499897596
 20
956.832009914906
 30
0.0
 11
723.5121499897596
 21
956.832009914906
 31
0.0
  0
ARC
  5
941
330
1F
100
AcDbEntity
  8
1、実線
100
AcDbCircle
 10
892.7987010693781
 20
539.4900920256656
 30
0.0
 40
80.00000000000005
100
AcDbArc
 50
12.37536574611439
 51
35.19908405146049
  0
ARC
  5
942
330
1F
100
AcDbEntity
  8
1、実線
100
AcDbCircle
 10
892.7987010693781
 20
721.2979110741346
 30
0.0
 40
80.00000000000003
100
AcDbArc
 50
324.8009159485395
 51
347.6246342538856
  0
LINE
  5
943
330
1F
100
AcDbEntity
  8
1、実線
100
AcDbLine
 10
974.4982972125706
 20
707.2801972560036
 30
0.0
 11
981.5141123954687
 21
707.8940015499
 31
0.0
  0
LINE
  5
944
330
1F
100
AcDbEntity
  8
1、実線
100
AcDbLine
 10
954.5141123954687
 20
663.655985778324
 30
0.0
 11
954.5141123954687
 21
597.1320173214763
 31
0.0
  0
LINE
  5
945
330
1F
100
AcDbEntity
  8
1、実線
100
AcDbLine
 10
974.4982972125706
 20
553.5078058437968
 30
0.0
 11
981.5141123954687
 21
552.8940015499001
 31
0.0
  0
ARC
  5
94B
330
1F
100
AcDbEntity
  8
1、実線
100
AcDbCircle
 10
974.8469201835613
 20
557.4925846361638
 30
0.0
 40
4.0
100
AcDbArc
 50
192.3753657461143
 51
265.0000000000001
  0
ARC
  5
94C
330
1F
100
AcDbEntity
  8
1、実線
100
AcDbCircle
 10
974.8469201835613
 20
703.2954184636365
 30
0.0
 40
4.0
100
AcDbArc
 50
94.99999999999976
 51
167.6246342538856
  0
ARC
  5
94D
330
1F
100
AcDbEntity
  8
1、実線
100
AcDbCircle
 10
974.5141123954686
 20
597.1320173214763
 30
0.0
 40
20.0
100
AcDbArc
 50
180.0
 51
215.1990840514605
  0
ARC
  5
94E
330
1F
100
AcDbEntity
  8
1、実線
100
AcDbCircle
 10
974.514112395469
 20
663.655985778324
 30
0.0
 40
20.0
100
AcDbArc
 50
144.8009159485395
 51
180.0
  0
LINE
  5
957
330
1F
100
AcDbEntity
  8
1、実線
100
AcDbLine
 10
981.5141123954687
 20
707.8940015499
 30
0.0
 11
981.5141123954687
 21
679.3940015499003
 31
0.0
  0
LINE
  5
958
330
1F
100
AcDbEntity
  8
1、実線
100
AcDbLine
 10
981.5141123954687
 20
679.3940015499003
 30
0.0
 11
977.5141123954687
 21
679.3940015499003
 31
0.0
  0
LINE
  5
959
330
1F
100
AcDbEntity
  8
1、実線
100
AcDbLine
 10
962.5141123954687
 20
664.3940015499001
 30
0.0
 11
962.5141123954687
 21
596.3940015499002
 31
0.0
  0
LINE
  5
95A
330
1F
100
AcDbEntity
  8
1、実線
100
AcDbLine
 10
977.5141123954687
 20
581.3940015499001
 30
0.0
 11
981.5141123954687
 21
581.3940015499001
 31
0.0
  0
LINE
  5
95B
330
1F
100
AcDbEntity
  8
1、実線
100
AcDbLine
 10
981.5141123954687
 20
581.3940015499001
 30
0.0
 11
981.5141123954687
 21
552.8940015499001
 31
0.0
  0
ARC
  5
95C
330
1F
100
AcDbEntity
  8
1、実線
100
AcDbCircle
 10
977.5141123954687
 20
664.3940015499001
 30
0.0
 40
15.0
100
AcDbArc
 50
90.0
 51
180.0
  0
ARC
  5
95D
330
1F
100
AcDbEntity
  8
1、実線
100
AcDbCircle
 10
977.5141123954687
 20
596.3940015499002
 30
0.0
 40
15.0
100
AcDbArc
 50
180.0
 51
270.0
  0
LINE
  5
965
330
1F
100
AcDbEntity
  8
1、実線
100
AcDbLine
 10
370.5121499897594
 20
707.8940015499
 30
0.0
 11
390.5121499897595
 21
707.8940015499
 31
0.0
  0
LINE
  5
966
330
1F
100
AcDbEntity
  8
1、実線
100
AcDbLine
 10
390.5121499897595
 20
707.8940015499
 30
0.0
 11
390.5121499897595
 21
552.8940015499001
 31
0.0
  0
LINE
  5
967
330
1F
100
AcDbEntity
  8
1、実線
100
AcDbLine
 10
390.5121499897595
 20
552.8940015499001
 30
0.0
 11
370.5121499897594
 21
552.8940015499001
 31
0.0
  0
LINE
  5
968
330
1F
100
AcDbEntity
  8
1、実線
100
AcDbLine
 10
370.5121499897594
 20
552.8940015499001
 30
0.0
 11
370.5121499897594
 21
707.8940015499
 31
0.0
  0
LINE
  5
96B
330
1F
100
AcDbEntity
  8
1、実線
100
AcDbLine
 10
372.5121499897595
 20
670.3940015499001
 30
0.0
 11
388.5121499897595
 21
670.3940015499001
 31
0.0
  0
LINE
  5
96C
330
1F
100
AcDbEntity
  8
1、実線
100
AcDbLine
 10
372.5121499897594
 20
590.3940015499001
 30
0.0
 11
388.5121499897595
 21
590.3940015499001
 31
0.0
  0
LINE
  5
96D
330
1F
100
AcDbEntity
  8
3、破線1
100
AcDbLine
 10
370.5121499897596
 20
581.3940015499002
 30
0.0
 11
390.5121499897595
 21
581.3940015499002
 31
0.0
  0
LINE
  5
96E
330
1F
100
AcDbEntity
  8
3、破線1
100
AcDbLine
 10
370.5121499897594
 20
679.3940015499003
 30
0.0
 11
390.5121499897595
 21
679.3940015499003
 31
0.0
  0
LINE
  5
972
330
1F
100
AcDbEntity
  8
1、実線
100
AcDbLine
 10
370.5121499897596
 20
896.8320099149059
 30
0.0
 11
370.5121499897596
 21
871.8320099149059
 31
0.0
  0
LINE
  5
973
330
1F
100
AcDbEntity
  8
1、実線
100
AcDbLine
 10
372.5121499897596
 20
869.8320099149057
 30
0.0
 11
388.5121499897596
 21
869.8320099149057
 31
0.0
  0
LINE
  5
974
330
1F
100
AcDbEntity
  8
1、実線
100
AcDbLine
 10
390.5121499897596
 20
871.8320099149059
 30
0.0
 11
390.5121499897596
 21
896.8320099149059
 31
0.0
  0
LINE
  5
975
330
1F
100
AcDbEntity
  8
1、実線
100
AcDbLine
 10
390.5121499897596
 20
896.8320099149059
 30
0.0
 11
370.5121499897596
 21
896.8320099149059
 31
0.0
  0
LINE
  5
976
330
1F
100
AcDbEntity
  8
1、実線
100
AcDbLine
 10
372.5121499897596
 20
886.8320099149057
 30
0.0
 11
388.5121499897596
 21
886.8320099149057
 31
0.0
  0
LINE
  5
978
330
1F
100
AcDbEntity
  8
3、破線1
100
AcDbLine
 10
370.5121499897596
 20
877.8320099149057
 30
0.0
 11
390.5121499897596
 21
877.8320099149057
 31
0.0
  0
ARC
  5
ADC
330
1F
100
AcDbEntity
  8
1、実線
100
AcDbCircle
 10
372.5121499897596
 20
871.8320099149059
 30
0.0
 40
2.0
100
AcDbArc
 50
180.0
 51
270.0
  0
ARC
  5
ADD
330
1F
100
AcDbEntity
  8
1、実線
100
AcDbCircle
 10
388.5121499897596
 20
871.8320099149059
 30
0.0
 40
2.0
100
AcDbArc
 50
270.0
 51
0.0
  0
CIRCLE
  5
B2B
330
1F
100
AcDbEntity
  8
3、破線1
100
AcDbCircle
 10
669.5121499897595
 20
1291.832009914906
 30
0.0
 40
5.0
  0
CIRCLE
  5
B2D
330
1F
100
AcDbEntity
  8
3、破線1
100
AcDbCircle
 10
660.5121499897595
 20
1291.832009914906
 30
0.0
 40
4.0
  0
CIRCLE
  5
B2E
330
1F
100
AcDbEntity
  8
3、破線1
100
AcDbCircle
 10
660.5121499897595
 20
1291.832009914906
 30
0.0
 40
2.75
  0
CIRCLE
  5
B31
330
1F
100
AcDbEntity
  8
3、破線1
100
AcDbCircle
 10
670.5121499897598
 20
1291.832009914906
 30
0.0
 40
4.0
  0
ARC
  5
B33
330
1F
100
AcDbEntity
  8
3、破線1
100
AcDbCircle
 10
670.5121499897598
 20
1291.832009914906
 30
0.0
 40
8.0
100
AcDbArc
 50
255.3945472638368
 51
104.2107435690909
  0
ARC
  5
B3B
330
1F
100
AcDbEntity
  8
3、破線1
100
AcDbCircle
 10
664.2121499897597
 20
1291.832009914906
 30
0.0
 40
6.5
100
AcDbArc
 50
97.34719922178159
 51
169.361290684985
  0
LINE
  5
B3F
330
1F
100
AcDbEntity
  8
3、破線1
100
AcDbLine
 10
663.3809191347044
 20
1298.278641226342
 30
0.0
 11
668.548236686585
 21
1299.587204595738
 31
0.0
  0
LINE
  5
B40
330
1F
100
AcDbEntity
  8
3、破線1
100
AcDbLine
 10
663.6305393404568
 20
1285.358083049963
 30
0.0
 11
668.4948583718343
 21
1284.090528498002
 31
0.0
  0
ARC
  5
B44
330
1F
100
AcDbEntity
  8
3、破線1
100
AcDbCircle
 10
661.5121499897598
 20
1291.832009914906
 30
0.0
 40
1.200000000000044
100
AcDbArc
 50
270.0
 51
90.0
  0
LINE
  5
B45
330
1F
100
AcDbEntity
  8
3、破線1
100
AcDbLine
 10
661.5121499897598
 20
1293.032009914906
 30
0.0
 11
657.823879488286
 21
1293.032009914906
 31
0.0
  0
LINE
  5
B46
330
1F
100
AcDbEntity
  8
3、破線1
100
AcDbLine
 10
661.5121499897598
 20
1290.632009914905
 30
0.0
 11
657.823879488286
 21
1290.632009914905
 31
0.0
  0
ARC
  5
B47
330
1F
100
AcDbEntity
  8
3、破線1
100
AcDbCircle
 10
664.2121499897597
 20
1291.832009914906
 30
0.0
 40
6.5
100
AcDbArc
 50
190.6387093150149
 51
264.866390168975
  0
ARC
  5
B4C
330
1F
100
AcDbEntity
  8
3、破線1
100
AcDbCircle
 10
670.5121499897598
 20
1291.832009914906
 30
0.0
 40
6.0
100
AcDbArc
 50
324.314665287343
 51
35.68533471265689
  0
LINE
  5
B4D
330
1F
100
AcDbEntity
  8
3、破線1
100
AcDbLine
 10
675.3855471621642
 20
1295.332009914906
 30
0.0
 11
672.4486416628633
 21
1295.332009914906
 31
0.0
  0
LINE
  5
B4F
330
1F
100
AcDbEntity
  8
3、破線1
100
AcDbLine
 10
675.3855471621642
 20
1288.332009914906
 30
0.0
 11
672.4486416628633
 21
1288.332009914906
 31
0.0
  0
LINE
  5
B5D
330
1F
100
AcDbEntity
  8
3、破線1
100
AcDbLine
 10
686.5121499897598
 20
1295.832009914906
 30
0.0
 11
686.5121499897598
 21
1287.832009914906
 31
0.0
  0
LINE
  5
B5E
330
1F
100
AcDbEntity
  8
3、破線1
100
AcDbLine
 10
686.5121499897598
 20
1287.832009914906
 30
0.0
 11
666.5121499897598
 21
1287.832009914906
 31
0.0
  0
LINE
  5
B5F
330
1F
100
AcDbEntity
  8
3、破線1
100
AcDbLine
 10
666.5121499897598
 20
1287.832009914906
 30
0.0
 11
666.5121499897598
 21
1295.832009914906
 31
0.0
  0
LINE
  5
B60
330
1F
100
AcDbEntity
  8
3、破線1
100
AcDbLine
 10
666.5121499897598
 20
1295.832009914906
 30
0.0
 11
686.5121499897598
 21
1295.832009914906
 31
0.0
  0
LINE
  5
B62
330
1F
100
AcDbEntity
  8
3、破線1
100
AcDbLine
 10
686.5121499897598
 20
1294.332009914906
 30
0.0
 11
731.9486998020789
 21
1294.332009914906
 31
0.0
  0
LINE
  5
B63
330
1F
100
AcDbEntity
  8
3、破線1
100
AcDbLine
 10
686.5121499897598
 20
1289.332009914906
 30
0.0
 11
731.9486998020789
 21
1289.332009914906
 31
0.0
  0
LINE
  5
B64
330
1F
100
AcDbEntity
  8
3、破線1
100
AcDbLine
 10
686.5121499897598
 20
1291.832009914906
 30
0.0
 11
731.9486998020789
 21
1291.832009914906
 31
0.0
  0
CIRCLE
  5
B67
330
1F
100
AcDbEntity
  8
3、破線1
100
AcDbCircle
 10
646.5121499897596
 20
1291.832009914906
 30
0.0
 40
2.2
  0
ARC
  5
B68
330
1F
100
AcDbEntity
  8
3、破線1
100
AcDbCircle
 10
646.5121499897596
 20
1291.832009914906
 30
0.0
 40
4.0
100
AcDbArc
 50
160.818504185618
 51
19.18149581438193
  0
LINE
  5
B6E
330
1F
100
AcDbEntity
  8
3、破線1
100
AcDbLine
 10
644.7121499897597
 20
1298.832009914906
 30
0.0
 11
644.7121499897597
 21
1303.832009914906
 31
0.0
  0
LINE
  5
B6F
330
1F
100
AcDbEntity
  8
3、破線1
100
AcDbLine
 10
644.7121499897597
 20
1303.832009914906
 30
0.0
 11
648.3121499897596
 21
1303.832009914906
 31
0.0
  0
LINE
  5
B70
330
1F
100
AcDbEntity
  8
3、破線1
100
AcDbLine
 10
648.3121499897596
 20
1303.832009914906
 30
0.0
 11
648.3121499897596
 21
1298.832009914906
 31
0.0
  0
LINE
  5
B71
330
1F
100
AcDbEntity
  8
3、破線1
100
AcDbLine
 10
648.3121499897596
 20
1298.832009914906
 30
0.0
 11
650.2900801154273
 21
1293.146256454019
 31
0.0
  0
LINE
  5
B72
330
1F
100
AcDbEntity
  8
3、破線1
100
AcDbLine
 10
644.7121499897597
 20
1298.832009914906
 30
0.0
 11
642.734219864092
 21
1293.146256454019
 31
0.0
  0
CIRCLE
  5
B73
330
1F
100
AcDbEntity
  8
3、破線1
100
AcDbCircle
 10
646.5121499897596
 20
1291.832009914906
 30
0.0
 40
3.5
  0
LINE
  5
B78
330
1F
100
AcDbEntity
  8
3、破線1
100
AcDbLine
 10
645.0121499897598
 20
1303.832009914906
 30
0.0
 11
645.0121499897598
 21
1354.268559727225
 31
0.0
  0
LINE
  5
B79
330
1F
100
AcDbEntity
  8
3、破線1
100
AcDbLine
 10
648.0121499897595
 20
1303.832009914906
 30
0.0
 11
648.0121499897595
 21
1354.268559727225
 31
0.0
  0
LINE
  5
B7E
330
1F
100
AcDbEntity
  8
1、実線
100
AcDbLine
 10
666.5121499897593
 20
317.2940015499001
 30
0.0
 11
666.5121499897593
 21
299.8940015499001
 31
0.0
  0
LINE
  5
B7F
330
1F
100
AcDbEntity
  8
1、実線
100
AcDbLine
 10
666.5121499897593
 20
299.8940015499001
 30
0.0
 11
674.5121499897593
 21
299.8940015499001
 31
0.0
  0
LINE
  5
B80
330
1F
100
AcDbEntity
  8
1、実線
100
AcDbLine
 10
674.5121499897593
 20
307.8940015499001
 30
0.0
 11
674.5121499897593
 21
317.2940015499001
 31
0.0
  0
LINE
  5
B86
330
1F
100
AcDbEntity
  8
1、実線
100
AcDbLine
 10
662.5748960565656
 20
319.8940015499003
 30
0.0
 11
662.5748960565656
 21
317.2940015499001
 31
0.0
  0
LINE
  5
B87
330
1F
100
AcDbEntity
  8
1、実線
100
AcDbLine
 10
662.5748960565656
 20
317.2940015499001
 30
0.0
 11
675.5121499897597
 21
317.2940015499001
 31
0.0
  0
DIMENSION
  5
E5C
330
1F
100
AcDbEntity
  8
寸法線1
100
AcDbDimension
  2
*D3
 10
670.5121499897598
 20
423.1002157011062
 30
0.0
 11
530.5121499897595
 21
435.6002157011062
 31
0.0
 70
    32
 71
     5
 42
280.0
  3
ISO-25
100
AcDbAlignedDimension
 13
390.5121499897596
 23
423.1002157011062
 33
0.0
 14
670.5121499897598
 24
423.1002157011062
 34
0.0
100
AcDbRotatedDimension
  0
DIMENSION
  5
E72
330
1F
100
AcDbEntity
  8
寸法線1
100
AcDbDimension
  2
*D4
 10
635.9305105996146
 20
714.8940015499
 30
0.0
 11
623.4305105996145
 21
539.8940015499001
 31
0.0
 70
    32
 71
     5
 42
349.9999999999998
  3
ISO-25
100
AcDbAlignedDimension
 13
635.9305105996146
 23
364.8940015499002
 33
0.0
 14
635.9305105996146
 24
714.8940015499
 34
0.0
 50
90.0
100
AcDbRotatedDimension
  0
CIRCLE
  5
F55
330
1F
100
AcDbEntity
  8
0
100
AcDbCircle
 10
531.7056843935171
 20
819.8940015499001
 30
0.0
 40
14.0
  0
CIRCLE
  5
F58
330
1F
100
AcDbEntity
  8
0
100
AcDbCircle
 10
437.627787787058
 20
819.8940015499001
 30
0.0
 40
14.0
  0
CIRCLE
  5
F59
330
1F
100
AcDbEntity
  8
0
100
AcDbCircle
 10
850.7570561977344
 20
209.8940015499
 30
0.0
 40
14.0
  0
CIRCLE
  5
F5A
330
1F
100
AcDbEntity
  8
0
100
AcDbCircle
 10
667.5653620874891
 20
182.578290609063
 30
0.0
 40
14.0
  0
CIRCLE
  5
F5C
330
1F
100
AcDbEntity
  8
0
100
AcDbCircle
 10
1093.52926362058
 20
859.8940015499
 30
0.0
 40
14.0
  0
CIRCLE
  5
F5E
330
1F
100
AcDbEntity
  8
0
100
AcDbCircle
 10
986.9226883480113
 20
209.8940015499
 30
0.0
 40
14.0
  0
CIRCLE
  5
F5F
330
1F
100
AcDbEntity
  8
0
100
AcDbCircle
 10
1516.514112395469
 20
249.8940015499
 30
0.0
 40
14.0
  0
CIRCLE
  5
F60
330
1F
100
AcDbEntity
  8
0
100
AcDbCircle
 10
1516.514112395469
 20
249.8940015499
 30
0.0
 40
14.0
  0
CIRCLE
  5
F61
330
1F
100
AcDbEntity
  8
0
100
AcDbCircle
 10
1516.514112395469
 20
249.8940015499
 30
0.0
 40
14.0
  0
CIRCLE
  5
F63
330
1F
100
AcDbEntity
  8
0
100
AcDbCircle
 10
850.7570561977344
 20
693.8194087561413
 30
0.0
 40
14.0
  0
CIRCLE
  5
F65
330
1F
100
AcDbEntity
  8
0
100
AcDbCircle
 10
850.7570561977344
 20
799.8940015499002
 30
0.0
 40
14.0
  0
CIRCLE
  5
F66
330
1F
100
AcDbEntity
  8
0
100
AcDbCircle
 10
1401.300736714152
 20
859.8940015499
 30
0.0
 40
14.0
  0
CIRCLE
  5
F68
330
1F
100
AcDbEntity
  8
0
100
AcDbCircle
 10
1516.514112395469
 20
596.8940015499001
 30
0.0
 40
14.0
  0
CIRCLE
  5
F6F
330
1F
100
AcDbEntity
  8
0
100
AcDbCircle
 10
1318.568264256957
 20
859.8940015499
 30
0.0
 40
14.0
  0
CIRCLE
  5
F70
330
1F
100
AcDbEntity
  8
0
100
AcDbCircle
 10
1276.001962405709
 20
250.0
 30
0.0
 40
14.0
  0
ARC
  5
F7E
330
1F
100
AcDbEntity
  8
1、実線
100
AcDbCircle
 10
646.5121499897596
 20
325.5940015499001
 30
0.0
 40
9.0
100
AcDbArc
 50
253.3984504009768
 51
286.6015495990231
  0
LINE
  5
F86
330
1F
100
AcDbEntity
  8
1、実線
100
AcDbLine
 10
643.0121499897595
 20
318.2149772241523
 30
0.0
 11
643.0121499897595
 21
319.0940015499001
 31
0.0
  0
LINE
  5
F87
330
1F
100
AcDbEntity
  8
1、実線
100
AcDbLine
 10
650.0121499897598
 20
318.2149772241523
 30
0.0
 11
650.0121499897598
 21
319.0940015499001
 31
0.0
  0
LINE
  5
F88
330
1F
100
AcDbEntity
  8
1、実線
100
AcDbLine
 10
642.5121499897596
 20
319.8940015499001
 30
0.0
 11
650.5121499897597
 21
319.8940015499001
 31
0.0
  0
LINE
  5
F89
330
1F
100
AcDbEntity
  8
1、実線
100
AcDbLine
 10
650.5121499897597
 20
319.8940015499001
 30
0.0
 11
650.5121499897597
 21
319.0940015499001
 31
0.0
  0
LINE
  5
F8A
330
1F
100
AcDbEntity
  8
1、実線
100
AcDbLine
 10
650.5121499897597
 20
319.0940015499001
 30
0.0
 11
642.5121499897596
 21
319.0940015499001
 31
0.0
  0
LINE
  5
F8B
330
1F
100
AcDbEntity
  8
1、実線
100
AcDbLine
 10
642.5121499897596
 20
319.0940015499001
 30
0.0
 11
642.5121499897596
 21
319.8940015499001
 31
0.0
  0
ARC
  5
F8C
330
1F
100
AcDbEntity
  8
1、実線
100
AcDbCircle
 10
644.3121499897596
 20
318.2149772241523
 30
0.0
 40
1.3
100
AcDbArc
 50
180.0
 51
253.3984504009733
  0
ARC
  5
F8D
330
1F
100
AcDbEntity
  8
1、実線
100
AcDbCircle
 10
648.7121499897597
 20
318.2149772241523
 30
0.0
 40
1.3
100
AcDbArc
 50
286.6015495990264
 51
0.0
  0
SPLINE
  5
F8F
330
1F
100
AcDbEntity
  8
1、実線
100
AcDbSpline
210
0.0
220
0.0
230
1.0
 70
     8
 71
     3
 72
    11
 73
     7
 74
     5
 42
0.0000000001
 43
0.0000000001
 44
0.0000000001
 40
0.0
 40
0.0
 40
0.0
 40
0.0
 40
18.52892701610221
 40
30.1354612073803
 40
52.81200969985267
 40
59.76789609398809
 40
59.76789609398809
 40
59.76789609398809
 40
59.76789609398809
 10
1409.514112395468
 20
319.8940015499001
 30
0.0
 10
1415.889303057944
 20
320.0996916630939
 30
0.0
 10
1426.25791807444
 20
320.4342262220303
 30
0.0
 10
1441.304056507804
 20
310.3162262197299
 30
0.0
 10
1456.373598602367
 20
311.0328415474374
 30
0.0
 10
1465.535968913732
 20
314.621465657435
 30
0.0
 10
1467.686734020641
 20
315.4638554818256
 30
0.0
 11
1409.514112395468
 21
319.8940015499001
 31
0.0
 11
1427.965619003374
 21
318.2019494625083
 31
0.0
 11
1438.466604695046
 21
313.2581720164061
 31
0.0
 11
1461.142642965498
 21
313.1060540079697
 31
0.0
 11
1467.686734020641
 21
315.4638554818256
 31
0.0
  0
SPLINE
  5
F90
330
1F
100
AcDbEntity
  8
1、実線
100
AcDbSpline
210
0.0
220
0.0
230
1.0
 70
     8
 71
     3
 72
    40
 73
    36
 74
     0
 42
0.0000000001
 43
0.0000000001
 40
0.0
 40
0.0
 40
0.0
 40
0.0
 40
1.806346045430064
 40
1.806346045430064
 40
5.419038136290196
 40
5.419038136290196
 40
12.64442231801044
 40
12.64442231801044
 40
15.56441962019126
 40
15.56441962019126
 40
18.61933928032965
 40
18.61933928032965
 40
21.67425894046805
 40
21.67425894046805
 40
26.44991572185031
 40
26.44991572185031
 40
28.86212094332198
 40
28.86212094332198
 40
30.3738338455353
 40
30.3738338455353
 40
31.88554674774861
 40
31.88554674774861
 40
34.90897255217524
 40
34.90897255217524
 40
40.95582416102851
 40
40.95582416102851
 40
47.34823663302242
 40
47.34823663302242
 40
51.50893273665595
 40
51.50893273665595
 40
54.2605136107142
 40
54.2605136107142
 40
57.01209448477245
 40
57.01209448477245
 40
59.76789609398739
 40
59.76789609398739
 40
59.76789609398739
 40
59.76789609398739
 10
1409.594730822592
 20
317.3953017541648
 30
0.0
 10
1410.216234724681
 20
317.415354049812
 30
0.0
 10
1410.834904730726
 20
317.4353100426896
 30
0.0
 10
1412.680480186381
 20
317.4885563548142
 30
0.0
 10
1413.896980136054
 20
317.5151597615806
 30
0.0
 10
1417.488105503552
 20
317.5198091963138
 30
0.0
 10
1419.803559479642
 20
317.4212376594046
 30
0.0
 10
1422.882631403373
 20
316.9794659894903
 30
0.0
 10
1423.748928855067
 20
316.8173093833268
 30
0.0
 10
1425.477574216619
 20
316.4001616189545
 30
0.0
 10
1426.335896181075
 20
316.1419947870888
 30
0.0
 10
1428.0135216367
 20
315.5157359087569
 30
0.0
 10
1428.863674803348
 20
315.1365651261087
 30
0.0
 10
1431.089443192075
 20
314.0579445284176
 30
0.0
 10
1432.489547344419
 20
313.2976652574536
 30
0.0
 10
1434.716836456244
 20
312.1779477846637
 30
0.0
 10
1435.485041494668
 20
311.8066860977013
 30
0.0
 10
1436.779055946921
 20
311.2390539650243
 30
0.0
 10
1437.290081944822
 20
311.0286240009945
 30
0.0
 10
1438.328670229696
 20
310.6376092133172
 30
0.0
 10
1438.852801613645
 20
310.4576601662754
 30
0.0
 10
1440.43732299294
 20
309.9629062323156
 30
0.0
 10
1441.509801921998
 20
309.6931943192933
 30
0.0
 10
1444.758063081555
 20
309.0514680619974
 30
0.0
 10
1446.964358270474
 20
308.8466157031058
 30
0.0
 10
1451.502318471622
 20
308.8155724767218
 30
0.0
 10
1453.834225159158
 20
309.011619737943
 30
0.0
 10
1457.610135381622
 20
309.6278682672518
 30
0.0
 10
1459.079951014195
 20
309.9460170831714
 30
0.0
 10
1461.470389711447
 20
310.5851650437855
 30
0.0
 10
1462.409279100661
 20
310.8706556064901
 30
0.0
 10
1464.237102267247
 20
311.480023323479
 30
0.0
 10
1465.129555043965
 20
311.8034101872911
 30
0.0
 10
1466.884204741178
 20
312.4645365486338
 30
0.0
 10
1467.746374317912
 20
312.8022971173911
 30
0.0
 10
1468.598470169804
 20
313.1360373630051
 30
0.0
  0
LINE
  5
F91
330
1F
100
AcDbEntity
  8
1、実線
100
AcDbLine
 10
1467.686734020641
 20
315.4638554818256
 30
0.0
 11
1468.598470169804
 21
313.1360373630051
 31
0.0
  0
CIRCLE
  5
F98
330
1F
100
AcDbEntity
  8
0
100
AcDbCircle
 10
1516.514112395469
 20
401.9457500449216
 30
0.0
 40
14.0
  0
LEADER
  5
FAA
330
1F
100
AcDbEntity
  8
引き出し線
100
AcDbLeader
  3
ISO-25
 76
     2
 10
1029.650051349066
 20
289.7624340572601
 30
0.0
 10
996.5154683074187
 20
220.0909899607197
 30
0.0
1001
ACAD
1000
DSTYLE
1002
{
1070
   147
1040
1.0
1070
    77
1070
     0
1002
}
  0
CIRCLE
  5
FAB
330
1F
100
AcDbEntity
  8
0
100
AcDbCircle
 10
850.7570561977344
 20
316.6941786976142
 30
0.0
 40
14.0
  0
LEADER
  5
FAD
330
1F
100
AcDbEntity
  8
引き出し線
100
AcDbLeader
  3
ISO-25
 76
     2
 10
954.5141123954687
 20
654.5525598755376
 30
0.0
 10
863.8507537538625
 20
688.8641000565097
 30
0.0
1001
ACAD
1000
DSTYLE
1002
{
1070
   147
1040
1.0
1070
    77
1070
     0
1002
}
  0
LINE
  5
FB2
330
1F
100
AcDbEntity
  8
引き出し線
100
AcDbLine
 10
838.5723478110302
 20
323.5885881379489
 30
0.0
 11
698.9027219954749
 21
402.6171176841735
 31
0.0
  0
TEXT
  5
FB8
330
1F
100
AcDbEntity
  8
0
100
AcDbText
 10
1316.267707283474
 20
854.3806113696282
 30
0.0
 40
12.0
  1
1
100
AcDbText
  0
TEXT
  5
FB9
330
1F
100
AcDbEntity
  8
0
100
AcDbText
 10
1395.913738153901
 20
853.8724032450842
 30
0.0
 40
12.0
  1
4
100
AcDbText
  0
TEXT
  5
FBA
330
1F
100
AcDbEntity
  8
0
100
AcDbText
 10
1513.260712371877
 20
591.3191253588056
 30
0.0
 40
12.0
  1
2
100
AcDbText
  0
TEXT
  5
FC4
330
1F
100
AcDbEntity
  8
0
100
AcDbText
 10
524.9796577207266
 20
813.865622252687
 30
0.0
 40
12.0
  1
10
100
AcDbText
  0
TEXT
  5
FC5
330
1F
100
AcDbEntity
  8
0
100
AcDbText
 10
433.6835693794379
 20
813.3270914543951
 30
0.0
 40
12.0
  1
9
100
AcDbText
  0
TEXT
  5
FC6
330
1F
100
AcDbEntity
  8
0
100
AcDbText
 10
1088.06975208106
 20
854.2763058562819
 30
0.0
 40
12.0
  1
11
100
AcDbText
  0
TEXT
  5
FC7
330
1F
100
AcDbEntity
  8
0
100
AcDbText
 10
663.5710467475051
 20
176.4797280484334
 30
0.0
 40
12.0
  1
4
100
AcDbText
  0
TEXT
  5
FC8
330
1F
100
AcDbEntity
  8
0
100
AcDbText
 10
847.2044255766533
 20
417.6415850607686
 30
0.0
 40
12.0
  1
8
100
AcDbText
  0
TEXT
  5
FC9
330
1F
100
AcDbEntity
  8
0
100
AcDbText
 10
979.0371924995712
 20
203.7489205912688
 30
0.0
 40
12.0
  1
17
100
AcDbText
  0
TEXT
  5
FCA
330
1F
100
AcDbEntity
  8
0
100
AcDbText
 10
842.9744921784262
 20
687.4927121622886
 30
0.0
 40
12.0
  1
12
100
AcDbText
  0
TEXT
  5
FCB
330
1F
100
AcDbEntity
  8
0
100
AcDbText
 10
842.7758430253502
 20
794.0195534186372
 30
0.0
 40
12.0
  1
13
100
AcDbText
  0
TEXT
  5
FCE
330
1F
100
AcDbEntity
  8
0
100
AcDbText
 10
1508.271511411896
 20
396.2601080944951
 30
0.0
 40
12.0
  1
15
100
AcDbText
  0
TEXT
  5
FCF
330
1F
100
AcDbEntity
  8
0
100
AcDbText
 10
1268.433320025651
 20
243.3539045572219
 30
0.0
 40
12.0
  1
14
100
AcDbText
  0
TEXT
  5
FD0
330
1F
100
AcDbEntity
  8
0
100
AcDbText
 10
1508.523184721828
 20
243.6233864069208
 30
0.0
 40
12.0
  1
16
100
AcDbText
  0
LEADER
  5
FDD
330
1F
100
AcDbEntity
  8
引き出し線
100
AcDbLeader
  3
ISO-25
 76
     2
 10
990.9050308288355
 20
321.2084674628421
 30
0.0
 10
861.7198276078584
 20
218.6013342648804
 30
0.0
1001
ACAD
1000
DSTYLE
1002
{
1070
   147
1040
1.0
1070
    77
1070
     0
1002
}
  0
TEXT
  5
FDE
330
1F
100
AcDbEntity
  8
0
100
AcDbText
 10
846.8507190489921
 20
204.1088688949198
 30
0.0
 40
12.0
  1
6
100
AcDbText
  0
LINE
  5
FE2
330
1F
100
AcDbEntity
  8
電源コード
100
AcDbLine
 10
720.5121499897597
 20
1294.332009914906
 30
0.0
 11
751.948699802079
 21
1294.332009914906
 31
0.0
  0
LINE
  5
FE3
330
1F
100
AcDbEntity
  8
電源コード
100
AcDbLine
 10
751.948699802079
 20
1294.332009914906
 30
0.0
 11
751.948699802079
 21
1289.332009914906
 31
0.0
  0
LINE
  5
FE4
330
1F
100
AcDbEntity
  8
電源コード
100
AcDbLine
 10
751.948699802079
 20
1289.332009914906
 30
0.0
 11
720.5121499897597
 21
1289.332009914906
 31
0.0
  0
LINE
  5
FE5
330
1F
100
AcDbEntity
  8
電源コード
100
AcDbLine
 10
645.0121499897598
 20
1332.832009914906
 30
0.0
 11
645.0121499897598
 21
1364.268559727225
 31
0.0
  0
LINE
  5
FE6
330
1F
100
AcDbEntity
  8
電源コード
100
AcDbLine
 10
645.0121499897598
 20
1364.268559727225
 30
0.0
 11
648.0121499897595
 21
1364.268559727225
 31
0.0
  0
LINE
  5
FE7
330
1F
100
AcDbEntity
  8
電源コード
100
AcDbLine
 10
648.0121499897595
 20
1364.268559727225
 30
0.0
 11
648.0121499897595
 21
1332.832009914906
 31
0.0
  0
LINE
  5
FE8
330
1F
100
AcDbEntity
  8
電源コード
100
AcDbLine
 10
720.5121499897597
 20
1291.832009914906
 30
0.0
 11
751.948699802079
 21
1291.832009914906
 31
0.0
  0
LEADER
  5
FE9
330
1F
100
AcDbEntity
  8
引き出し線
100
AcDbLeader
  3
ISO-25
 76
     2
 10
981.0854958739819
 20
377.8282206063678
 30
0.0
 10
863.4318891993544
 20
322.6396482653643
 30
0.0
1001
ACAD
1000
DSTYLE
1002
{
1070
   147
1040
1.0
1070
    77
1070
     0
1002
}
  0
ARC
  5
1346
330
1F
100
AcDbEntity
  8
中箱
100
AcDbCircle
 10
400.5121499897597
 20
704.8940015499002
 30
0.0
 40
10.0
100
AcDbArc
 50
90.0
 51
180.0
  0
ARC
  5
1347
330
1F
100
AcDbEntity
  8
中箱
100
AcDbCircle
 10
400.5121499897597
 20
374.8940015499002
 30
0.0
 40
10.0
100
AcDbArc
 50
180.0
 51
270.0
  0
ARC
  5
1348
330
1F
100
AcDbEntity
  8
中箱
100
AcDbCircle
 10
660.5121499897595
 20
374.8940015499002
 30
0.0
 40
10.0
100
AcDbArc
 50
270.0
 51
0.0
  0
ARC
  5
1349
330
1F
100
AcDbEntity
  8
中箱
100
AcDbCircle
 10
660.5121499897595
 20
704.8940015499
 30
0.0
 40
10.0
100
AcDbArc
 50
0.0
 51
90.0
  0
CIRCLE
  5
13D0
330
1F
100
AcDbEntity
  8
２，細線
100
AcDbCircle
 10
1072.872209164626
 20
715.8940015499
 30
0.0
 40
0.5
  0
CIRCLE
  5
13D1
330
1F
100
AcDbEntity
  8
２，細線
100
AcDbCircle
 10
1072.872209164626
 20
715.8940015499
 30
0.0
 40
0.5
  0
CIRCLE
  5
13D2
330
1F
100
AcDbEntity
  8
２，細線
100
AcDbCircle
 10
1072.872209164626
 20
715.8940015499
 30
0.0
 40
0.5
  0
CIRCLE
  5
13D3
330
1F
100
AcDbEntity
  8
２，細線
100
AcDbCircle
 10
1072.872209164626
 20
715.8940015499
 30
0.0
 40
0.5
  0
CIRCLE
  5
13D4
330
1F
100
AcDbEntity
  8
２，細線
100
AcDbCircle
 10
1072.872209164626
 20
715.8940015499
 30
0.0
 40
0.5
  0
CIRCLE
  5
13D5
330
1F
100
AcDbEntity
  8
２，細線
100
AcDbCircle
 10
1072.872209164626
 20
715.8940015499
 30
0.0
 40
0.5
  0
CIRCLE
  5
13D6
330
1F
100
AcDbEntity
  8
２，細線
100
AcDbCircle
 10
1072.872209164626
 20
715.8940015499
 30
0.0
 40
0.5
  0
CIRCLE
  5
13D7
330
1F
100
AcDbEntity
  8
２，細線
100
AcDbCircle
 10
1072.872209164626
 20
715.8940015499
 30
0.0
 40
0.5
  0
CIRCLE
  5
13D8
330
1F
100
AcDbEntity
  8
２，細線
100
AcDbCircle
 10
1072.872209164626
 20
715.8940015499
 30
0.0
 40
0.5
  0
CIRCLE
  5
13D9
330
1F
100
AcDbEntity
  8
２，細線
100
AcDbCircle
 10
1072.872209164626
 20
715.8940015499
 30
0.0
 40
0.5
  0
CIRCLE
  5
13DA
330
1F
100
AcDbEntity
  8
２，細線
100
AcDbCircle
 10
1072.872209164626
 20
715.8940015499
 30
0.0
 40
0.5
  0
CIRCLE
  5
13DB
330
1F
100
AcDbEntity
  8
２，細線
100
AcDbCircle
 10
1072.872209164626
 20
715.8940015499
 30
0.0
 40
0.5
  0
CIRCLE
  5
13DC
330
1F
100
AcDbEntity
  8
２，細線
100
AcDbCircle
 10
1072.872209164626
 20
715.8940015499
 30
0.0
 40
0.5
  0
CIRCLE
  5
13DD
330
1F
100
AcDbEntity
  8
２，細線
100
AcDbCircle
 10
1072.872209164626
 20
715.8940015499
 30
0.0
 40
0.5
  0
CIRCLE
  5
13DE
330
1F
100
AcDbEntity
  8
２，細線
100
AcDbCircle
 10
1072.872209164626
 20
715.8940015499
 30
0.0
 40
0.5
  0
CIRCLE
  5
13DF
330
1F
100
AcDbEntity
  8
２，細線
100
AcDbCircle
 10
1087.872209164626
 20
715.8940015499
 30
0.0
 40
0.5
  0
CIRCLE
  5
13E0
330
1F
100
AcDbEntity
  8
２，細線
100
AcDbCircle
 10
1087.872209164626
 20
715.8940015499
 30
0.0
 40
0.5
  0
CIRCLE
  5
13E1
330
1F
100
AcDbEntity
  8
２，細線
100
AcDbCircle
 10
1087.872209164626
 20
715.8940015499
 30
0.0
 40
0.5
  0
CIRCLE
  5
13E2
330
1F
100
AcDbEntity
  8
２，細線
100
AcDbCircle
 10
1087.872209164626
 20
715.8940015499
 30
0.0
 40
0.5
  0
CIRCLE
  5
13E3
330
1F
100
AcDbEntity
  8
２，細線
100
AcDbCircle
 10
1087.872209164626
 20
715.8940015499
 30
0.0
 40
0.5
  0
CIRCLE
  5
13E4
330
1F
100
AcDbEntity
  8
２，細線
100
AcDbCircle
 10
1087.872209164626
 20
715.8940015499
 30
0.0
 40
0.5
  0
CIRCLE
  5
13E5
330
1F
100
AcDbEntity
  8
２，細線
100
AcDbCircle
 10
1087.872209164626
 20
715.8940015499
 30
0.0
 40
0.5
  0
CIRCLE
  5
13E6
330
1F
100
AcDbEntity
  8
２，細線
100
AcDbCircle
 10
1087.872209164626
 20
715.8940015499
 30
0.0
 40
0.5
  0
CIRCLE
  5
13E7
330
1F
100
AcDbEntity
  8
２，細線
100
AcDbCircle
 10
1087.872209164626
 20
715.8940015499
 30
0.0
 40
0.5
  0
CIRCLE
  5
13E8
330
1F
100
AcDbEntity
  8
２，細線
100
AcDbCircle
 10
1087.872209164626
 20
715.8940015499
 30
0.0
 40
0.5
  0
CIRCLE
  5
13E9
330
1F
100
AcDbEntity
  8
２，細線
100
AcDbCircle
 10
1087.872209164626
 20
715.8940015499
 30
0.0
 40
0.5
  0
CIRCLE
  5
13EA
330
1F
100
AcDbEntity
  8
２，細線
100
AcDbCircle
 10
1087.872209164626
 20
715.8940015499
 30
0.0
 40
0.5
  0
CIRCLE
  5
13EB
330
1F
100
AcDbEntity
  8
２，細線
100
AcDbCircle
 10
1087.872209164626
 20
715.8940015499
 30
0.0
 40
0.5
  0
CIRCLE
  5
13EC
330
1F
100
AcDbEntity
  8
２，細線
100
AcDbCircle
 10
1087.872209164626
 20
715.8940015499
 30
0.0
 40
0.5
  0
CIRCLE
  5
13ED
330
1F
100
AcDbEntity
  8
２，細線
100
AcDbCircle
 10
1087.872209164626
 20
715.8940015499
 30
0.0
 40
0.5
  0
CIRCLE
  5
13EE
330
1F
100
AcDbEntity
  8
２，細線
100
AcDbCircle
 10
1087.872209164626
 20
715.8940015499
 30
0.0
 40
0.5
  0
CIRCLE
  5
13EF
330
1F
100
AcDbEntity
  8
２，細線
100
AcDbCircle
 10
1102.872209164625
 20
715.8940015499
 30
0.0
 40
0.5
  0
CIRCLE
  5
13F0
330
1F
100
AcDbEntity
  8
２，細線
100
AcDbCircle
 10
1102.872209164625
 20
715.8940015499
 30
0.0
 40
0.5
  0
CIRCLE
  5
13F1
330
1F
100
AcDbEntity
  8
２，細線
100
AcDbCircle
 10
1102.872209164625
 20
715.8940015499
 30
0.0
 40
0.5
  0
CIRCLE
  5
13F2
330
1F
100
AcDbEntity
  8
２，細線
100
AcDbCircle
 10
1102.872209164625
 20
715.8940015499
 30
0.0
 40
0.5
  0
CIRCLE
  5
13F3
330
1F
100
AcDbEntity
  8
２，細線
100
AcDbCircle
 10
1102.872209164625
 20
715.8940015499
 30
0.0
 40
0.5
  0
CIRCLE
  5
13F4
330
1F
100
AcDbEntity
  8
２，細線
100
AcDbCircle
 10
1102.872209164625
 20
715.8940015499
 30
0.0
 40
0.5
  0
CIRCLE
  5
13F5
330
1F
100
AcDbEntity
  8
２，細線
100
AcDbCircle
 10
1102.872209164625
 20
715.8940015499
 30
0.0
 40
0.5
  0
CIRCLE
  5
13F6
330
1F
100
AcDbEntity
  8
２，細線
100
AcDbCircle
 10
1102.872209164625
 20
715.8940015499
 30
0.0
 40
0.5
  0
CIRCLE
  5
13F7
330
1F
100
AcDbEntity
  8
２，細線
100
AcDbCircle
 10
1102.872209164625
 20
715.8940015499
 30
0.0
 40
0.5
  0
CIRCLE
  5
13F8
330
1F
100
AcDbEntity
  8
２，細線
100
AcDbCircle
 10
1102.872209164625
 20
715.8940015499
 30
0.0
 40
0.5
  0
CIRCLE
  5
13F9
330
1F
100
AcDbEntity
  8
２，細線
100
AcDbCircle
 10
1102.872209164625
 20
715.8940015499
 30
0.0
 40
0.5
  0
CIRCLE
  5
13FA
330
1F
100
AcDbEntity
  8
２，細線
100
AcDbCircle
 10
1102.872209164625
 20
715.8940015499
 30
0.0
 40
0.5
  0
CIRCLE
  5
13FB
330
1F
100
AcDbEntity
  8
２，細線
100
AcDbCircle
 10
1102.872209164625
 20
715.8940015499
 30
0.0
 40
0.5
  0
CIRCLE
  5
13FC
330
1F
100
AcDbEntity
  8
２，細線
100
AcDbCircle
 10
1102.872209164625
 20
715.8940015499
 30
0.0
 40
0.5
  0
CIRCLE
  5
13FD
330
1F
100
AcDbEntity
  8
２，細線
100
AcDbCircle
 10
1102.872209164625
 20
715.8940015499
 30
0.0
 40
0.5
  0
CIRCLE
  5
13FE
330
1F
100
AcDbEntity
  8
２，細線
100
AcDbCircle
 10
1102.872209164625
 20
715.8940015499
 30
0.0
 40
0.5
  0
CIRCLE
  5
13FF
330
1F
100
AcDbEntity
  8
２，細線
100
AcDbCircle
 10
1117.872209164626
 20
715.8940015499
 30
0.0
 40
0.5
  0
CIRCLE
  5
1400
330
1F
100
AcDbEntity
  8
２，細線
100
AcDbCircle
 10
1117.872209164626
 20
715.8940015499
 30
0.0
 40
0.5
  0
CIRCLE
  5
1401
330
1F
100
AcDbEntity
  8
２，細線
100
AcDbCircle
 10
1117.872209164626
 20
715.8940015499
 30
0.0
 40
0.5
  0
CIRCLE
  5
1402
330
1F
100
AcDbEntity
  8
２，細線
100
AcDbCircle
 10
1117.872209164626
 20
715.8940015499
 30
0.0
 40
0.5
  0
CIRCLE
  5
1403
330
1F
100
AcDbEntity
  8
２，細線
100
AcDbCircle
 10
1117.872209164626
 20
715.8940015499
 30
0.0
 40
0.5
  0
CIRCLE
  5
1404
330
1F
100
AcDbEntity
  8
２，細線
100
AcDbCircle
 10
1117.872209164626
 20
715.8940015499
 30
0.0
 40
0.5
  0
CIRCLE
  5
1405
330
1F
100
AcDbEntity
  8
２，細線
100
AcDbCircle
 10
1117.872209164626
 20
715.8940015499
 30
0.0
 40
0.5
  0
CIRCLE
  5
1406
330
1F
100
AcDbEntity
  8
２，細線
100
AcDbCircle
 10
1117.872209164626
 20
715.8940015499
 30
0.0
 40
0.5
  0
CIRCLE
  5
1407
330
1F
100
AcDbEntity
  8
２，細線
100
AcDbCircle
 10
1117.872209164626
 20
715.8940015499
 30
0.0
 40
0.5
  0
CIRCLE
  5
1408
330
1F
100
AcDbEntity
  8
２，細線
100
AcDbCircle
 10
1117.872209164626
 20
715.8940015499
 30
0.0
 40
0.5
  0
CIRCLE
  5
1409
330
1F
100
AcDbEntity
  8
２，細線
100
AcDbCircle
 10
1117.872209164626
 20
715.8940015499
 30
0.0
 40
0.5
  0
CIRCLE
  5
140A
330
1F
100
AcDbEntity
  8
２，細線
100
AcDbCircle
 10
1117.872209164626
 20
715.8940015499
 30
0.0
 40
0.5
  0
CIRCLE
  5
140B
330
1F
100
AcDbEntity
  8
２，細線
100
AcDbCircle
 10
1117.872209164626
 20
715.8940015499
 30
0.0
 40
0.5
  0
CIRCLE
  5
140C
330
1F
100
AcDbEntity
  8
２，細線
100
AcDbCircle
 10
1117.872209164626
 20
715.8940015499
 30
0.0
 40
0.5
  0
CIRCLE
  5
140D
330
1F
100
AcDbEntity
  8
２，細線
100
AcDbCircle
 10
1117.872209164626
 20
715.8940015499
 30
0.0
 40
0.5
  0
CIRCLE
  5
140E
330
1F
100
AcDbEntity
  8
２，細線
100
AcDbCircle
 10
1117.872209164626
 20
715.8940015499
 30
0.0
 40
0.5
  0
CIRCLE
  5
140F
330
1F
100
AcDbEntity
  8
２，細線
100
AcDbCircle
 10
1132.872209164625
 20
715.8940015499
 30
0.0
 40
0.5
  0
CIRCLE
  5
1410
330
1F
100
AcDbEntity
  8
２，細線
100
AcDbCircle
 10
1132.872209164625
 20
715.8940015499
 30
0.0
 40
0.5
  0
CIRCLE
  5
1411
330
1F
100
AcDbEntity
  8
２，細線
100
AcDbCircle
 10
1132.872209164625
 20
715.8940015499
 30
0.0
 40
0.5
  0
CIRCLE
  5
1412
330
1F
100
AcDbEntity
  8
２，細線
100
AcDbCircle
 10
1132.872209164625
 20
715.8940015499
 30
0.0
 40
0.5
  0
CIRCLE
  5
1413
330
1F
100
AcDbEntity
  8
２，細線
100
AcDbCircle
 10
1132.872209164625
 20
715.8940015499
 30
0.0
 40
0.5
  0
CIRCLE
  5
1414
330
1F
100
AcDbEntity
  8
２，細線
100
AcDbCircle
 10
1132.872209164625
 20
715.8940015499
 30
0.0
 40
0.5
  0
CIRCLE
  5
1415
330
1F
100
AcDbEntity
  8
２，細線
100
AcDbCircle
 10
1132.872209164625
 20
715.8940015499
 30
0.0
 40
0.5
  0
CIRCLE
  5
1416
330
1F
100
AcDbEntity
  8
２，細線
100
AcDbCircle
 10
1132.872209164625
 20
715.8940015499
 30
0.0
 40
0.5
  0
CIRCLE
  5
1417
330
1F
100
AcDbEntity
  8
２，細線
100
AcDbCircle
 10
1132.872209164625
 20
715.8940015499
 30
0.0
 40
0.5
  0
CIRCLE
  5
1418
330
1F
100
AcDbEntity
  8
２，細線
100
AcDbCircle
 10
1132.872209164625
 20
715.8940015499
 30
0.0
 40
0.5
  0
CIRCLE
  5
1419
330
1F
100
AcDbEntity
  8
２，細線
100
AcDbCircle
 10
1132.872209164625
 20
715.8940015499
 30
0.0
 40
0.5
  0
CIRCLE
  5
141A
330
1F
100
AcDbEntity
  8
２，細線
100
AcDbCircle
 10
1132.872209164625
 20
715.8940015499
 30
0.0
 40
0.5
  0
CIRCLE
  5
141B
330
1F
100
AcDbEntity
  8
２，細線
100
AcDbCircle
 10
1132.872209164625
 20
715.8940015499
 30
0.0
 40
0.5
  0
CIRCLE
  5
141C
330
1F
100
AcDbEntity
  8
２，細線
100
AcDbCircle
 10
1132.872209164625
 20
715.8940015499
 30
0.0
 40
0.5
  0
CIRCLE
  5
141D
330
1F
100
AcDbEntity
  8
２，細線
100
AcDbCircle
 10
1132.872209164625
 20
715.8940015499
 30
0.0
 40
0.5
  0
CIRCLE
  5
141E
330
1F
100
AcDbEntity
  8
２，細線
100
AcDbCircle
 10
1132.872209164625
 20
715.8940015499
 30
0.0
 40
0.5
  0
CIRCLE
  5
141F
330
1F
100
AcDbEntity
  8
２，細線
100
AcDbCircle
 10
1147.872209164626
 20
715.8940015499
 30
0.0
 40
0.5
  0
CIRCLE
  5
1420
330
1F
100
AcDbEntity
  8
２，細線
100
AcDbCircle
 10
1147.872209164626
 20
715.8940015499
 30
0.0
 40
0.5
  0
CIRCLE
  5
1421
330
1F
100
AcDbEntity
  8
２，細線
100
AcDbCircle
 10
1147.872209164626
 20
715.8940015499
 30
0.0
 40
0.5
  0
CIRCLE
  5
1422
330
1F
100
AcDbEntity
  8
２，細線
100
AcDbCircle
 10
1147.872209164626
 20
715.8940015499
 30
0.0
 40
0.5
  0
CIRCLE
  5
1423
330
1F
100
AcDbEntity
  8
２，細線
100
AcDbCircle
 10
1147.872209164626
 20
715.8940015499
 30
0.0
 40
0.5
  0
CIRCLE
  5
1424
330
1F
100
AcDbEntity
  8
２，細線
100
AcDbCircle
 10
1147.872209164626
 20
715.8940015499
 30
0.0
 40
0.5
  0
CIRCLE
  5
1425
330
1F
100
AcDbEntity
  8
２，細線
100
AcDbCircle
 10
1147.872209164626
 20
715.8940015499
 30
0.0
 40
0.5
  0
CIRCLE
  5
1426
330
1F
100
AcDbEntity
  8
２，細線
100
AcDbCircle
 10
1147.872209164626
 20
715.8940015499
 30
0.0
 40
0.5
  0
CIRCLE
  5
1427
330
1F
100
AcDbEntity
  8
２，細線
100
AcDbCircle
 10
1147.872209164626
 20
715.8940015499
 30
0.0
 40
0.5
  0
CIRCLE
  5
1428
330
1F
100
AcDbEntity
  8
２，細線
100
AcDbCircle
 10
1147.872209164626
 20
715.8940015499
 30
0.0
 40
0.5
  0
CIRCLE
  5
1429
330
1F
100
AcDbEntity
  8
２，細線
100
AcDbCircle
 10
1147.872209164626
 20
715.8940015499
 30
0.0
 40
0.5
  0
CIRCLE
  5
142A
330
1F
100
AcDbEntity
  8
２，細線
100
AcDbCircle
 10
1147.872209164626
 20
715.8940015499
 30
0.0
 40
0.5
  0
CIRCLE
  5
142B
330
1F
100
AcDbEntity
  8
２，細線
100
AcDbCircle
 10
1147.872209164626
 20
715.8940015499
 30
0.0
 40
0.5
  0
CIRCLE
  5
142C
330
1F
100
AcDbEntity
  8
２，細線
100
AcDbCircle
 10
1147.872209164626
 20
715.8940015499
 30
0.0
 40
0.5
  0
CIRCLE
  5
142D
330
1F
100
AcDbEntity
  8
２，細線
100
AcDbCircle
 10
1147.872209164626
 20
715.8940015499
 30
0.0
 40
0.5
  0
CIRCLE
  5
142E
330
1F
100
AcDbEntity
  8
２，細線
100
AcDbCircle
 10
1147.872209164626
 20
715.8940015499
 30
0.0
 40
0.5
  0
CIRCLE
  5
142F
330
1F
100
AcDbEntity
  8
２，細線
100
AcDbCircle
 10
1162.872209164625
 20
715.8940015499
 30
0.0
 40
0.5
  0
CIRCLE
  5
1430
330
1F
100
AcDbEntity
  8
２，細線
100
AcDbCircle
 10
1162.872209164625
 20
715.8940015499
 30
0.0
 40
0.5
  0
CIRCLE
  5
1431
330
1F
100
AcDbEntity
  8
２，細線
100
AcDbCircle
 10
1162.872209164625
 20
715.8940015499
 30
0.0
 40
0.5
  0
CIRCLE
  5
1432
330
1F
100
AcDbEntity
  8
２，細線
100
AcDbCircle
 10
1162.872209164625
 20
715.8940015499
 30
0.0
 40
0.5
  0
CIRCLE
  5
1433
330
1F
100
AcDbEntity
  8
２，細線
100
AcDbCircle
 10
1162.872209164625
 20
715.8940015499
 30
0.0
 40
0.5
  0
CIRCLE
  5
1434
330
1F
100
AcDbEntity
  8
２，細線
100
AcDbCircle
 10
1162.872209164625
 20
715.8940015499
 30
0.0
 40
0.5
  0
CIRCLE
  5
1435
330
1F
100
AcDbEntity
  8
２，細線
100
AcDbCircle
 10
1162.872209164625
 20
715.8940015499
 30
0.0
 40
0.5
  0
CIRCLE
  5
1436
330
1F
100
AcDbEntity
  8
２，細線
100
AcDbCircle
 10
1162.872209164625
 20
715.8940015499
 30
0.0
 40
0.5
  0
CIRCLE
  5
1437
330
1F
100
AcDbEntity
  8
２，細線
100
AcDbCircle
 10
1162.872209164625
 20
715.8940015499
 30
0.0
 40
0.5
  0
CIRCLE
  5
1438
330
1F
100
AcDbEntity
  8
２，細線
100
AcDbCircle
 10
1162.872209164625
 20
715.8940015499
 30
0.0
 40
0.5
  0
CIRCLE
  5
1439
330
1F
100
AcDbEntity
  8
２，細線
100
AcDbCircle
 10
1162.872209164625
 20
715.8940015499
 30
0.0
 40
0.5
  0
CIRCLE
  5
143A
330
1F
100
AcDbEntity
  8
２，細線
100
AcDbCircle
 10
1162.872209164625
 20
715.8940015499
 30
0.0
 40
0.5
  0
CIRCLE
  5
143B
330
1F
100
AcDbEntity
  8
２，細線
100
AcDbCircle
 10
1162.872209164625
 20
715.8940015499
 30
0.0
 40
0.5
  0
CIRCLE
  5
143C
330
1F
100
AcDbEntity
  8
２，細線
100
AcDbCircle
 10
1162.872209164625
 20
715.8940015499
 30
0.0
 40
0.5
  0
CIRCLE
  5
143D
330
1F
100
AcDbEntity
  8
２，細線
100
AcDbCircle
 10
1162.872209164625
 20
715.8940015499
 30
0.0
 40
0.5
  0
CIRCLE
  5
143E
330
1F
100
AcDbEntity
  8
２，細線
100
AcDbCircle
 10
1162.872209164625
 20
715.8940015499
 30
0.0
 40
0.5
  0
CIRCLE
  5
143F
330
1F
100
AcDbEntity
  8
２，細線
100
AcDbCircle
 10
1177.872209164625
 20
715.8940015499
 30
0.0
 40
0.5
  0
CIRCLE
  5
1440
330
1F
100
AcDbEntity
  8
２，細線
100
AcDbCircle
 10
1177.872209164625
 20
715.8940015499
 30
0.0
 40
0.5
  0
CIRCLE
  5
1441
330
1F
100
AcDbEntity
  8
２，細線
100
AcDbCircle
 10
1177.872209164625
 20
715.8940015499
 30
0.0
 40
0.5
  0
CIRCLE
  5
1442
330
1F
100
AcDbEntity
  8
２，細線
100
AcDbCircle
 10
1177.872209164625
 20
715.8940015499
 30
0.0
 40
0.5
  0
CIRCLE
  5
1443
330
1F
100
AcDbEntity
  8
２，細線
100
AcDbCircle
 10
1177.872209164625
 20
715.8940015499
 30
0.0
 40
0.5
  0
CIRCLE
  5
1444
330
1F
100
AcDbEntity
  8
２，細線
100
AcDbCircle
 10
1177.872209164625
 20
715.8940015499
 30
0.0
 40
0.5
  0
CIRCLE
  5
1445
330
1F
100
AcDbEntity
  8
２，細線
100
AcDbCircle
 10
1177.872209164625
 20
715.8940015499
 30
0.0
 40
0.5
  0
CIRCLE
  5
1446
330
1F
100
AcDbEntity
  8
２，細線
100
AcDbCircle
 10
1177.872209164625
 20
715.8940015499
 30
0.0
 40
0.5
  0
CIRCLE
  5
1447
330
1F
100
AcDbEntity
  8
２，細線
100
AcDbCircle
 10
1177.872209164625
 20
715.8940015499
 30
0.0
 40
0.5
  0
CIRCLE
  5
1448
330
1F
100
AcDbEntity
  8
２，細線
100
AcDbCircle
 10
1177.872209164625
 20
715.8940015499
 30
0.0
 40
0.5
  0
CIRCLE
  5
1449
330
1F
100
AcDbEntity
  8
２，細線
100
AcDbCircle
 10
1177.872209164625
 20
715.8940015499
 30
0.0
 40
0.5
  0
CIRCLE
  5
144A
330
1F
100
AcDbEntity
  8
２，細線
100
AcDbCircle
 10
1177.872209164625
 20
715.8940015499
 30
0.0
 40
0.5
  0
CIRCLE
  5
144B
330
1F
100
AcDbEntity
  8
２，細線
100
AcDbCircle
 10
1177.872209164625
 20
715.8940015499
 30
0.0
 40
0.5
  0
CIRCLE
  5
144C
330
1F
100
AcDbEntity
  8
２，細線
100
AcDbCircle
 10
1177.872209164625
 20
715.8940015499
 30
0.0
 40
0.5
  0
CIRCLE
  5
144D
330
1F
100
AcDbEntity
  8
２，細線
100
AcDbCircle
 10
1177.872209164625
 20
715.8940015499
 30
0.0
 40
0.5
  0
CIRCLE
  5
144E
330
1F
100
AcDbEntity
  8
２，細線
100
AcDbCircle
 10
1177.872209164625
 20
715.8940015499
 30
0.0
 40
0.5
  0
CIRCLE
  5
144F
330
1F
100
AcDbEntity
  8
２，細線
100
AcDbCircle
 10
1192.872209164625
 20
715.8940015499
 30
0.0
 40
0.5
  0
CIRCLE
  5
1450
330
1F
100
AcDbEntity
  8
２，細線
100
AcDbCircle
 10
1192.872209164625
 20
715.8940015499
 30
0.0
 40
0.5
  0
CIRCLE
  5
1451
330
1F
100
AcDbEntity
  8
２，細線
100
AcDbCircle
 10
1192.872209164625
 20
715.8940015499
 30
0.0
 40
0.5
  0
CIRCLE
  5
1452
330
1F
100
AcDbEntity
  8
２，細線
100
AcDbCircle
 10
1192.872209164625
 20
715.8940015499
 30
0.0
 40
0.5
  0
CIRCLE
  5
1453
330
1F
100
AcDbEntity
  8
２，細線
100
AcDbCircle
 10
1192.872209164625
 20
715.8940015499
 30
0.0
 40
0.5
  0
CIRCLE
  5
1454
330
1F
100
AcDbEntity
  8
２，細線
100
AcDbCircle
 10
1192.872209164625
 20
715.8940015499
 30
0.0
 40
0.5
  0
CIRCLE
  5
1455
330
1F
100
AcDbEntity
  8
２，細線
100
AcDbCircle
 10
1192.872209164625
 20
715.8940015499
 30
0.0
 40
0.5
  0
CIRCLE
  5
1456
330
1F
100
AcDbEntity
  8
２，細線
100
AcDbCircle
 10
1192.872209164625
 20
715.8940015499
 30
0.0
 40
0.5
  0
CIRCLE
  5
1457
330
1F
100
AcDbEntity
  8
２，細線
100
AcDbCircle
 10
1192.872209164625
 20
715.8940015499
 30
0.0
 40
0.5
  0
CIRCLE
  5
1458
330
1F
100
AcDbEntity
  8
２，細線
100
AcDbCircle
 10
1192.872209164625
 20
715.8940015499
 30
0.0
 40
0.5
  0
CIRCLE
  5
1459
330
1F
100
AcDbEntity
  8
２，細線
100
AcDbCircle
 10
1192.872209164625
 20
715.8940015499
 30
0.0
 40
0.5
  0
CIRCLE
  5
145A
330
1F
100
AcDbEntity
  8
２，細線
100
AcDbCircle
 10
1192.872209164625
 20
715.8940015499
 30
0.0
 40
0.5
  0
CIRCLE
  5
145B
330
1F
100
AcDbEntity
  8
２，細線
100
AcDbCircle
 10
1192.872209164625
 20
715.8940015499
 30
0.0
 40
0.5
  0
CIRCLE
  5
145C
330
1F
100
AcDbEntity
  8
２，細線
100
AcDbCircle
 10
1192.872209164625
 20
715.8940015499
 30
0.0
 40
0.5
  0
CIRCLE
  5
145D
330
1F
100
AcDbEntity
  8
２，細線
100
AcDbCircle
 10
1192.872209164625
 20
715.8940015499
 30
0.0
 40
0.5
  0
CIRCLE
  5
145E
330
1F
100
AcDbEntity
  8
２，細線
100
AcDbCircle
 10
1192.872209164625
 20
715.8940015499
 30
0.0
 40
0.5
  0
CIRCLE
  5
145F
330
1F
100
AcDbEntity
  8
２，細線
100
AcDbCircle
 10
1207.872209164626
 20
715.8940015499
 30
0.0
 40
0.5
  0
CIRCLE
  5
1460
330
1F
100
AcDbEntity
  8
２，細線
100
AcDbCircle
 10
1207.872209164626
 20
715.8940015499
 30
0.0
 40
0.5
  0
CIRCLE
  5
1461
330
1F
100
AcDbEntity
  8
２，細線
100
AcDbCircle
 10
1207.872209164626
 20
715.8940015499
 30
0.0
 40
0.5
  0
CIRCLE
  5
1462
330
1F
100
AcDbEntity
  8
２，細線
100
AcDbCircle
 10
1207.872209164626
 20
715.8940015499
 30
0.0
 40
0.5
  0
CIRCLE
  5
1463
330
1F
100
AcDbEntity
  8
２，細線
100
AcDbCircle
 10
1207.872209164626
 20
715.8940015499
 30
0.0
 40
0.5
  0
CIRCLE
  5
1464
330
1F
100
AcDbEntity
  8
２，細線
100
AcDbCircle
 10
1207.872209164626
 20
715.8940015499
 30
0.0
 40
0.5
  0
CIRCLE
  5
1465
330
1F
100
AcDbEntity
  8
２，細線
100
AcDbCircle
 10
1207.872209164626
 20
715.8940015499
 30
0.0
 40
0.5
  0
CIRCLE
  5
1466
330
1F
100
AcDbEntity
  8
２，細線
100
AcDbCircle
 10
1207.872209164626
 20
715.8940015499
 30
0.0
 40
0.5
  0
CIRCLE
  5
1467
330
1F
100
AcDbEntity
  8
２，細線
100
AcDbCircle
 10
1207.872209164626
 20
715.8940015499
 30
0.0
 40
0.5
  0
CIRCLE
  5
1468
330
1F
100
AcDbEntity
  8
２，細線
100
AcDbCircle
 10
1207.872209164626
 20
715.8940015499
 30
0.0
 40
0.5
  0
CIRCLE
  5
1469
330
1F
100
AcDbEntity
  8
２，細線
100
AcDbCircle
 10
1207.872209164626
 20
715.8940015499
 30
0.0
 40
0.5
  0
CIRCLE
  5
146A
330
1F
100
AcDbEntity
  8
２，細線
100
AcDbCircle
 10
1207.872209164626
 20
715.8940015499
 30
0.0
 40
0.5
  0
CIRCLE
  5
146B
330
1F
100
AcDbEntity
  8
２，細線
100
AcDbCircle
 10
1207.872209164626
 20
715.8940015499
 30
0.0
 40
0.5
  0
CIRCLE
  5
146C
330
1F
100
AcDbEntity
  8
２，細線
100
AcDbCircle
 10
1207.872209164626
 20
715.8940015499
 30
0.0
 40
0.5
  0
CIRCLE
  5
146D
330
1F
100
AcDbEntity
  8
２，細線
100
AcDbCircle
 10
1207.872209164626
 20
715.8940015499
 30
0.0
 40
0.5
  0
CIRCLE
  5
146E
330
1F
100
AcDbEntity
  8
２，細線
100
AcDbCircle
 10
1207.872209164626
 20
715.8940015499
 30
0.0
 40
0.5
  0
CIRCLE
  5
146F
330
1F
100
AcDbEntity
  8
２，細線
100
AcDbCircle
 10
1222.872209164626
 20
715.8940015499
 30
0.0
 40
0.5
  0
CIRCLE
  5
1470
330
1F
100
AcDbEntity
  8
２，細線
100
AcDbCircle
 10
1222.872209164626
 20
715.8940015499
 30
0.0
 40
0.5
  0
CIRCLE
  5
1471
330
1F
100
AcDbEntity
  8
２，細線
100
AcDbCircle
 10
1222.872209164626
 20
715.8940015499
 30
0.0
 40
0.5
  0
CIRCLE
  5
1472
330
1F
100
AcDbEntity
  8
２，細線
100
AcDbCircle
 10
1222.872209164626
 20
715.8940015499
 30
0.0
 40
0.5
  0
CIRCLE
  5
1473
330
1F
100
AcDbEntity
  8
２，細線
100
AcDbCircle
 10
1222.872209164626
 20
715.8940015499
 30
0.0
 40
0.5
  0
CIRCLE
  5
1474
330
1F
100
AcDbEntity
  8
２，細線
100
AcDbCircle
 10
1222.872209164626
 20
715.8940015499
 30
0.0
 40
0.5
  0
CIRCLE
  5
1475
330
1F
100
AcDbEntity
  8
２，細線
100
AcDbCircle
 10
1222.872209164626
 20
715.8940015499
 30
0.0
 40
0.5
  0
CIRCLE
  5
1476
330
1F
100
AcDbEntity
  8
２，細線
100
AcDbCircle
 10
1222.872209164626
 20
715.8940015499
 30
0.0
 40
0.5
  0
CIRCLE
  5
1477
330
1F
100
AcDbEntity
  8
２，細線
100
AcDbCircle
 10
1222.872209164626
 20
715.8940015499
 30
0.0
 40
0.5
  0
CIRCLE
  5
1478
330
1F
100
AcDbEntity
  8
２，細線
100
AcDbCircle
 10
1222.872209164626
 20
715.8940015499
 30
0.0
 40
0.5
  0
CIRCLE
  5
1479
330
1F
100
AcDbEntity
  8
２，細線
100
AcDbCircle
 10
1222.872209164626
 20
715.8940015499
 30
0.0
 40
0.5
  0
CIRCLE
  5
147A
330
1F
100
AcDbEntity
  8
２，細線
100
AcDbCircle
 10
1222.872209164626
 20
715.8940015499
 30
0.0
 40
0.5
  0
CIRCLE
  5
147B
330
1F
100
AcDbEntity
  8
２，細線
100
AcDbCircle
 10
1222.872209164626
 20
715.8940015499
 30
0.0
 40
0.5
  0
CIRCLE
  5
147C
330
1F
100
AcDbEntity
  8
２，細線
100
AcDbCircle
 10
1222.872209164626
 20
715.8940015499
 30
0.0
 40
0.5
  0
CIRCLE
  5
147D
330
1F
100
AcDbEntity
  8
２，細線
100
AcDbCircle
 10
1222.872209164626
 20
715.8940015499
 30
0.0
 40
0.5
  0
CIRCLE
  5
147E
330
1F
100
AcDbEntity
  8
２，細線
100
AcDbCircle
 10
1222.872209164626
 20
715.8940015499
 30
0.0
 40
0.5
  0
CIRCLE
  5
147F
330
1F
100
AcDbEntity
  8
２，細線
100
AcDbCircle
 10
1237.872209164626
 20
715.8940015499
 30
0.0
 40
0.5
  0
CIRCLE
  5
1480
330
1F
100
AcDbEntity
  8
２，細線
100
AcDbCircle
 10
1237.872209164626
 20
715.8940015499
 30
0.0
 40
0.5
  0
CIRCLE
  5
1481
330
1F
100
AcDbEntity
  8
２，細線
100
AcDbCircle
 10
1237.872209164626
 20
715.8940015499
 30
0.0
 40
0.5
  0
CIRCLE
  5
1482
330
1F
100
AcDbEntity
  8
２，細線
100
AcDbCircle
 10
1237.872209164626
 20
715.8940015499
 30
0.0
 40
0.5
  0
CIRCLE
  5
1483
330
1F
100
AcDbEntity
  8
２，細線
100
AcDbCircle
 10
1237.872209164626
 20
715.8940015499
 30
0.0
 40
0.5
  0
CIRCLE
  5
1484
330
1F
100
AcDbEntity
  8
２，細線
100
AcDbCircle
 10
1237.872209164626
 20
715.8940015499
 30
0.0
 40
0.5
  0
CIRCLE
  5
1485
330
1F
100
AcDbEntity
  8
２，細線
100
AcDbCircle
 10
1237.872209164626
 20
715.8940015499
 30
0.0
 40
0.5
  0
CIRCLE
  5
1486
330
1F
100
AcDbEntity
  8
２，細線
100
AcDbCircle
 10
1237.872209164626
 20
715.8940015499
 30
0.0
 40
0.5
  0
CIRCLE
  5
1487
330
1F
100
AcDbEntity
  8
２，細線
100
AcDbCircle
 10
1237.872209164626
 20
715.8940015499
 30
0.0
 40
0.5
  0
CIRCLE
  5
1488
330
1F
100
AcDbEntity
  8
２，細線
100
AcDbCircle
 10
1237.872209164626
 20
715.8940015499
 30
0.0
 40
0.5
  0
CIRCLE
  5
1489
330
1F
100
AcDbEntity
  8
２，細線
100
AcDbCircle
 10
1237.872209164626
 20
715.8940015499
 30
0.0
 40
0.5
  0
CIRCLE
  5
148A
330
1F
100
AcDbEntity
  8
２，細線
100
AcDbCircle
 10
1237.872209164626
 20
715.8940015499
 30
0.0
 40
0.5
  0
CIRCLE
  5
148B
330
1F
100
AcDbEntity
  8
２，細線
100
AcDbCircle
 10
1237.872209164626
 20
715.8940015499
 30
0.0
 40
0.5
  0
CIRCLE
  5
148C
330
1F
100
AcDbEntity
  8
２，細線
100
AcDbCircle
 10
1237.872209164626
 20
715.8940015499
 30
0.0
 40
0.5
  0
CIRCLE
  5
148D
330
1F
100
AcDbEntity
  8
２，細線
100
AcDbCircle
 10
1237.872209164626
 20
715.8940015499
 30
0.0
 40
0.5
  0
CIRCLE
  5
148E
330
1F
100
AcDbEntity
  8
２，細線
100
AcDbCircle
 10
1237.872209164626
 20
715.8940015499
 30
0.0
 40
0.5
  0
CIRCLE
  5
148F
330
1F
100
AcDbEntity
  8
２，細線
100
AcDbCircle
 10
1252.872209164626
 20
715.8940015499
 30
0.0
 40
0.5
  0
CIRCLE
  5
1490
330
1F
100
AcDbEntity
  8
２，細線
100
AcDbCircle
 10
1252.872209164626
 20
715.8940015499
 30
0.0
 40
0.5
  0
CIRCLE
  5
1491
330
1F
100
AcDbEntity
  8
２，細線
100
AcDbCircle
 10
1252.872209164626
 20
715.8940015499
 30
0.0
 40
0.5
  0
CIRCLE
  5
1492
330
1F
100
AcDbEntity
  8
２，細線
100
AcDbCircle
 10
1252.872209164626
 20
715.8940015499
 30
0.0
 40
0.5
  0
CIRCLE
  5
1493
330
1F
100
AcDbEntity
  8
２，細線
100
AcDbCircle
 10
1252.872209164626
 20
715.8940015499
 30
0.0
 40
0.5
  0
CIRCLE
  5
1494
330
1F
100
AcDbEntity
  8
２，細線
100
AcDbCircle
 10
1252.872209164626
 20
715.8940015499
 30
0.0
 40
0.5
  0
CIRCLE
  5
1495
330
1F
100
AcDbEntity
  8
２，細線
100
AcDbCircle
 10
1252.872209164626
 20
715.8940015499
 30
0.0
 40
0.5
  0
CIRCLE
  5
1496
330
1F
100
AcDbEntity
  8
２，細線
100
AcDbCircle
 10
1252.872209164626
 20
715.8940015499
 30
0.0
 40
0.5
  0
CIRCLE
  5
1497
330
1F
100
AcDbEntity
  8
２，細線
100
AcDbCircle
 10
1252.872209164626
 20
715.8940015499
 30
0.0
 40
0.5
  0
CIRCLE
  5
1498
330
1F
100
AcDbEntity
  8
２，細線
100
AcDbCircle
 10
1252.872209164626
 20
715.8940015499
 30
0.0
 40
0.5
  0
CIRCLE
  5
1499
330
1F
100
AcDbEntity
  8
２，細線
100
AcDbCircle
 10
1252.872209164626
 20
715.8940015499
 30
0.0
 40
0.5
  0
CIRCLE
  5
149A
330
1F
100
AcDbEntity
  8
２，細線
100
AcDbCircle
 10
1252.872209164626
 20
715.8940015499
 30
0.0
 40
0.5
  0
CIRCLE
  5
149B
330
1F
100
AcDbEntity
  8
２，細線
100
AcDbCircle
 10
1252.872209164626
 20
715.8940015499
 30
0.0
 40
0.5
  0
CIRCLE
  5
149C
330
1F
100
AcDbEntity
  8
２，細線
100
AcDbCircle
 10
1252.872209164626
 20
715.8940015499
 30
0.0
 40
0.5
  0
CIRCLE
  5
149D
330
1F
100
AcDbEntity
  8
２，細線
100
AcDbCircle
 10
1252.872209164626
 20
715.8940015499
 30
0.0
 40
0.5
  0
CIRCLE
  5
149E
330
1F
100
AcDbEntity
  8
２，細線
100
AcDbCircle
 10
1252.872209164626
 20
715.8940015499
 30
0.0
 40
0.5
  0
CIRCLE
  5
149F
330
1F
100
AcDbEntity
  8
２，細線
100
AcDbCircle
 10
1267.872209164625
 20
715.8940015499
 30
0.0
 40
0.5
  0
CIRCLE
  5
14A0
330
1F
100
AcDbEntity
  8
２，細線
100
AcDbCircle
 10
1267.872209164625
 20
715.8940015499
 30
0.0
 40
0.5
  0
CIRCLE
  5
14A1
330
1F
100
AcDbEntity
  8
２，細線
100
AcDbCircle
 10
1267.872209164625
 20
715.8940015499
 30
0.0
 40
0.5
  0
CIRCLE
  5
14A2
330
1F
100
AcDbEntity
  8
２，細線
100
AcDbCircle
 10
1267.872209164625
 20
715.8940015499
 30
0.0
 40
0.5
  0
CIRCLE
  5
14A3
330
1F
100
AcDbEntity
  8
２，細線
100
AcDbCircle
 10
1267.872209164625
 20
715.8940015499
 30
0.0
 40
0.5
  0
CIRCLE
  5
14A4
330
1F
100
AcDbEntity
  8
２，細線
100
AcDbCircle
 10
1267.872209164625
 20
715.8940015499
 30
0.0
 40
0.5
  0
CIRCLE
  5
14A5
330
1F
100
AcDbEntity
  8
２，細線
100
AcDbCircle
 10
1267.872209164625
 20
715.8940015499
 30
0.0
 40
0.5
  0
CIRCLE
  5
14A6
330
1F
100
AcDbEntity
  8
２，細線
100
AcDbCircle
 10
1267.872209164625
 20
715.8940015499
 30
0.0
 40
0.5
  0
CIRCLE
  5
14A7
330
1F
100
AcDbEntity
  8
２，細線
100
AcDbCircle
 10
1267.872209164625
 20
715.8940015499
 30
0.0
 40
0.5
  0
CIRCLE
  5
14A8
330
1F
100
AcDbEntity
  8
２，細線
100
AcDbCircle
 10
1267.872209164625
 20
715.8940015499
 30
0.0
 40
0.5
  0
CIRCLE
  5
14A9
330
1F
100
AcDbEntity
  8
２，細線
100
AcDbCircle
 10
1267.872209164625
 20
715.8940015499
 30
0.0
 40
0.5
  0
CIRCLE
  5
14AA
330
1F
100
AcDbEntity
  8
２，細線
100
AcDbCircle
 10
1267.872209164625
 20
715.8940015499
 30
0.0
 40
0.5
  0
CIRCLE
  5
14AB
330
1F
100
AcDbEntity
  8
２，細線
100
AcDbCircle
 10
1267.872209164625
 20
715.8940015499
 30
0.0
 40
0.5
  0
CIRCLE
  5
14AC
330
1F
100
AcDbEntity
  8
２，細線
100
AcDbCircle
 10
1267.872209164625
 20
715.8940015499
 30
0.0
 40
0.5
  0
CIRCLE
  5
14AD
330
1F
100
AcDbEntity
  8
２，細線
100
AcDbCircle
 10
1267.872209164625
 20
715.8940015499
 30
0.0
 40
0.5
  0
CIRCLE
  5
14AE
330
1F
100
AcDbEntity
  8
２，細線
100
AcDbCircle
 10
1267.872209164625
 20
715.8940015499
 30
0.0
 40
0.5
  0
CIRCLE
  5
14AF
330
1F
100
AcDbEntity
  8
２，細線
100
AcDbCircle
 10
1282.872209164626
 20
715.8940015499
 30
0.0
 40
0.5
  0
CIRCLE
  5
14B0
330
1F
100
AcDbEntity
  8
２，細線
100
AcDbCircle
 10
1282.872209164626
 20
715.8940015499
 30
0.0
 40
0.5
  0
CIRCLE
  5
14B1
330
1F
100
AcDbEntity
  8
２，細線
100
AcDbCircle
 10
1282.872209164626
 20
715.8940015499
 30
0.0
 40
0.5
  0
CIRCLE
  5
14B2
330
1F
100
AcDbEntity
  8
２，細線
100
AcDbCircle
 10
1282.872209164626
 20
715.8940015499
 30
0.0
 40
0.5
  0
CIRCLE
  5
14B3
330
1F
100
AcDbEntity
  8
２，細線
100
AcDbCircle
 10
1282.872209164626
 20
715.8940015499
 30
0.0
 40
0.5
  0
CIRCLE
  5
14B4
330
1F
100
AcDbEntity
  8
２，細線
100
AcDbCircle
 10
1282.872209164626
 20
715.8940015499
 30
0.0
 40
0.5
  0
CIRCLE
  5
14B5
330
1F
100
AcDbEntity
  8
２，細線
100
AcDbCircle
 10
1282.872209164626
 20
715.8940015499
 30
0.0
 40
0.5
  0
CIRCLE
  5
14B6
330
1F
100
AcDbEntity
  8
２，細線
100
AcDbCircle
 10
1282.872209164626
 20
715.8940015499
 30
0.0
 40
0.5
  0
CIRCLE
  5
14B7
330
1F
100
AcDbEntity
  8
２，細線
100
AcDbCircle
 10
1282.872209164626
 20
715.8940015499
 30
0.0
 40
0.5
  0
CIRCLE
  5
14B8
330
1F
100
AcDbEntity
  8
２，細線
100
AcDbCircle
 10
1282.872209164626
 20
715.8940015499
 30
0.0
 40
0.5
  0
CIRCLE
  5
14B9
330
1F
100
AcDbEntity
  8
２，細線
100
AcDbCircle
 10
1282.872209164626
 20
715.8940015499
 30
0.0
 40
0.5
  0
CIRCLE
  5
14BA
330
1F
100
AcDbEntity
  8
２，細線
100
AcDbCircle
 10
1282.872209164626
 20
715.8940015499
 30
0.0
 40
0.5
  0
CIRCLE
  5
14BB
330
1F
100
AcDbEntity
  8
２，細線
100
AcDbCircle
 10
1282.872209164626
 20
715.8940015499
 30
0.0
 40
0.5
  0
CIRCLE
  5
14BC
330
1F
100
AcDbEntity
  8
２，細線
100
AcDbCircle
 10
1282.872209164626
 20
715.8940015499
 30
0.0
 40
0.5
  0
CIRCLE
  5
14BD
330
1F
100
AcDbEntity
  8
２，細線
100
AcDbCircle
 10
1282.872209164626
 20
715.8940015499
 30
0.0
 40
0.5
  0
CIRCLE
  5
14BE
330
1F
100
AcDbEntity
  8
２，細線
100
AcDbCircle
 10
1282.872209164626
 20
715.8940015499
 30
0.0
 40
0.5
  0
CIRCLE
  5
14BF
330
1F
100
AcDbEntity
  8
２，細線
100
AcDbCircle
 10
1297.872209164625
 20
715.8940015499
 30
0.0
 40
0.5
  0
CIRCLE
  5
14C0
330
1F
100
AcDbEntity
  8
２，細線
100
AcDbCircle
 10
1297.872209164625
 20
715.8940015499
 30
0.0
 40
0.5
  0
CIRCLE
  5
14C1
330
1F
100
AcDbEntity
  8
２，細線
100
AcDbCircle
 10
1297.872209164625
 20
715.8940015499
 30
0.0
 40
0.5
  0
CIRCLE
  5
14C2
330
1F
100
AcDbEntity
  8
２，細線
100
AcDbCircle
 10
1297.872209164625
 20
715.8940015499
 30
0.0
 40
0.5
  0
CIRCLE
  5
14C3
330
1F
100
AcDbEntity
  8
２，細線
100
AcDbCircle
 10
1297.872209164625
 20
715.8940015499
 30
0.0
 40
0.5
  0
CIRCLE
  5
14C4
330
1F
100
AcDbEntity
  8
２，細線
100
AcDbCircle
 10
1297.872209164625
 20
715.8940015499
 30
0.0
 40
0.5
  0
CIRCLE
  5
14C5
330
1F
100
AcDbEntity
  8
２，細線
100
AcDbCircle
 10
1297.872209164625
 20
715.8940015499
 30
0.0
 40
0.5
  0
CIRCLE
  5
14C6
330
1F
100
AcDbEntity
  8
２，細線
100
AcDbCircle
 10
1297.872209164625
 20
715.8940015499
 30
0.0
 40
0.5
  0
CIRCLE
  5
14C7
330
1F
100
AcDbEntity
  8
２，細線
100
AcDbCircle
 10
1297.872209164625
 20
715.8940015499
 30
0.0
 40
0.5
  0
CIRCLE
  5
14C8
330
1F
100
AcDbEntity
  8
２，細線
100
AcDbCircle
 10
1297.872209164625
 20
715.8940015499
 30
0.0
 40
0.5
  0
CIRCLE
  5
14C9
330
1F
100
AcDbEntity
  8
２，細線
100
AcDbCircle
 10
1297.872209164625
 20
715.8940015499
 30
0.0
 40
0.5
  0
CIRCLE
  5
14CA
330
1F
100
AcDbEntity
  8
２，細線
100
AcDbCircle
 10
1297.872209164625
 20
715.8940015499
 30
0.0
 40
0.5
  0
CIRCLE
  5
14CB
330
1F
100
AcDbEntity
  8
２，細線
100
AcDbCircle
 10
1297.872209164625
 20
715.8940015499
 30
0.0
 40
0.5
  0
CIRCLE
  5
14CC
330
1F
100
AcDbEntity
  8
２，細線
100
AcDbCircle
 10
1297.872209164625
 20
715.8940015499
 30
0.0
 40
0.5
  0
CIRCLE
  5
14CD
330
1F
100
AcDbEntity
  8
２，細線
100
AcDbCircle
 10
1297.872209164625
 20
715.8940015499
 30
0.0
 40
0.5
  0
CIRCLE
  5
14CE
330
1F
100
AcDbEntity
  8
２，細線
100
AcDbCircle
 10
1297.872209164625
 20
715.8940015499
 30
0.0
 40
0.5
  0
CIRCLE
  5
14D0
330
1F
100
AcDbEntity
  8
２，細線
100
AcDbCircle
 10
1092.872209164625
 20
363.8940015499001
 30
0.0
 40
0.5
  0
CIRCLE
  5
14D1
330
1F
100
AcDbEntity
  8
２，細線
100
AcDbCircle
 10
1107.872209164626
 20
363.8940015499001
 30
0.0
 40
0.5
  0
CIRCLE
  5
14D2
330
1F
100
AcDbEntity
  8
２，細線
100
AcDbCircle
 10
1122.872209164625
 20
363.8940015499001
 30
0.0
 40
0.5
  0
CIRCLE
  5
14D3
330
1F
100
AcDbEntity
  8
２，細線
100
AcDbCircle
 10
1137.872209164626
 20
363.8940015499001
 30
0.0
 40
0.5
  0
CIRCLE
  5
14D4
330
1F
100
AcDbEntity
  8
２，細線
100
AcDbCircle
 10
1152.872209164625
 20
363.8940015499001
 30
0.0
 40
0.5
  0
CIRCLE
  5
14D5
330
1F
100
AcDbEntity
  8
２，細線
100
AcDbCircle
 10
1167.872209164625
 20
363.8940015499001
 30
0.0
 40
0.5
  0
CIRCLE
  5
14D6
330
1F
100
AcDbEntity
  8
２，細線
100
AcDbCircle
 10
1182.872209164625
 20
363.8940015499001
 30
0.0
 40
0.5
  0
CIRCLE
  5
14D7
330
1F
100
AcDbEntity
  8
２，細線
100
AcDbCircle
 10
1197.872209164626
 20
363.8940015499001
 30
0.0
 40
0.5
  0
CIRCLE
  5
14D8
330
1F
100
AcDbEntity
  8
２，細線
100
AcDbCircle
 10
1212.872209164626
 20
363.8940015499001
 30
0.0
 40
0.5
  0
CIRCLE
  5
14D9
330
1F
100
AcDbEntity
  8
２，細線
100
AcDbCircle
 10
1227.872209164625
 20
363.8940015499001
 30
0.0
 40
0.5
  0
CIRCLE
  5
14DA
330
1F
100
AcDbEntity
  8
２，細線
100
AcDbCircle
 10
1242.872209164626
 20
363.8940015499001
 30
0.0
 40
0.5
  0
CIRCLE
  5
14DB
330
1F
100
AcDbEntity
  8
２，細線
100
AcDbCircle
 10
1257.872209164625
 20
363.8940015499001
 30
0.0
 40
0.5
  0
CIRCLE
  5
14DC
330
1F
100
AcDbEntity
  8
２，細線
100
AcDbCircle
 10
1272.872209164626
 20
363.8940015499001
 30
0.0
 40
0.5
  0
CIRCLE
  5
14DD
330
1F
100
AcDbEntity
  8
２，細線
100
AcDbCircle
 10
1287.872209164626
 20
363.8940015499001
 30
0.0
 40
0.5
  0
CIRCLE
  5
14DE
330
1F
100
AcDbEntity
  8
２，細線
100
AcDbCircle
 10
1302.872209164625
 20
363.8940015499001
 30
0.0
 40
0.5
  0
ARC
  5
152A
330
1F
100
AcDbEntity
  8
２，細線
100
AcDbCircle
 10
690.5121499897596
 20
1329.232009914906
 30
0.0
 40
6.100000000000001
100
AcDbArc
 50
39.60192708110677
 51
140.3980729188932
  0
LINE
  5
152B
330
1F
100
AcDbEntity
  8
２，細線
100
AcDbLine
 10
685.8121499897596
 20
1333.12045433395
 30
0.0
 11
695.2121499897597
 21
1333.12045433395
 31
0.0
  0
LINE
  5
152C
330
1F
100
AcDbEntity
  8
２，細線
100
AcDbLine
 10
685.8121499897596
 20
1333.12045433395
 30
0.0
 11
685.8121499897596
 21
1332.832009914906
 31
0.0
  0
LINE
  5
152D
330
1F
100
AcDbEntity
  8
２，細線
100
AcDbLine
 10
685.8121499897596
 20
1332.832009914906
 30
0.0
 11
695.2121499897597
 21
1332.832009914906
 31
0.0
  0
LINE
  5
152E
330
1F
100
AcDbEntity
  8
２，細線
100
AcDbLine
 10
695.2121499897597
 20
1332.832009914906
 30
0.0
 11
695.2121499897597
 21
1333.12045433395
 31
0.0
  0
ARC
  5
152F
330
1F
100
AcDbEntity
  8
２，細線
100
AcDbCircle
 10
370.5121499897596
 20
1329.232009914906
 30
0.0
 40
6.100000000000001
100
AcDbArc
 50
39.60192708110875
 51
140.3980729188911
  0
LINE
  5
1530
330
1F
100
AcDbEntity
  8
２，細線
100
AcDbLine
 10
365.8121499897595
 20
1333.12045433395
 30
0.0
 11
375.2121499897596
 21
1333.12045433395
 31
0.0
  0
LINE
  5
1531
330
1F
100
AcDbEntity
  8
２，細線
100
AcDbLine
 10
365.8121499897595
 20
1333.12045433395
 30
0.0
 11
365.8121499897595
 21
1332.832009914906
 31
0.0
  0
LINE
  5
1532
330
1F
100
AcDbEntity
  8
２，細線
100
AcDbLine
 10
365.8121499897595
 20
1332.832009914906
 30
0.0
 11
375.2121499897596
 21
1332.832009914906
 31
0.0
  0
LINE
  5
1533
330
1F
100
AcDbEntity
  8
２，細線
100
AcDbLine
 10
375.2121499897596
 20
1332.832009914906
 30
0.0
 11
375.2121499897596
 21
1333.12045433395
 31
0.0
  0
ARC
  5
1534
330
1F
100
AcDbEntity
  8
２，細線
100
AcDbCircle
 10
346.5121499897596
 20
1329.232009914906
 30
0.0
 40
6.100000000000001
100
AcDbArc
 50
39.60192708110875
 51
140.3980729188911
  0
LINE
  5
1535
330
1F
100
AcDbEntity
  8
２，細線
100
AcDbLine
 10
341.8121499897596
 20
1333.12045433395
 30
0.0
 11
351.2121499897596
 21
1333.12045433395
 31
0.0
  0
LINE
  5
1536
330
1F
100
AcDbEntity
  8
２，細線
100
AcDbLine
 10
341.8121499897596
 20
1333.12045433395
 30
0.0
 11
341.8121499897596
 21
1332.832009914906
 31
0.0
  0
LINE
  5
1537
330
1F
100
AcDbEntity
  8
２，細線
100
AcDbLine
 10
341.8121499897596
 20
1332.832009914906
 30
0.0
 11
351.2121499897596
 21
1332.832009914906
 31
0.0
  0
LINE
  5
1538
330
1F
100
AcDbEntity
  8
２，細線
100
AcDbLine
 10
351.2121499897596
 20
1332.832009914906
 30
0.0
 11
351.2121499897596
 21
1333.12045433395
 31
0.0
  0
LINE
  5
153D
330
1F
100
AcDbEntity
  8
1、実線
100
AcDbLine
 10
1417.514112395468
 20
758.8940015499002
 30
0.0
 11
1416.514112395469
 21
758.8940015499002
 31
0.0
  0
DIMENSION
  5
1581
330
1F
100
AcDbEntity
  8
寸法線1
100
AcDbDimension
  2
*D5
 10
720.5121499897597
 20
239.8940015499
 30
0.0
 11
530.5121499897595
 21
252.3940015499
 31
0.0
 70
    32
 71
     5
 42
380.0000000000001
  3
ISO-25
100
AcDbAlignedDimension
 13
340.5121499897595
 23
319.8940015499001
 33
0.0
 14
720.5121499897597
 24
319.8940015499001
 34
0.0
100
AcDbRotatedDimension
  0
DIMENSION
  5
158E
330
1F
100
AcDbEntity
  8
寸法線1
100
AcDbDimension
  2
*D6
 10
770.5121499897597
 20
319.8940015499001
 30
0.0
 11
758.0121499897595
 21
539.8940015499001
 31
0.0
 70
    32
 71
     5
 42
439.9999999999998
  3
ISO-25
100
AcDbAlignedDimension
 13
728.5121499897597
 23
759.8940015499
 33
0.0
 14
728.5121499897597
 24
319.8940015499001
 34
0.0
 50
90.0
100
AcDbRotatedDimension
  0
DIMENSION
  5
159B
330
1F
100
AcDbEntity
  8
寸法線1
100
AcDbDimension
  2
*D7
 10
770.5121499897597
 20
289.8940015499001
 30
0.0
 11
770.5121499897595
 21
304.8940015499002
 31
0.0
 70
   160
 71
     5
 42
30.0
  3
ISO-25
100
AcDbAlignedDimension
 13
726.4121499897596
 23
319.8940015499001
 33
0.0
 14
726.4121499897596
 24
289.8940015499001
 34
0.0
 50
90.0
100
AcDbRotatedDimension
  0
DIMENSION
  5
15B7
330
1F
100
AcDbEntity
  8
寸法線1
100
AcDbDimension
  2
*D8
 10
805.6254086312184
 20
289.8940015499001
 30
0.0
 11
805.6254086312183
 21
540.5135305938647
 31
0.0
 70
   160
 71
     5
 42
472.9999999999998
  3
ISO-25
100
AcDbAlignedDimension
 13
720.5121499897597
 23
762.8940015499
 33
0.0
 14
715.5121499897596
 24
289.8940015499001
 34
0.0
 50
90.0
100
AcDbRotatedDimension
  0
DIMENSION
  5
15C4
330
1F
100
AcDbEntity
  8
寸法線1
100
AcDbDimension
  2
*D9
 10
290.5121499897596
 20
931.832009914906
 30
0.0
 11
278.0121499897595
 21
1131.832009914906
 31
0.0
 70
    32
 71
     5
 42
399.9999999999998
  3
ISO-25
100
AcDbAlignedDimension
 13
335.5121499897598
 23
1331.832009914906
 33
0.0
 14
335.5121499897598
 24
931.832009914906
 34
0.0
 50
90.0
100
AcDbRotatedDimension
  0
DIMENSION
  5
15D2
330
1F
100
AcDbEntity
  8
寸法線1
100
AcDbDimension
  2
*D10
 10
290.5121499897596
 20
896.8320099149059
 30
0.0
 11
290.5121499897594
 21
913.3856389352896
 31
0.0
 70
   160
 71
     5
 42
35.00000000000023
  3
ISO-25
100
AcDbAlignedDimension
 13
335.5121499897598
 23
931.832009914906
 33
0.0
 14
335.5121499897596
 24
896.8320099149059
 34
0.0
 50
90.0
100
AcDbRotatedDimension
  0
DIMENSION
  5
15FC
330
1F
100
AcDbEntity
  8
寸法線1
100
AcDbDimension
  2
*D11
 10
981.5141123954687
 20
809.8940015499
 30
0.0
 11
1199.014112395469
 21
822.3940015499
 31
0.0
 70
    32
 71
     5
 42
435.0000000000001
  3
ISO-25
100
AcDbAlignedDimension
 13
1416.514112395469
 23
764.8940015499
 33
0.0
 14
981.5141123954687
 24
764.8940015499
 34
0.0
100
AcDbRotatedDimension
  0
DIMENSION
  5
1609
330
1F
100
AcDbEntity
  8
寸法線1
100
AcDbDimension
  2
*D12
 10
954.5141123954687
 20
809.8940015499
 30
0.0
 11
912.014112395469
 21
822.3940015499
 31
0.0
 70
    32
 71
     5
 42
27.0
  3
ISO-25
100
AcDbAlignedDimension
 13
981.5141123954687
 23
762.8940015499002
 33
0.0
 14
954.5141123954687
 24
672.6843708374859
 34
0.0
100
AcDbRotatedDimension
  0
LEADER
  5
161B
330
1F
100
AcDbEntity
  8
引き出し線
100
AcDbLeader
  3
ISO-25
 76
     2
 10
1324.950220379494
 20
715.2637944583647
 30
0.0
 10
1395.99410300323
 20
846.9387077030548
 30
0.0
1001
ACAD
1000
DSTYLE
1002
{
1070
   147
1040
1.0
1070
    77
1070
     0
1002
}
  0
LEADER
  5
161C
330
1F
100
AcDbEntity
  8
引き出し線
100
AcDbLeader
  3
ISO-25
 76
     2
 10
1272.246955927565
 20
759.4713619682487
 30
0.0
 10
1312.704330540093
 20
847.1812409777726
 30
0.0
1001
ACAD
1000
DSTYLE
1002
{
1070
   147
1040
1.0
1070
    77
1070
     0
1002
}
  0
LINE
  5
1683
330
1F
100
AcDbEntity
  8
1、実線
100
AcDbLine
 10
777.5012212534294
 20
1294.189340796568
 30
0.0
 11
777.5012212534294
 21
1289.189340796568
 31
0.0
  0
LINE
  5
1684
330
1F
100
AcDbEntity
  8
1、実線
100
AcDbLine
 10
777.5012212534294
 20
1289.189340796568
 30
0.0
 11
779.5012212534294
 21
1289.189340796568
 31
0.0
  0
LINE
  5
1685
330
1F
100
AcDbEntity
  8
1、実線
100
AcDbLine
 10
779.5012212534294
 20
1289.189340796568
 30
0.0
 11
779.5012212534294
 21
1294.189340796568
 31
0.0
  0
LINE
  5
1686
330
1F
100
AcDbEntity
  8
1、実線
100
AcDbLine
 10
779.5012212534294
 20
1294.189340796568
 30
0.0
 11
777.5012212534294
 21
1294.189340796568
 31
0.0
  0
LINE
  5
1687
330
1F
100
AcDbEntity
  8
1、実線
100
AcDbLine
 10
779.5012212534294
 20
1289.189340796568
 30
0.0
 11
797.4060213443773
 21
1287.346199610735
 31
0.0
  0
ARC
  5
1688
330
1F
100
AcDbEntity
  8
1、実線
100
AcDbCircle
 10
797.2012212534292
 20
1285.356713012955
 30
0.0
 40
2.0
100
AcDbArc
 50
0.0
 51
84.12260739335385
  0
LINE
  5
1689
330
1F
100
AcDbEntity
  8
1、実線
100
AcDbLine
 10
779.5012212534294
 20
1294.189340796568
 30
0.0
 11
796.5012212534294
 21
1295.939340796568
 31
0.0
  0
LINE
  5
168A
330
1F
100
AcDbEntity
  8
1、実線
100
AcDbLine
 10
799.2012212534282
 20
1296.73511285539
 30
0.0
 11
799.2012212534294
 21
1280.661399620098
 31
0.0
  0
LINE
  5
168B
330
1F
100
AcDbEntity
  8
1、実線
100
AcDbLine
 10
799.2012212534294
 20
1280.661399620098
 30
0.0
 11
819.7012212534296
 21
1280.661399620098
 31
0.0
  0
LINE
  5
168C
330
1F
100
AcDbEntity
  8
1、実線
100
AcDbLine
 10
819.7012212534296
 20
1280.661399620098
 30
0.0
 11
819.7012212534296
 21
1296.061399620097
 31
0.0
  0
LINE
  5
168D
330
1F
100
AcDbEntity
  8
1、実線
100
AcDbLine
 10
817.7012212534297
 20
1298.061399620097
 30
0.0
 11
803.7012212534296
 21
1298.061399620097
 31
0.0
  0
ARC
  5
168E
330
1F
100
AcDbEntity
  8
1、実線
100
AcDbCircle
 10
817.7012212534297
 20
1296.061399620097
 30
0.0
 40
2.0
100
AcDbArc
 50
0.0
 51
90.0
  0
ARC
  5
168F
330
1F
100
AcDbEntity
  8
1、実線
100
AcDbCircle
 10
810.8512212534295
 20
1268.661399620097
 30
0.0
 40
5.0
100
AcDbArc
 50
230.9498774638428
 51
309.0501225361571
  0
LINE
  5
1690
330
1F
100
AcDbEntity
  8
1、実線
100
AcDbLine
 10
807.7012212534295
 20
1264.778423957026
 30
0.0
 11
807.7012212534295
 21
1280.661399620098
 31
0.0
  0
LINE
  5
1691
330
1F
100
AcDbEntity
  8
1、実線
100
AcDbLine
 10
814.0012212534296
 20
1264.778423957026
 30
0.0
 11
814.0012212534296
 21
1280.661399620098
 31
0.0
  0
CIRCLE
  5
1692
330
1F
100
AcDbEntity
  8
1、実線
100
AcDbCircle
 10
810.8512212534295
 20
1268.661399620097
 30
0.0
 40
1.55
  0
LINE
  5
1693
330
1F
100
AcDbEntity
  8
1、実線
100
AcDbLine
 10
796.5012212534294
 20
1295.939340796568
 30
0.0
 11
803.7012212534296
 21
1298.061399620097
 31
0.0
  0
LINE
  5
1696
330
1F
100
AcDbEntity
  8
電源コード
100
AcDbLine
 10
777.5012212534294
 20
1294.189340796568
 30
0.0
 11
763.3457392301062
 21
1294.189340796568
 31
0.0
  0
LINE
  5
1697
330
1F
100
AcDbEntity
  8
電源コード
100
AcDbLine
 10
777.5012212534294
 20
1289.189340796568
 30
0.0
 11
763.3457392301062
 21
1289.189340796568
 31
0.0
  0
LINE
  5
1698
330
1F
100
AcDbEntity
  8
電源コード
100
AcDbLine
 10
763.3457392301062
 20
1289.189340796568
 30
0.0
 11
763.3457392301062
 21
1294.189340796568
 31
0.0
  0
LINE
  5
16A5
330
1F
100
AcDbEntity
  8
電源コード
100
AcDbLine
 10
1368.514112395469
 20
319.8940015499001
 30
0.0
 11
1383.514112395468
 21
319.8940015499001
 31
0.0
  0
LINE
  5
16A6
330
1F
100
AcDbEntity
  8
電源コード
100
AcDbLine
 10
1368.514112395469
 20
319.8940015499001
 30
0.0
 11
1368.514112395469
 21
317.3953017541648
 31
0.0
  0
LINE
  5
16A7
330
1F
100
AcDbEntity
  8
電源コード
100
AcDbLine
 10
1368.514112395469
 20
317.3953017541648
 30
0.0
 11
1383.763982375042
 21
317.3953017541648
 31
0.0
  0
ARC
  5
16A8
330
1F
100
AcDbEntity
  8
電源コード
100
AcDbCircle
 10
1376.514112395469
 20
348.8530991423155
 30
0.0
 40
32.45909759241536
100
AcDbArc
 50
255.7316301388479
 51
282.9382049303649
  0
LINE
  5
16A9
330
1F
100
AcDbEntity
  8
電源コード
100
AcDbLine
 10
1371.014112395469
 20
316.863366156341
 30
0.0
 11
1371.014112395469
 21
299.8940015499001
 31
0.0
  0
LINE
  5
16AA
330
1F
100
AcDbEntity
  8
電源コード
100
AcDbLine
 10
1371.014112395469
 20
299.8940015499001
 30
0.0
 11
1374.014112395467
 21
299.8940015499001
 31
0.0
  0
LINE
  5
16AB
330
1F
100
AcDbEntity
  8
電源コード
100
AcDbLine
 10
1382.014112395469
 20
299.8940015499001
 30
0.0
 11
1382.014112395469
 21
316.863366156341
 31
0.0
  0
LINE
  5
16AC
330
1F
100
AcDbEntity
  8
電源コード
100
AcDbLine
 10
1371.014112395469
 20
307.8940015499
 30
0.0
 11
1382.014112395469
 21
307.8940015499
 31
0.0
  0
LINE
  5
16AD
330
1F
100
AcDbEntity
  8
3、破線1
100
AcDbLine
 10
1383.514112395468
 20
319.8940015499001
 30
0.0
 11
1384.514112395469
 21
319.8940015499001
 31
0.0
  0
LINE
  5
16AE
330
1F
100
AcDbEntity
  8
3、破線1
100
AcDbLine
 10
1384.514112395469
 20
319.8940015499001
 30
0.0
 11
1384.514112395469
 21
317.3953017541648
 31
0.0
  0
LINE
  5
16AF
330
1F
100
AcDbEntity
  8
3、破線1
100
AcDbLine
 10
1384.514112395469
 20
317.3953017541648
 30
0.0
 11
1383.763982375042
 21
317.3953017541648
 31
0.0
  0
LINE
  5
16B0
330
1F
100
AcDbEntity
  8
3、破線1
100
AcDbLine
 10
1384.514112395469
 20
317.3953017541648
 30
0.0
 11
1383.781705608262
 21
317.2180694219674
 31
0.0
  0
LINE
  5
16B4
330
1F
100
AcDbEntity
  8
3、破線1
100
AcDbLine
 10
1372.514112395469
 20
319.8940015499001
 30
0.0
 11
1372.514112395469
 21
325.8940015499001
 31
0.0
  0
LINE
  5
16B5
330
1F
100
AcDbEntity
  8
3、破線1
100
AcDbLine
 10
1372.514112395469
 20
325.8940015499001
 30
0.0
 11
1380.514112395469
 21
325.8940015499001
 31
0.0
  0
LINE
  5
16B6
330
1F
100
AcDbEntity
  8
3、破線1
100
AcDbLine
 10
1380.514112395469
 20
325.8940015499001
 30
0.0
 11
1380.514112395469
 21
319.8940015499001
 31
0.0
  0
ARC
  5
16BA
330
1F
100
AcDbEntity
  8
電源コード
100
AcDbCircle
 10
1375.264112395469
 20
303.8940015499001
 30
0.0
 40
1.25
100
AcDbArc
 50
0.0
 51
180.0
  0
ARC
  5
16BB
330
1F
100
AcDbEntity
  8
電源コード
100
AcDbCircle
 10
1377.764112395469
 20
303.8940015499001
 30
0.0
 40
1.25
100
AcDbArc
 50
0.0
 51
180.0
  0
LINE
  5
16BE
330
1F
100
AcDbEntity
  8
電源コード
100
AcDbLine
 10
1374.014112395469
 20
303.8940015499001
 30
0.0
 11
1374.014112395469
 21
265.4225522888649
 31
0.0
  0
LINE
  5
16BF
330
1F
100
AcDbEntity
  8
電源コード
100
AcDbLine
 10
1374.014112395469
 20
265.4225522888649
 30
0.0
 11
1379.014112395469
 21
265.4225522888649
 31
0.0
  0
LINE
  5
16C0
330
1F
100
AcDbEntity
  8
電源コード
100
AcDbLine
 10
1379.014112395469
 20
265.4225522888649
 30
0.0
 11
1379.014112395469
 21
303.8940015499001
 31
0.0
  0
LINE
  5
16C1
330
1F
100
AcDbEntity
  8
電源コード
100
AcDbLine
 10
1376.514112395469
 20
303.8940015499001
 30
0.0
 11
1376.514112395469
 21
265.4225522888649
 31
0.0
  0
LINE
  5
16C2
330
1F
100
AcDbEntity
  8
電源コード
100
AcDbLine
 10
1379.014112395469
 20
299.8940015499001
 30
0.0
 11
1382.014112395469
 21
299.8940015499001
 31
0.0
  0
LINE
  5
16CE
330
1F
100
AcDbEntity
  8
4、破線2
370
    30
100
AcDbLine
 10
1017.512149989759
 20
343.3940015499
 30
0.0
 11
1013.512149989759
 21
343.3940015499
 31
0.0
  0
LINE
  5
16CF
330
1F
100
AcDbEntity
  8
4、破線2
370
    30
100
AcDbLine
 10
1013.512149989759
 20
343.3940015499
 30
0.0
 11
1003.512149989759
 21
358.3940015499001
 31
0.0
  0
LINE
  5
16D0
330
1F
100
AcDbEntity
  8
4、破線2
370
    30
100
AcDbLine
 10
1003.512149989759
 20
358.3940015499001
 30
0.0
 11
1003.512149989759
 21
721.3940015499002
 31
0.0
  0
LINE
  5
16D1
330
1F
100
AcDbEntity
  8
4、破線2
370
    30
100
AcDbLine
 10
1003.512149989759
 20
721.3940015499002
 30
0.0
 11
1013.512149989759
 21
736.3940015499
 31
0.0
  0
LINE
  5
16D2
330
1F
100
AcDbEntity
  8
4、破線2
370
    30
100
AcDbLine
 10
1013.512149989759
 20
736.3940015499
 30
0.0
 11
1017.512149989759
 21
736.3940015499
 31
0.0
  0
DIMENSION
  5
16D6
330
1F
100
AcDbEntity
  8
寸法線1
100
AcDbDimension
  2
*D13
 10
1015.312149989759
 20
423.1002157011062
 30
0.0
 11
1190.312149989759
 21
435.6002157011062
 31
0.0
 70
    32
 71
     5
 42
350.0000000000001
  3
ISO-25
100
AcDbAlignedDimension
 13
1365.312149989759
 23
545.3940015499001
 33
0.0
 14
1015.312149989759
 24
545.3940015499001
 34
0.0
100
AcDbRotatedDimension
1001
ACAD
1000
DSTYLE
1002
{
1070
    75
1070
     1
1070
    76
1070
     1
1002
}
  0
CIRCLE
  5
1B1D
330
1F
100
AcDbEntity
  8
0
100
AcDbCircle
 10
850.7570561977344
 20
423.4943558453283
 30
0.0
 40
14.0
  0
LINE
  5
1B1E
330
1F
100
AcDbEntity
  8
4、破線2
370
    30
100
AcDbLine
 10
1013.512149989759
 20
736.3940015499
 30
0.0
 11
1013.512149989759
 21
343.3940015499
 31
0.0
  0
CIRCLE
  5
1B20
330
1F
100
AcDbEntity
  8
0
100
AcDbCircle
 10
1516.57819114058
 20
713.2092707675674
 30
0.0
 40
14.0
  0
TEXT
  5
1B21
330
1F
100
AcDbEntity
  8
0
100
AcDbText
 10
1509.432336315978
 20
707.0122692249873
 30
0.0
 40
12.0
  1
10
100
AcDbText
  0
LEADER
  5
1B22
330
1F
100
AcDbEntity
  8
引き出し線
100
AcDbLeader
  3
ISO-25
 76
     2
 10
1408.397299723721
 20
300.7119795089956
 30
0.0
 10
1503.843919344086
 20
255.8493527604237
 30
0.0
1001
ACAD
1000
DSTYLE
1002
{
1070
   147
1040
1.0
1070
    77
1070
     0
1002
}
  0
LEADER
  5
1B23
330
1F
100
AcDbEntity
  8
引き出し線
100
AcDbLeader
  3
ISO-25
 76
     2
 10
1437.380240273887
 20
313.9260628194333
 30
0.0
 10
1507.154086691654
 20
391.5347021234137
 30
0.0
1001
ACAD
1000
DSTYLE
1002
{
1070
   147
1040
1.0
1070
    77
1070
     0
1002
}
  0
LEADER
  5
1B24
330
1F
100
AcDbEntity
  8
引き出し線
100
AcDbLeader
  3
ISO-25
 76
     2
 10
1382.112149989759
 20
635.9940015499002
 30
0.0
 10
1504.437497779242
 20
706.2376450815455
 30
0.0
1001
ACAD
1000
DSTYLE
1002
{
1070
   147
1040
1.0
1070
    77
1070
     0
1002
}
  0
LEADER
  5
1B25
330
1F
100
AcDbEntity
  8
引き出し線
100
AcDbLeader
  3
ISO-25
 76
     2
 10
1418.05827990711
 20
572.6104248562692
 30
0.0
 10
1502.921453013872
 20
593.5414486516
 30
0.0
1001
ACAD
1000
DSTYLE
1002
{
1070
   147
1040
1.0
1070
    77
1070
     0
1002
}
  0
LEADER
  5
1B27
330
1F
100
AcDbEntity
  8
引き出し線
100
AcDbLeader
  3
ISO-25
 76
     2
 10
541.510361800063
 20
364.7223831954629
 30
0.0
 10
658.740282195654
 20
193.4464995186639
 30
0.0
1001
ACAD
1000
DSTYLE
1002
{
1070
   147
1040
1.0
1070
    77
1070
     0
1002
}
  0
LEADER
  5
1B2A
330
1F
100
AcDbEntity
  8
引き出し線
100
AcDbLeader
  3
ISO-25
 76
     2
 10
1132.724727478821
 20
716.3717558302074
 30
0.0
 10
1097.217552011722
 20
846.3885756497749
 30
0.0
1001
ACAD
1000
DSTYLE
1002
{
1070
   147
1040
1.0
1070
    77
1070
     0
1002
}
  0
LEADER
  5
1B2B
330
1F
100
AcDbEntity
  8
引き出し線
100
AcDbLeader
  3
ISO-25
 76
     2
 10
1013.46679696764
 20
497.3163247615001
 30
0.0
 10
863.5062277849558
 20
429.2786988365064
 30
0.0
1001
ACAD
1000
DSTYLE
1002
{
1070
   147
1040
1.0
1070
    77
1070
     0
1002
}
  0
LEADER
  5
1B2D
330
1F
100
AcDbEntity
  8
引き出し線
100
AcDbLeader
  3
ISO-25
 76
     2
 10
510.1096335261244
 20
670.4908910644706
 30
0.0
 10
443.7386184406919
 20
807.298059793818
 30
0.0
1001
ACAD
1000
DSTYLE
1002
{
1070
   147
1040
1.0
1070
    77
1070
     0
1002
}
  0
LEADER
  5
1B2E
330
1F
100
AcDbEntity
  8
引き出し線
100
AcDbLeader
  3
ISO-25
 76
     2
 10
557.4545346183622
 20
636.5074917723403
 30
0.0
 10
533.6522956982495
 20
806.0299940330136
 30
0.0
1001
ACAD
1000
DSTYLE
1002
{
1070
   147
1040
1.0
1070
    77
1070
     0
1002
}
  0
LINE
  5
1B33
330
1F
100
AcDbEntity
  8
1、実線
100
AcDbLine
 10
674.5121499897593
 20
307.8940015499001
 30
0.0
 11
675.5121499897597
 21
307.8940015499001
 31
0.0
  0
LINE
  5
1B35
330
1F
100
AcDbEntity
  8
1、実線
100
AcDbLine
 10
686.5121499897593
 20
299.8940015499001
 30
0.0
 11
674.5121499897593
 21
299.8940015499001
 31
0.0
  0
CIRCLE
  5
1B3B
330
1F
100
AcDbEntity
  8
0
100
AcDbCircle
 10
850.7570561977344
 20
1096.056473392547
 30
0.0
 40
14.0
  0
CIRCLE
  5
1B3C
330
1F
100
AcDbEntity
  8
0
100
AcDbCircle
 10
850.7570561977344
 20
1173.959497893027
 30
0.0
 40
14.0
  0
TEXT
  5
1B3D
330
1F
100
AcDbEntity
  8
0
100
AcDbText
 10
842.7758430253502
 20
1168.085049761765
 30
0.0
 40
12.0
  1
14
100
AcDbText
  0
TEXT
  5
1B3E
330
1F
100
AcDbEntity
  8
0
100
AcDbText
 10
846.9282698676073
 20
1089.909993804053
 30
0.0
 40
12.0
  1
7
100
AcDbText
  0
LEADER
  5
1B3F
330
1F
100
AcDbEntity
  8
引き出し線
100
AcDbLeader
  3
ISO-25
 76
     2
 10
743.3261228818793
 20
1289.151963946747
 30
0.0
 10
841.2084981844955
 20
1184.197907919384
 30
0.0
1001
ACAD
1000
DSTYLE
1002
{
1070
   147
1040
1.0
1070
    77
1070
     0
1002
}
  0
LEADER
  5
1B43
330
1F
100
AcDbEntity
  8
引き出し線
100
AcDbLeader
  3
ISO-25
 76
     2
 10
591.0166343797864
 20
927.2780175323935
 30
0.0
 10
839.0177548813065
 20
1088.428314728616
 30
0.0
1001
ACAD
1000
DSTYLE
1002
{
1070
   147
1040
1.0
1070
    77
1070
     0
1002
}
  0
TEXT
  5
1B47
330
1F
100
AcDbEntity
  8
0
100
AcDbText
 10
1562.692097446158
 20
162.4699140743118
 30
0.0
 40
15.0
  1
1
100
AcDbText
  0
TEXT
  5
1B48
330
1F
100
AcDbEntity
  8
0
100
AcDbText
 10
1589.115093145021
 20
149.309143365177
 30
0.0
 40
15.0
  1
5
100
AcDbText
  0
TEXT
  5
1B4B
330
1F
100
AcDbEntity
  8
0
100
AcDbText
 10
1294.817607209054
 20
164.4699334580337
 30
0.0
 40
12.4995
  1
2008
100
AcDbText
  0
TEXT
  5
1B4C
330
1F
100
AcDbEntity
  8
0
100
AcDbText
 10
1379.553415345281
 20
163.750264819215
 30
0.0
 40
12.4995
  1
03
100
AcDbText
  0
TEXT
  5
1B4D
330
1F
100
AcDbEntity
  8
0
100
AcDbText
 10
1442.42191815603
 20
163.9413029868827
 30
0.0
 40
12.4995
  1
05
100
AcDbText
  0
TEXT
  5
1B4E
330
1F
100
AcDbEntity
  8
0
100
AcDbText
 10
1257.460958847452
 20
126.3470839030494
 30
0.0
 40
19.99919999999999
  1
G.Y
100
AcDbText
  0
TEXT
  5
1B4F
330
1F
100
AcDbEntity
  8
0
100
AcDbText
 10
1606.426708097114
 20
107.4314234009466
 30
0.0
 40
19.99919999999999
  1
弁当温蔵庫
100
AcDbText
  0
MTEXT
  5
1B51
330
1F
100
AcDbEntity
  8
0
100
AcDbMText
 10
1242.141003638406
 20
95.50601584473914
 30
0.0
 40
12.5
 41
387.2335335692469
 71
     1
 72
     5
  1
20.03.05
 73
     1
 44
1.0
1001
ACAD
1000
ACAD_MTEXT_DEFINED_HEIGHT_BEGIN
1070
    46
1040
0.0
1000
ACAD_MTEXT_DEFINED_HEIGHT_END
1000
MTEXTBEGIN
1070
    73
1070
     1
1070
    44
1040
1.0
1070
    74
1070
     0
1000
MTEXTEND
  0
LINE
  5
1B79
330
1F
100
AcDbEntity
  8
0
100
AcDbLine
 10
1669.999999999999
 20
185.0
 30
0.0
 11
1669.999999999999
 21
140.0
 31
0.0
  0
LINE
  5
1B7A
330
1F
100
AcDbEntity
  8
0
100
AcDbLine
 10
1829.999999999999
 20
185.0
 30
0.0
 11
1829.999999999999
 21
140.0
 31
0.0
  0
LINE
  5
1B7B
330
1F
100
AcDbEntity
  8
0
100
AcDbLine
 10
1990.0
 20
185.0
 30
0.0
 11
1990.0
 21
140.0
 31
0.0
  0
LINE
  5
1B7C
330
1F
100
AcDbEntity
  8
0
100
AcDbLine
 10
1549.999999999999
 20
185.0
 30
0.0
 11
1549.999999999999
 21
140.0
 31
0.0
  0
LEADER
  5
1B9B
330
1F
100
AcDbEntity
  8
引き出し線
100
AcDbLeader
  3
ISO-25
 76
     2
 10
1374.217306347165
 20
291.1849767495531
 30
0.0
 10
1288.91278233936
 20
255.413938366922
 30
0.0
1001
ACAD
1000
DSTYLE
1002
{
1070
   147
1040
1.0
1070
    77
1070
     0
1002
}
  0
LINE
  5
1C13
330
1F
100
AcDbEntity
  8
1、実線
100
AcDbLine
 10
1041.012149989759
 20
690.3940015499
 30
0.0
 11
1054.012149989759
 21
690.3940015499
 31
0.0
  0
ARC
  5
1C14
330
1F
100
AcDbEntity
  8
1、実線
100
AcDbCircle
 10
1041.012149989759
 20
689.3940015499
 30
0.0
 40
1.0
100
AcDbArc
 50
90.0
 51
180.0
  0
LINE
  5
1C15
330
1F
100
AcDbEntity
  8
1、実線
100
AcDbLine
 10
1055.012149989759
 20
689.3940015499
 30
0.0
 11
1055.012149989759
 21
670.3940015499001
 31
0.0
  0
ARC
  5
1C16
330
1F
100
AcDbEntity
  8
1、実線
100
AcDbCircle
 10
1054.012149989759
 20
689.3940015499
 30
0.0
 40
1.0
100
AcDbArc
 50
0.0
 51
90.0
  0
LINE
  5
1C17
330
1F
100
AcDbEntity
  8
1、実線
100
AcDbLine
 10
1054.012149989759
 20
669.3940015499001
 30
0.0
 11
1041.012149989759
 21
669.3940015499001
 31
0.0
  0
ARC
  5
1C18
330
1F
100
AcDbEntity
  8
1、実線
100
AcDbCircle
 10
1054.012149989759
 20
670.3940015499001
 30
0.0
 40
1.0
100
AcDbArc
 50
270.0
 51
0.0
  0
LINE
  5
1C19
330
1F
100
AcDbEntity
  8
1、実線
100
AcDbLine
 10
1040.012149989759
 20
670.3940015499001
 30
0.0
 11
1040.012149989759
 21
689.3940015499
 31
0.0
  0
ARC
  5
1C1A
330
1F
100
AcDbEntity
  8
1、実線
100
AcDbCircle
 10
1041.012149989759
 20
670.3940015499001
 30
0.0
 40
1.0
100
AcDbArc
 50
180.0
 51
270.0
  0
LINE
  5
1C1B
330
1F
100
AcDbEntity
  8
1、実線
100
AcDbLine
 10
1042.262149989759
 20
687.6440015499
 30
0.0
 11
1052.762149989759
 21
687.6440015499
 31
0.0
  0
LINE
  5
1C1C
330
1F
100
AcDbEntity
  8
1、実線
100
AcDbLine
 10
1052.762149989759
 20
687.6440015499
 30
0.0
 11
1052.762149989759
 21
672.1440015499001
 31
0.0
  0
LINE
  5
1C1D
330
1F
100
AcDbEntity
  8
1、実線
100
AcDbLine
 10
1052.762149989759
 20
672.1440015499001
 30
0.0
 11
1042.262149989759
 21
672.1440015499001
 31
0.0
  0
LINE
  5
1C1E
330
1F
100
AcDbEntity
  8
1、実線
100
AcDbLine
 10
1042.262149989759
 20
672.1440015499001
 30
0.0
 11
1042.262149989759
 21
687.6440015499
 31
0.0
  0
LINE
  5
1C1F
330
1F
100
AcDbEntity
  8
1、実線
100
AcDbLine
 10
1042.262149989759
 20
684.3940015499001
 30
0.0
 11
1052.762149989759
 21
684.3940015499001
 31
0.0
  0
LEADER
  5
1C21
330
1F
100
AcDbEntity
  8
寸法線1
100
AcDbLeader
  3
ISO-25
 76
     2
 10
1040.012149989759
 20
679.8940015499002
 30
0.0
 10
862.5806121216488
 20
792.3971005025292
 30
0.0
1001
ACAD
1000
DSTYLE
1002
{
1070
   147
1040
1.0
1070
    77
1070
     0
1002
}
  0
LINE
  5
1C34
330
1F
100
AcDbEntity
  8
1、実線
100
AcDbLine
 10
720.5121499897597
 20
690.3940015499
 30
0.0
 11
721.5121499897596
 21
690.3940015499
 31
0.0
  0
ARC
  5
1C35
330
1F
100
AcDbEntity
  8
1、実線
100
AcDbCircle
 10
721.5121499897596
 20
689.3940015499
 30
0.0
 40
1.0
100
AcDbArc
 50
0.0
 51
90.0
  0
LINE
  5
1C36
330
1F
100
AcDbEntity
  8
1、実線
100
AcDbLine
 10
722.5121499897596
 20
689.3940015499
 30
0.0
 11
722.5121499897596
 21
670.3940015499004
 31
0.0
  0
LINE
  5
1C37
330
1F
100
AcDbEntity
  8
1、実線
100
AcDbLine
 10
721.5121499897596
 20
669.3940015499004
 30
0.0
 11
720.5121499897597
 21
669.3940015499004
 31
0.0
  0
ARC
  5
1C38
330
1F
100
AcDbEntity
  8
1、実線
100
AcDbCircle
 10
721.5121499897596
 20
670.3940015499004
 30
0.0
 40
1.0
100
AcDbArc
 50
270.0
 51
0.0
  0
LINE
  5
1C39
330
1F
100
AcDbEntity
  8
1、実線
100
AcDbLine
 10
720.5121499897597
 20
669.3940015499004
 30
0.0
 11
720.5121499897597
 21
690.3940015499
 31
0.0
  0
ARC
  5
1C3A
330
1F
100
AcDbEntity
  8
1、実線
100
AcDbCircle
 10
740.6962026346882
 20
673.3678972110501
 30
0.0
 40
18.0
100
AcDbArc
 50
142.2250632813834
 51
183.2250488777305
  0
ARC
  5
1C3B
330
1F
100
AcDbEntity
  8
1、実線
100
AcDbCircle
 10
722.5250266222485
 20
672.3440015499003
 30
0.0
 40
0.2
100
AcDbArc
 50
269.9999999999348
 51
3.225048877724162
  0
ARC
  5
1C3C
330
1F
100
AcDbEntity
  8
1、実線
100
AcDbCircle
 10
713.5201608802308
 20
671.9476427098562
 30
0.0
 40
18.0
100
AcDbArc
 50
43.7461393051831
 51
60.02943987050944
  0
LINE
  5
1C3D
330
1F
100
AcDbEntity
  8
1、実線
100
AcDbLine
 10
722.5121499897596
 20
672.1440015499001
 30
0.0
 11
722.5250266222482
 21
672.1440015499001
 31
0.0
  0
TEXT
  5
2695
330
1F
100
AcDbEntity
  8
0
100
AcDbText
 10
1905.279884406466
 20
107.9163630391535
 30
0.0
 40
15.0
  1
HP-28
100
AcDbText
  0
TEXT
  5
2696
330
1F
100
AcDbEntity
  8
0
100
AcDbText
 10
1883.274694201159
 20
62.05996067699425
 30
0.0
 40
15.0
  1
HP-28-AD
100
AcDbText
  0
LINE
  5
27F8
330
1F
100
AcDbEntity
  8
0
100
AcDbLine
 10
1569.999999999999
 20
1435.0
 30
0.0
 11
1569.999999999999
 21
985.0
 31
0.0
  0
LINE
  5
27F9
330
1F
100
AcDbEntity
  8
0
100
AcDbLine
 10
1609.999999999999
 20
1435.0
 30
0.0
 11
1609.999999999999
 21
985.0
 31
0.0
  0
LINE
  5
27FA
330
1F
100
AcDbEntity
  8
0
100
AcDbLine
 10
1799.999999999999
 20
1435.0
 30
0.0
 11
1799.999999999999
 21
985.0
 31
0.0
  0
LINE
  5
27FB
330
1F
100
AcDbEntity
  8
0
100
AcDbLine
 10
1839.999999999999
 20
1435.0
 30
0.0
 11
1839.999999999999
 21
985.0
 31
0.0
  0
LINE
  5
27FC
330
1F
100
AcDbEntity
  8
0
100
AcDbLine
 10
1569.999999999999
 20
1410.0
 30
0.0
 11
2049.999999999999
 21
1410.0
 31
0.0
  0
LINE
  5
27FD
330
1F
100
AcDbEntity
  8
２，細線
100
AcDbLine
 10
1569.999999999999
 20
1385.0
 30
0.0
 11
2049.999999999999
 21
1385.0
 31
0.0
  0
LINE
  5
27FE
330
1F
100
AcDbEntity
  8
２，細線
100
AcDbLine
 10
1569.999999999999
 20
1360.0
 30
0.0
 11
2049.999999999999
 21
1360.0
 31
0.0
  0
LINE
  5
27FF
330
1F
100
AcDbEntity
  8
２，細線
100
AcDbLine
 10
1569.999999999999
 20
1335.0
 30
0.0
 11
2049.999999999999
 21
1335.0
 31
0.0
  0
LINE
  5
2800
330
1F
100
AcDbEntity
  8
２，細線
100
AcDbLine
 10
1569.999999999999
 20
1310.0
 30
0.0
 11
2049.999999999999
 21
1310.0
 31
0.0
  0
LINE
  5
2801
330
1F
100
AcDbEntity
  8
２，細線
100
AcDbLine
 10
1569.999999999999
 20
1285.0
 30
0.0
 11
2049.999999999999
 21
1285.0
 31
0.0
  0
LINE
  5
2802
330
1F
100
AcDbEntity
  8
２，細線
100
AcDbLine
 10
1569.999999999999
 20
1260.0
 30
0.0
 11
2049.999999999999
 21
1260.0
 31
0.0
  0
LINE
  5
2803
330
1F
100
AcDbEntity
  8
２，細線
100
AcDbLine
 10
1569.999999999999
 20
1235.0
 30
0.0
 11
2049.999999999999
 21
1235.0
 31
0.0
  0
LINE
  5
2804
330
1F
100
AcDbEntity
  8
２，細線
100
AcDbLine
 10
1569.999999999999
 20
1210.0
 30
0.0
 11
2049.999999999999
 21
1210.0
 31
0.0
  0
LINE
  5
2805
330
1F
100
AcDbEntity
  8
２，細線
100
AcDbLine
 10
1569.999999999999
 20
1185.0
 30
0.0
 11
2049.999999999999
 21
1185.0
 31
0.0
  0
LINE
  5
2806
330
1F
100
AcDbEntity
  8
２，細線
100
AcDbLine
 10
1569.999999999999
 20
1160.0
 30
0.0
 11
2049.999999999999
 21
1160.0
 31
0.0
  0
LINE
  5
2807
330
1F
100
AcDbEntity
  8
２，細線
100
AcDbLine
 10
1569.999999999999
 20
1135.0
 30
0.0
 11
2049.999999999999
 21
1135.0
 31
0.0
  0
LINE
  5
2808
330
1F
100
AcDbEntity
  8
２，細線
100
AcDbLine
 10
1569.999999999999
 20
1110.0
 30
0.0
 11
2049.999999999999
 21
1110.0
 31
0.0
  0
LINE
  5
2809
330
1F
100
AcDbEntity
  8
２，細線
100
AcDbLine
 10
1569.999999999999
 20
1085.0
 30
0.0
 11
2049.999999999999
 21
1085.0
 31
0.0
  0
LINE
  5
280A
330
1F
100
AcDbEntity
  8
２，細線
100
AcDbLine
 10
1569.999999999999
 20
1060.0
 30
0.0
 11
2049.999999999999
 21
1060.0
 31
0.0
  0
LINE
  5
280B
330
1F
100
AcDbEntity
  8
２，細線
100
AcDbLine
 10
1569.999999999999
 20
1035.0
 30
0.0
 11
2049.999999999999
 21
1035.0
 31
0.0
  0
LINE
  5
280C
330
1F
100
AcDbEntity
  8
２，細線
100
AcDbLine
 10
1569.999999999999
 20
1010.0
 30
0.0
 11
2049.999999999999
 21
1010.0
 31
0.0
  0
LINE
  5
280D
330
1F
100
AcDbEntity
  8
２，細線
100
AcDbLine
 10
1569.999999999999
 20
985.0
 30
0.0
 11
2049.999999999999
 21
985.0
 31
0.0
  0
TEXT
  5
280E
330
1F
100
AcDbEntity
  8
0
100
AcDbText
 10
1578.786728119957
 20
1414.940202162506
 30
0.0
 40
15.0
  1
No
100
AcDbText
  0
TEXT
  5
280F
330
1F
100
AcDbEntity
  8
0
100
AcDbText
 10
1804.173480067608
 20
1414.363186046843
 30
0.0
 40
15.0
  1
数量
100
AcDbText
  0
TEXT
  5
2810
330
1F
100
AcDbEntity
  8
0
100
AcDbText
 10
1619.288901366257
 20
1414.912100191859
 30
0.0
 40
15.0
  1
品　名
100
AcDbText
  0
MTEXT
  5
2811
330
1F
100
AcDbEntity
  8
0
100
AcDbMText
 10
1849.435408150188
 20
1429.732712965043
 30
0.0
 40
15.0
 41
206.4882970503595
 71
     1
 72
     5
  1
材質又は定格
 73
     1
 44
1.0
1001
ACAD
1000
MTEXTBEGIN
1070
    73
1070
     1
1070
    44
1040
1.0
1070
    74
1070
     0
1000
MTEXTEND
  0
TEXT
  5
2812
330
1F
100
AcDbEntity
  8
0
100
AcDbText
 10
1587.536927342513
 20
1389.519478173562
 30
0.0
 40
15.0
  1
1
100
AcDbText
  0
TEXT
  5
2813
330
1F
100
AcDbEntity
  8
0
100
AcDbText
 10
1584.883916682167
 20
1364.274920019801
 30
0.0
 40
15.0
  1
2
100
AcDbText
  0
TEXT
  5
2814
330
1F
100
AcDbEntity
  8
0
100
AcDbText
 10
1584.803298002212
 20
1339.030361866038
 30
0.0
 40
15.0
  1
3
100
AcDbText
  0
TEXT
  5
2815
330
1F
100
AcDbEntity
  8
0
100
AcDbText
 10
1584.521981180333
 20
1312.687981707902
 30
0.0
 40
15.0
  1
4
100
AcDbText
  0
TEXT
  5
2816
330
1F
100
AcDbEntity
  8
0
100
AcDbText
 10
1585.467128425233
 20
1289.09016598919
 30
0.0
 40
15.0
  1
5
100
AcDbText
  0
TEXT
  5
2817
330
1F
100
AcDbEntity
  8
0
100
AcDbText
 10
1585.369309191043
 20
1264.394515694784
 30
0.0
 40
15.0
  1
6
100
AcDbText
  0
TEXT
  5
2818
330
1F
100
AcDbEntity
  8
0
100
AcDbText
 10
1585.994053074908
 20
1238.601043396005
 30
0.0
 40
15.0
  1
7
100
AcDbText
  0
TEXT
  5
2819
330
1F
100
AcDbEntity
  8
0
100
AcDbText
 10
1584.793671713922
 20
1215.552141822308
 30
0.0
 40
15.0
  1
8
100
AcDbText
  0
TEXT
  5
281A
330
1F
100
AcDbEntity
  8
0
100
AcDbText
 10
1584.638580010779
 20
1190.856485242242
 30
0.0
 40
15.0
  1
9
100
AcDbText
  0
TEXT
  5
281B
330
1F
100
AcDbEntity
  8
0
100
AcDbText
 10
1581.786816516329
 20
1165.063019229122
 30
0.0
 40
15.0
  1
10
100
AcDbText
  0
TEXT
  5
281C
330
1F
100
AcDbEntity
  8
0
100
AcDbText
 10
1582.834501875741
 20
1139.269559501663
 30
0.0
 40
15.0
  1
11
100
AcDbText
  0
TEXT
  5
281D
330
1F
100
AcDbEntity
  8
0
100
AcDbText
 10
1581.140756294974
 20
1115.122823352274
 30
0.0
 40
15.0
  1
12
100
AcDbText
  0
TEXT
  5
281E
330
1F
100
AcDbEntity
  8
0
100
AcDbText
 10
1581.124616318084
 20
1089.878258912853
 30
0.0
 40
15.0
  1
13
100
AcDbText
  0
TEXT
  5
281F
330
1F
100
AcDbEntity
  8
0
100
AcDbText
 10
1581.121141860148
 20
1064.63370075909
 30
0.0
 40
15.0
  1
14
100
AcDbText
  0
TEXT
  5
2820
330
1F
100
AcDbEntity
  8
0
100
AcDbText
 10
1581.130144697836
 20
1039.938056750343
 30
0.0
 40
15.0
  1
15
100
AcDbText
  0
TEXT
  5
2821
330
1F
100
AcDbEntity
  8
0
100
AcDbText
 10
1581.128579731589
 20
1014.693504882242
 30
0.0
 40
15.0
  1
16
100
AcDbText
  0
TEXT
  5
2822
330
1F
100
AcDbEntity
  8
0
100
AcDbText
 10
1581.102067534366
 20
988.9000325834627
 30
0.0
 40
15.0
  1
17
100
AcDbText
  0
TEXT
  5
2823
330
1F
100
AcDbEntity
  8
0
100
AcDbText
 10
1620.345236206755
 20
1388.781113459549
 30
0.0
 40
15.0
  1
外　箱
100
AcDbText
  0
TEXT
  5
2824
330
1F
100
AcDbEntity
  8
0
100
AcDbText
 10
1620.281542688441
 20
1363.781113459548
 30
0.0
 40
15.0
  1
外箱裏板
100
AcDbText
  0
TEXT
  5
2825
330
1F
100
AcDbEntity
  8
0
100
AcDbText
 10
1620.281542688439
 20
1338.781113459549
 30
0.0
 40
15.0
  1
扉
100
AcDbText
  0
TEXT
  5
2826
330
1F
100
AcDbEntity
  8
0
100
AcDbText
 10
1619.090817496805
 20
1314.425286786817
 30
0.0
 40
15.0
  1
中　箱
100
AcDbText
  0
TEXT
  5
2827
330
1F
100
AcDbEntity
  8
0
100
AcDbText
 10
1619.637064614448
 20
1289.425286786817
 30
0.0
 40
15.0
  1
上部ヒンジ
100
AcDbText
  0
TEXT
  5
2828
330
1F
100
AcDbEntity
  8
0
100
AcDbText
 10
1618.992586540453
 20
1263.136940132279
 30
0.0
 40
15.0
  1
下部ヒンジ
100
AcDbText
  0
TEXT
  5
2829
330
1F
100
AcDbEntity
  8
0
100
AcDbText
 10
1619.637064614448
 20
1239.425286786818
 30
0.0
 40
15.0
  1
マグネットパッキン
100
AcDbText
  0
TEXT
  5
282A
330
1F
100
AcDbEntity
  8
0
100
AcDbText
 10
1619.154414420241
 20
1213.781107173887
 30
0.0
 40
15.0
  1
エアタイトパッキン
100
AcDbText
  0
TEXT
  5
282B
330
1F
100
AcDbEntity
  8
0
100
AcDbText
 10
1619.141644932688
 20
1188.781113459548
 30
0.0
 40
15.0
  1
固定サーモスタット
100
AcDbText
  0
TEXT
  5
282C
330
1F
100
AcDbEntity
  8
0
100
AcDbText
 10
1618.992586540453
 20
1164.425286786817
 30
0.0
 40
15.0
  1
温度ヒューズ
100
AcDbText
  0
TEXT
  5
282D
330
1F
100
AcDbEntity
  8
0
100
AcDbText
 10
1619.788765381017
 20
1114.425286786817
 30
0.0
 40
15.0
  1
取手
100
AcDbText
  0
TEXT
  5
282E
330
1F
100
AcDbEntity
  8
0
100
AcDbText
 10
1619.637064614448
 20
1088.781113459549
 30
0.0
 40
15.0
  1
電源スイッチ
100
AcDbText
  0
TEXT
  5
282F
330
1F
100
AcDbEntity
  8
0
100
AcDbText
 10
1618.34810846646
 20
1063.781113459548
 30
0.0
 40
15.0
  1
電源コード
100
AcDbText
  0
TEXT
  5
2830
330
1F
100
AcDbEntity
  8
0
100
AcDbText
 10
1619.512948153809
 20
1038.781107173887
 30
0.0
 40
15.0
  1
アース線
100
AcDbText
  0
TEXT
  5
2831
330
1F
100
AcDbEntity
  8
0
100
AcDbText
 10
1617.703630392468
 20
1013.781113459548
 30
0.0
 40
15.0
  1
ゴム脚
100
AcDbText
  0
TEXT
  5
2832
330
1F
100
AcDbEntity
  8
0
100
AcDbText
 10
1619.637064614446
 20
989.425280501158
 30
0.0
 40
15.0
  1
Ｌ型樹脂脚
100
AcDbText
  0
TEXT
  5
2833
330
1F
100
AcDbEntity
  8
0
100
AcDbText
 10
1817.962707014348
 20
1390.458033349826
 30
0.0
 40
15.0
  1
1
100
AcDbText
  0
TEXT
  5
2834
330
1F
100
AcDbEntity
  8
0
100
AcDbText
 10
1818.540955341018
 20
1364.046889217839
 30
0.0
 40
15.0
  1
1
100
AcDbText
  0
TEXT
  5
2835
330
1F
100
AcDbEntity
  8
0
100
AcDbText
 10
1818.367740586736
 20
1338.924098026051
 30
0.0
 40
15.0
  1
1
100
AcDbText
  0
TEXT
  5
2836
330
1F
100
AcDbEntity
  8
0
100
AcDbText
 10
1817.962707014348
 20
1313.801306834261
 30
0.0
 40
15.0
  1
1
100
AcDbText
  0
TEXT
  5
2837
330
1F
100
AcDbEntity
  8
0
100
AcDbText
 10
1818.54095534102
 20
1289.900661722451
 30
0.0
 40
15.0
  1
1
100
AcDbText
  0
TEXT
  5
2838
330
1F
100
AcDbEntity
  8
0
100
AcDbText
 10
1818.640304862825
 20
1263.555724450686
 30
0.0
 40
15.0
  1
1
100
AcDbText
  0
TEXT
  5
2839
330
1F
100
AcDbEntity
  8
0
100
AcDbText
 10
1818.423364949034
 20
1239.0739008994
 30
0.0
 40
15.0
  1
1
100
AcDbText
  0
TEXT
  5
283A
330
1F
100
AcDbEntity
  8
0
100
AcDbText
 10
1818.128560729673
 20
1214.32176881142
 30
0.0
 40
15.0
  1
1
100
AcDbText
  0
TEXT
  5
283B
330
1F
100
AcDbEntity
  8
0
100
AcDbText
 10
1818.718178970047
 20
1189.569636723441
 30
0.0
 40
15.0
  1
1
100
AcDbText
  0
TEXT
  5
283C
330
1F
100
AcDbEntity
  8
0
100
AcDbText
 10
1818.128560729673
 20
1164.817504635464
 30
0.0
 40
15.0
  1
1
100
AcDbText
  0
TEXT
  5
283D
330
1F
100
AcDbEntity
  8
0
100
AcDbText
 10
1818.718178970047
 20
1114.476041606566
 30
0.0
 40
15.0
  1
1
100
AcDbText
  0
TEXT
  5
283E
330
1F
100
AcDbEntity
  8
0
100
AcDbText
 10
1818.128560729673
 20
1090.018574989046
 30
0.0
 40
15.0
  1
1
100
AcDbText
  0
TEXT
  5
283F
330
1F
100
AcDbEntity
  8
0
100
AcDbText
 10
1818.718178970047
 20
1064.129548414799
 30
0.0
 40
15.0
  1
1
100
AcDbText
  0
TEXT
  5
2840
330
1F
100
AcDbEntity
  8
0
100
AcDbText
 10
1818.128560729673
 20
1040.002305248207
 30
0.0
 40
15.0
  1
1
100
AcDbText
  0
TEXT
  5
2841
330
1F
100
AcDbEntity
  8
0
100
AcDbText
 10
1815.219235052543
 20
1013.847510018632
 30
0.0
 40
15.0
  1
2
100
AcDbText
  0
TEXT
  5
2842
330
1F
100
AcDbEntity
  8
0
100
AcDbText
 10
1815.827995914866
 20
989.1652053312226
 30
0.0
 40
15.0
  1
2
100
AcDbText
  0
TEXT
  5
2843
330
1F
100
AcDbEntity
  8
0
100
AcDbText
 10
1850.400183925281
 20
1389.96330241413
 30
0.0
 40
15.0
  1
SPCC 塗装
100
AcDbText
  0
TEXT
  5
2844
330
1F
100
AcDbEntity
  8
0
100
AcDbText
 10
1853.653146534999
 20
1189.367499442212
 30
0.0
 40
15.0
  1
80℃ ＯＦＦ
100
AcDbText
  0
TEXT
  5
2845
330
1F
100
AcDbEntity
  8
0
100
AcDbText
 10
1850.400183925281
 20
1165.147600174049
 30
0.0
 40
15.0
  1
113℃ 15Ａ
100
AcDbText
  0
TEXT
  5
2846
330
1F
100
AcDbEntity
  8
0
100
AcDbText
 10
1844.589026103149
 20
1064.498059719561
 30
0.0
 40
14.0
  1
ＶＦＦ 2×0.75sq 2ｍ
100
AcDbText
  0
TEXT
  5
2847
330
1F
100
AcDbEntity
  8
0
100
AcDbText
 10
1844.749208992756
 20
1039.498059719559
 30
0.0
 40
14.0
  1
ＶＳＦ 1.25sq 2ｍ
100
AcDbText
  0
TEXT
  5
2848
330
1F
100
AcDbEntity
  8
0
100
AcDbText
 10
1850.400183925282
 20
1014.367499442212
 30
0.0
 40
15.0
  1
合成ゴム
100
AcDbText
  0
TEXT
  5
2849
330
1F
100
AcDbEntity
  8
0
100
AcDbText
 10
1849.619717762732
 20
1315.343588647092
 30
0.0
 40
15.0
  1
アルミ
100
AcDbText
  0
TEXT
  5
284A
330
1F
100
AcDbEntity
  8
0
100
AcDbText
 10
1848.839251600186
 20
1115.147606459709
 30
0.0
 40
15.0
  1
ABS
100
AcDbText
  0
TEXT
  5
284B
330
1F
100
AcDbEntity
  8
0
100
AcDbText
 10
1850.400183925281
 20
990.3687562288178
 30
0.0
 40
15.0
  1
PP
100
AcDbText
  0
TEXT
  5
284C
330
1F
100
AcDbEntity
  8
0
100
AcDbText
 10
1850.400183925281
 20
1089.858366845386
 30
0.0
 40
15.0
  1
15Ａ 250Ｖ 照光式
100
AcDbText
  0
TEXT
  5
284D
330
1F
100
AcDbEntity
  8
0
100
AcDbText
 10
1619.637064614448
 20
1139.307344774786
 30
0.0
 40
15.0
  1
発熱体
100
AcDbText
  0
TEXT
  5
284E
330
1F
100
AcDbEntity
  8
0
100
AcDbText
 10
1818.128560729673
 20
1139.848006412319
 30
0.0
 40
15.0
  1
1
100
AcDbText
  0
TEXT
  5
284F
330
1F
100
AcDbEntity
  8
0
100
AcDbText
 10
1849.805174800954
 20
1140.079107926569
 30
0.0
 40
15.0
  1
アルミ箔ヒーター
100
AcDbText
  0
TEXT
  5
2850
330
1F
100
AcDbEntity
  8
0
100
AcDbText
 10
1850.400183925282
 20
1215.426833209789
 30
0.0
 40
15.0
  1
シリコーンゴム
100
AcDbText
  0
TEXT
  5
2851
330
1F
100
AcDbEntity
  8
0
100
AcDbText
 10
1851.961116250375
 20
1239.367499442213
 30
0.0
 40
15.0
  1
EPT
100
AcDbText
  0
TEXT
  5
2852
330
1F
100
AcDbEntity
  8
0
100
AcDbText
 10
1850.400183925281
 20
1364.963302414131
 30
0.0
 40
15.0
  1
SPCC 塗装
100
AcDbText
  0
TEXT
  5
2853
330
1F
100
AcDbEntity
  8
0
100
AcDbText
 10
1850.400183925281
 20
1339.963302414131
 30
0.0
 40
15.0
  1
SPCC 塗装
100
AcDbText
  0
TEXT
  5
2854
330
1F
100
AcDbEntity
  8
0
100
AcDbText
 10
1850.400183925281
 20
1289.963302414131
 30
0.0
 40
15.0
  1
SPCC 塗装
100
AcDbText
  0
TEXT
  5
2855
330
1F
100
AcDbEntity
  8
0
100
AcDbText
 10
1850.400183925281
 20
1264.963302414131
 30
0.0
 40
15.0
  1
SPCC 塗装
100
AcDbText
  0
LINE
  5
287A
330
1F
100
AcDbEntity
  8
0
100
AcDbLine
 10
1089.999999999998
 20
1385.0
 30
0.0
 11
1509.999999999999
 21
1385.0
 31
0.0
  0
LINE
  5
287B
330
1F
100
AcDbEntity
  8
0
100
AcDbLine
 10
1509.999999999999
 20
1385.0
 30
0.0
 11
1509.999999999999
 21
1185.0
 31
0.0
  0
LINE
  5
287C
330
1F
100
AcDbEntity
  8
0
100
AcDbLine
 10
1089.999999999998
 20
1185.0
 30
0.0
 11
1089.999999999998
 21
1385.0
 31
0.0
  0
LINE
  5
287D
330
1F
100
AcDbEntity
  8
２，細線
100
AcDbLine
 10
1089.999999999998
 20
1360.0
 30
0.0
 11
1509.999999999999
 21
1360.0
 31
0.0
  0
LINE
  5
287E
330
1F
100
AcDbEntity
  8
２，細線
100
AcDbLine
 10
1089.999999999998
 20
1335.0
 30
0.0
 11
1509.999999999999
 21
1335.0
 31
0.0
  0
LINE
  5
287F
330
1F
100
AcDbEntity
  8
２，細線
100
AcDbLine
 10
1089.999999999998
 20
1310.0
 30
0.0
 11
1509.999999999999
 21
1310.0
 31
0.0
  0
LINE
  5
2880
330
1F
100
AcDbEntity
  8
２，細線
100
AcDbLine
 10
1089.999999999998
 20
1285.0
 30
0.0
 11
1509.999999999999
 21
1285.0
 31
0.0
  0
LINE
  5
2881
330
1F
100
AcDbEntity
  8
２，細線
100
AcDbLine
 10
1089.999999999998
 20
1260.0
 30
0.0
 11
1509.999999999999
 21
1260.0
 31
0.0
  0
LINE
  5
2882
330
1F
100
AcDbEntity
  8
２，細線
100
AcDbLine
 10
1089.999999999998
 20
1235.0
 30
0.0
 11
1509.999999999999
 21
1235.0
 31
0.0
  0
LINE
  5
2883
330
1F
100
AcDbEntity
  8
２，細線
100
AcDbLine
 10
1089.999999999998
 20
1210.0
 30
0.0
 11
1509.999999999999
 21
1210.0
 31
0.0
  0
LINE
  5
2884
330
1F
100
AcDbEntity
  8
２，細線
100
AcDbLine
 10
1089.999999999998
 20
1185.0
 30
0.0
 11
1509.999999999999
 21
1185.0
 31
0.0
  0
LINE
  5
2885
330
1F
100
AcDbEntity
  8
２，細線
100
AcDbLine
 10
1184.999999999998
 20
1385.0
 30
0.0
 11
1184.999999999998
 21
1185.0
 31
0.0
  0
TEXT
  5
2886
330
1F
100
AcDbEntity
  8
0
100
AcDbText
 10
1103.067096433081
 20
1364.705768992813
 30
0.0
 40
15.0
  1
電    源
100
AcDbText
  0
TEXT
  5
2887
330
1F
100
AcDbEntity
  8
0
100
AcDbText
 10
1104.694997047434
 20
1339.79694647133
 30
0.0
 40
15.0
  1
消費電力
100
AcDbText
  0
TEXT
  5
2888
330
1F
100
AcDbEntity
  8
0
100
AcDbText
 10
1103.067096433081
 20
1315.796764244156
 30
0.0
 40
15.0
  1
温度調節
100
AcDbText
  0
TEXT
  5
2889
330
1F
100
AcDbEntity
  8
0
100
AcDbText
 10
1103.067096433081
 20
1289.355894861666
 30
0.0
 40
15.0
  1
庫内温度
100
AcDbText
  0
TEXT
  5
288A
330
1F
100
AcDbEntity
  8
0
100
AcDbText
 10
1103.067096433081
 20
1263.728595852682
 30
0.0
 40
15.0
  1
安全装置
100
AcDbText
  0
TEXT
  5
288B
330
1F
100
AcDbEntity
  8
0
100
AcDbText
 10
1102.660130590511
 20
1239.321652403947
 30
0.0
 40
15.0
  1
内 容 積
100
AcDbText
  0
TEXT
  5
288C
330
1F
100
AcDbEntity
  8
0
100
AcDbText
 10
1103.067096433081
 20
1213.694353394964
 30
0.0
 40
15.0
  1
外形寸法
100
AcDbText
  0
TEXT
  5
288D
330
1F
100
AcDbEntity
  8
0
100
AcDbText
 10
1103.067096433081
 20
1188.880624759478
 30
0.0
 40
15.0
  1
中箱寸法
100
AcDbText
  0
TEXT
  5
288E
330
1F
100
AcDbEntity
  8
0
100
AcDbText
 10
1199.519863325967
 20
1363.712052263191
 30
0.0
 40
15.0
  1
単相 100Ｖ　50/60Ｈｚ
100
AcDbText
  0
TEXT
  5
288F
330
1F
100
AcDbEntity
  8
0
100
AcDbText
 10
1200.333795011115
 20
1339.305108814461
 30
0.0
 40
15.0
  1
220Ｗ
100
AcDbText
  0
TEXT
  5
2890
330
1F
100
AcDbEntity
  8
0
100
AcDbText
 10
1200.740760853686
 20
1313.677809805473
 30
0.0
 40
15.0
  1
固定サーモスタット 80℃ ＯＦＦ
100
AcDbText
  0
TEXT
  5
2891
330
1F
100
AcDbEntity
  8
0
100
AcDbText
 10
1199.519863325967
 20
1288.45729598324
 30
0.0
 40
15.0
  1
65℃～75℃
100
AcDbText
  0
TEXT
  5
2892
330
1F
100
AcDbEntity
  8
0
100
AcDbText
 10
1200.333795011115
 20
1264.050328569316
 30
0.0
 40
15.0
  1
113℃温度ヒューズ(マイクロ型)
100
AcDbText
  0
TEXT
  5
2893
330
1F
100
AcDbEntity
  8
0
100
AcDbText
 10
1200.333795011115
 20
1239.643385120581
 30
0.0
 40
15.0
  1
34.3Ｌ
100
AcDbText
  0
TEXT
  5
2894
330
1F
100
AcDbEntity
  8
0
100
AcDbText
 10
1199.926829168538
 20
1214.016086111596
 30
0.0
 40
15.0
  1
380Ｗ×435Ｄ×470Ｈ
100
AcDbText
  0
TEXT
  5
2895
330
1F
100
AcDbEntity
  8
0
100
AcDbText
 10
1199.926829168538
 20
1188.388787102609
 30
0.0
 40
15.0
  1
280Ｗ×350Ｄ×350Ｈ
100
AcDbText
  0
TEXT
  5
28A1
330
1F
100
AcDbEntity
  8
0
100
AcDbText
 10
846.6410371906212
 20
310.5671071901098
 30
0.0
 40
12.0
  1
3
100
AcDbText
  0
CIRCLE
  5
28A6
330
1F
100
AcDbEntity
  8
0
100
AcDbCircle
 10
850.7570561977344
 20
970.9740901931008
 30
0.0
 40
14.0
  0
TEXT
  5
28A7
330
1F
100
AcDbEntity
  8
0
100
AcDbText
 10
847.0093302209392
 20
964.1305955910871
 30
0.0
 40
12.0
  1
5
100
AcDbText
  0
LINE
  5
28A8
330
1F
100
AcDbEntity
  8
引き出し線
100
AcDbLine
 10
836.9204322192931
 20
968.8415243959379
 30
0.0
 11
714.9248226885884
 21
950.0389852292599
 31
0.0
  0
LEADER
  5
28A9
330
1F
100
AcDbEntity
  8
引き出し線
100
AcDbLeader
  3
ISO-25
 76
     2
 10
1045.964514392413
 20
762.8940015499002
 30
0.0
 10
860.3356885242522
 20
960.7638109239823
 30
0.0
1001
ACAD
1000
DSTYLE
1002
{
1070
   147
1040
1.0
1070
    77
1070
     0
1002
}
  0
DIMENSION
  5
2917
330
1F
100
AcDbEntity
  8
寸法線1
100
AcDbDimension
  2
*D14
 10
904.5160748011785
 20
324.8940015499001
 30
0.0
 11
892.0160748011785
 21
541.3940015499004
 31
0.0
 70
    32
 71
     5
 42
432.9999999999998
  3
ISO-25
100
AcDbAlignedDimension
 13
981.514112395469
 23
757.8940015499
 33
0.0
 14
981.514112395469
 24
324.8940015499001
 34
0.0
 50
90.0
100
AcDbRotatedDimension
  0
CIRCLE
  5
2938
330
1F
100
AcDbEntity
  8
0
100
AcDbCircle
 10
337.5093100554286
 20
819.8940015499001
 30
0.0
 40
14.0
  0
TEXT
  5
2939
330
1F
100
AcDbEntity
  8
0
100
AcDbText
 10
328.8536341214106
 20
813.3270914543951
 30
0.0
 40
12.0
  1
12
100
AcDbText
  0
LEADER
  5
293A
330
1F
100
AcDbEntity
  8
引き出し線
100
AcDbLeader
  3
ISO-25
 76
     2
 10
379.7676691342021
 20
707.8940015499
 30
0.0
 10
342.4515186470137
 20
806.7953537480368
 30
0.0
1001
ACAD
1000
DSTYLE
1002
{
1070
   147
1040
1.0
1070
    77
1070
     0
1002
}
  0
LINE
  5
29B1
330
1F
100
AcDbEntity
  8
0
370
    40
100
AcDbLine
 10
2049.999999999999
 20
50.0
 30
0.0
 11
2049.999999999999
 21
190.0
 31
0.0
  0
LINE
  5
29B2
330
1F
100
AcDbEntity
  8
0
370
    60
100
AcDbLine
 10
2049.999999999999
 20
1435.0
 30
0.0
 11
124.9999999999997
 21
1435.0
 31
0.0
  0
LINE
  5
29B3
330
1F
100
AcDbEntity
  8
0
370
    40
100
AcDbLine
 10
1149.999999999999
 20
50.0
 30
0.0
 11
2049.999999999999
 21
50.0
 31
0.0
  0
LINE
  5
29B4
330
1F
100
AcDbEntity
  8
0
370
    60
100
AcDbLine
 10
124.9999999999997
 20
1435.0
 30
0.0
 11
125.0
 21
50.0
 31
0.0
  0
LINE
  5
29B5
330
1F
100
AcDbEntity
  8
0
370
    60
100
AcDbLine
 10
2049.999999999999
 20
50.0
 30
0.0
 11
2049.999999999999
 21
1435.0
 31
0.0
  0
LINE
  5
29B6
330
1F
100
AcDbEntity
  8
0
370
    60
100
AcDbLine
 10
125.0
 20
50.0
 30
0.0
 11
2049.999999999999
 21
50.0
 31
0.0
  0
LINE
  5
29B7
330
1F
100
AcDbEntity
  8
0
100
AcDbLine
 10
1593.264875116391
 20
177.6035487318722
 30
0.0
 11
1563.264875116391
 21
147.6035487318722
 31
0.0
  0
TEXT
  5
29B8
330
1F
100
AcDbEntity
  8
0
100
AcDbText
 10
1416.539483194975
 20
52.97426044770901
 30
0.0
 40
18.74999999999999
  1
承　認
100
AcDbText
  0
TEXT
  5
29B9
330
1F
100
AcDbEntity
  8
0
100
AcDbText
 10
1161.601802983646
 20
52.83645629773531
 30
0.0
 40
18.74999999999999
  1
設　計
100
AcDbText
  0
TEXT
  5
29BA
330
1F
100
AcDbEntity
  8
0
100
AcDbText
 10
1331.770291827057
 20
53.4074769116921
 30
0.0
 40
18.75
  1
検　図
100
AcDbText
  0
TEXT
  5
29BB
330
1F
100
AcDbEntity
  8
0
100
AcDbText
 10
1247.171721457715
 20
53.05747398543076
 30
0.0
 40
18.74999999999999
  1
製　図
100
AcDbText
  0
TEXT
  5
29BC
330
1F
100
AcDbEntity
  8
0
100
AcDbText
 10
1501.100179046648
 20
119.9203592645406
 30
0.0
 40
18.75
  1
品
100
AcDbText
  0
TEXT
  5
29BD
330
1F
100
AcDbEntity
  8
0
100
AcDbText
 10
1501.100172087969
 20
97.38742760635517
 30
0.0
 40
18.75
  1
名
100
AcDbText
  0
TEXT
  5
29BE
330
1F
100
AcDbEntity
  8
0
100
AcDbText
 10
1499.634682882888
 20
153.7094889827877
 30
0.0
 40
18.75
  1
尺度
100
AcDbText
  0
TEXT
  5
29BF
330
1F
100
AcDbEntity
  8
0
100
AcDbText
 10
1779.486713016406
 20
153.4450875062742
 30
0.0
 40
18.75000000000002
  1
処理
100
AcDbText
  0
TEXT
  5
29C0
330
1F
100
AcDbEntity
  8
0
100
AcDbText
 10
1811.465761561607
 20
74.85663780828045
 30
0.0
 40
18.75
  1
図
100
AcDbText
  0
TEXT
  5
29C1
330
1F
100
AcDbEntity
  8
0
100
AcDbText
 10
1811.132760929726
 20
52.23409715659925
 30
0.0
 40
18.75
  1
番
100
AcDbText
  0
TEXT
  5
29C2
330
1F
100
AcDbEntity
  8
0
100
AcDbText
 10
1621.36834380982
 20
152.5367400269248
 30
0.0
 40
18.75000000000002
  1
材質
100
AcDbText
  0
TEXT
  5
29C3
330
1F
100
AcDbEntity
  8
0
100
AcDbText
 10
1938.812193497913
 20
152.627705221663
 30
0.0
 40
18.75000000000002
  1
個数
100
AcDbText
  0
LINE
  5
29C4
330
1F
100
AcDbEntity
  8
0
100
AcDbLine
 10
1489.999999999999
 20
95.0
 30
0.0
 11
2049.999999999999
 21
95.0
 31
0.0
  0
LINE
  5
29C5
330
1F
100
AcDbEntity
  8
0
100
AcDbLine
 10
1489.999999999999
 20
140.0
 30
0.0
 11
2049.999999999999
 21
140.0
 31
0.0
  0
LINE
  5
29C6
330
1F
100
AcDbEntity
  8
0
100
AcDbLine
 10
1489.999999999999
 20
185.0
 30
0.0
 11
1489.999999999999
 21
50.0
 31
0.0
  0
LINE
  5
29C7
330
1F
100
AcDbEntity
  8
0
100
AcDbLine
 10
1529.999999999999
 20
140.0
 30
0.0
 11
1529.999999999999
 21
95.0
 31
0.0
  0
LINE
  5
29C8
330
1F
100
AcDbEntity
  8
0
100
AcDbLine
 10
1799.999999999999
 20
140.0
 30
0.0
 11
1799.999999999999
 21
50.0
 31
0.0
  0
LINE
  5
29C9
330
1F
100
AcDbEntity
  8
0
100
AcDbLine
 10
1839.999999999999
 20
140.0
 30
0.0
 11
1839.999999999999
 21
50.0
 31
0.0
  0
LINE
  5
29CA
330
1F
100
AcDbEntity
  8
0
100
AcDbLine
 10
1149.999999999999
 20
185.0
 30
0.0
 11
1149.999999999999
 21
50.0
 31
0.0
  0
LINE
  5
29CC
330
1F
100
AcDbEntity
  8
0
100
AcDbLine
 10
1609.999999999999
 20
185.0
 30
0.0
 11
1609.999999999999
 21
140.0
 31
0.0
  0
LINE
  5
29CE
330
1F
100
AcDbEntity
  8
0
100
AcDbLine
 10
1769.999999999999
 20
185.0
 30
0.0
 11
1769.999999999999
 21
140.0
 31
0.0
  0
LINE
  5
29D0
330
1F
100
AcDbEntity
  8
0
100
AcDbLine
 10
1929.999999999999
 20
185.0
 30
0.0
 11
1929.999999999999
 21
140.0
 31
0.0
  0
LINE
  5
29D2
330
1F
100
AcDbEntity
  8
0
370
    60
100
AcDbLine
 10
2049.999999999999
 20
185.0
 30
0.0
 11
824.9999999999994
 21
184.9999999999999
 31
0.0
  0
LINE
  5
29D4
330
1F
100
AcDbEntity
  8
0
100
AcDbLine
 10
824.9999999999996
 20
75.00000000000001
 30
0.0
 11
1489.999999999999
 21
75.0
 31
0.0
  0
LINE
  5
29D5
330
1F
100
AcDbEntity
  8
0
100
AcDbLine
 10
1234.999999999999
 20
157.4999999999999
 30
0.0
 11
1234.999999999999
 21
50.0
 31
0.0
  0
LINE
  5
29D6
330
1F
100
AcDbEntity
  8
0
100
AcDbLine
 10
1319.999999999999
 20
157.4999999999998
 30
0.0
 11
1319.999999999999
 21
50.0
 31
0.0
  0
TEXT
  5
29D7
330
1F
100
AcDbEntity
  8
0
100
AcDbText
 10
1168.411181477071
 20
160.1806902627274
 30
0.0
 40
20.0
  1
作 成 日
100
AcDbText
1001
ACAD
1000
ACAD_MTEXT_DEFINED_HEIGHT_BEGIN
1070
    46
1040
0.0
1000
ACAD_MTEXT_DEFINED_HEIGHT_END
1000
MTEXTBEGIN
1070
    73
1070
     1
1070
    44
1040
1.0
1070
    74
1070
     0
1000
MTEXTEND
  0
LINE
  5
29D8
330
1F
100
AcDbEntity
  8
0
100
AcDbLine
 10
1277.499999999999
 20
185.0
 30
0.0
 11
1277.499999999999
 21
157.4999999999998
 31
0.0
  0
LINE
  5
29D9
330
1F
100
AcDbEntity
  8
0
100
AcDbLine
 10
1404.999999999999
 20
157.4999999999997
 30
0.0
 11
1404.999999999999
 21
50.0
 31
0.0
  0
TEXT
  5
29DA
330
1F
100
AcDbEntity
  8
0
100
AcDbText
 10
1810.763072021926
 20
120.0525043308613
 30
0.0
 40
18.74999999999998
  1
型
100
AcDbText
  0
TEXT
  5
29DB
330
1F
100
AcDbEntity
  8
0
100
AcDbText
 10
1811.156898468229
 20
97.45233899539071
 30
0.0
 40
18.75
  1
式
100
AcDbText
  0
ELLIPSE
  5
29DC
330
1F
100
AcDbEntity
  8
0
100
AcDbEllipse
 10
1349.999999999999
 20
170.3403396681377
 30
0.0
 11
-1.767766952966422
 21
1.767766952966423
 31
0.0
210
0.0
220
0.0
230
1.0
 40
0.9999999999999385
 41
3.926990816987272
 42
10.21017612416685
  0
ELLIPSE
  5
29DD
330
1F
100
AcDbEntity
  8
0
100
AcDbEllipse
 10
1419.999999999999
 20
170.3403396681377
 30
0.0
 11
-1.767766952966422
 21
1.767766952966423
 31
0.0
210
0.0
220
0.0
230
1.0
 40
0.9999999999999385
 41
3.926990816987272
 42
10.21017612416685
  0
ELLIPSE
  5
29DE
330
1F
100
AcDbEntity
  8
0
100
AcDbEllipse
 10
1349.999999999999
 20
170.3403396681377
 30
0.0
 11
1.414213562373015
 21
1.414213562373015
 31
0.0
210
0.0
220
0.0
230
1.0
 40
0.9999999999999847
 41
5.497787143782129
 42
11.78097245096171
  0
ELLIPSE
  5
29DF
330
1F
100
AcDbEntity
  8
0
100
AcDbEllipse
 10
1349.999999999999
 20
170.3403396681377
 30
0.0
 11
-1.06066017177987
 21
1.06066017177987
 31
0.0
210
0.0
220
0.0
230
1.0
 40
0.9999999999998884
 41
3.926990816987297
 42
10.21017612416688
  0
ELLIPSE
  5
29E0
330
1F
100
AcDbEntity
  8
0
100
AcDbEllipse
 10
1349.999999999999
 20
170.3403396681377
 30
0.0
 11
-0.7071067811864902
 21
0.7071067811864903
 31
0.0
210
0.0
220
0.0
230
1.0
 40
0.9999999999999346
 41
3.926990816987274
 42
10.21017612416686
  0
ELLIPSE
  5
29E1
330
1F
100
AcDbEntity
  8
0
100
AcDbEllipse
 10
1349.999999999999
 20
170.3403396681377
 30
0.0
 11
-0.3535533905932819
 21
0.353553390593282
 31
0.0
210
0.0
220
0.0
230
1.0
 40
0.9999999999999531
 41
3.926990816987264
 42
10.21017612416684
  0
ELLIPSE
  5
29E2
330
1F
100
AcDbEntity
  8
0
100
AcDbEllipse
 10
1419.999999999999
 20
170.3403396681377
 30
0.0
 11
-1.767766952966422
 21
1.767766952966423
 31
0.0
210
0.0
220
0.0
230
1.0
 40
0.9999999999999385
 41
3.926990816987272
 42
10.21017612416685
  0
ELLIPSE
  5
29E3
330
1F
100
AcDbEntity
  8
0
100
AcDbEllipse
 10
1419.999999999999
 20
170.3403396681377
 30
0.0
 11
-1.414213562373078
 21
1.414213562373078
 31
0.0
210
0.0
220
0.0
230
1.0
 40
0.9999999999998955
 41
3.926990816987293
 42
10.21017612416688
  0
ELLIPSE
  5
29E4
330
1F
100
AcDbEntity
  8
0
100
AcDbEllipse
 10
1419.999999999999
 20
170.3403396681377
 30
0.0
 11
-1.06066017177987
 21
1.06066017177987
 31
0.0
210
0.0
220
0.0
230
1.0
 40
0.9999999999998884
 41
3.926990816987297
 42
10.21017612416688
  0
ELLIPSE
  5
29E5
330
1F
100
AcDbEntity
  8
0
100
AcDbEllipse
 10
1419.999999999999
 20
170.3403396681377
 30
0.0
 11
-0.7071067811864902
 21
0.7071067811864903
 31
0.0
210
0.0
220
0.0
230
1.0
 40
0.9999999999999346
 41
3.926990816987274
 42
10.21017612416686
  0
ELLIPSE
  5
29E6
330
1F
100
AcDbEntity
  8
0
100
AcDbEllipse
 10
1419.999999999999
 20
170.3403396681377
 30
0.0
 11
-0.3535533905932819
 21
0.353553390593282
 31
0.0
210
0.0
220
0.0
230
1.0
 40
0.9999999999999531
 41
3.926990816987264
 42
10.21017612416684
  0
TEXT
  5
29E7
330
1F
100
AcDbEntity
  8
0
100
AcDbText
 10
1522.49724149632
 20
60.15344234932341
 30
0.0
 40
25.0
  1
株式会社 アンナカ
100
AcDbText
1001
ACAD
1000
MTEXTBEGIN
1070
    73
1070
     1
1070
    44
1040
1.0
1070
    74
1070
     0
1000
MTEXTEND
  0
TEXT
  5
2B20
330
1F
100
AcDbEntity
  8
文字
100
AcDbText
 10
845.2121350091429
 20
78.1434576269719
 30
0.0
 40
13.81249999999999
  1
2
100
AcDbText
  0
TEXT
  5
2B21
330
1F
100
AcDbEntity
  8
文字
100
AcDbText
 10
878.8176099336801
 20
79.67020803524452
 30
0.0
 40
15.0
  1
2020.03.03
 41
0.4611175258696599
  7
ED_VECTOR
 72
     5
 11
945.6796511847809
 21
79.67020803524452
 31
0.0
100
AcDbText
  0
LINE
  5
2B26
330
1F
100
AcDbEntity
  8
0
370
    60
100
AcDbLine
 10
824.9999999999996
 20
50.00000000000024
 30
0.0
 11
824.9999999999994
 21
184.9999999999999
 31
0.0
  0
LINE
  5
2B28
330
1F
100
AcDbEntity
  8
0
100
AcDbLine
 10
1149.999999999999
 20
102.4999999999999
 30
0.0
 11
824.9999999999996
 21
102.5000000000002
 31
0.0
  0
LINE
  5
2B29
330
1F
100
AcDbEntity
  8
0
100
AcDbLine
 10
1149.999999999999
 20
50.00000000000001
 30
0.0
 11
824.9999999999996
 21
50.00000000000024
 31
0.0
  0
LINE
  5
2B2E
330
1F
100
AcDbEntity
  8
0
100
AcDbLine
 10
1099.999999999999
 20
50.00000000000003
 30
0.0
 11
1099.999999999999
 21
184.9999999999999
 31
0.0
  0
TEXT
  5
2B2F
330
1F
100
AcDbEntity
  8
0
100
AcDbText
 10
833.2736037532255
 20
54.67541501979113
 30
0.0
 40
15.625
  1
記号
100
AcDbText
1001
ACAD
1000
MTEXTBEGIN
1070
    73
1070
     1
1070
    44
1040
1.0
1070
    74
1070
     0
1000
MTEXTEND
  0
TEXT
  5
2B30
330
1F
100
AcDbEntity
  8
0
100
AcDbText
 10
887.2904120312529
 20
54.67541069760873
 30
0.0
 40
15.625
  1
日　付
100
AcDbText
1001
ACAD
1000
MTEXTBEGIN
1070
    73
1070
     1
1070
    44
1040
1.0
1070
    74
1070
     0
1000
MTEXTEND
  0
TEXT
  5
2B31
330
1F
100
AcDbEntity
  8
0
100
AcDbText
 10
990.6745980958039
 20
54.6754193419736
 30
0.0
 40
15.625
  1
訂　　正
100
AcDbText
1001
ACAD
1000
MTEXTBEGIN
1070
    73
1070
     1
1070
    44
1040
1.0
1070
    74
1070
     0
1000
MTEXTEND
  0
TEXT
  5
2B32
330
1F
100
AcDbEntity
  8
0
100
AcDbText
 10
1108.458732837626
 20
55.04449915990495
 30
0.0
 40
15.625
  1
担当
100
AcDbText
1001
ACAD
1000
MTEXTBEGIN
1070
    73
1070
     1
1070
    44
1040
1.0
1070
    74
1070
     0
1000
MTEXTEND
  0
LINE
  5
2B33
330
1F
100
AcDbEntity
  8
0
100
AcDbLine
 10
874.9999999999996
 20
50.00000000000021
 30
0.0
 11
874.9999999999996
 21
185.0
 31
0.0
  0
LINE
  5
2B34
330
1F
100
AcDbEntity
  8
0
100
AcDbLine
 10
949.9999999999996
 20
50.00000000000014
 30
0.0
 11
949.9999999999996
 21
185.0
 31
0.0
  0
LINE
  5
2B3D
330
1F
100
AcDbEntity
  8
0
100
AcDbLine
 10
849.9999999999996
 20
101.1678706059895
 30
0.0
 11
835.6249999999995
 21
76.16787060598952
 31
0.0
  0
LINE
  5
2B3E
330
1F
100
AcDbEntity
  8
0
100
AcDbLine
 10
835.6249999999995
 20
76.16787060598952
 30
0.0
 11
864.3749999999995
 21
76.16787060598952
 31
0.0
  0
LINE
  5
2B3F
330
1F
100
AcDbEntity
  8
0
100
AcDbLine
 10
864.3749999999995
 20
76.16787060598952
 30
0.0
 11
849.9999999999996
 21
101.1678706059895
 31
0.0
  0
LINE
  5
2B44
330
1F
100
AcDbEntity
  8
0
100
AcDbLine
 10
1149.999999999999
 20
130.0
 30
0.0
 11
824.9999999999996
 21
130.0000000000002
 31
0.0
  0
LINE
  5
2B46
330
1F
100
AcDbEntity
  8
0
100
AcDbLine
 10
1489.999999999999
 20
157.4999999999997
 30
0.0
 11
824.9999999999996
 21
157.5000000000002
 31
0.0
  0
TEXT
  5
2B47
330
1F
100
AcDbEntity
  8
0
100
AcDbText
 10
960.6050430973954
 20
15.84865118768504
 30
0.0
 40
15.625
  1

100
AcDbText
1001
ACAD
1000
MTEXTBEGIN
1070
    73
1070
     1
1070
    44
1040
1.0
1070
    74
1070
     0
1000
MTEXTEND
  0
TEXT
  5
2B55
102
{ACAD_REACTORS
330
2B59
102
}
330
1F
100
AcDbEntity
  8
文字
 62
     2
100
AcDbText
 10
2020.630447355105
 20
61.96551117393733
 30
0.0
 40
13.81249999999999
  1
2
100
AcDbText
  0
LINE
  5
2B56
102
{ACAD_REACTORS
330
2B59
102
}
330
1F
100
AcDbEntity
  8
0
 62
     2
100
AcDbLine
 10
2025.418312345962
 20
84.98992415295495
 30
0.0
 11
2011.043312345962
 21
59.98992415295496
 31
0.0
  0
LINE
  5
2B57
102
{ACAD_REACTORS
330
2B59
102
}
330
1F
100
AcDbEntity
  8
0
 62
     2
100
AcDbLine
 10
2011.043312345962
 20
59.98992415295496
 30
0.0
 11
2039.793312345961
 21
59.98992415295496
 31
0.0
  0
LINE
  5
2B58
102
{ACAD_REACTORS
330
2B59
102
}
330
1F
100
AcDbEntity
  8
0
 62
     2
100
AcDbLine
 10
2039.793312345961
 20
59.98992415295496
 30
0.0
 11
2025.418312345962
 21
84.98992415295495
 31
0.0
  0
TEXT
  5
2B5A
102
{ACAD_REACTORS
330
2B5E
102
}
330
1F
100
AcDbEntity
  8
文字
 62
     2
100
AcDbText
 10
1967.749764725897
 20
1164.086366371492
 30
0.0
 40
11.04999999999999
  1
2
100
AcDbText
  0
LINE
  5
2B5B
102
{ACAD_REACTORS
330
2B5E
102
}
330
1F
100
AcDbEntity
  8
0
 62
     2
100
AcDbLine
 10
1971.580056718583
 20
1182.505896754706
 30
0.0
 11
1960.080056718583
 21
1162.505896754706
 31
0.0
  0
LINE
  5
2B5C
102
{ACAD_REACTORS
330
2B5E
102
}
330
1F
100
AcDbEntity
  8
0
 62
     2
100
AcDbLine
 10
1960.080056718583
 20
1162.505896754706
 30
0.0
 11
1983.080056718582
 21
1162.505896754706
 31
0.0
  0
LINE
  5
2B5D
102
{ACAD_REACTORS
330
2B5E
102
}
330
1F
100
AcDbEntity
  8
0
 62
     2
100
AcDbLine
 10
1983.080056718582
 20
1162.505896754706
 30
0.0
 11
1971.580056718583
 21
1182.505896754706
 31
0.0
  0
TEXT
  5
2B60
330
1F
100
AcDbEntity
  8
0
 62
     2
100
AcDbText
 10
1989.592456624904
 20
1165.147600174049
 30
0.0
 40
15.0
  1
10Ａ
100
AcDbText
  0
LINE
  5
2B61
330
1F
100
AcDbEntity
  8
0
 62
     2
100
AcDbLine
 10
1985.470777736054
 20
1175.539790846763
 30
0.0
 11
2025.870110738468
 21
1175.539790846763
 31
0.0
  0
LINE
  5
2B62
330
1F
100
AcDbEntity
  8
0
 62
     2
100
AcDbLine
 10
1985.470777736054
 20
1169.545424079223
 30
0.0
 11
2025.870110738468
 21
1169.545424079223
 31
0.0
  0
TEXT
  5
2B8A
330
1F
100
AcDbEntity
  8
文字
100
AcDbText
 10
1108.379032241803
 20
80.8249270529925
 30
0.0
 40
15.0
  1
福田
 41
1.037607926710851
  7
ED_VECTOR
 72
     5
 11
1140.54487796984
 21
80.8249270529925
 31
0.0
100
AcDbText
  0
TEXT
  5
2B9E
330
1F
100
AcDbEntity
  8
文字
100
AcDbText
 10
956.117204582561
 20
79.67020803524452
 30
0.0
 40
15.0
  1
定格及び材質の修正
 41
0.783474484927022
  7
ED_VECTOR
 72
     5
 11
1079.90617320103
 21
79.67020803524452
 31
0.0
100
AcDbText
  0
DIMENSION
  5
2BAE
330
1F
100
AcDbEntity
  8
寸法線1
100
AcDbDimension
  2
*D16
 10
1420.014112395468
 20
809.8940015499
 30
0.0
 11
1466.264112395468
 21
823.6440015499001
 31
0.0
 70
    32
 71
     5
 42
3.49999999999909
  3
ISO-25
100
AcDbAlignedDimension
 13
1416.514112395469
 23
759.8940015499
 33
0.0
 14
1420.014112395468
 24
753.8940015499
 34
0.0
100
AcDbRotatedDimension
  0
DIMENSION
  5
2BBD
330
1F
100
AcDbEntity
  8
寸法線1
100
AcDbDimension
  2
*D17
 10
255.3988913483007
 20
869.8320099149059
 30
0.0
 11
255.3988913483006
 21
1132.184580396019
 31
0.0
 70
   160
 71
     5
 42
465.4857749476023
  3
ISO-25
100
AcDbAlignedDimension
 13
346.0958048359062
 23
1335.317784862508
 33
0.0
 14
372.5121499897596
 24
869.8320099149057
 34
0.0
 50
90.0
100
AcDbRotatedDimension
1001
ACAD
1000
DSTYLE
1002
{
1070
   271
1070
     1
1002
}
  0
DIMENSION
  5
2C3C
330
1F
100
AcDbEntity
  8
寸法線1
100
AcDbDimension
  2
*D18
 10
770.5121499897597
 20
759.8940015498999
 30
0.0
 11
770.5121499897595
 21
797.8940015499004
 31
0.0
 70
   160
 71
     5
 42
3.000000000000113
  3
ISO-25
100
AcDbAlignedDimension
 13
720.5121499897597
 23
762.8940015499002
 33
0.0
 14
720.5121499897597
 24
759.8940015499
 34
0.0
 50
90.0
100
AcDbRotatedDimension
  0
DIMENSION
  5
2CE0
330
1F
100
AcDbEntity
  8
寸法線1
100
AcDbDimension
  2
*D19
 10
727.212158294246
 20
204.7807429084413
 30
0.0
 11
533.8621541420027
 21
217.2807429084413
 31
0.0
 70
    32
 71
     5
 42
386.7000083044865
  3
ISO-25
100
AcDbAlignedDimension
 13
340.5121499897595
 23
319.8940015499001
 33
0.0
 14
727.212158294246
 24
328.9071508733077
 34
0.0
100
AcDbRotatedDimension
1001
ACAD
1000
DSTYLE
1002
{
1070
   271
1070
     0
1002
}
  0
DIMENSION
  5
2D4D
330
1F
100
AcDbEntity
  8
寸法線1
100
AcDbDimension
  2
*D20
 10
727.212158294246
 20
239.8940015499
 30
0.0
 11
762.212158294246
 21
252.3940015499
 31
0.0
 70
    32
 71
     5
 42
6.700008304486345
  3
ISO-25
100
AcDbAlignedDimension
 13
720.5121499897597
 23
319.8940015499001
 33
0.0
 14
727.212158294246
 24
323.9071508733077
 34
0.0
100
AcDbRotatedDimension
1001
ACAD
1000
DSTYLE
1002
{
1070
   271
1070
     0
1002
}
  0
TEXT
  5
2D68
330
1F
100
AcDbEntity
  8
0
 62
     2
100
AcDbText
 10
1987.746089259065
 20
1215.426833209789
 30
0.0
 40
13.0
  1
合成ゴム
100
AcDbText
  0
TEXT
  5
2D69
102
{ACAD_REACTORS
330
2D6D
102
}
330
1F
100
AcDbEntity
  8
文字
 62
     2
100
AcDbText
 10
1987.850005172988
 20
1238.2862334648
 30
0.0
 40
11.04999999999999
  1
2
100
AcDbText
  0
LINE
  5
2D6A
102
{ACAD_REACTORS
330
2D6D
102
}
330
1F
100
AcDbEntity
  8
0
 62
     2
100
AcDbLine
 10
1991.680297165673
 20
1256.705763848015
 30
0.0
 11
1980.180297165673
 21
1236.705763848014
 31
0.0
  0
LINE
  5
2D6B
102
{ACAD_REACTORS
330
2D6D
102
}
330
1F
100
AcDbEntity
  8
0
 62
     2
100
AcDbLine
 10
1980.180297165673
 20
1236.705763848014
 30
0.0
 11
2003.180297165673
 21
1236.705763848014
 31
0.0
  0
LINE
  5
2D6C
102
{ACAD_REACTORS
330
2D6D
102
}
330
1F
100
AcDbEntity
  8
0
 62
     2
100
AcDbLine
 10
2003.180297165673
 20
1236.705763848014
 30
0.0
 11
1991.680297165673
 21
1256.705763848015
 31
0.0
  0
LINE
  5
2D6E
330
1F
100
AcDbEntity
  8
0
 62
     2
100
AcDbLine
 10
1986.773889860663
 20
1225.158705543377
 30
0.0
 11
2048.863434825791
 21
1225.158705543377
 31
0.0
  0
LINE
  5
2D70
330
1F
100
AcDbEntity
  8
0
 62
     2
100
AcDbLine
 10
1986.773889860663
 20
1219.164338775836
 30
0.0
 11
2048.863434825791
 21
1219.164338775836
 31
0.0
  0
ENDSEC
  0
SECTION
  2
OBJECTS
  0
DICTIONARY
  5
C
330
0
100
AcDbDictionary
281
     1
  3
ACAD_COLOR
350
4AE
  3
ACAD_GROUP
350
D
  3
ACAD_LAYOUT
350
1A
  3
ACAD_MATERIAL
350
4AD
  3
ACAD_MLINESTYLE
350
17
  3
ACAD_PLOTSETTINGS
350
19
  3
ACAD_PLOTSTYLENAME
350
E
  3
ACAD_TABLESTYLE
350
4AF
  3
AcadDim
350
1C20
  3
AcDbVariableDictionary
350
4B6
  0
DICTIONARY
  5
645
330
2
100
AcDbDictionary
280
     1
281
     1
  3
ACAD_LAYERFILTERS
360
1BFB
  3
ACLYDICTIONARY
360
1BFA
  0
DICTIONARY
  5
4C2
330
1F
100
AcDbDictionary
280
     1
281
     1
  3
ACAD_SORTENTS
360
4C3
  0
DICTIONARY
  5
D8C
330
D54
100
AcDbDictionary
280
     1
281
     1
  3
ACAD_SORTENTS
360
18EE
  0
DICTIONARY
  5
4AE
102
{ACAD_REACTORS
330
C
102
}
330
C
100
AcDbDictionary
281
     1
  0
DICTIONARY
  5
D
102
{ACAD_REACTORS
330
C
102
}
330
C
100
AcDbDictionary
281
     1
  3
*A1
350
2AFC
  3
*A2
350
2B1E
  3
*A3
350
2B4D
  3
*A4
350
2B59
  3
*A5
350
2B5E
  3
*A6
350
2D6D
  3
*A7
350
339B
  3
*A8
350
339C
  3
*A9
350
339D
  0
DICTIONARY
  5
1A
102
{ACAD_REACTORS
330
C
102
}
330
C
100
AcDbDictionary
281
     1
  3
Layout1
350
1E
  3
Layout2
350
26
  3
Model
350
22
  0
DICTIONARY
  5
4AD
102
{ACAD_REACTORS
330
C
102
}
330
C
100
AcDbDictionary
281
     1
  0
DICTIONARY
  5
17
102
{ACAD_REACTORS
330
C
102
}
330
C
100
AcDbDictionary
281
     1
  3
Standard
350
18
  0
DICTIONARY
  5
19
102
{ACAD_REACTORS
330
C
102
}
330
C
100
AcDbDictionary
281
     1
  0
ACDBDICTIONARYWDFLT
  5
E
102
{ACAD_REACTORS
330
C
102
}
330
C
100
AcDbDictionary
281
     1
  3
Normal
350
F
100
AcDbDictionaryWithDefault
340
F
  0
DICTIONARY
  5
4AF
102
{ACAD_REACTORS
330
C
102
}
330
C
100
AcDbDictionary
281
     1
  3
Standard
350
4B0
  0
XRECORD
  5
1C20
102
{ACAD_REACTORS
330
C
102
}
330
C
100
AcDbXrecord
280
     1
 90
   990106
  3

 60
     0
 61
     0
 62
     1
 63
     3
 64
     0
 65
     0
 66
     0
 67
     3
 68
     1
 69
     0
 70
     0
 71
     0
 72
     0
 40
0.0
170
     0
  0
DICTIONARY
  5
4B6
102
{ACAD_REACTORS
330
C
102
}
330
C
100
AcDbDictionary
281
     1
  3
CTABLESTYLE
350
4B7
  3
DIMASSOC
350
1C79
  3
PROJECTNAME
350
1C7A
  0
DICTIONARY
  5
1BFB
102
{ACAD_REACTORS
330
645
102
}
330
645
100
AcDbDictionary
281
     1
  0
DICTIONARY
  5
1BFA
102
{ACAD_REACTORS
330
645
102
}
330
645
100
AcDbDictionary
281
     1
1001
ACAD
1000
<All
  0
SORTENTSTABLE
  5
4C3
102
{ACAD_REACTORS
330
4C2
102
}
330
4C2
100
AcDbSortentsTable
330
1F
331
B71
  5
B87
331
61C
  5
68A
331
13F5
  5
141E
331
1B4E
  5
1B7A
331
81B
  5
87D
331
635
  5
6A0
331
5DB
  5
66E
331
13D4
  5
13FD
331
1B2D
  5
1B2E
331
1581
  5
1643
331
95C
  5
AE5
331
7B0
  5
840
331
1B3E
  5
1B48
331
FE3
  5
13EF
331
786
  5
828
331
96D
  5
AF1
331
923
  5
967
331
797
  5
832
331
1B1D
  5
1B1E
331
755
  5
818
331
14AE
  5
14D8
331
599
  5
5DF
331
7A0
  5
83A
331
94C
  5
ADE
331
56F
  5
5B1
331
F90
  5
1317
331
5AA
  5
619
331
14BF
  5
1520
331
148D
  5
14B6
331
580
  5
5C4
331
526
  5
5A0
331
F6F
  5
FD0
331
589
  5
5D1
331
745
  5
802
331
899
  5
8EE
331
149E
  5
14C7
331
1474
  5
149D
331
4FD
  5
572
331
570
  5
5B2
331
16A9
  5
16B4
331
870
  5
8B0
331
147D
  5
14A6
331
1453
  5
147C
331
50E
  5
57F
331
F5F
  5
FBA
331
881
  5
8D0
331
16BA
  5
16C0
331
6D3
  5
79F
331
1688
  5
1697
331
1464
  5
148D
331
1432
  5
145B
331
6A1
  5
773
331
4E5
  5
567
331
6B2
  5
788
331
836
  5
88C
331
1443
  5
146C
331
1411
  5
143A
331
648
  5
6EF
331
B63
  5
B7D
331
13E7
  5
1410
331
1422
  5
144B
331
805
  5
86E
331
13F8
  5
1421
331
61F
  5
699
331
1346
  5
6F0
331
1401
  5
142A
331
7D4
  5
852
331
13D7
  5
1400
331
13E8
  5
1411
331
14D2
  5
153B
331
5BD
  5
565
331
FE6
  5
13F2
331
152B
  5
1581
331
5CE
  5
666
331
79A
  5
833
331
1B20
  5
1B21
331
14B1
  5
14DB
331
59C
  5
5E2
331
FC5
  5
13DF
331
7A3
  5
83D
331
771
  5
81F
331
14C2
  5
1524
331
5AD
  5
631
331
1490
  5
14B9
331
72F
  5
7FA
331
583
  5
5C7
331
748
  5
805
331
89C
  5
905
331
14A1
  5
14CA
331
58C
  5
5D4
331
53A
  5
5AD
331
1477
  5
14A0
331
759
  5
81C
331
8AD
  5
91F
331
1480
  5
14A9
331
873
  5
8B8
331
16AC
  5
16B8
331
573
  5
5B5
331
519
  5
599
331
1456
  5
147F
331
730
  5
7FB
331
6D6
  5
7A1
331
168B
  5
169A
331
1467
  5
1490
331
1435
  5
145E
331
B87
  5
DA3
331
1446
  5
146F
331
64B
  5
6F5
331
1414
  5
143D
331
842
  5
893
331
161B
  5
1658
331
1425
  5
144E
331
4D8
  5
55D
331
13FB
  5
1424
331
1404
  5
142D
331
7D7
  5
85A
331
13DA
  5
1403
331
7F8
  5
868
331
ADC
  5
AFF
331
13EB
  5
1414
331
B2D
  5
B60
331
FE9
  5
13F5
331
14D5
  5
153E
331
7C7
  5
84B
331
973
  5
AF8
331
152E
  5
15B7
331
5D1
  5
668
331
1B23
  5
1B24
331
59F
  5
5E9
331
14B4
  5
14DE
331
FC8
  5
13E2
331
14C5
  5
152E
331
5B0
  5
654
331
586
  5
5CE
331
1493
  5
14BC
331
14A4
  5
14CD
331
89F
  5
90D
331
16D0
  5
16D1
331
74B
  5
815
331
58F
  5
5D8
331
FB8
  5
13D4
331
F86
  5
FF9
331
942
  5
ADC
331
8B0
  5
923
331
576
  5
5BB
331
16AF
  5
16BB
331
1483
  5
14AC
331
F65
  5
FCB
331
1459
  5
1482
331
8B9
  5
928
331
733
  5
7FE
331
16C0
  5
16C5
331
52D
  5
5A9
331
855
  5
89A
331
168E
  5
169D
331
146A
  5
1493
331
1438
  5
1461
331
8A0
  5
90E
331
6B8
  5
78C
331
1449
  5
1472
331
1417
  5
1440
331
4DB
  5
562
331
65F
  5
71A
331
1428
  5
1451
331
13FE
  5
1427
331
824
  5
884
331
B40
  5
B6F
331
1407
  5
1430
331
7E2
  5
85D
331
13DD
  5
1406
331
7FB
  5
86B
331
615
  5
678
331
13EE
  5
1417
331
1B47
  5
1B4B
331
5C3
  5
65F
331
976
  5
B03
331
1531
  5
15E0
331
FCB
  5
13E5
331
14B7
  5
14E7
331
5A2
  5
5ED
331
5B3
  5
659
331
14C8
  5
1531
331
966
  5
AEB
331
1496
  5
14BF
331
FB2
  5
13D3
331
14D9
  5
1555
331
14A7
  5
14D1
331
945
  5
AE1
331
F89
  5
12BF
331
14B8
  5
14B8
331
579
  5
5BE
331
725
  5
7BA
331
1486
  5
14AF
331
145C
  5
1485
331
F68
  5
FCD
331
892
  5
8E4
331
6DC
  5
7A3
331
1691
  5
16A1
331
146D
  5
1496
331
8A3
  5
912
331
143B
  5
1464
331
4F6
  5
56D
331
869
  5
8A7
331
F58
  5
FB0
331
144C
  5
1475
331
87A
  5
8CA
331
141A
  5
1443
331
692
  5
762
331
816
  5
876
331
142B
  5
1454
331
859
  5
89E
331
6AB
  5
777
331
827
  5
887
331
140A
  5
1433
331
7E5
  5
860
331
838
  5
88E
331
5E7
  5
672
331
13E0
  5
1409
331
13F1
  5
141A
331
7BC
  5
849
331
618
  5
67B
331
B33
  5
B64
331
631
  5
69B
331
7CD
  5
84F
331
1B7B
  5
1B9D
331
13D0
  5
13F9
331
1534
  5
15FC
331
FCE
  5
13E8
331
5E8
  5
673
331
153D
  5
1630
331
958
  5
AE3
331
782
  5
824
331
14CB
  5
1534
331
5B6
  5
65C
331
793
  5
82C
331
917
  5
962
331
14DC
  5
1558
331
751
  5
817
331
16D6
  5
18EF
331
14AA
  5
14D4
331
595
  5
5DB
331
F8C
  5
FF6
331
14BB
  5
1519
331
1489
  5
14B2
331
16B5
  5
16BE
331
728
  5
7EB
331
57C
  5
5C3
331
145F
  5
1488
331
149A
  5
14C3
331
895
  5
8EA
331
1470
  5
1499
331
143E
  5
1467
331
6F0
  5
7A5
331
86C
  5
8AC
331
16A5
  5
16AF
331
1479
  5
14A2
331
144F
  5
1478
331
6BE
  5
793
331
141D
  5
1446
331
1460
  5
1489
331
84B
  5
898
331
B6F
  5
B82
331
1684
  5
1692
331
142E
  5
1457
331
695
  5
765
331
B80
  5
D94
331
85C
  5
8A1
331
6AE
  5
780
331
832
  5
888
331
B46
  5
B72
331
140D
  5
1436
331
B5F
  5
B7A
331
13E3
  5
140C
331
83B
  5
892
331
15D2
  5
164D
331
B70
  5
B86
331
61B
  5
683
331
13F4
  5
141D
331
1B4D
  5
1B79
331
81A
  5
87C
331
634
  5
69C
331
1537
  5
161C
331
5DA
  5
66D
331
13D3
  5
13FC
331
5EB
  5
676
331
7AF
  5
83F
331
95B
  5
AE9
331
1B3D
  5
1B47
331
14CE
  5
1537
331
785
  5
827
331
FE2
  5
13EE
331
96C
  5
AF0
331
922
  5
966
331
598
  5
5DE
331
14AD
  5
14D7
331
F8F
  5
1316
331
56E
  5
5B0
331
94B
  5
978
331
14BE
  5
1523
331
5A9
  5
618
331
148C
  5
14B5
331
525
  5
59E
331
149D
  5
14C6
331
898
  5
8ED
331
744
  5
801
331
588
  5
5D0
331
536
  5
5AB
331
1697
  5
16AC
331
1473
  5
149C
331
147C
  5
14A5
331
86F
  5
8AF
331
16A8
  5
16B2
331
50D
  5
57C
331
1452
  5
147B
331
F5E
  5
FB9
331
880
  5
8CB
331
1463
  5
148C
331
1687
  5
1696
331
4E4
  5
566
331
6A0
  5
772
331
1431
  5
145A
331
1698
  5
16AD
331
1442
  5
146B
331
835
  5
88B
331
6B1
  5
783
331
1410
  5
1439
331
15C4
  5
1648
331
13E6
  5
140F
331
B62
  5
B7C
331
804
  5
86D
331
658
  5
717
331
1421
  5
144A
331
B73
  5
B9A
331
61E
  5
698
331
159B
  5
1645
331
13F7
  5
1420
331
1400
  5
1429
331
13D6
  5
13FF
331
7B2
  5
843
331
5BC
  5
5A1
331
14D1
  5
153A
331
FE5
  5
13F1
331
1B51
  5
1B7C
331
152A
  5
1580
331
5CD
  5
662
331
FC4
  5
13DE
331
757
  5
81A
331
14B0
  5
14DA
331
59B
  5
5E1
331
7A2
  5
83C
331
94E
  5
ADD
331
5AC
  5
630
331
770
  5
81E
331
14C1
  5
1529
331
FAB
  5
13C6
331
582
  5
5C6
331
58B
  5
5D3
331
747
  5
804
331
89B
  5
8F0
331
14A0
  5
14C9
331
1476
  5
149F
331
539
  5
5AC
331
8AC
  5
91E
331
4FF
  5
574
331
758
  5
81B
331
572
  5
5B4
331
16AB
  5
16B7
331
872
  5
8B7
331
147F
  5
14A8
331
F61
  5
FC5
331
1455
  5
147E
331
518
  5
598
331
168A
  5
1699
331
1466
  5
148F
331
1434
  5
145D
331
4E7
  5
569
331
B86
  5
DA1
331
500
  5
575
331
1445
  5
146E
331
1413
  5
143C
331
64A
  5
6F4
331
1424
  5
144D
331
13FA
  5
1423
331
63A
  5
6CB
331
7D6
  5
859
331
15B7
  5
1647
331
1403
  5
142C
331
13D9
  5
1402
331
5E0
  5
671
331
B4D
  5
B75
331
7F7
  5
865
331
13EA
  5
1413
331
1B43
  5
1B4A
331
14D4
  5
153D
331
FE8
  5
13F4
331
972
  5
AF7
331
7C6
  5
84A
331
5D0
  5
667
331
152D
  5
15AA
331
1349
  5
6F2
331
1B22
  5
1B23
331
14B3
  5
14DD
331
59E
  5
5E8
331
FC7
  5
13E1
331
1B33
  5
1B3C
331
773
  5
821
331
14C4
  5
152A
331
5AF
  5
638
331
1492
  5
14BB
331
585
  5
5CD
331
74A
  5
807
331
89E
  5
90C
331
16CF
  5
16D0
331
14A3
  5
14CC
331
58E
  5
5D7
331
941
  5
976
331
8AF
  5
922
331
1482
  5
14AB
331
16AE
  5
16BA
331
575
  5
5B8
331
8B8
  5
927
331
51B
  5
59B
331
6C7
  5
794
331
1458
  5
1481
331
16BF
  5
16C4
331
732
  5
7FD
331
1469
  5
1492
331
854
  5
899
331
168D
  5
169C
331
52C
  5
5A8
331
1437
  5
1460
331
865
  5
8A5
331
1448
  5
1471
331
503
  5
576
331
1416
  5
143F
331
6C8
  5
795
331
B68
  5
B80
331
844
  5
895
331
1427
  5
1450
331
65E
  5
718
331
4DA
  5
55F
331
B79
  5
BA3
331
13FD
  5
1426
331
823
  5
882
331
B3F
  5
B6E
331
1406
  5
142F
331
7E1
  5
85C
331
13DC
  5
1405
331
7FA
  5
86A
331
13ED
  5
1416
331
614
  5
677
331
14D7
  5
1546
331
7C9
  5
84D
331
975
  5
B01
331
1530
  5
15D2
331
5D3
  5
66A
331
1B25
  5
1B27
331
5A1
  5
5EB
331
14B6
  5
14E5
331
FCA
  5
13E4
331
7A8
  5
83E
331
14C7
  5
152C
331
5B2
  5
658
331
965
  5
AEA
331
1495
  5
14BE
331
14D8
  5
1554
331
14A6
  5
14D0
331
16D2
  5
16D4
331
FBA
  5
13D6
331
944
  5
AE0
331
F88
  5
100A
331
8B2
  5
925
331
1485
  5
14AE
331
578
  5
5BD
331
145B
  5
1484
331
16C2
  5
16B6
331
857
  5
89C
331
1690
  5
169F
331
6DB
  5
7A2
331
146C
  5
1495
331
8A2
  5
910
331
143A
  5
1463
331
4F5
  5
56A
331
868
  5
8A6
331
6BA
  5
78E
331
144B
  5
1474
331
1419
  5
1442
331
879
  5
8C9
331
4DD
  5
564
331
691
  5
759
331
815
  5
870
331
142A
  5
1453
331
858
  5
89D
331
826
  5
886
331
6AA
  5
776
331
1409
  5
1432
331
7E4
  5
85F
331
13DF
  5
1408
331
617
  5
67A
331
7BB
  5
846
331
13F0
  5
1419
331
630
  5
69A
331
7CC
  5
84E
331
978
  5
B04
331
1B7A
  5
1B9C
331
5D6
  5
66B
331
1533
  5
15EF
331
5A4
  5
60B
331
957
  5
AE2
331
5B5
  5
65B
331
781
  5
823
331
14CA
  5
1533
331
FDE
  5
13EC
331
968
  5
AED
331
14DB
  5
1557
331
792
  5
82B
331
594
  5
5DA
331
750
  5
816
331
14A9
  5
14D3
331
F8B
  5
1315
331
14BA
  5
14E8
331
57B
  5
5C1
331
16B4
  5
16BD
331
727
  5
7BC
331
1488
  5
14B1
331
145E
  5
1487
331
1499
  5
14C2
331
894
  5
8E6
331
146F
  5
1498
331
1693
  5
16A4
331
143D
  5
1466
331
4F8
  5
56F
331
86B
  5
8AB
331
6EF
  5
7A4
331
1478
  5
14A1
331
F5A
  5
FB5
331
6BD
  5
792
331
144E
  5
1477
331
509
  5
578
331
141C
  5
1445
331
4D7
  5
55B
331
B6E
  5
B81
331
84A
  5
897
331
1683
  5
1691
331
6CE
  5
799
331
694
  5
764
331
142D
  5
1456
331
85B
  5
8A0
331
B7F
  5
D93
331
B45
  5
B71
331
6AD
  5
77A
331
140C
  5
1435
331
7E7
  5
862
331
83A
  5
890
331
B5E
  5
B79
331
13E2
  5
140B
331
61A
  5
67D
331
13F3
  5
141C
331
1B4C
  5
1B51
331
819
  5
87A
331
7CF
  5
850
331
13D2
  5
13FB
331
1536
  5
161B
331
1B2B
  5
1B2D
331
FD0
  5
13EA
331
5EA
  5
675
331
95A
  5
AE7
331
1B3C
  5
1B43
331
784
  5
826
331
14CD
  5
1536
331
5B8
  5
65E
331
96B
  5
AEE
331
795
  5
830
331
921
  5
965
331
14DE
  5
155A
331
14AC
  5
14D6
331
597
  5
5DD
331
56D
  5
5AF
331
5A8
  5
613
331
14BD
  5
151C
331
148B
  5
14B4
331
524
  5
59D
331
743
  5
800
331
897
  5
8EC
331
149C
  5
14C5
331
1472
  5
149B
331
1696
  5
16A5
331
F7E
  5
FE9
331
4FB
  5
571
331
147B
  5
14A4
331
86E
  5
8AE
331
16A7
  5
16B1
331
1451
  5
147A
331
141F
  5
1448
331
1462
  5
148B
331
1686
  5
1695
331
1430
  5
1459
331
15FC
  5
164F
331
697
  5
767
331
85E
  5
8A3
331
834
  5
88A
331
6B0
  5
782
331
1441
  5
146A
331
140F
  5
1438
331
13E5
  5
140E
331
657
  5
716
331
803
  5
86C
331
1420
  5
1449
331
B72
  5
B88
331
61D
  5
697
331
13F6
  5
141F
331
1B4F
  5
1B7B
331
81C
  5
880
331
636
  5
6A4
331
5DC
  5
66F
331
13D5
  5
13FE
331
1B2E
  5
1B34
331
5ED
  5
55C
331
7B1
  5
842
331
95D
  5
AE8
331
1B3F
  5
1B49
331
14D0
  5
1539
331
787
  5
829
331
5BB
  5
59F
331
FE4
  5
13F0
331
96E
  5
AF2
331
5CC
  5
661
331
1B1E
  5
1B20
331
14AF
  5
14D9
331
756
  5
819
331
59A
  5
5E0
331
7A1
  5
83B
331
F91
  5
1318
331
94D
  5
977
331
76F
  5
81D
331
14C0
  5
1528
331
5AB
  5
61E
331
581
  5
5C5
331
148E
  5
14B7
331
FAA
  5
13B3
331
F70
  5
FD2
331
527
  5
5A2
331
788
  5
82A
331
746
  5
803
331
89A
  5
8EF
331
149F
  5
14C8
331
58A
  5
5D2
331
1475
  5
149E
331
4FE
  5
573
331
8AB
  5
914
331
147E
  5
14A7
331
871
  5
8B6
331
16AA
  5
16B5
331
571
  5
5B3
331
50F
  5
580
331
1454
  5
147D
331
F60
  5
FC3
331
882
  5
8D1
331
16BB
  5
16C1
331
1465
  5
148E
331
1689
  5
1698
331
6D4
  5
7A0
331
528
  5
5A4
331
4E6
  5
568
331
6A2
  5
775
331
1433
  5
145C
331
1444
  5
146D
331
837
  5
88D
331
6B3
  5
78A
331
649
  5
6F1
331
1412
  5
143B
331
B64
  5
B7E
331
1423
  5
144C
331
806
  5
86F
331
13F9
  5
1422
331
1347
  5
711
331
B3B
  5
B69
331
639
  5
6B6
331
1402
  5
142B
331
7D5
  5
858
331
1B9B
  5
1BA6
331
B4C
  5
B73
331
5DF
  5
670
331
13D8
  5
1401
331
7F6
  5
864
331
13E9
  5
1412
331
B2B
  5
B5F
331
FE7
  5
13F3
331
14D3
  5
153C
331
152C
  5
158E
331
1348
  5
6F3
331
1B21
  5
1B22
331
59D
  5
5E7
331
14B2
  5
14DC
331
FC6
  5
13E0
331
14C3
  5
152B
331
772
  5
820
331
5AE
  5
634
331
FAD
  5
13D1
331
1491
  5
14BA
331
584
  5
5CC
331
58D
  5
5D6
331
89D
  5
90A
331
16CE
  5
16CF
331
749
  5
806
331
14A2
  5
14CB
331
8AE
  5
920
331
574
  5
5B6
331
16AD
  5
16B9
331
1481
  5
14AA
331
F63
  5
FC9
331
1457
  5
1480
331
51A
  5
59A
331
731
  5
7FC
331
16BE
  5
16C2
331
52B
  5
5A7
331
168C
  5
169B
331
1468
  5
1491
331
E72
  5
F8D
331
1436
  5
145F
331
864
  5
8A4
331
1447
  5
1470
331
1415
  5
143E
331
843
  5
894
331
B67
  5
B7F
331
161C
  5
1659
331
4D9
  5
55E
331
1426
  5
144F
331
13FC
  5
1425
331
B78
  5
B9B
331
822
  5
881
331
1405
  5
142E
331
7E0
  5
85B
331
13DB
  5
1404
331
B4F
  5
B76
331
ADD
  5
AFC
331
7F9
  5
869
331
13EC
  5
1415
331
7B7
  5
844
331
14D6
  5
1545
331
B2E
  5
B62
331
974
  5
B00
331
7C8
  5
84C
331
5D2
  5
669
331
152F
  5
15C4
331
1B24
  5
1B25
331
14B5
  5
14E0
331
5A0
  5
5EA
331
FC9
  5
13E3
331
1538
  5
162F
331
1B35
  5
1B3E
331
5B1
  5
657
331
14C6
  5
152F
331
1494
  5
14BD
331
587
  5
5CF
331
590
  5
5D9
331
14A5
  5
14CE
331
16D1
  5
16D2
331
FB9
  5
13D5
331
943
  5
ADF
331
F87
  5
1009
331
F55
  5
FAD
331
F98
  5
1349
331
1484
  5
14AD
331
16B0
  5
16BC
331
577
  5
5BC
331
8BA
  5
929
331
145A
  5
1483
331
F66
  5
FCC
331
16C1
  5
16C6
331
146B
  5
1494
331
856
  5
89B
331
168F
  5
169E
331
52E
  5
5AA
331
8A1
  5
90F
331
1439
  5
1462
331
6B9
  5
78D
331
144A
  5
1473
331
878
  5
8C4
331
E5C
  5
F8C
331
1418
  5
1441
331
6CA
  5
796
331
1429
  5
1452
331
4DC
  5
563
331
13FF
  5
1428
331
825
  5
885
331
1408
  5
1431
331
7E3
  5
85E
331
13DE
  5
1407
331
13EF
  5
1418
331
616
  5
679
331
7BA
  5
845
331
1B48
  5
1B4C
331
B31
  5
B63
331
5C4
  5
660
331
1B79
  5
1B9B
331
1532
  5
15E1
331
1B27
  5
1B28
331
5A3
  5
608
331
780
  5
822
331
14C9
  5
1532
331
5B4
  5
65A
331
FDD
  5
13EB
331
967
  5
AEC
331
1497
  5
14C0
331
14DA
  5
1556
331
14A8
  5
14D2
331
F8A
  5
12E4
331
14B9
  5
14FB
331
1487
  5
14B0
331
726
  5
7BB
331
57A
  5
5C0
331
145D
  5
1486
331
1498
  5
14C1
331
893
  5
8E5
331
146E
  5
1497
331
1692
  5
16A2
331
4F7
  5
56E
331
143C
  5
1465
331
86A
  5
8A8
331
508
  5
577
331
6BC
  5
790
331
144D
  5
1476
331
F59
  5
FB2
331
141B
  5
1444
331
4D6
  5
55A
331
849
  5
896
331
693
  5
763
331
817
  5
878
331
142C
  5
1455
331
B7E
  5
D90
331
85A
  5
89F
331
6AC
  5
778
331
1609
  5
1657
331
B44
  5
B70
331
140B
  5
1434
331
7E6
  5
861
331
B5D
  5
B78
331
13E1
  5
140A
331
839
  5
88F
331
158E
  5
1644
331
619
  5
67C
331
13F2
  5
141B
331
1B4B
  5
1B4F
331
818
  5
879
331
1B7C
  5
1B9E
331
1535
  5
1609
331
5D8
  5
66C
331
13D1
  5
13FA
331
1B2A
  5
1B2B
331
FCF
  5
13E9
331
5E9
  5
674
331
959
  5
AE4
331
1B3B
  5
1B3F
331
5B7
  5
65D
331
783
  5
825
331
14CC
  5
1535
331
794
  5
82D
331
14DD
  5
1559
331
596
  5
5DC
331
14AB
  5
14D5
331
F8D
  5
FEA
331
56C
  5
5AE
331
14BC
  5
150F
331
16B6
  5
16BF
331
729
  5
7EC
331
148A
  5
14B3
331
523
  5
59C
331
149B
  5
14C4
331
896
  5
8EB
331
742
  5
7FF
331
1471
  5
149A
331
143F
  5
1468
331
4FA
  5
570
331
147A
  5
14A3
331
86D
  5
8AD
331
16A6
  5
16B0
331
6F1
  5
7A6
331
F5C
  5
FB8
331
1450
  5
1479
331
141E
  5
1447
331
1461
  5
148A
331
1685
  5
1693
331
696
  5
766
331
142F
  5
1458
331
85D
  5
8A2
331
6AF
  5
781
331
B47
  5
B6A
331
833
  5
889
331
1440
  5
1469
331
140E
  5
1437
331
13E4
  5
140D
331
B60
  5
B7B
331
656
  5
712
  0
SORTENTSTABLE
  5
18EE
102
{ACAD_REACTORS
330
D8C
102
}
330
D8C
100
AcDbSortentsTable
330
D54
331
18E7
  5
18E6
331
18E4
  5
18E3
331
18E6
  5
18E5
331
18E3
  5
18E7
331
18E5
  5
18E4
  0
GROUP
  5
2AFC
102
{ACAD_REACTORS
330
D
102
}
330
D
100
AcDbGroup
300

 70
     1
 71
     1
  0
GROUP
  5
2B1E
102
{ACAD_REACTORS
330
D
102
}
330
D
100
AcDbGroup
300

 70
     1
 71
     1
  0
GROUP
  5
2B4D
102
{ACAD_REACTORS
330
D
102
}
330
D
100
AcDbGroup
300

 70
     1
 71
     1
  0
GROUP
  5
2B59
102
{ACAD_REACTORS
330
D
102
}
330
D
100
AcDbGroup
300

 70
     1
 71
     1
340
2B58
340
2B56
340
2B55
340
2B57
  0
GROUP
  5
2B5E
102
{ACAD_REACTORS
330
D
102
}
330
D
100
AcDbGroup
300

 70
     1
 71
     1
340
2B5D
340
2B5B
340
2B5A
340
2B5C
  0
GROUP
  5
2D6D
102
{ACAD_REACTORS
330
D
102
}
330
D
100
AcDbGroup
300

 70
     1
 71
     1
340
2D6C
340
2D6A
340
2D69
340
2D6B
  0
GROUP
  5
339B
102
{ACAD_REACTORS
330
D
102
}
330
D
100
AcDbGroup
300

 70
     1
 71
     1
  0
GROUP
  5
339C
102
{ACAD_REACTORS
330
D
102
}
330
D
100
AcDbGroup
300

 70
     1
 71
     1
  0
GROUP
  5
339D
102
{ACAD_REACTORS
330
D
102
}
330
D
100
AcDbGroup
300

 70
     1
 71
     1
  0
LAYOUT
  5
1E
102
{ACAD_XDICTIONARY
360
1C73
102
}
102
{ACAD_REACTORS
330
1A
102
}
330
1A
100
AcDbPlotSettings
  1

  2

  4

  6

 40
0.0
 41
0.0
 42
0.0
 43
0.0
 44
0.0
 45
0.0
 46
0.0
 47
0.0
 48
0.0
 49
0.0
140
0.0
141
0.0
142
1.0
143
1.0
 70
   688
 72
     0
 73
     0
 74
     5
  7

 75
    16
147
1.0
148
0.0
149
0.0
100
AcDbLayout
  1
Layout1
 70
     1
 71
     1
 10
0.0
 20
0.0
 11
420.0
 21
297.0
 12
0.0
 22
0.0
 32
0.0
 14
1.000000000000000E+20
 24
1.000000000000000E+20
 34
1.000000000000000E+20
 15
-1.000000000000000E+20
 25
-1.000000000000000E+20
 35
-1.000000000000000E+20
146
0.0
 13
0.0
 23
0.0
 33
0.0
 16
1.0
 26
0.0
 36
0.0
 17
0.0
 27
1.0
 37
0.0
 76
     0
330
1B
  0
LAYOUT
  5
26
102
{ACAD_XDICTIONARY
360
1C77
102
}
102
{ACAD_REACTORS
330
1A
102
}
330
1A
100
AcDbPlotSettings
  1

  2

  4

  6

 40
0.0
 41
0.0
 42
0.0
 43
0.0
 44
0.0
 45
0.0
 46
0.0
 47
0.0
 48
0.0
 49
0.0
140
0.0
141
0.0
142
1.0
143
1.0
 70
   688
 72
     0
 73
     0
 74
     5
  7

 75
    16
147
1.0
148
0.0
149
0.0
100
AcDbLayout
  1
Layout2
 70
     1
 71
     2
 10
0.0
 20
0.0
 11
12.0
 21
9.0
 12
0.0
 22
0.0
 32
0.0
 14
0.0
 24
0.0
 34
0.0
 15
0.0
 25
0.0
 35
0.0
146
0.0
 13
0.0
 23
0.0
 33
0.0
 16
1.0
 26
0.0
 36
0.0
 17
0.0
 27
1.0
 37
0.0
 76
     0
330
23
  0
LAYOUT
  5
22
102
{ACAD_XDICTIONARY
360
1C75
102
}
102
{ACAD_REACTORS
330
1A
102
}
330
1A
100
AcDbPlotSettings
  1

  2
PrimoPDF
  4
A3
  6

 40
3.174999952316283
 41
3.174999952316283
 42
3.17498779296875
 43
3.17498779296875
 44
297.0106506347656
 45
419.9889831542968
 46
6.83
 47
14.32
 48
125.0
 49
50.0
140
2049.999999999999
141
1435.0
142
1.0
143
5.0
 70
 11940
 72
     1
 73
     1
 74
     4
  7
monochrome.ctb
 75
     0
147
0.2
148
-125.0
149
-50.0
100
AcDbLayout
  1
Model
 70
     1
 71
     0
 10
0.0
 20
0.0
 11
12.0
 21
9.0
 12
0.0
 22
0.0
 32
0.0
 14
0.0
 24
0.0
 34
0.0
 15
0.0
 25
0.0
 35
0.0
146
0.0
 13
0.0
 23
0.0
 33
0.0
 16
1.0
 26
0.0
 36
0.0
 17
0.0
 27
1.0
 37
0.0
 76
     0
330
1F
1001
ACAD_PSEXT
1000
RICOH imagio Neo C246 RPCS
1000
RICOH imagio Neo C246 RPCS
1000
192.168.0.100(2)_@
1000
RPCS Driver (Windows 2000/XP/Server 2003)
1070
     0
  0
MLINESTYLE
  5
18
102
{ACAD_REACTORS
330
17
102
}
330
17
100
AcDbMlineStyle
  2
STANDARD
 70
     0
  3

 62
   256
 51
90.0
 52
90.0
 71
     2
 49
0.5
 62
   256
  6
BYLAYER
 49
-0.5
 62
   256
  6
BYLAYER
  0
ACDBPLACEHOLDER
  5
F
102
{ACAD_REACTORS
330
E
102
}
330
E
  0
ACAD_PROXY_OBJECT
  5
4B0
102
{ACAD_REACTORS
330
4AF
102
}
330
4AF
100
AcDbProxyObject
 90
      499
 91
      503
 95
   393239
 70
     0
 93
     1841
310
4214DD185B99185C9928000000000000F83F0000000000003E0FC00000000000004901028000000C1008070000C3001FDFF8000000C1003FBFF000000182007F7FE00000030400FEFFC00000060801FDFF8000000C1003FBFF000000182000000000000000C2020B0000001820100E000186003FBFF000000182007F7FE000
310
00030400FEFFC00000060801FDFF8000000C1003FBFF000000182007F7FE0000003040000000000000012404160000003040201C00030C007F7FE00000030400FEFFC00000060801FDFF8000000C1003FBFF000000182007F7FE00000030400FEFFC000000608000
340
11
340
11
340
11
 94
        0
  0
DICTIONARYVAR
  5
4B7
102
{ACAD_REACTORS
330
4B6
102
}
330
4B6
100
DictionaryVariables
280
     0
  1
STANDARD
  0
DICTIONARYVAR
  5
1C79
102
{ACAD_REACTORS
330
4B6
102
}
330
4B6
100
DictionaryVariables
280
     0
  1
1
  0
DICTIONARYVAR
  5
1C7A
102
{ACAD_REACTORS
330
4B6
102
}
330
4B6
100
DictionaryVariables
280
     0
  1

  0
DICTIONARY
  5
1C73
330
1E
100
AcDbDictionary
280
     1
281
     1
  3
ACAD_XREC_ROUNDTRIP
360
1C74
  0
DICTIONARY
  5
1C77
330
26
100
AcDbDictionary
280
     1
281
     1
  3
ACAD_XREC_ROUNDTRIP
360
1C78
  0
DICTIONARY
  5
1C75
330
22
100
AcDbDictionary
280
     1
281
     1
  3
ACAD_XREC_ROUNDTRIP
360
1C76
  0
XRECORD
  5
1C74
102
{ACAD_REACTORS
330
1C73
102
}
330
1C73
100
AcDbXrecord
280
     1
102
SHADEPLOT
 70
     0
102
SHADEPLOTRESLEVEL
 70
     2
102
SHADEPLOTCUSTOMDPI
 70
   300
  0
XRECORD
  5
1C78
102
{ACAD_REACTORS
330
1C77
102
}
330
1C77
100
AcDbXrecord
280
     1
102
SHADEPLOT
 70
     0
102
SHADEPLOTRESLEVEL
 70
     2
102
SHADEPLOTCUSTOMDPI
 70
   300
  0
XRECORD
  5
1C76
102
{ACAD_REACTORS
330
1C75
102
}
330
1C75
100
AcDbXrecord
280
     1
102
SHADEPLOT
 70
     0
102
SHADEPLOTRESLEVEL
 70
     2
102
SHADEPLOTCUSTOMDPI
 70
   300
  0
ENDSEC
  0
EOF
