  0
SECTION
  2
HEADER
  9
$ACADVER
  1
AC1015
  9
$ACADMAINTVER
 70
     6
  9
$DWGCODEPAGE
  3
ANSI_932
  9
$INSBASE
 10
0.0
 20
0.0
 30
0.0
  9
$EXTMIN
 10
124.9999999999995
 20
50.0
 30
-0.00000001
  9
$EXTMAX
 10
2049.999999999999
 20
3097.125858296608
 30
0.00000001
  9
$LIMMIN
 10
0.0
 20
0.0
  9
$LIMMAX
 10
1682.0
 20
1189.0
  9
$ORTHOMODE
 70
     1
  9
$REGENMODE
 70
     1
  9
$FILLMODE
 70
     1
  9
$QTEXTMODE
 70
     0
  9
$MIRRTEXT
 70
     1
  9
$LTSCALE
 40
1.0
  9
$ATTMODE
 70
     1
  9
$TEXTSIZE
 40
12.0
  9
$TRACEWID
 40
1.0
  9
$TEXTSTYLE
  7
Standard
  9
$CLAYER
  8
寸法線1
  9
$CELTYPE
  6
ByLayer
  9
$CECOLOR
 62
   256
  9
$CELTSCALE
 40
1.0
  9
$DISPSILH
 70
     0
  9
$DIMSCALE
 40
5.0
  9
$DIMASZ
 40
2.5
  9
$DIMEXO
 40
1.0
  9
$DIMDLI
 40
3.75
  9
$DIMRND
 40
0.0
  9
$DIMDLE
 40
0.0
  9
$DIMEXE
 40
1.25
  9
$DIMTP
 40
0.0
  9
$DIMTM
 40
0.0
  9
$DIMTXT
 40
3.0
  9
$DIMCEN
 40
2.5
  9
$DIMTSZ
 40
0.0
  9
$DIMTOL
 70
     0
  9
$DIMLIM
 70
     0
  9
$DIMTIH
 70
     0
  9
$DIMTOH
 70
     0
  9
$DIMSE1
 70
     0
  9
$DIMSE2
 70
     0
  9
$DIMTAD
 70
     1
  9
$DIMZIN
 70
     8
  9
$DIMBLK
  1
Open
  9
$DIMASO
 70
     1
  9
$DIMSHO
 70
     1
  9
$DIMPOST
  1

  9
$DIMAPOST
  1

  9
$DIMALT
 70
     0
  9
$DIMALTD
 70
     3
  9
$DIMALTF
 40
0.03937007874016
  9
$DIMLFAC
 40
1.0
  9
$DIMTOFL
 70
     1
  9
$DIMTVP
 40
0.0
  9
$DIMTIX
 70
     0
  9
$DIMSOXD
 70
     0
  9
$DIMSAH
 70
     0
  9
$DIMBLK1
  1

  9
$DIMBLK2
  1

  9
$DIMSTYLE
  2
ISO-25
  9
$DIMCLRD
 70
     0
  9
$DIMCLRE
 70
     0
  9
$DIMCLRT
 70
     0
  9
$DIMTFAC
 40
1.0
  9
$DIMGAP
 40
1.0
  9
$DIMJUST
 70
     0
  9
$DIMSD1
 70
     0
  9
$DIMSD2
 70
     0
  9
$DIMTOLJ
 70
     0
  9
$DIMTZIN
 70
     8
  9
$DIMALTZ
 70
     0
  9
$DIMALTTZ
 70
     0
  9
$DIMUPT
 70
     0
  9
$DIMDEC
 70
     2
  9
$DIMTDEC
 70
     2
  9
$DIMALTU
 70
     2
  9
$DIMALTTD
 70
     3
  9
$DIMTXSTY
  7
Standard
  9
$DIMAUNIT
 70
     0
  9
$DIMADEC
 70
     0
  9
$DIMALTRND
 40
0.0
  9
$DIMAZIN
 70
     0
  9
$DIMDSEP
 70
    44
  9
$DIMATFIT
 70
     3
  9
$DIMFRAC
 70
     0
  9
$DIMLDRBLK
  1
Open
  9
$DIMLUNIT
 70
     2
  9
$DIMLWD
 70
    -2
  9
$DIMLWE
 70
    -2
  9
$DIMTMOVE
 70
     0
  9
$LUNITS
 70
     2
  9
$LUPREC
 70
     4
  9
$SKETCHINC
 40
1.0
  9
$FILLETRAD
 40
10.0
  9
$AUNITS
 70
     0
  9
$AUPREC
 70
     0
  9
$MENU
  1
.
  9
$ELEVATION
 40
0.0
  9
$PELEVATION
 40
0.0
  9
$THICKNESS
 40
0.0
  9
$LIMCHECK
 70
     0
  9
$CHAMFERA
 40
10.0
  9
$CHAMFERB
 40
10.0
  9
$CHAMFERC
 40
20.0
  9
$CHAMFERD
 40
0.0
  9
$SKPOLY
 70
     0
  9
$TDCREATE
 40
2453036.777387036
  9
$TDUCREATE
 40
2453036.402387037
  9
$TDUPDATE
 40
2459382.538463136
  9
$TDUUPDATE
 40
2459382.163463136
  9
$TDINDWG
 40
3.8992492477
  9
$TDUSRTIMER
 40
3.8992481597
  9
$USRTIMER
 70
     1
  9
$ANGBASE
 50
0.0
  9
$ANGDIR
 70
     0
  9
$PDMODE
 70
     0
  9
$PDSIZE
 40
0.0
  9
$PLINEWID
 40
0.0
  9
$SPLFRAME
 70
     0
  9
$SPLINETYPE
 70
     6
  9
$SPLINESEGS
 70
     8
  9
$HANDSEED
  5
29B8
  9
$SURFTAB1
 70
     6
  9
$SURFTAB2
 70
     6
  9
$SURFTYPE
 70
     6
  9
$SURFU
 70
     6
  9
$SURFV
 70
     6
  9
$UCSBASE
  2

  9
$UCSNAME
  2

  9
$UCSORG
 10
0.0
 20
0.0
 30
0.0
  9
$UCSXDIR
 10
1.0
 20
0.0
 30
0.0
  9
$UCSYDIR
 10
0.0
 20
1.0
 30
0.0
  9
$UCSORTHOREF
  2

  9
$UCSORTHOVIEW
 70
     0
  9
$UCSORGTOP
 10
0.0
 20
0.0
 30
0.0
  9
$UCSORGBOTTOM
 10
0.0
 20
0.0
 30
0.0
  9
$UCSORGLEFT
 10
0.0
 20
0.0
 30
0.0
  9
$UCSORGRIGHT
 10
0.0
 20
0.0
 30
0.0
  9
$UCSORGFRONT
 10
0.0
 20
0.0
 30
0.0
  9
$UCSORGBACK
 10
0.0
 20
0.0
 30
0.0
  9
$PUCSBASE
  2

  9
$PUCSNAME
  2

  9
$PUCSORG
 10
0.0
 20
0.0
 30
0.0
  9
$PUCSXDIR
 10
1.0
 20
0.0
 30
0.0
  9
$PUCSYDIR
 10
0.0
 20
1.0
 30
0.0
  9
$PUCSORTHOREF
  2

  9
$PUCSORTHOVIEW
 70
     0
  9
$PUCSORGTOP
 10
0.0
 20
0.0
 30
0.0
  9
$PUCSORGBOTTOM
 10
0.0
 20
0.0
 30
0.0
  9
$PUCSORGLEFT
 10
0.0
 20
0.0
 30
0.0
  9
$PUCSORGRIGHT
 10
0.0
 20
0.0
 30
0.0
  9
$PUCSORGFRONT
 10
0.0
 20
0.0
 30
0.0
  9
$PUCSORGBACK
 10
0.0
 20
0.0
 30
0.0
  9
$USERI1
 70
     0
  9
$USERI2
 70
     0
  9
$USERI3
 70
     0
  9
$USERI4
 70
     0
  9
$USERI5
 70
     0
  9
$USERR1
 40
0.0
  9
$USERR2
 40
0.0
  9
$USERR3
 40
0.0
  9
$USERR4
 40
0.0
  9
$USERR5
 40
0.0
  9
$WORLDVIEW
 70
     1
  9
$SHADEDGE
 70
     3
  9
$SHADEDIF
 70
    70
  9
$TILEMODE
 70
     1
  9
$MAXACTVP
 70
    64
  9
$PINSBASE
 10
0.0
 20
0.0
 30
0.0
  9
$PLIMCHECK
 70
     0
  9
$PEXTMIN
 10
1.000000000000000E+20
 20
1.000000000000000E+20
 30
1.000000000000000E+20
  9
$PEXTMAX
 10
-1.000000000000000E+20
 20
-1.000000000000000E+20
 30
-1.000000000000000E+20
  9
$PLIMMIN
 10
0.0
 20
0.0
  9
$PLIMMAX
 10
420.0
 20
297.0
  9
$UNITMODE
 70
     0
  9
$VISRETAIN
 70
     1
  9
$PLINEGEN
 70
     0
  9
$PSLTSCALE
 70
     1
  9
$TREEDEPTH
 70
  3020
  9
$CMLSTYLE
  2
Standard
  9
$CMLJUST
 70
     0
  9
$CMLSCALE
 40
20.0
  9
$PROXYGRAPHICS
 70
     1
  9
$MEASUREMENT
 70
     1
  9
$CELWEIGHT
370
    -1
  9
$ENDCAPS
280
     0
  9
$JOINSTYLE
280
     0
  9
$LWDISPLAY
290
     1
  9
$INSUNITS
 70
     4
  9
$HYPERLINKBASE
  1

  9
$STYLESHEET
  1
monochrome.ctb
  9
$XEDIT
290
     1
  9
$CEPSNTYPE
380
     0
  9
$PSTYLEMODE
290
     1
  9
$FINGERPRINTGUID
  2
{FDEAD578-A652-11D2-9A35-0060089B3A3F}
  9
$VERSIONGUID
  2
{A5F9684E-F487-4E6F-AB2B-B252D5BE43AC}
  9
$EXTNAMES
290
     1
  9
$PSVPSCALE
 40
0.0
  9
$OLESTARTUP
290
     0
  0
ENDSEC
  0
SECTION
  2
CLASSES
  0
CLASS
  1
ACDBDICTIONARYWDFLT
  2
AcDbDictionaryWithDefault
  3
AutoCAD 2000
 90
        0
280
     0
281
     0
  0
CLASS
  1
ACDBPLACEHOLDER
  2
AcDbPlaceHolder
  3
AutoCAD 2000
 90
        0
280
     0
281
     0
  0
CLASS
  1
LAYOUT
  2
AcDbLayout
  3
AutoCAD 2000
 90
        0
280
     0
281
     0
  0
CLASS
  1
TABLESTYLE
  2
AcDbTableStyle
  3
ObjectDBX Classes
 90
     2047
280
     0
281
     0
  0
CLASS
  1
DICTIONARYVAR
  2
AcDbDictionaryVar
  3
AutoCAD 2000
 90
        0
280
     0
281
     0
  0
CLASS
  1
SORTENTSTABLE
  2
AcDbSortentsTable
  3
AutoCAD 2000
 90
        0
280
     0
281
     0
  0
ENDSEC
  0
SECTION
  2
TABLES
  0
TABLE
  2
VPORT
  5
8
330
0
100
AcDbSymbolTable
 70
     2
  0
VPORT
  5
29B7
330
8
100
AcDbSymbolTableRecord
100
AcDbViewportTableRecord
  2
*Active
 70
     0
 10
0.0
 20
0.0
 11
1.0
 21
1.0
 12
1076.563768834536
 22
738.5865098398469
 13
0.0
 23
0.0
 14
10.0
 24
10.0
 15
10.0
 25
10.0
 16
0.0
 26
0.0
 36
1.0
 17
0.0
 27
0.0
 37
0.0
 40
2014.763138646827
 41
1.46679499518768
 42
50.0
 43
0.0
 44
0.0
 50
0.0
 51
0.0
 71
     0
 72
   100
 73
     1
 74
     3
 75
     0
 76
     0
 77
     0
 78
     0
281
     0
 65
     1
110
0.0
120
0.0
130
0.0
111
1.0
121
0.0
131
0.0
112
0.0
122
1.0
132
0.0
 79
     0
146
0.0
  0
ENDTAB
  0
TABLE
  2
LTYPE
  5
5
330
0
100
AcDbSymbolTable
 70
     7
  0
LTYPE
  5
14
330
5
100
AcDbSymbolTableRecord
100
AcDbLinetypeTableRecord
  2
ByBlock
 70
     0
  3

 72
    65
 73
     0
 40
0.0
  0
LTYPE
  5
15
330
5
100
AcDbSymbolTableRecord
100
AcDbLinetypeTableRecord
  2
ByLayer
 70
     0
  3

 72
    65
 73
     0
 40
0.0
  0
LTYPE
  5
16
330
5
100
AcDbSymbolTableRecord
100
AcDbLinetypeTableRecord
  2
Continuous
 70
     0
  3
Solid line
 72
    65
 73
     0
 40
0.0
  0
LTYPE
  5
47
330
5
100
AcDbSymbolTableRecord
100
AcDbLinetypeTableRecord
  2
CENTER
 70
     0
  3
Center ____ _ ____ _ ____ _ ____ _ ____ _ ____
 72
    65
 73
     4
 40
50.8
 49
31.75
 74
     0
 49
-6.349999999999998
 74
     0
 49
6.349999999999998
 74
     0
 49
-6.349999999999998
 74
     0
  0
LTYPE
  5
48
330
5
100
AcDbSymbolTableRecord
100
AcDbLinetypeTableRecord
  2
CENTER2
 70
     0
  3
Center (.5x) ___ _ ___ _ ___ _ ___ _ ___ _ ___
 72
    65
 73
     4
 40
28.57499999999999
 49
19.05
 74
     0
 49
-3.174999999999998
 74
     0
 49
3.174999999999998
 74
     0
 49
-3.174999999999998
 74
     0
  0
LTYPE
  5
49
330
5
100
AcDbSymbolTableRecord
100
AcDbLinetypeTableRecord
  2
CENTERX2
 70
     0
  3
Center (2x) ________  __  ________  __  _____
 72
    65
 73
     4
 40
101.6
 49
63.5
 74
     0
 49
-12.7
 74
     0
 49
12.7
 74
     0
 49
-12.7
 74
     0
  0
LTYPE
  5
4A
330
5
100
AcDbSymbolTableRecord
100
AcDbLinetypeTableRecord
  2
HIDDEN
 70
     0
  3
Hidden __ __ __ __ __ __ __ __ __ __ __ __ __ _
 72
    65
 73
     2
 40
9.524999999999996
 49
6.349999999999998
 74
     0
 49
-3.174999999999998
 74
     0
  0
LTYPE
  5
4B
330
5
100
AcDbSymbolTableRecord
100
AcDbLinetypeTableRecord
  2
HIDDEN2
 70
     0
  3
Hidden (.5x) _ _ _ _ _ _ _ _ _ _ _ _ _ _ _ _ _
 72
    65
 73
     2
 40
4.762499999999998
 49
3.174999999999998
 74
     0
 49
-1.587499999999999
 74
     0
  0
LTYPE
  5
4C
330
5
100
AcDbSymbolTableRecord
100
AcDbLinetypeTableRecord
  2
HIDDENX2
 70
     0
  3
Hidden (2x) ____ ____ ____ ____ ____ ____ ____
 72
    65
 73
     2
 40
19.04999999999998
 49
12.7
 74
     0
 49
-6.349999999999998
 74
     0
  0
ENDTAB
  0
TABLE
  2
LAYER
  5
2
102
{ACAD_XDICTIONARY
360
645
102
}
330
0
100
AcDbSymbolTable
 70
    12
  0
LAYER
  5
10
330
2
100
AcDbSymbolTableRecord
100
AcDbLayerTableRecord
  2
0
 70
     0
 62
     7
  6
Continuous
370
    -3
390
F
  0
LAYER
  5
4D
330
2
100
AcDbSymbolTableRecord
100
AcDbLayerTableRecord
  2
1、実線
 70
     0
 62
     7
  6
Continuous
370
    35
390
F
  0
LAYER
  5
4E
330
2
100
AcDbSymbolTableRecord
100
AcDbLayerTableRecord
  2
２，細線
 70
     0
 62
     7
  6
Continuous
370
    18
390
F
  0
LAYER
  5
4F
330
2
100
AcDbSymbolTableRecord
100
AcDbLayerTableRecord
  2
4、破線2
 70
     0
 62
     3
  6
HIDDEN
370
    15
390
F
  0
LAYER
  5
50
330
2
100
AcDbSymbolTableRecord
100
AcDbLayerTableRecord
  2
寸法線1
 70
     0
 62
     6
  6
Continuous
370
    15
390
F
  0
LAYER
  5
53
330
2
100
AcDbSymbolTableRecord
100
AcDbLayerTableRecord
  2
3、破線1
 70
     0
 62
     3
  6
HIDDEN
370
    15
390
F
  0
LAYER
  5
73
330
2
100
AcDbSymbolTableRecord
100
AcDbLayerTableRecord
  2
Defpoints
 70
     0
 62
     7
  6
Continuous
290
     0
370
    -3
390
F
  0
LAYER
  5
53C
330
2
100
AcDbSymbolTableRecord
100
AcDbLayerTableRecord
  2
引き出し線
 70
     0
 62
     6
  6
Continuous
370
    15
390
F
  0
LAYER
  5
643
330
2
100
AcDbSymbolTableRecord
100
AcDbLayerTableRecord
  2
中箱
 70
     0
 62
     1
  6
HIDDENX2
370
    15
390
F
1001
AcAecLayerStandard
1000

1000

  0
LAYER
  5
8CC
330
2
100
AcDbSymbolTableRecord
100
AcDbLayerTableRecord
  2
電源コード
 70
     0
 62
     1
  6
Continuous
370
    35
390
F
1001
AcAecLayerStandard
1000

1000

  0
LAYER
  5
D53
330
2
100
AcDbSymbolTableRecord
100
AcDbLayerTableRecord
  2
構築線
 70
     0
 62
     4
  6
Continuous
370
    18
390
F
1001
AcAecLayerStandard
1000

1000

  0
LAYER
  5
1F8B
330
2
100
AcDbSymbolTableRecord
100
AcDbLayerTableRecord
  2
文字
 70
     0
 62
     7
  6
Continuous
370
    -3
390
F
  0
ENDTAB
  0
TABLE
  2
STYLE
  5
3
330
0
100
AcDbSymbolTable
 70
     3
  0
STYLE
  5
11
330
3
100
AcDbSymbolTableRecord
100
AcDbTextStyleTableRecord
  2
Standard
 70
     0
 40
0.0
 41
1.0
 50
0.0
 71
     0
 42
12.0
  3
txt.shx
  4
bigfont.shx
  0
STYLE
  5
46
330
3
100
AcDbSymbolTableRecord
100
AcDbTextStyleTableRecord
  2

 70
     1
 40
0.0
 41
1.0
 50
0.0
 71
     0
 42
2.5
  3
ltypeshp.shx
  4

  0
STYLE
  5
1F8C
330
3
100
AcDbSymbolTableRecord
100
AcDbTextStyleTableRecord
  2
ED_VECTOR
 70
     0
 40
0.0
 41
1.0
 50
0.0
 71
     0
 42
0.2
  3
MONOTXT.SHX
  4
BIGFONT.SHX
  0
ENDTAB
  0
TABLE
  2
VIEW
  5
6
330
0
100
AcDbSymbolTable
 70
     0
  0
ENDTAB
  0
TABLE
  2
UCS
  5
7
330
0
100
AcDbSymbolTable
 70
     0
  0
ENDTAB
  0
TABLE
  2
APPID
  5
9
330
0
100
AcDbSymbolTable
 70
    12
  0
APPID
  5
12
330
9
100
AcDbSymbolTableRecord
100
AcDbRegAppTableRecord
  2
ACAD
 70
     0
  0
APPID
  5
4D0
330
9
100
AcDbSymbolTableRecord
100
AcDbRegAppTableRecord
  2
ACAD_EXEMPT_FROM_CAD_STANDARDS
 70
     0
  0
APPID
  5
644
330
9
100
AcDbSymbolTableRecord
100
AcDbRegAppTableRecord
  2
AcAecLayerStandard
 70
     0
  0
APPID
  5
6DE
330
9
100
AcDbSymbolTableRecord
100
AcDbRegAppTableRecord
  2
ACAD_PSEXT
 70
     0
  0
APPID
  5
97A
330
9
100
AcDbSymbolTableRecord
100
AcDbRegAppTableRecord
  2
ACAD_DSTYLE_DIMTEXT_FILL
 70
     0
  0
APPID
  5
97B
330
9
100
AcDbSymbolTableRecord
100
AcDbRegAppTableRecord
  2
ACAD_DSTYLE_DIMEXT_LENGTH
 70
     0
  0
APPID
  5
97C
330
9
100
AcDbSymbolTableRecord
100
AcDbRegAppTableRecord
  2
ACAD_DSTYLE_DIMEXT_ENABLED
 70
     0
  0
APPID
  5
97D
330
9
100
AcDbSymbolTableRecord
100
AcDbRegAppTableRecord
  2
ACAD_DSTYLE_DIM_LINETYPE
 70
     0
  0
APPID
  5
97E
330
9
100
AcDbSymbolTableRecord
100
AcDbRegAppTableRecord
  2
ACAD_DSTYLE_DIM_EXT1_LINETYPE
 70
     0
  0
APPID
  5
97F
330
9
100
AcDbSymbolTableRecord
100
AcDbRegAppTableRecord
  2
ACAD_DSTYLE_DIM_EXT2_LINETYPE
 70
     0
  0
APPID
  5
A3B
330
9
100
AcDbSymbolTableRecord
100
AcDbRegAppTableRecord
  2
ACAD_DSTYLE_DIMJOGGED_JOGANGLE_SYMBOL
 70
     0
  0
APPID
  5
A9F
330
9
100
AcDbSymbolTableRecord
100
AcDbRegAppTableRecord
  2
ACAD_DSTYLE_DIMARC_LENGTH_SYMBOL
 70
     0
  0
ENDTAB
  0
TABLE
  2
DIMSTYLE
  5
A
330
0
100
AcDbSymbolTable
 70
     1
100
AcDbDimStyleTable
 71
     1
340
27
  0
DIMSTYLE
105
27
102
{ACAD_REACTORS
330
15C4
330
16D6
330
FAA
330
1BA4
330
1CB3
330
1CEF
330
1CFD
330
1D0A
330
1D17
330
1D24
330
1D33
330
1D42
330
1E11
330
20C5
330
2100
330
2158
330
21AC
330
2237
330
275C
330
273D
330
27D0
330
2741
330
27CE
330
263B
330
273A
330
273C
330
273B
330
2740
330
273E
330
27D1
330
273F
330
27CF
330
26F8
330
266B
330
27CD
102
}
330
A
100
AcDbSymbolTableRecord
100
AcDbDimStyleTableRecord
  2
ISO-25
 70
     0
 40
5.0
 41
2.5
 42
1.0
 43
3.75
 44
1.25
 73
     0
 74
     0
 77
     1
 78
     8
140
3.0
141
2.5
143
0.03937007874016
147
1.0
171
     3
172
     1
271
     2
272
     2
274
     3
278
    44
283
     0
284
     8
340
11
341
1AE
342
1AE
1001
ACAD_DSTYLE_DIMEXT_LENGTH
1070
   378
1040
1.25
1001
ACAD_DSTYLE_DIMEXT_ENABLED
1070
   383
1070
     0
1001
ACAD_DSTYLE_DIMARC_LENGTH_SYMBOL
1070
   379
1070
     0
1001
ACAD_DSTYLE_DIMJOGGED_JOGANGLE_SYMBOL
1070
   384
1040
1.570796326794896
  0
ENDTAB
  0
TABLE
  2
BLOCK_RECORD
  5
1
330
0
100
AcDbSymbolTable
 70
    38
  0
BLOCK_RECORD
  5
1F
102
{ACAD_XDICTIONARY
360
4C2
102
}
330
1
100
AcDbSymbolTableRecord
100
AcDbBlockTableRecord
  2
*Model_Space
340
22
  0
BLOCK_RECORD
  5
1B
330
1
100
AcDbSymbolTableRecord
100
AcDbBlockTableRecord
  2
*Paper_Space
340
1E
  0
BLOCK_RECORD
  5
23
330
1
100
AcDbSymbolTableRecord
100
AcDbBlockTableRecord
  2
*Paper_Space0
340
26
  0
BLOCK_RECORD
  5
1AE
330
1
100
AcDbSymbolTableRecord
100
AcDbBlockTableRecord
  2
_Open
340
0
102
{BLKREFS
331
1C9F
331
1CA0
331
1CB8
331
1CB9
331
1CF4
331
1CF5
331
1D0F
331
1D10
331
1D1C
331
1D1D
331
1D47
331
1D48
331
1E18
331
1E19
331
1F57
331
1F58
331
1F70
331
1F71
331
20EF
331
20F0
331
20F9
331
20FA
331
2182
331
2183
331
2200
331
2201
331
2212
331
2213
331
224B
331
224C
331
28B2
331
28B3
331
28BB
331
28BC
331
28C4
331
28C5
331
28CD
331
28CE
331
28D6
331
28D7
331
28DF
331
28E0
331
28EA
331
28EB
331
28F3
331
28F4
331
28FC
331
28FD
331
2907
331
2908
331
2912
331
2913
331
291B
331
291C
331
2926
331
2927
331
292F
331
2930
331
293A
331
293B
331
2943
331
2944
331
294A
331
294B
331
298C
331
298D
331
2995
331
2996
331
29A6
331
29A7
331
29B1
331
29B2
102
}
  0
BLOCK_RECORD
  5
D54
102
{ACAD_XDICTIONARY
360
D8C
102
}
330
1
100
AcDbSymbolTableRecord
100
AcDbBlockTableRecord
  2
Ａ－３－タイトルブロック　（株）アンナカ
340
0
1001
ACAD
1000
DesignCenter Data
1002
{
1070
     1
1070
     4
1002
}
  0
BLOCK_RECORD
  5
15C5
330
1
100
AcDbSymbolTableRecord
100
AcDbBlockTableRecord
  2
*D3
340
0
  0
BLOCK_RECORD
  5
16D7
330
1
100
AcDbSymbolTableRecord
100
AcDbBlockTableRecord
  2
*D4
340
0
  0
BLOCK_RECORD
  5
1BA5
330
1
100
AcDbSymbolTableRecord
100
AcDbBlockTableRecord
  2
*D5
340
0
  0
BLOCK_RECORD
  5
1CB4
330
1
100
AcDbSymbolTableRecord
100
AcDbBlockTableRecord
  2
*D6
340
0
  0
BLOCK_RECORD
  5
1CF0
330
1
100
AcDbSymbolTableRecord
100
AcDbBlockTableRecord
  2
*D7
340
0
  0
BLOCK_RECORD
  5
1CFE
330
1
100
AcDbSymbolTableRecord
100
AcDbBlockTableRecord
  2
*D8
340
0
  0
BLOCK_RECORD
  5
1D0B
330
1
100
AcDbSymbolTableRecord
100
AcDbBlockTableRecord
  2
*D9
340
0
  0
BLOCK_RECORD
  5
1D18
330
1
100
AcDbSymbolTableRecord
100
AcDbBlockTableRecord
  2
*D10
340
0
  0
BLOCK_RECORD
  5
1D25
330
1
100
AcDbSymbolTableRecord
100
AcDbBlockTableRecord
  2
*D11
340
0
  0
BLOCK_RECORD
  5
1D34
330
1
100
AcDbSymbolTableRecord
100
AcDbBlockTableRecord
  2
*D12
340
0
  0
BLOCK_RECORD
  5
1D43
330
1
100
AcDbSymbolTableRecord
100
AcDbBlockTableRecord
  2
*D13
340
0
  0
BLOCK_RECORD
  5
1E12
330
1
100
AcDbSymbolTableRecord
100
AcDbBlockTableRecord
  2
*D14
340
0
  0
BLOCK_RECORD
  5
1E47
102
{ACAD_XDICTIONARY
360
1E55
102
}
330
1
100
AcDbSymbolTableRecord
100
AcDbBlockTableRecord
  2
A$C47510942
340
0
1001
ACAD
1000
DesignCenter Data
1002
{
1070
     1
1070
     4
1002
}
  0
BLOCK_RECORD
  5
20C6
330
1
100
AcDbSymbolTableRecord
100
AcDbBlockTableRecord
  2
*D16
340
0
  0
BLOCK_RECORD
  5
2101
330
1
100
AcDbSymbolTableRecord
100
AcDbBlockTableRecord
  2
*D17
340
0
  0
BLOCK_RECORD
  5
2159
330
1
100
AcDbSymbolTableRecord
100
AcDbBlockTableRecord
  2
*D18
340
0
  0
BLOCK_RECORD
  5
21AD
330
1
100
AcDbSymbolTableRecord
100
AcDbBlockTableRecord
  2
*D19
340
0
  0
BLOCK_RECORD
  5
2238
330
1
100
AcDbSymbolTableRecord
100
AcDbBlockTableRecord
  2
*D20
340
0
  0
BLOCK_RECORD
  5
27DB
330
1
100
AcDbSymbolTableRecord
100
AcDbBlockTableRecord
  2
*D21
340
0
  0
BLOCK_RECORD
  5
27E7
330
1
100
AcDbSymbolTableRecord
100
AcDbBlockTableRecord
  2
*D22
340
0
  0
BLOCK_RECORD
  5
27F3
330
1
100
AcDbSymbolTableRecord
100
AcDbBlockTableRecord
  2
*D23
340
0
  0
BLOCK_RECORD
  5
27FF
330
1
100
AcDbSymbolTableRecord
100
AcDbBlockTableRecord
  2
*D24
340
0
  0
BLOCK_RECORD
  5
280B
330
1
100
AcDbSymbolTableRecord
100
AcDbBlockTableRecord
  2
*D25
340
0
  0
BLOCK_RECORD
  5
2817
330
1
100
AcDbSymbolTableRecord
100
AcDbBlockTableRecord
  2
*D26
340
0
  0
BLOCK_RECORD
  5
2823
330
1
100
AcDbSymbolTableRecord
100
AcDbBlockTableRecord
  2
*D27
340
0
  0
BLOCK_RECORD
  5
2831
330
1
100
AcDbSymbolTableRecord
100
AcDbBlockTableRecord
  2
*D28
340
0
  0
BLOCK_RECORD
  5
283D
330
1
100
AcDbSymbolTableRecord
100
AcDbBlockTableRecord
  2
*D29
340
0
  0
BLOCK_RECORD
  5
2849
330
1
100
AcDbSymbolTableRecord
100
AcDbBlockTableRecord
  2
*D30
340
0
  0
BLOCK_RECORD
  5
2857
330
1
100
AcDbSymbolTableRecord
100
AcDbBlockTableRecord
  2
*D31
340
0
  0
BLOCK_RECORD
  5
2865
330
1
100
AcDbSymbolTableRecord
100
AcDbBlockTableRecord
  2
*D32
340
0
  0
BLOCK_RECORD
  5
2871
330
1
100
AcDbSymbolTableRecord
100
AcDbBlockTableRecord
  2
*D33
340
0
  0
BLOCK_RECORD
  5
287F
330
1
100
AcDbSymbolTableRecord
100
AcDbBlockTableRecord
  2
*D34
340
0
  0
BLOCK_RECORD
  5
288B
330
1
100
AcDbSymbolTableRecord
100
AcDbBlockTableRecord
  2
*D35
340
0
  0
BLOCK_RECORD
  5
2899
330
1
100
AcDbSymbolTableRecord
100
AcDbBlockTableRecord
  2
*D36
340
0
  0
BLOCK_RECORD
  5
28A5
330
1
100
AcDbSymbolTableRecord
100
AcDbBlockTableRecord
  2
*D37
340
0
  0
ENDTAB
  0
ENDSEC
  0
SECTION
  2
BLOCKS
  0
BLOCK
  5
20
330
1F
100
AcDbEntity
  8
0
100
AcDbBlockBegin
  2
*Model_Space
 70
     0
 10
0.0
 20
0.0
 30
0.0
  3
*Model_Space
  1

  0
ENDBLK
  5
21
330
1F
100
AcDbEntity
  8
0
100
AcDbBlockEnd
  0
BLOCK
  5
1C
330
1B
100
AcDbEntity
 67
     1
  8
0
100
AcDbBlockBegin
  2
*Paper_Space
 70
     0
 10
0.0
 20
0.0
 30
0.0
  3
*Paper_Space
  1

  0
ENDBLK
  5
1D
330
1B
100
AcDbEntity
 67
     1
  8
0
100
AcDbBlockEnd
  0
BLOCK
  5
24
330
23
100
AcDbEntity
  8
0
100
AcDbBlockBegin
  2
*Paper_Space0
 70
     0
 10
0.0
 20
0.0
 30
0.0
  3
*Paper_Space0
  1

  0
ENDBLK
  5
25
330
23
100
AcDbEntity
  8
0
100
AcDbBlockEnd
  0
BLOCK
  5
1B2
330
1AE
100
AcDbEntity
  8
0
100
AcDbBlockBegin
  2
_Open
 70
     0
 10
0.0
 20
0.0
 30
0.0
  3
_Open
  1

  0
LINE
  5
1AF
330
1AE
100
AcDbEntity
  8
寸法線1
 62
     0
370
    -2
100
AcDbLine
 10
-1.0
 20
0.1666666666666666
 30
0.0
 11
0.0
 21
0.0
 31
0.0
  0
LINE
  5
1B0
330
1AE
100
AcDbEntity
  8
寸法線1
 62
     0
370
    -2
100
AcDbLine
 10
-1.0
 20
-0.1666666666666666
 30
0.0
 11
0.0
 21
0.0
 31
0.0
  0
LINE
  5
1B1
330
1AE
100
AcDbEntity
  8
寸法線1
 62
     0
370
    -2
100
AcDbLine
 10
0.0
 20
0.0
 30
0.0
 11
-1.0
 21
0.0
 31
0.0
  0
ENDBLK
  5
1B3
330
1AE
100
AcDbEntity
  8
0
100
AcDbBlockEnd
  0
BLOCK
  5
D8E
330
D54
100
AcDbEntity
  8
0
100
AcDbBlockBegin
  2
Ａ－３－タイトルブロック　（株）アンナカ
 70
     0
 10
0.0
 20
0.0
 30
0.0
  3
Ａ－３－タイトルブロック　（株）アンナカ
  1

  0
LINE
  5
18B7
330
D54
100
AcDbEntity
  8
0
370
    40
100
AcDbLine
 10
409.9999999999998
 20
10.0
 30
0.0
 11
409.9999999999998
 21
38.0
 31
0.0
  0
LINE
  5
18B8
330
D54
100
AcDbEntity
  8
0
370
    60
100
AcDbLine
 10
409.9999999999998
 20
287.0
 30
0.0
 11
24.99999999999994
 21
287.0
 31
0.0
  0
LINE
  5
18B9
330
D54
100
AcDbEntity
  8
0
370
    40
100
AcDbLine
 10
229.9999999999999
 20
10.0
 30
0.0
 11
409.9999999999998
 21
10.0
 31
0.0
  0
LINE
  5
18BA
330
D54
100
AcDbEntity
  8
0
370
    60
100
AcDbLine
 10
24.99999999999994
 20
287.0
 30
0.0
 11
25.0
 21
10.0
 31
0.0
  0
LINE
  5
18BB
330
D54
100
AcDbEntity
  8
0
370
    60
100
AcDbLine
 10
409.9999999999998
 20
10.0
 30
0.0
 11
409.9999999999998
 21
287.0
 31
0.0
  0
LINE
  5
18BC
330
D54
100
AcDbEntity
  8
0
370
    60
100
AcDbLine
 10
25.0
 20
10.0
 30
0.0
 11
409.9999999999998
 21
10.0
 31
0.0
  0
LINE
  5
18BD
330
D54
100
AcDbEntity
  8
0
100
AcDbLine
 10
318.6529750232782
 20
35.52070974637445
 30
0.0
 11
312.6529750232782
 21
29.52070974637445
 31
0.0
  0
TEXT
  5
18BE
330
D54
100
AcDbEntity
  8
0
100
AcDbText
 10
283.307896638995
 20
10.5948520895418
 30
0.0
 40
3.75
  1
承　認
100
AcDbText
  0
TEXT
  5
18BF
330
D54
100
AcDbEntity
  8
0
100
AcDbText
 10
232.3203605967294
 20
10.56729125954706
 30
0.0
 40
3.75
  1
設　計
100
AcDbText
  0
TEXT
  5
18C0
330
D54
100
AcDbEntity
  8
0
100
AcDbText
 10
266.3540583654115
 20
10.68149538233842
 30
0.0
 40
3.75
  1
検　図
100
AcDbText
  0
TEXT
  5
18C1
330
D54
100
AcDbEntity
  8
0
100
AcDbText
 10
249.4343442915429
 20
10.61149479708615
 30
0.0
 40
3.75
  1
製　図
100
AcDbText
  0
TEXT
  5
18C2
330
D54
100
AcDbEntity
  8
0
100
AcDbText
 10
300.2200358093297
 20
23.98407185290813
 30
0.0
 40
3.75
  1
品
100
AcDbText
  0
TEXT
  5
18C3
330
D54
100
AcDbEntity
  8
0
100
AcDbText
 10
300.2200344175939
 20
19.47748552127103
 30
0.0
 40
3.75
  1
名
100
AcDbText
  0
TEXT
  5
18C4
330
D54
100
AcDbEntity
  8
0
100
AcDbText
 10
299.9269365765777
 20
30.74189779655756
 30
0.0
 40
3.75
  1
尺度
100
AcDbText
  0
TEXT
  5
18C5
330
D54
100
AcDbEntity
  8
0
100
AcDbText
 10
355.8973426032813
 20
30.68901750125485
 30
0.0
 40
3.75
  1
処理
100
AcDbText
  0
TEXT
  5
18C6
330
D54
100
AcDbEntity
  8
0
100
AcDbText
 10
362.2931523123214
 20
14.97132756165608
 30
0.0
 40
3.75
  1
図
100
AcDbText
  0
TEXT
  5
18C7
330
D54
100
AcDbEntity
  8
0
100
AcDbText
 10
362.2265521859451
 20
10.44681943131984
 30
0.0
 40
3.75
  1
番
100
AcDbText
  0
TEXT
  5
18C8
330
D54
100
AcDbEntity
  8
0
100
AcDbText
 10
324.2736687619641
 20
30.50734800538497
 30
0.0
 40
3.75
  1
材質
100
AcDbText
  0
TEXT
  5
18C9
330
D54
100
AcDbEntity
  8
0
100
AcDbText
 10
387.7624386995826
 20
30.5255410443326
 30
0.0
 40
3.75
  1
個数
100
AcDbText
  0
LINE
  5
18CA
330
D54
100
AcDbEntity
  8
0
100
AcDbLine
 10
297.9999999999999
 20
19.0
 30
0.0
 11
409.9999999999998
 21
19.0
 31
0.0
  0
LINE
  5
18CB
330
D54
100
AcDbEntity
  8
0
100
AcDbLine
 10
297.9999999999999
 20
28.0
 30
0.0
 11
409.9999999999998
 21
28.0
 31
0.0
  0
LINE
  5
18CC
330
D54
100
AcDbEntity
  8
0
100
AcDbLine
 10
297.9999999999999
 20
37.0
 30
0.0
 11
297.9999999999999
 21
10.0
 31
0.0
  0
LINE
  5
18CD
330
D54
100
AcDbEntity
  8
0
100
AcDbLine
 10
305.9999999999998
 20
28.0
 30
0.0
 11
305.9999999999998
 21
19.0
 31
0.0
  0
LINE
  5
18CE
330
D54
100
AcDbEntity
  8
0
100
AcDbLine
 10
359.9999999999998
 20
28.0
 30
0.0
 11
359.9999999999998
 21
10.0
 31
0.0
  0
LINE
  5
18CF
330
D54
100
AcDbEntity
  8
0
100
AcDbLine
 10
367.9999999999998
 20
28.0
 30
0.0
 11
367.9999999999998
 21
10.0
 31
0.0
  0
LINE
  5
18D0
330
D54
100
AcDbEntity
  8
0
370
    60
100
AcDbLine
 10
229.9999999999999
 20
37.0
 30
0.0
 11
229.9999999999999
 21
10.0
 31
0.0
  0
LINE
  5
18D1
330
D54
100
AcDbEntity
  8
構築線
100
AcDbLine
 10
309.9999999999998
 20
37.0
 30
0.0
 11
309.9999999999998
 21
27.99999999999998
 31
0.0
  0
LINE
  5
18D2
330
D54
100
AcDbEntity
  8
0
100
AcDbLine
 10
321.9999999999998
 20
37.0
 30
0.0
 11
321.9999999999998
 21
28.0
 31
0.0
  0
LINE
  5
18D3
330
D54
100
AcDbEntity
  8
構築線
100
AcDbLine
 10
333.9999999999998
 20
37.0
 30
0.0
 11
333.9999999999998
 21
28.0
 31
0.0
  0
LINE
  5
18D4
330
D54
100
AcDbEntity
  8
0
100
AcDbLine
 10
353.9999999999998
 20
37.0
 30
0.0
 11
353.9999999999998
 21
28.0
 31
0.0
  0
LINE
  5
18D5
330
D54
100
AcDbEntity
  8
構築線
100
AcDbLine
 10
365.9999999999998
 20
37.0
 30
0.0
 11
365.9999999999998
 21
28.0
 31
0.0
  0
LINE
  5
18D6
330
D54
100
AcDbEntity
  8
0
100
AcDbLine
 10
385.9999999999998
 20
37.0
 30
0.0
 11
385.9999999999998
 21
28.0
 31
0.0
  0
LINE
  5
18D7
330
D54
100
AcDbEntity
  8
構築線
100
AcDbLine
 10
397.9999999999998
 20
37.0
 30
0.0
 11
397.9999999999998
 21
28.0
 31
0.0
  0
LINE
  5
18D8
330
D54
100
AcDbEntity
  8
0
370
    60
100
AcDbLine
 10
409.9999999999998
 20
37.0
 30
0.0
 11
229.9999999999999
 21
37.0
 31
0.0
  0
LINE
  5
18D9
330
D54
100
AcDbEntity
  8
0
100
AcDbLine
 10
229.9999999999999
 20
32.0
 30
0.0
 11
297.9999999999999
 21
32.0
 31
0.0
  0
LINE
  5
18DA
330
D54
100
AcDbEntity
  8
0
100
AcDbLine
 10
229.9999999999999
 20
15.0
 30
0.0
 11
297.9999999999999
 21
15.0
 31
0.0
  0
LINE
  5
18DB
330
D54
100
AcDbEntity
  8
0
100
AcDbLine
 10
246.9999999999999
 20
32.0
 30
0.0
 11
246.9999999999999
 21
10.0
 31
0.0
  0
LINE
  5
18DC
330
D54
100
AcDbEntity
  8
0
100
AcDbLine
 10
263.9999999999999
 20
32.0
 30
0.0
 11
263.9999999999999
 21
10.0
 31
0.0
  0
MTEXT
  5
18DD
330
D54
100
AcDbEntity
  8
0
100
AcDbMText
 10
233.6822362954143
 20
36.53613805254554
 30
0.0
 40
4.0
 41
51.15817715169351
 71
     1
 72
     5
  1
作 成 日
 73
     1
 44
1.0
1001
ACAD
1000
ACAD_MTEXT_DEFINED_HEIGHT_BEGIN
1070
    46
1040
0.0
1000
ACAD_MTEXT_DEFINED_HEIGHT_END
1000
MTEXTBEGIN
1070
    73
1070
     1
1070
    44
1040
1.0
1070
    74
1070
     0
1000
MTEXTEND
  0
LINE
  5
18DE
330
D54
100
AcDbEntity
  8
0
100
AcDbLine
 10
255.4999999999999
 20
37.0
 30
0.0
 11
255.4999999999999
 21
32.0
 31
0.0
  0
LINE
  5
18DF
330
D54
100
AcDbEntity
  8
0
100
AcDbLine
 10
280.9999999999999
 20
32.0
 30
0.0
 11
280.9999999999999
 21
10.0
 31
0.0
  0
TEXT
  5
18E0
330
D54
100
AcDbEntity
  8
0
100
AcDbText
 10
362.1526144043853
 20
24.01050086617226
 30
0.0
 40
3.75
  1
型
100
AcDbText
  0
TEXT
  5
18E1
330
D54
100
AcDbEntity
  8
0
100
AcDbText
 10
362.2313796936458
 20
19.49046779907813
 30
0.0
 40
3.75
  1
式
100
AcDbText
  0
CIRCLE
  5
18E2
330
D54
100
AcDbEntity
  8
0
100
AcDbCircle
 10
269.9999999999999
 20
34.56806793362761
 30
0.0
 40
0.5
  0
CIRCLE
  5
18E3
330
D54
100
AcDbEntity
  8
0
100
AcDbCircle
 10
283.9999999999998
 20
34.56806793362761
 30
0.0
 40
0.5
  0
CIRCLE
  5
18E4
330
D54
100
AcDbEntity
  8
0
100
AcDbCircle
 10
269.9999999999999
 20
34.56806793362761
 30
0.0
 40
0.4
  0
CIRCLE
  5
18E5
330
D54
100
AcDbEntity
  8
0
100
AcDbCircle
 10
269.9999999999999
 20
34.56806793362761
 30
0.0
 40
0.3
  0
CIRCLE
  5
18E6
330
D54
100
AcDbEntity
  8
0
100
AcDbCircle
 10
269.9999999999999
 20
34.56806793362761
 30
0.0
 40
0.2
  0
CIRCLE
  5
18E7
330
D54
100
AcDbEntity
  8
0
100
AcDbCircle
 10
269.9999999999999
 20
34.56806793362761
 30
0.0
 40
0.1
  0
CIRCLE
  5
18E8
330
D54
100
AcDbEntity
  8
0
100
AcDbCircle
 10
283.9999999999998
 20
34.56806793362761
 30
0.0
 40
0.5
  0
CIRCLE
  5
18E9
330
D54
100
AcDbEntity
  8
0
100
AcDbCircle
 10
283.9999999999998
 20
34.56806793362761
 30
0.0
 40
0.4
  0
CIRCLE
  5
18EA
330
D54
100
AcDbEntity
  8
0
100
AcDbCircle
 10
283.9999999999998
 20
34.56806793362761
 30
0.0
 40
0.3
  0
CIRCLE
  5
18EB
330
D54
100
AcDbEntity
  8
0
100
AcDbCircle
 10
283.9999999999998
 20
34.56806793362761
 30
0.0
 40
0.2
  0
CIRCLE
  5
18EC
330
D54
100
AcDbEntity
  8
0
100
AcDbCircle
 10
283.9999999999998
 20
34.56806793362761
 30
0.0
 40
0.1
  0
MTEXT
  5
18ED
330
D54
100
AcDbEntity
  8
0
100
AcDbMText
 10
304.4994482992639
 20
17.03068846986468
 30
0.0
 40
5.0
 41
78.66862485691355
 71
     1
 72
     5
  1
株式会社 アンナカ
 73
     1
 44
1.0
1001
ACAD
1000
MTEXTBEGIN
1070
    73
1070
     1
1070
    44
1040
1.0
1070
    74
1070
     0
1000
MTEXTEND
  0
ENDBLK
  5
D8F
330
D54
100
AcDbEntity
  8
0
100
AcDbBlockEnd
  0
BLOCK
  5
15CF
330
15C5
100
AcDbEntity
  8
0
100
AcDbBlockBegin
  2
*D3
 70
     1
 10
0.0
 20
0.0
 30
0.0
  3
*D3
  1

  0
LINE
  5
20F6
330
15C5
100
AcDbEntity
  8
寸法線1
 62
     0
370
    -2
100
AcDbLine
 10
335.5121499897596
 20
1331.832009914906
 30
0.0
 11
284.2621499897596
 21
1331.832009914906
 31
0.0
  0
LINE
  5
20F7
330
15C5
100
AcDbEntity
  8
寸法線1
 62
     0
370
    -2
100
AcDbLine
 10
330.5121499897598
 20
931.832009914906
 30
0.0
 11
284.2621499897596
 21
931.832009914906
 31
0.0
  0
LINE
  5
20F8
330
15C5
100
AcDbEntity
  8
寸法線1
 62
     0
370
    -2
100
AcDbLine
 10
290.5121499897596
 20
1319.332009914906
 30
0.0
 11
290.5121499897596
 21
944.332009914906
 31
0.0
  0
INSERT
  5
20F9
330
15C5
100
AcDbEntity
  8
寸法線1
 62
     0
370
    -2
100
AcDbBlockReference
  2
_Open
 10
290.5121499897596
 20
1331.832009914906
 30
0.0
 41
12.5
 42
12.5
 43
12.5
 50
90.0
  0
INSERT
  5
20FA
330
15C5
100
AcDbEntity
  8
寸法線1
 62
     0
370
    -2
100
AcDbBlockReference
  2
_Open
 10
290.5121499897596
 20
931.832009914906
 30
0.0
 41
12.5
 42
12.5
 43
12.5
 50
270.0
  0
MTEXT
  5
20FB
330
15C5
100
AcDbEntity
  8
寸法線1
 62
     0
100
AcDbMText
 10
278.0121499897594
 20
1131.832009914906
 30
0.0
 40
15.0
 41
0.0
 71
     5
 72
     1
  1
400
 11
0.0000000000000001
 21
1.0
 31
0.0
 73
     1
 44
1.0
  0
POINT
  5
20FC
330
15C5
100
AcDbEntity
  8
Defpoints
 62
     0
100
AcDbPoint
 10
340.5121499897596
 20
1331.832009914906
 30
0.0
  0
POINT
  5
20FD
330
15C5
100
AcDbEntity
  8
Defpoints
 62
     0
100
AcDbPoint
 10
335.5121499897598
 20
931.832009914906
 30
0.0
  0
POINT
  5
20FE
330
15C5
100
AcDbEntity
  8
Defpoints
 62
     0
100
AcDbPoint
 10
290.5121499897596
 20
931.832009914906
 30
0.0
  0
ENDBLK
  5
15D0
330
15C5
100
AcDbEntity
  8
0
100
AcDbBlockEnd
  0
BLOCK
  5
16E1
330
16D7
100
AcDbEntity
  8
0
100
AcDbBlockBegin
  2
*D4
 70
     1
 10
0.0
 20
0.0
 30
0.0
  3
*D4
  1

  0
LINE
  5
1F6F
330
16D7
100
AcDbEntity
  8
寸法線1
 62
     0
370
    -2
100
AcDbLine
 10
1452.812149989759
 20
429.528909234359
 30
0.0
 11
1127.812149989759
 21
429.528909234359
 31
0.0
  0
INSERT
  5
1F70
330
16D7
100
AcDbEntity
  8
寸法線1
 62
     0
370
    -2
100
AcDbBlockReference
  2
_Open
 10
1465.312149989759
 20
429.528909234359
 30
0.0
 41
12.5
 42
12.5
 43
12.5
  0
INSERT
  5
1F71
330
16D7
100
AcDbEntity
  8
寸法線1
 62
     0
370
    -2
100
AcDbBlockReference
  2
_Open
 10
1115.312149989759
 20
429.528909234359
 30
0.0
 41
12.5
 42
12.5
 43
12.5
 50
180.0
  0
MTEXT
  5
1F72
330
16D7
100
AcDbEntity
  8
寸法線1
 62
     0
100
AcDbMText
 10
1290.312149989759
 20
442.028909234359
 30
0.0
 40
15.0
 41
0.0
 71
     5
 72
     1
  1
350
 73
     1
 44
1.0
  0
POINT
  5
1F73
330
16D7
100
AcDbEntity
  8
Defpoints
 62
     0
100
AcDbPoint
 10
1465.312149989759
 20
545.3940015499001
 30
0.0
  0
POINT
  5
1F74
330
16D7
100
AcDbEntity
  8
Defpoints
 62
     0
100
AcDbPoint
 10
1115.312149989759
 20
545.3940015499001
 30
0.0
  0
POINT
  5
1F75
330
16D7
100
AcDbEntity
  8
Defpoints
 62
     0
100
AcDbPoint
 10
1115.312149989759
 20
429.528909234359
 30
0.0
  0
ENDBLK
  5
16E2
330
16D7
100
AcDbEntity
  8
0
100
AcDbBlockEnd
  0
BLOCK
  5
1BAF
330
1BA5
100
AcDbEntity
  8
0
100
AcDbBlockBegin
  2
*D5
 70
     1
 10
0.0
 20
0.0
 30
0.0
  3
*D5
  1

  0
LINE
  5
1C9C
330
1BA5
100
AcDbEntity
  8
寸法線1
 62
     0
370
    -2
100
AcDbLine
 10
1516.514112395469
 20
782.8940015499
 30
0.0
 11
1516.514112395469
 21
816.1440015499
 31
0.0
  0
LINE
  5
1C9D
330
1BA5
100
AcDbEntity
  8
寸法線1
 62
     0
370
    -2
100
AcDbLine
 10
1076.512149989759
 20
779.8940015499002
 30
0.0
 11
1076.512149989759
 21
816.1440015499
 31
0.0
  0
LINE
  5
1C9E
330
1BA5
100
AcDbEntity
  8
寸法線1
 62
     0
370
    -2
100
AcDbLine
 10
1504.014112395469
 20
809.8940015499
 30
0.0
 11
1089.012149989759
 21
809.8940015499
 31
0.0
  0
INSERT
  5
1C9F
330
1BA5
100
AcDbEntity
  8
寸法線1
 62
     0
370
    -2
100
AcDbBlockReference
  2
_Open
 10
1516.514112395469
 20
809.8940015499
 30
0.0
 41
12.5
 42
12.5
 43
12.5
  0
INSERT
  5
1CA0
330
1BA5
100
AcDbEntity
  8
寸法線1
 62
     0
370
    -2
100
AcDbBlockReference
  2
_Open
 10
1076.512149989759
 20
809.8940015499
 30
0.0
 41
12.5
 42
12.5
 43
12.5
 50
180.0
  0
MTEXT
  5
1CA1
330
1BA5
100
AcDbEntity
  8
寸法線1
 62
     0
100
AcDbMText
 10
1296.513131192614
 20
822.3940015499
 30
0.0
 40
15.0
 41
0.0
 71
     5
 72
     1
  1
440
 73
     1
 44
1.0
1001
ACAD
1000
MTEXTBEGIN
1070
    73
1070
     1
1070
    44
1040
1.0
1070
    74
1070
     0
1000
MTEXTEND
  0
POINT
  5
1CA2
330
1BA5
100
AcDbEntity
  8
Defpoints
 62
     0
100
AcDbPoint
 10
1516.514112395469
 20
777.8940015499
 30
0.0
  0
POINT
  5
1CA3
330
1BA5
100
AcDbEntity
  8
Defpoints
 62
     0
100
AcDbPoint
 10
1076.512149989759
 20
774.8940015499002
 30
0.0
  0
POINT
  5
1CA4
330
1BA5
100
AcDbEntity
  8
Defpoints
 62
     0
100
AcDbPoint
 10
1076.512149989759
 20
809.8940015499
 30
0.0
  0
ENDBLK
  5
1BB0
330
1BA5
100
AcDbEntity
  8
0
100
AcDbBlockEnd
  0
BLOCK
  5
1CBE
330
1CB4
100
AcDbEntity
  8
0
100
AcDbBlockBegin
  2
*D6
 70
     1
 10
0.0
 20
0.0
 30
0.0
  3
*D6
  1

  0
LINE
  5
1CB5
330
1CB4
100
AcDbEntity
  8
寸法線1
 62
     0
370
    -2
100
AcDbLine
 10
335.5121499897598
 20
931.832009914906
 30
0.0
 11
284.2621499897596
 21
931.832009914906
 31
0.0
  0
LINE
  5
1CB6
330
1CB4
100
AcDbEntity
  8
寸法線1
 62
     0
370
    -2
100
AcDbLine
 10
335.5121499897596
 20
891.832009914906
 30
0.0
 11
284.2621499897595
 21
891.832009914906
 31
0.0
  0
LINE
  5
1CB7
330
1CB4
100
AcDbEntity
  8
寸法線1
 62
     0
370
    -2
100
AcDbLine
 10
290.5121499897596
 20
919.332009914906
 30
0.0
 11
290.5121499897596
 21
904.332009914906
 31
0.0
  0
INSERT
  5
1CB8
330
1CB4
100
AcDbEntity
  8
寸法線1
 62
     0
370
    -2
100
AcDbBlockReference
  2
_Open
 10
290.5121499897596
 20
931.832009914906
 30
0.0
 41
12.5
 42
12.5
 43
12.5
 50
90.0
  0
INSERT
  5
1CB9
330
1CB4
100
AcDbEntity
  8
寸法線1
 62
     0
370
    -2
100
AcDbBlockReference
  2
_Open
 10
290.5121499897595
 20
891.832009914906
 30
0.0
 41
12.5
 42
12.5
 43
12.5
 50
270.0
  0
MTEXT
  5
1CBA
330
1CB4
100
AcDbEntity
  8
寸法線1
 62
     0
100
AcDbMText
 10
278.0121499897593
 20
911.8320099149061
 30
0.0
 40
15.0
 41
0.0
 71
     5
 72
     1
  1
40
 11
0.0000000000000001
 21
1.0
 31
0.0
 73
     1
 44
1.0
1001
ACAD
1000
MTEXTBEGIN
1070
    73
1070
     1
1070
    44
1040
1.0
1070
    74
1070
     0
1000
MTEXTEND
  0
POINT
  5
1CBB
330
1CB4
100
AcDbEntity
  8
Defpoints
 62
     0
100
AcDbPoint
 10
340.5121499897596
 20
931.832009914906
 30
0.0
  0
POINT
  5
1CBC
330
1CB4
100
AcDbEntity
  8
Defpoints
 62
     0
100
AcDbPoint
 10
340.5121499897596
 20
891.832009914906
 30
0.0
  0
POINT
  5
1CBD
330
1CB4
100
AcDbEntity
  8
Defpoints
 62
     0
100
AcDbPoint
 10
290.5121499897595
 20
891.832009914906
 30
0.0
  0
ENDBLK
  5
1CBF
330
1CB4
100
AcDbEntity
  8
0
100
AcDbBlockEnd
  0
BLOCK
  5
1CFA
330
1CF0
100
AcDbEntity
  8
0
100
AcDbBlockBegin
  2
*D7
 70
     1
 10
0.0
 20
0.0
 30
0.0
  3
*D7
  1

  0
LINE
  5
1CF1
330
1CF0
100
AcDbEntity
  8
寸法線1
 62
     0
370
    -2
100
AcDbLine
 10
712.9885804942069
 20
373.8940015499001
 30
0.0
 11
714.2385804942072
 21
373.8940015499001
 31
0.0
  0
LINE
  5
1CF2
330
1CF0
100
AcDbEntity
  8
寸法線1
 62
     0
370
    -2
100
AcDbLine
 10
702.9885804942073
 20
723.8940015498997
 30
0.0
 11
701.7385804942072
 21
723.8940015498997
 31
0.0
  0
LINE
  5
1CF3
330
1CF0
100
AcDbEntity
  8
寸法線1
 62
     0
370
    -2
100
AcDbLine
 10
707.9885804942072
 20
386.3940015499001
 30
0.0
 11
707.9885804942072
 21
711.3940015498997
 31
0.0
  0
INSERT
  5
1CF4
330
1CF0
100
AcDbEntity
  8
寸法線1
 62
     0
370
    -2
100
AcDbBlockReference
  2
_Open
 10
707.9885804942072
 20
373.8940015499001
 30
0.0
 41
12.5
 42
12.5
 43
12.5
 50
270.0
  0
INSERT
  5
1CF5
330
1CF0
100
AcDbEntity
  8
寸法線1
 62
     0
370
    -2
100
AcDbBlockReference
  2
_Open
 10
707.9885804942072
 20
723.8940015498997
 30
0.0
 41
12.5
 42
12.5
 43
12.5
 50
90.0
  0
MTEXT
  5
1CF6
330
1CF0
100
AcDbEntity
  8
寸法線1
 62
     0
100
AcDbMText
 10
695.4885804942071
 20
548.8940015499001
 30
0.0
 40
15.0
 41
0.0
 71
     5
 72
     1
  1
350
 11
0.0000000000000001
 21
1.0
 31
0.0
 73
     1
 44
1.0
1001
ACAD
1000
MTEXTBEGIN
1070
    73
1070
     1
1070
    44
1040
1.0
1070
    74
1070
     0
1000
MTEXTEND
  0
POINT
  5
1CF7
330
1CF0
100
AcDbEntity
  8
Defpoints
 62
     0
100
AcDbPoint
 10
707.9885804942066
 20
373.8940015499001
 30
0.0
  0
POINT
  5
1CF8
330
1CF0
100
AcDbEntity
  8
Defpoints
 62
     0
100
AcDbPoint
 10
707.9885804942072
 20
723.8940015498997
 30
0.0
  0
POINT
  5
1CF9
330
1CF0
100
AcDbEntity
  8
Defpoints
 62
     0
100
AcDbPoint
 10
707.9885804942072
 20
723.8940015498997
 30
0.0
  0
ENDBLK
  5
1CFB
330
1CF0
100
AcDbEntity
  8
0
100
AcDbBlockEnd
  0
BLOCK
  5
1D08
330
1CFE
100
AcDbEntity
  8
0
100
AcDbBlockBegin
  2
*D8
 70
     1
 10
0.0
 20
0.0
 30
0.0
  3
*D8
  1

  0
LINE
  5
1F54
330
1CFE
100
AcDbEntity
  8
寸法線1
 62
     0
370
    -2
100
AcDbLine
 10
385.0121499897596
 20
416.0419504771775
 30
0.0
 11
385.0121499897596
 21
435.778909234359
 31
0.0
  0
LINE
  5
1F55
330
1CFE
100
AcDbEntity
  8
寸法線1
 62
     0
370
    -2
100
AcDbLine
 10
761.0121499897595
 20
416.0419504771775
 30
0.0
 11
761.0121499897595
 21
435.778909234359
 31
0.0
  0
LINE
  5
1F56
330
1CFE
100
AcDbEntity
  8
寸法線1
 62
     0
370
    -2
100
AcDbLine
 10
397.5121499897596
 20
429.528909234359
 30
0.0
 11
748.5121499897595
 21
429.528909234359
 31
0.0
  0
INSERT
  5
1F57
330
1CFE
100
AcDbEntity
  8
寸法線1
 62
     0
370
    -2
100
AcDbBlockReference
  2
_Open
 10
385.0121499897596
 20
429.528909234359
 30
0.0
 41
12.5
 42
12.5
 43
12.5
 50
180.0
  0
INSERT
  5
1F58
330
1CFE
100
AcDbEntity
  8
寸法線1
 62
     0
370
    -2
100
AcDbBlockReference
  2
_Open
 10
761.0121499897595
 20
429.528909234359
 30
0.0
 41
12.5
 42
12.5
 43
12.5
  0
MTEXT
  5
1F59
330
1CFE
100
AcDbEntity
  8
寸法線1
 62
     0
100
AcDbMText
 10
573.0121499897595
 20
442.028909234359
 30
0.0
 40
15.0
 41
0.0
 71
     5
 72
     1
  1
376
 73
     1
 44
1.0
  0
POINT
  5
1F5A
330
1CFE
100
AcDbEntity
  8
Defpoints
 62
     0
100
AcDbPoint
 10
385.0121499897596
 20
411.0419504771774
 30
0.0
  0
POINT
  5
1F5B
330
1CFE
100
AcDbEntity
  8
Defpoints
 62
     0
100
AcDbPoint
 10
761.0121499897595
 20
411.0419504771774
 30
0.0
  0
POINT
  5
1F5C
330
1CFE
100
AcDbEntity
  8
Defpoints
 62
     0
100
AcDbPoint
 10
761.0121499897595
 20
429.528909234359
 30
0.0
  0
ENDBLK
  5
1D09
330
1CFE
100
AcDbEntity
  8
0
100
AcDbBlockEnd
  0
BLOCK
  5
1D15
330
1D0B
100
AcDbEntity
  8
0
100
AcDbBlockBegin
  2
*D9
 70
     1
 10
0.0
 20
0.0
 30
0.0
  3
*D9
  1

  0
LINE
  5
1D0C
330
1D0B
100
AcDbEntity
  8
寸法線1
 62
     0
370
    -2
100
AcDbLine
 10
1071.512149989759
 20
774.8940015499
 30
0.0
 11
993.2641123954692
 21
774.8940015499
 31
0.0
  0
LINE
  5
1D0D
330
1D0B
100
AcDbEntity
  8
寸法線1
 62
     0
370
    -2
100
AcDbLine
 10
1071.512149989759
 20
324.8940015499001
 30
0.0
 11
993.264112395469
 21
324.8940015499001
 31
0.0
  0
LINE
  5
1D0E
330
1D0B
100
AcDbEntity
  8
寸法線1
 62
     0
370
    -2
100
AcDbLine
 10
999.514112395469
 20
762.3940015499
 30
0.0
 11
999.514112395469
 21
337.3940015499001
 31
0.0
  0
INSERT
  5
1D0F
330
1D0B
100
AcDbEntity
  8
寸法線1
 62
     0
370
    -2
100
AcDbBlockReference
  2
_Open
 10
999.5141123954692
 20
774.8940015499
 30
0.0
 41
12.5
 42
12.5
 43
12.5
 50
90.0
  0
INSERT
  5
1D10
330
1D0B
100
AcDbEntity
  8
寸法線1
 62
     0
370
    -2
100
AcDbBlockReference
  2
_Open
 10
999.514112395469
 20
324.8940015499001
 30
0.0
 41
12.5
 42
12.5
 43
12.5
 50
270.0
  0
MTEXT
  5
1D11
330
1D0B
100
AcDbEntity
  8
寸法線1
 62
     0
100
AcDbMText
 10
987.014112395469
 20
549.8940015499003
 30
0.0
 40
15.0
 41
0.0
 71
     5
 72
     1
  1
450
 11
0.0000000000000001
 21
1.0
 31
0.0
 73
     1
 44
1.0
1001
ACAD
1000
MTEXTBEGIN
1070
    73
1070
     1
1070
    44
1040
1.0
1070
    74
1070
     0
1000
MTEXTEND
  0
POINT
  5
1D12
330
1D0B
100
AcDbEntity
  8
Defpoints
 62
     0
100
AcDbPoint
 10
1076.512149989759
 20
774.8940015499
 30
0.0
  0
POINT
  5
1D13
330
1D0B
100
AcDbEntity
  8
Defpoints
 62
     0
100
AcDbPoint
 10
1076.512149989759
 20
324.8940015499001
 30
0.0
  0
POINT
  5
1D14
330
1D0B
100
AcDbEntity
  8
Defpoints
 62
     0
100
AcDbPoint
 10
999.514112395469
 20
324.8940015499001
 30
0.0
  0
ENDBLK
  5
1D16
330
1D0B
100
AcDbEntity
  8
0
100
AcDbBlockEnd
  0
BLOCK
  5
1D22
330
1D18
100
AcDbEntity
  8
0
100
AcDbBlockBegin
  2
*D10
 70
     1
 10
0.0
 20
0.0
 30
0.0
  3
*D10
  1

  0
LINE
  5
1D19
330
1D18
100
AcDbEntity
  8
寸法線1
 62
     0
370
    -2
100
AcDbLine
 10
810.5121499897595
 20
777.8940015499
 30
0.0
 11
861.7621499897596
 21
777.8940015499
 31
0.0
  0
LINE
  5
1D1A
330
1D18
100
AcDbEntity
  8
寸法線1
 62
     0
370
    -2
100
AcDbLine
 10
810.5121499897597
 20
319.8940015499001
 30
0.0
 11
861.7621499897595
 21
319.8940015499001
 31
0.0
  0
LINE
  5
1D1B
330
1D18
100
AcDbEntity
  8
寸法線1
 62
     0
370
    -2
100
AcDbLine
 10
855.5121499897595
 20
765.3940015499
 30
0.0
 11
855.5121499897595
 21
332.3940015499001
 31
0.0
  0
INSERT
  5
1D1C
330
1D18
100
AcDbEntity
  8
寸法線1
 62
     0
370
    -2
100
AcDbBlockReference
  2
_Open
 10
855.5121499897596
 20
777.8940015499
 30
0.0
 41
12.5
 42
12.5
 43
12.5
 50
90.0
  0
INSERT
  5
1D1D
330
1D18
100
AcDbEntity
  8
寸法線1
 62
     0
370
    -2
100
AcDbBlockReference
  2
_Open
 10
855.5121499897595
 20
319.8940015499001
 30
0.0
 41
12.5
 42
12.5
 43
12.5
 50
270.0
  0
MTEXT
  5
1D1E
330
1D18
100
AcDbEntity
  8
寸法線1
 62
     0
100
AcDbMText
 10
843.0121499897595
 20
548.8940015499004
 30
0.0
 40
15.0
 41
0.0
 71
     5
 72
     1
  1
458
 11
0.0000000000000001
 21
1.0
 31
0.0
 73
     1
 44
1.0
1001
ACAD
1000
MTEXTBEGIN
1070
    73
1070
     1
1070
    44
1040
1.0
1070
    74
1070
     0
1000
MTEXTEND
  0
POINT
  5
1D1F
330
1D18
100
AcDbEntity
  8
Defpoints
 62
     0
100
AcDbPoint
 10
805.5121499897595
 20
777.8940015499
 30
0.0
  0
POINT
  5
1D20
330
1D18
100
AcDbEntity
  8
Defpoints
 62
     0
100
AcDbPoint
 10
805.5121499897596
 20
319.8940015499001
 30
0.0
  0
POINT
  5
1D21
330
1D18
100
AcDbEntity
  8
Defpoints
 62
     0
100
AcDbPoint
 10
855.5121499897595
 20
319.8940015499001
 30
0.0
  0
ENDBLK
  5
1D23
330
1D18
100
AcDbEntity
  8
0
100
AcDbBlockEnd
  0
BLOCK
  5
1D31
330
1D25
100
AcDbEntity
  8
0
100
AcDbBlockBegin
  2
*D11
 70
     1
 10
0.0
 20
0.0
 30
0.0
  3
*D11
  1

  0
LINE
  5
29AC
330
1D25
100
AcDbEntity
  8
寸法線1
 62
     0
370
    -2
100
AcDbLine
 10
810.5121499897595
 20
319.8940015499001
 30
0.0
 11
861.7621499897595
 21
319.8940015499001
 31
0.0
  0
LINE
  5
29AD
330
1D25
100
AcDbEntity
  8
寸法線1
 62
     0
370
    -2
100
AcDbLine
 10
805.5121499897596
 20
289.8940015499001
 30
0.0
 11
861.7621499897595
 21
289.8940015499001
 31
0.0
  0
LINE
  5
29AE
330
1D25
100
AcDbEntity
  8
寸法線1
 62
     0
370
    -2
100
AcDbLine
 10
855.5121499897595
 20
332.3940015499001
 30
0.0
 11
855.5121499897595
 21
344.8940015499001
 31
0.0
  0
LINE
  5
29AF
330
1D25
100
AcDbEntity
  8
寸法線1
 62
     0
370
    -2
100
AcDbLine
 10
855.5121499897595
 20
277.3940015499001
 30
0.0
 11
855.5121499897595
 21
264.8940015499001
 31
0.0
  0
LINE
  5
29B0
330
1D25
100
AcDbEntity
  8
寸法線1
 62
     0
370
    -2
100
AcDbLine
 10
855.5121499897595
 20
319.8940015499001
 30
0.0
 11
855.5121499897595
 21
289.8940015499001
 31
0.0
  0
INSERT
  5
29B1
330
1D25
100
AcDbEntity
  8
寸法線1
 62
     0
370
    -2
100
AcDbBlockReference
  2
_Open
 10
855.5121499897595
 20
319.8940015499001
 30
0.0
 41
12.5
 42
12.5
 43
12.5
 50
270.0
  0
INSERT
  5
29B2
330
1D25
100
AcDbEntity
  8
寸法線1
 62
     0
370
    -2
100
AcDbBlockReference
  2
_Open
 10
855.5121499897595
 20
289.8940015499001
 30
0.0
 41
12.5
 42
12.5
 43
12.5
 50
90.0
  0
MTEXT
  5
29B3
330
1D25
100
AcDbEntity
  8
寸法線1
 62
     0
100
AcDbMText
 10
843.0121499897595
 20
304.8940015499002
 30
0.0
 40
15.0
 41
0.0
 71
     5
 72
     1
  1
30
 11
0.0000000000000001
 21
1.0
 31
0.0
 73
     1
 44
1.0
  0
POINT
  5
29B4
330
1D25
100
AcDbEntity
  8
Defpoints
 62
     0
100
AcDbPoint
 10
805.5121499897595
 20
319.8940015499001
 30
0.0
  0
POINT
  5
29B5
330
1D25
100
AcDbEntity
  8
Defpoints
 62
     0
100
AcDbPoint
 10
800.5121499897596
 20
289.8940015499001
 30
0.0
  0
POINT
  5
29B6
330
1D25
100
AcDbEntity
  8
Defpoints
 62
     0
100
AcDbPoint
 10
855.5121499897595
 20
289.8940015499001
 30
0.0
  0
ENDBLK
  5
1D32
330
1D25
100
AcDbEntity
  8
0
100
AcDbBlockEnd
  0
BLOCK
  5
1D3E
330
1D34
100
AcDbEntity
  8
0
100
AcDbBlockBegin
  2
*D12
 70
     1
 10
0.0
 20
0.0
 30
0.0
  3
*D12
  1

  0
LINE
  5
29A3
330
1D34
100
AcDbEntity
  8
寸法線1
 62
     0
370
    -2
100
AcDbLine
 10
802.5121499897595
 20
784.5940098543865
 30
0.0
 11
899.9562118411416
 21
784.5940098543865
 31
0.0
  0
LINE
  5
29A4
330
1D34
100
AcDbEntity
  8
寸法線1
 62
     0
370
    -2
100
AcDbLine
 10
805.5121499897596
 20
289.8940015499001
 30
0.0
 11
899.9562118411414
 21
289.8940015499
 31
0.0
  0
LINE
  5
29A5
330
1D34
100
AcDbEntity
  8
寸法線1
 62
     0
370
    -2
100
AcDbLine
 10
893.7062118411416
 20
772.0940098543865
 30
0.0
 11
893.7062118411414
 21
302.3940015499001
 31
0.0
  0
INSERT
  5
29A6
330
1D34
100
AcDbEntity
  8
寸法線1
 62
     0
370
    -2
100
AcDbBlockReference
  2
_Open
 10
893.7062118411416
 20
784.5940098543865
 30
0.0
 41
12.5
 42
12.5
 43
12.5
 50
90.0
  0
INSERT
  5
29A7
330
1D34
100
AcDbEntity
  8
寸法線1
 62
     0
370
    -2
100
AcDbBlockReference
  2
_Open
 10
893.7062118411414
 20
289.8940015499001
 30
0.0
 41
12.5
 42
12.5
 43
12.5
 50
270.0
  0
MTEXT
  5
29A8
330
1D34
100
AcDbEntity
  8
寸法線1
 62
     0
100
AcDbMText
 10
881.2062118411413
 20
547.7382380429603
 30
0.0
 40
15.0
 41
0.0
 71
     5
 72
     1
  1
495
 11
0.0000000000000001
 21
1.0
 31
0.0
 73
     1
 44
1.0
  0
POINT
  5
29A9
330
1D34
100
AcDbEntity
  8
Defpoints
 62
     0
100
AcDbPoint
 10
797.5121499897595
 20
784.5940098543865
 30
0.0
  0
POINT
  5
29AA
330
1D34
100
AcDbEntity
  8
Defpoints
 62
     0
100
AcDbPoint
 10
800.5121499897596
 20
289.8940015499001
 30
0.0
  0
POINT
  5
29AB
330
1D34
100
AcDbEntity
  8
Defpoints
 62
     0
100
AcDbPoint
 10
893.7062118411414
 20
289.8940015499001
 30
0.0
  0
ENDBLK
  5
1D3F
330
1D34
100
AcDbEntity
  8
0
100
AcDbBlockEnd
  0
BLOCK
  5
1D4D
330
1D43
100
AcDbEntity
  8
0
100
AcDbBlockBegin
  2
*D13
 70
     1
 10
0.0
 20
0.0
 30
0.0
  3
*D13
  1

  0
LINE
  5
1D44
330
1D43
100
AcDbEntity
  8
寸法線1
 62
     0
370
    -2
100
AcDbLine
 10
340.5121499897595
 20
314.8940015499001
 30
0.0
 11
340.5121499897595
 21
233.6440015499
 31
0.0
  0
LINE
  5
1D45
330
1D43
100
AcDbEntity
  8
寸法線1
 62
     0
370
    -2
100
AcDbLine
 10
805.5121499897595
 20
314.8940015499001
 30
0.0
 11
805.5121499897595
 21
233.6440015499
 31
0.0
  0
LINE
  5
1D46
330
1D43
100
AcDbEntity
  8
寸法線1
 62
     0
370
    -2
100
AcDbLine
 10
353.0121499897595
 20
239.8940015499
 30
0.0
 11
793.0121499897595
 21
239.8940015499
 31
0.0
  0
INSERT
  5
1D47
330
1D43
100
AcDbEntity
  8
寸法線1
 62
     0
370
    -2
100
AcDbBlockReference
  2
_Open
 10
340.5121499897595
 20
239.8940015499
 30
0.0
 41
12.5
 42
12.5
 43
12.5
 50
180.0
  0
INSERT
  5
1D48
330
1D43
100
AcDbEntity
  8
寸法線1
 62
     0
370
    -2
100
AcDbBlockReference
  2
_Open
 10
805.5121499897595
 20
239.8940015499
 30
0.0
 41
12.5
 42
12.5
 43
12.5
  0
MTEXT
  5
1D49
330
1D43
100
AcDbEntity
  8
寸法線1
 62
     0
100
AcDbMText
 10
573.0121499897595
 20
252.3940015499
 30
0.0
 40
15.0
 41
0.0
 71
     5
 72
     1
  1
465
 73
     1
 44
1.0
1001
ACAD
1000
MTEXTBEGIN
1070
    73
1070
     1
1070
    44
1040
1.0
1070
    74
1070
     0
1000
MTEXTEND
  0
POINT
  5
1D4A
330
1D43
100
AcDbEntity
  8
Defpoints
 62
     0
100
AcDbPoint
 10
340.5121499897595
 20
319.8940015499001
 30
0.0
  0
POINT
  5
1D4B
330
1D43
100
AcDbEntity
  8
Defpoints
 62
     0
100
AcDbPoint
 10
805.5121499897595
 20
319.8940015499001
 30
0.0
  0
POINT
  5
1D4C
330
1D43
100
AcDbEntity
  8
Defpoints
 62
     0
100
AcDbPoint
 10
805.5121499897595
 20
239.8940015499
 30
0.0
  0
ENDBLK
  5
1D4E
330
1D43
100
AcDbEntity
  8
0
100
AcDbBlockEnd
  0
BLOCK
  5
1E1E
330
1E12
100
AcDbEntity
  8
0
100
AcDbBlockBegin
  2
*D14
 70
     1
 10
0.0
 20
0.0
 30
0.0
  3
*D14
  1

  0
LINE
  5
1E13
330
1E12
100
AcDbEntity
  8
寸法線1
 62
     0
370
    -2
100
AcDbLine
 10
1076.512149989759
 20
779.8940015499002
 30
0.0
 11
1076.512149989759
 21
816.1440015499
 31
0.0
  0
LINE
  5
1E14
330
1E12
100
AcDbEntity
  8
寸法線1
 62
     0
370
    -2
100
AcDbLine
 10
1049.514112395468
 20
644.5578790516629
 30
0.0
 11
1049.514112395468
 21
816.1440015499
 31
0.0
  0
LINE
  5
1E15
330
1E12
100
AcDbEntity
  8
寸法線1
 62
     0
370
    -2
100
AcDbLine
 10
1089.012149989759
 20
809.8940015499
 30
0.0
 11
1101.512149989759
 21
809.8940015499
 31
0.0
  0
LINE
  5
1E16
330
1E12
100
AcDbEntity
  8
寸法線1
 62
     0
370
    -2
100
AcDbLine
 10
1037.014112395467
 20
809.8940015499
 30
0.0
 11
989.5141123954687
 21
809.8940015499
 31
0.0
  0
LINE
  5
1E17
330
1E12
100
AcDbEntity
  8
寸法線1
 62
     0
370
    -2
100
AcDbLine
 10
1076.512149989759
 20
809.8940015499
 30
0.0
 11
1049.514112395468
 21
809.8940015499
 31
0.0
  0
INSERT
  5
1E18
330
1E12
100
AcDbEntity
  8
寸法線1
 62
     0
370
    -2
100
AcDbBlockReference
  2
_Open
 10
1076.512149989759
 20
809.8940015499
 30
0.0
 41
12.5
 42
12.5
 43
12.5
 50
180.0
  0
INSERT
  5
1E19
330
1E12
100
AcDbEntity
  8
寸法線1
 62
     0
370
    -2
100
AcDbBlockReference
  2
_Open
 10
1049.514112395468
 20
809.8940015499
 30
0.0
 41
12.5
 42
12.5
 43
12.5
  0
MTEXT
  5
1E1A
330
1E12
100
AcDbEntity
  8
寸法線1
 62
     0
100
AcDbMText
 10
1007.014112395468
 20
822.3940015499
 30
0.0
 40
15.0
 41
0.0
 71
     5
 72
     1
  1
27
 73
     1
 44
1.0
1001
ACAD
1000
MTEXTBEGIN
1070
    73
1070
     1
1070
    44
1040
1.0
1070
    74
1070
     0
1000
MTEXTEND
  0
POINT
  5
1E1B
330
1E12
100
AcDbEntity
  8
Defpoints
 62
     0
100
AcDbPoint
 10
1076.512149989759
 20
774.8940015499002
 30
0.0
  0
POINT
  5
1E1C
330
1E12
100
AcDbEntity
  8
Defpoints
 62
     0
100
AcDbPoint
 10
1049.514112395468
 20
639.5578790516629
 30
0.0
  0
POINT
  5
1E1D
330
1E12
100
AcDbEntity
  8
Defpoints
 62
     0
100
AcDbPoint
 10
1049.514112395468
 20
809.8940015499
 30
0.0
  0
ENDBLK
  5
1E1F
330
1E12
100
AcDbEntity
  8
0
100
AcDbBlockEnd
  0
BLOCK
  5
1E57
330
1E47
100
AcDbEntity
  8
0
100
AcDbBlockBegin
  2
A$C47510942
 70
     0
 10
0.0
 20
0.0
 30
0.0
  3
A$C47510942
  1

  0
LINE
  5
1E48
330
1E47
100
AcDbEntity
  8
1、実線
100
AcDbLine
 10
-13.55438596131921
 20
20.83225969858721
 30
0.0
 11
-0.5543859613189852
 21
20.83225969858721
 31
0.0
  0
ARC
  5
1E49
330
1E47
100
AcDbEntity
  8
1、実線
100
AcDbCircle
 10
-13.55438596131921
 20
19.83225969858722
 30
0.0
 40
1.0
100
AcDbArc
 50
90.0
 51
180.0
  0
LINE
  5
1E4A
330
1E47
100
AcDbEntity
  8
1、実線
100
AcDbLine
 10
0.4456140386810148
 20
19.83225969858722
 30
0.0
 11
0.4456140386811285
 21
0.8322596985872792
 31
0.0
  0
ARC
  5
1E4B
330
1E47
100
AcDbEntity
  8
1、実線
100
AcDbCircle
 10
-0.5543859613189852
 20
19.83225969858722
 30
0.0
 40
1.0
100
AcDbArc
 50
0.0
 51
90.0
  0
LINE
  5
1E4C
330
1E47
100
AcDbEntity
  8
1、実線
100
AcDbLine
 10
-0.5543859613188717
 20
-0.1677403014127208
 30
0.0
 11
-13.55438596131908
 21
-0.1677403014127208
 31
0.0
  0
ARC
  5
1E4D
330
1E47
100
AcDbEntity
  8
1、実線
100
AcDbCircle
 10
-0.5543859613188717
 20
0.8322596985872792
 30
0.0
 40
1.0
100
AcDbArc
 50
270.0
 51
0.0
  0
LINE
  5
1E4E
330
1E47
100
AcDbEntity
  8
1、実線
100
AcDbLine
 10
-14.5543859613191
 20
0.8322596985872792
 30
0.0
 11
-14.55438596131921
 21
19.83225969858722
 31
0.0
  0
ARC
  5
1E4F
330
1E47
100
AcDbEntity
  8
1、実線
100
AcDbCircle
 10
-13.55438596131908
 20
0.8322596985872792
 30
0.0
 40
1.0
100
AcDbArc
 50
180.0
 51
270.0
  0
LINE
  5
1E50
330
1E47
100
AcDbEntity
  8
1、実線
100
AcDbLine
 10
-12.30438596131908
 20
18.08225969858721
 30
0.0
 11
-1.804385961319098
 21
18.08225969858721
 31
0.0
  0
LINE
  5
1E51
330
1E47
100
AcDbEntity
  8
1、実線
100
AcDbLine
 10
-1.804385961319098
 20
18.08225969858721
 30
0.0
 11
-1.804385961319098
 21
2.582259698587221
 31
0.0
  0
LINE
  5
1E52
330
1E47
100
AcDbEntity
  8
1、実線
100
AcDbLine
 10
-1.804385961319098
 20
2.582259698587221
 30
0.0
 11
-12.30438596131908
 21
2.582259698587221
 31
0.0
  0
LINE
  5
1E53
330
1E47
100
AcDbEntity
  8
1、実線
100
AcDbLine
 10
-12.30438596131908
 20
2.582259698587221
 30
0.0
 11
-12.30438596131908
 21
18.08225969858721
 31
0.0
  0
LINE
  5
1E54
330
1E47
100
AcDbEntity
  8
1、実線
100
AcDbLine
 10
-12.30438596131908
 20
14.83225969858722
 30
0.0
 11
-1.804385961319098
 21
14.83225969858722
 31
0.0
  0
ENDBLK
  5
1E58
330
1E47
100
AcDbEntity
  8
0
100
AcDbBlockEnd
  0
BLOCK
  5
20D2
330
20C6
100
AcDbEntity
  8
0
100
AcDbBlockBegin
  2
*D16
 70
     1
 10
0.0
 20
0.0
 30
0.0
  3
*D16
  1

  0
LINE
  5
20EA
330
20C6
100
AcDbEntity
  8
寸法線1
 62
     0
370
    -2
100
AcDbLine
 10
1520.014112395468
 20
776.8940015499
 30
0.0
 11
1520.014112395468
 21
816.1440015499
 31
0.0
  0
LINE
  5
20EB
330
20C6
100
AcDbEntity
  8
寸法線1
 62
     0
370
    -2
100
AcDbLine
 10
1516.514112395469
 20
782.8940015499
 30
0.0
 11
1516.514112395469
 21
816.1440015499
 31
0.0
  0
LINE
  5
20EC
330
20C6
100
AcDbEntity
  8
寸法線1
 62
     0
370
    -2
100
AcDbLine
 10
1504.014112395469
 20
809.8940015499
 30
0.0
 11
1491.514112395469
 21
809.8940015499
 31
0.0
  0
LINE
  5
20ED
330
20C6
100
AcDbEntity
  8
寸法線1
 62
     0
370
    -2
100
AcDbLine
 10
1532.514112395468
 20
809.8940015499
 30
0.0
 11
1587.964853939106
 21
809.8940015499
 31
0.0
  0
LINE
  5
20EE
330
20C6
100
AcDbEntity
  8
寸法線1
 62
     0
370
    -2
100
AcDbLine
 10
1516.514112395469
 20
809.8940015499
 30
0.0
 11
1520.014112395468
 21
809.8940015499
 31
0.0
  0
INSERT
  5
20EF
330
20C6
100
AcDbEntity
  8
寸法線1
 62
     0
370
    -2
100
AcDbBlockReference
  2
_Open
 10
1516.514112395469
 20
809.8940015499
 30
0.0
 41
12.5
 42
12.5
 43
12.5
  0
INSERT
  5
20F0
330
20C6
100
AcDbEntity
  8
寸法線1
 62
     0
370
    -2
100
AcDbBlockReference
  2
_Open
 10
1520.014112395468
 20
809.8940015499
 30
0.0
 41
12.5
 42
12.5
 43
12.5
 50
180.0
  0
MTEXT
  5
20F1
330
20C6
100
AcDbEntity
  8
寸法線1
 62
     0
100
AcDbMText
 10
1566.714853939106
 20
823.6440015499001
 30
0.0
 40
15.0
 41
0.0
 71
     5
 72
     1
  1
3,5
 73
     1
 44
1.0
  0
POINT
  5
20F2
330
20C6
100
AcDbEntity
  8
Defpoints
 62
     0
100
AcDbPoint
 10
1520.014112395468
 20
771.8940015499001
 30
0.0
  0
POINT
  5
20F3
330
20C6
100
AcDbEntity
  8
Defpoints
 62
     0
100
AcDbPoint
 10
1516.514112395469
 20
777.8940015499
 30
0.0
  0
POINT
  5
20F4
330
20C6
100
AcDbEntity
  8
Defpoints
 62
     0
100
AcDbPoint
 10
1516.514112395469
 20
809.8940015499
 30
0.0
  0
ENDBLK
  5
20D3
330
20C6
100
AcDbEntity
  8
0
100
AcDbBlockEnd
  0
BLOCK
  5
210B
330
2101
100
AcDbEntity
  8
0
100
AcDbBlockBegin
  2
*D17
 70
     1
 10
0.0
 20
0.0
 30
0.0
  3
*D17
  1

  0
LINE
  5
21FD
330
2101
100
AcDbEntity
  8
寸法線1
 62
     0
370
    -2
100
AcDbLine
 10
341.5121499897596
 20
1335.332009914905
 30
0.0
 11
246.0680881383777
 21
1335.332009914905
 31
0.0
  0
LINE
  5
21FE
330
2101
100
AcDbEntity
  8
寸法線1
 62
     0
370
    -2
100
AcDbLine
 10
357.5121499897596
 20
864.8320099149056
 30
0.0
 11
246.0680881383776
 21
864.8320099149058
 31
0.0
  0
LINE
  5
21FF
330
2101
100
AcDbEntity
  8
寸法線1
 62
     0
370
    -2
100
AcDbLine
 10
252.3180881383777
 20
1322.832009914906
 30
0.0
 11
252.3180881383776
 21
877.3320099149058
 31
0.0
  0
INSERT
  5
2200
330
2101
100
AcDbEntity
  8
寸法線1
 62
     0
370
    -2
100
AcDbBlockReference
  2
_Open
 10
252.3180881383777
 20
1335.332009914905
 30
0.0
 41
12.5
 42
12.5
 43
12.5
 50
90.0
  0
INSERT
  5
2201
330
2101
100
AcDbEntity
  8
寸法線1
 62
     0
370
    -2
100
AcDbBlockReference
  2
_Open
 10
252.3180881383776
 20
864.8320099149058
 30
0.0
 41
12.5
 42
12.5
 43
12.5
 50
270.0
  0
MTEXT
  5
2202
330
2101
100
AcDbEntity
  8
寸法線1
 62
     0
100
AcDbMText
 10
238.5680881383774
 20
1141.995255950535
 30
0.0
 40
15.0
 41
0.0
 71
     5
 72
     1
  1
470,5
 11
0.0000000000000001
 21
1.0
 31
0.0
 73
     1
 44
1.0
  0
POINT
  5
2203
330
2101
100
AcDbEntity
  8
Defpoints
 62
     0
100
AcDbPoint
 10
346.5121499897596
 20
1335.332009914905
 30
0.0
  0
POINT
  5
2204
330
2101
100
AcDbEntity
  8
Defpoints
 62
     0
100
AcDbPoint
 10
362.5121499897596
 20
864.8320099149056
 30
0.0
  0
POINT
  5
2205
330
2101
100
AcDbEntity
  8
Defpoints
 62
     0
100
AcDbPoint
 10
252.3180881383776
 20
864.8320099149058
 30
0.0
  0
ENDBLK
  5
210C
330
2101
100
AcDbEntity
  8
0
100
AcDbBlockEnd
  0
BLOCK
  5
2165
330
2159
100
AcDbEntity
  8
0
100
AcDbBlockBegin
  2
*D18
 70
     1
 10
0.0
 20
0.0
 30
0.0
  3
*D18
  1

  0
LINE
  5
217D
330
2159
100
AcDbEntity
  8
寸法線1
 62
     0
370
    -2
100
AcDbLine
 10
810.5121499897595
 20
777.8940015499
 30
0.0
 11
861.7621499897596
 21
777.8940015499
 31
0.0
  0
LINE
  5
217E
330
2159
100
AcDbEntity
  8
寸法線1
 62
     0
370
    -2
100
AcDbLine
 10
807.5121499897596
 20
784.5940098543865
 30
0.0
 11
861.7621499897596
 21
784.5940098543865
 31
0.0
  0
LINE
  5
217F
330
2159
100
AcDbEntity
  8
寸法線1
 62
     0
370
    -2
100
AcDbLine
 10
855.5121499897595
 20
765.3940015499
 30
0.0
 11
855.5121499897595
 21
752.8940015499
 31
0.0
  0
LINE
  5
2180
330
2159
100
AcDbEntity
  8
寸法線1
 62
     0
370
    -2
100
AcDbLine
 10
855.5121499897596
 20
797.0940098543865
 30
0.0
 11
855.5121499897596
 21
829.5940098543864
 31
0.0
  0
LINE
  5
2181
330
2159
100
AcDbEntity
  8
寸法線1
 62
     0
370
    -2
100
AcDbLine
 10
855.5121499897596
 20
777.8940015499
 30
0.0
 11
855.5121499897596
 21
784.5940098543865
 31
0.0
  0
INSERT
  5
2182
330
2159
100
AcDbEntity
  8
寸法線1
 62
     0
370
    -2
100
AcDbBlockReference
  2
_Open
 10
855.5121499897596
 20
777.8940015499
 30
0.0
 41
12.5
 42
12.5
 43
12.5
 50
90.0
  0
INSERT
  5
2183
330
2159
100
AcDbEntity
  8
寸法線1
 62
     0
370
    -2
100
AcDbBlockReference
  2
_Open
 10
855.5121499897596
 20
784.5940098543865
 30
0.0
 41
12.5
 42
12.5
 43
12.5
 50
270.0
  0
MTEXT
  5
2184
330
2159
100
AcDbEntity
  8
寸法線1
 62
     0
100
AcDbMText
 10
843.0121499897595
 20
819.5940098543868
 30
0.0
 40
15.0
 41
0.0
 71
     5
 72
     1
  1
7
 11
0.0000000000000001
 21
1.0
 31
0.0
 73
     1
 44
1.0
  0
POINT
  5
2185
330
2159
100
AcDbEntity
  8
Defpoints
 62
     0
100
AcDbPoint
 10
805.5121499897595
 20
777.8940015499
 30
0.0
  0
POINT
  5
2186
330
2159
100
AcDbEntity
  8
Defpoints
 62
     0
100
AcDbPoint
 10
802.5121499897595
 20
784.5940098543865
 30
0.0
  0
POINT
  5
2187
330
2159
100
AcDbEntity
  8
Defpoints
 62
     0
100
AcDbPoint
 10
855.5121499897596
 20
784.5940098543865
 30
0.0
  0
ENDBLK
  5
2166
330
2159
100
AcDbEntity
  8
0
100
AcDbBlockEnd
  0
BLOCK
  5
21B7
330
21AD
100
AcDbEntity
  8
0
100
AcDbBlockBegin
  2
*D19
 70
     1
 10
0.0
 20
0.0
 30
0.0
  3
*D19
  1

  0
LINE
  5
220F
330
21AD
100
AcDbEntity
  8
寸法線1
 62
     0
370
    -2
100
AcDbLine
 10
340.5121499897595
 20
281.7148800926592
 30
0.0
 11
340.5121499897595
 21
195.4499396985182
 31
0.0
  0
LINE
  5
2210
330
21AD
100
AcDbEntity
  8
寸法線1
 62
     0
370
    -2
100
AcDbLine
 10
812.2121582942458
 20
323.9071508733077
 30
0.0
 11
812.2121582942458
 21
195.4499396985182
 31
0.0
  0
LINE
  5
2211
330
21AD
100
AcDbEntity
  8
寸法線1
 62
     0
370
    -2
100
AcDbLine
 10
353.0121499897595
 20
201.6999396985181
 30
0.0
 11
799.7121582942459
 21
201.6999396985181
 31
0.0
  0
INSERT
  5
2212
330
21AD
100
AcDbEntity
  8
寸法線1
 62
     0
370
    -2
100
AcDbBlockReference
  2
_Open
 10
340.5121499897595
 20
201.6999396985181
 30
0.0
 41
12.5
 42
12.5
 43
12.5
 50
180.0
  0
INSERT
  5
2213
330
21AD
100
AcDbEntity
  8
寸法線1
 62
     0
370
    -2
100
AcDbBlockReference
  2
_Open
 10
812.2121582942458
 20
201.6999396985181
 30
0.0
 41
12.5
 42
12.5
 43
12.5
  0
MTEXT
  5
2214
330
21AD
100
AcDbEntity
  8
寸法線1
 62
     0
100
AcDbMText
 10
576.3621541420027
 20
214.1999396985181
 30
0.0
 40
15.0
 41
0.0
 71
     5
 72
     1
  1
472
 73
     1
 44
1.0
  0
POINT
  5
2215
330
21AD
100
AcDbEntity
  8
Defpoints
 62
     0
100
AcDbPoint
 10
340.5121499897595
 20
286.7148800926592
 30
0.0
  0
POINT
  5
2216
330
21AD
100
AcDbEntity
  8
Defpoints
 62
     0
100
AcDbPoint
 10
812.2121582942458
 20
328.9071508733077
 30
0.0
  0
POINT
  5
2217
330
21AD
100
AcDbEntity
  8
Defpoints
 62
     0
100
AcDbPoint
 10
812.2121582942458
 20
201.6999396985181
 30
0.0
  0
ENDBLK
  5
21B8
330
21AD
100
AcDbEntity
  8
0
100
AcDbBlockEnd
  0
BLOCK
  5
2244
330
2238
100
AcDbEntity
  8
0
100
AcDbBlockBegin
  2
*D20
 70
     1
 10
0.0
 20
0.0
 30
0.0
  3
*D20
  1

  0
LINE
  5
2246
330
2238
100
AcDbEntity
  8
寸法線1
 62
     0
370
    -2
100
AcDbLine
 10
805.5121499897595
 20
314.8940015499001
 30
0.0
 11
805.5121499897595
 21
233.6440015499
 31
0.0
  0
LINE
  5
2247
330
2238
100
AcDbEntity
  8
寸法線1
 62
     0
370
    -2
100
AcDbLine
 10
812.2121582942458
 20
314.8940015499001
 30
0.0
 11
812.2121582942458
 21
233.6440015499
 31
0.0
  0
LINE
  5
2248
330
2238
100
AcDbEntity
  8
寸法線1
 62
     0
370
    -2
100
AcDbLine
 10
793.0121499897595
 20
239.8940015499
 30
0.0
 11
780.5121499897595
 21
239.8940015499
 31
0.0
  0
LINE
  5
2249
330
2238
100
AcDbEntity
  8
寸法線1
 62
     0
370
    -2
100
AcDbLine
 10
824.7121582942458
 20
239.8940015499
 30
0.0
 11
857.2121582942459
 21
239.8940015499
 31
0.0
  0
LINE
  5
224A
330
2238
100
AcDbEntity
  8
寸法線1
 62
     0
370
    -2
100
AcDbLine
 10
805.5121499897595
 20
239.8940015499
 30
0.0
 11
812.2121582942458
 21
239.8940015499
 31
0.0
  0
INSERT
  5
224B
330
2238
100
AcDbEntity
  8
寸法線1
 62
     0
370
    -2
100
AcDbBlockReference
  2
_Open
 10
805.5121499897595
 20
239.8940015499
 30
0.0
 41
12.5
 42
12.5
 43
12.5
  0
INSERT
  5
224C
330
2238
100
AcDbEntity
  8
寸法線1
 62
     0
370
    -2
100
AcDbBlockReference
  2
_Open
 10
812.2121582942458
 20
239.8940015499
 30
0.0
 41
12.5
 42
12.5
 43
12.5
 50
180.0
  0
MTEXT
  5
224D
330
2238
100
AcDbEntity
  8
寸法線1
 62
     0
100
AcDbMText
 10
847.212158294246
 20
252.3940015499
 30
0.0
 40
15.0
 41
0.0
 71
     5
 72
     1
  1
7
 73
     1
 44
1.0
  0
POINT
  5
224E
330
2238
100
AcDbEntity
  8
Defpoints
 62
     0
100
AcDbPoint
 10
805.5121499897595
 20
319.8940015499001
 30
0.0
  0
POINT
  5
224F
330
2238
100
AcDbEntity
  8
Defpoints
 62
     0
100
AcDbPoint
 10
812.2121582942458
 20
319.8940015499001
 30
0.0
  0
POINT
  5
2250
330
2238
100
AcDbEntity
  8
Defpoints
 62
     0
100
AcDbPoint
 10
812.2121582942458
 20
239.8940015499
 30
0.0
  0
ENDBLK
  5
2245
330
2238
100
AcDbEntity
  8
0
100
AcDbBlockEnd
  0
BLOCK
  5
27E5
330
27DB
100
AcDbEntity
  8
0
100
AcDbBlockBegin
  2
*D21
 70
     1
 10
0.0
 20
0.0
 30
0.0
  3
*D21
  1

  0
LINE
  5
28AF
330
27DB
100
AcDbEntity
  8
寸法線1
 62
     0
370
    -2
100
AcDbLine
 10
1516.514112395469
 20
2445.019859846508
 30
0.0
 11
1516.514112395469
 21
2478.269859846508
 31
0.0
  0
LINE
  5
28B0
330
27DB
100
AcDbEntity
  8
寸法線1
 62
     0
370
    -2
100
AcDbLine
 10
1076.512149989759
 20
2442.019859846508
 30
0.0
 11
1076.512149989759
 21
2478.269859846508
 31
0.0
  0
LINE
  5
28B1
330
27DB
100
AcDbEntity
  8
寸法線1
 62
     0
370
    -2
100
AcDbLine
 10
1504.014112395469
 20
2472.019859846508
 30
0.0
 11
1089.012149989759
 21
2472.019859846508
 31
0.0
  0
INSERT
  5
28B2
330
27DB
100
AcDbEntity
  8
寸法線1
 62
     0
370
    -2
100
AcDbBlockReference
  2
_Open
 10
1516.514112395469
 20
2472.019859846508
 30
0.0
 41
12.5
 42
12.5
 43
12.5
  0
INSERT
  5
28B3
330
27DB
100
AcDbEntity
  8
寸法線1
 62
     0
370
    -2
100
AcDbBlockReference
  2
_Open
 10
1076.512149989759
 20
2472.019859846508
 30
0.0
 41
12.5
 42
12.5
 43
12.5
 50
180.0
  0
MTEXT
  5
28B4
330
27DB
100
AcDbEntity
  8
寸法線1
 62
     0
100
AcDbMText
 10
1296.513131192614
 20
2484.519859846508
 30
0.0
 40
15.0
 41
0.0
 71
     5
 72
     1
  1
440
 73
     1
 44
1.0
  0
POINT
  5
28B5
330
27DB
100
AcDbEntity
  8
Defpoints
 62
     0
100
AcDbPoint
 10
1516.514112395469
 20
2440.019859846508
 30
0.0
  0
POINT
  5
28B6
330
27DB
100
AcDbEntity
  8
Defpoints
 62
     0
100
AcDbPoint
 10
1076.512149989759
 20
2437.019859846508
 30
0.0
  0
POINT
  5
28B7
330
27DB
100
AcDbEntity
  8
Defpoints
 62
     0
100
AcDbPoint
 10
1076.512149989759
 20
2472.019859846508
 30
0.0
  0
ENDBLK
  5
27E6
330
27DB
100
AcDbEntity
  8
0
100
AcDbBlockEnd
  0
BLOCK
  5
27F1
330
27E7
100
AcDbEntity
  8
0
100
AcDbBlockBegin
  2
*D22
 70
     1
 10
0.0
 20
0.0
 30
0.0
  3
*D22
  1

  0
LINE
  5
28B8
330
27E7
100
AcDbEntity
  8
寸法線1
 62
     0
370
    -2
100
AcDbLine
 10
335.5121499897596
 20
2593.957868211514
 30
0.0
 11
284.2621499897595
 21
2593.957868211514
 31
0.0
  0
LINE
  5
28B9
330
27E7
100
AcDbEntity
  8
寸法線1
 62
     0
370
    -2
100
AcDbLine
 10
335.5121499897596
 20
2553.957868211514
 30
0.0
 11
284.2621499897595
 21
2553.957868211514
 31
0.0
  0
LINE
  5
28BA
330
27E7
100
AcDbEntity
  8
寸法線1
 62
     0
370
    -2
100
AcDbLine
 10
290.5121499897595
 20
2581.457868211514
 30
0.0
 11
290.5121499897595
 21
2566.457868211514
 31
0.0
  0
INSERT
  5
28BB
330
27E7
100
AcDbEntity
  8
寸法線1
 62
     0
370
    -2
100
AcDbBlockReference
  2
_Open
 10
290.5121499897595
 20
2593.957868211514
 30
0.0
 41
12.5
 42
12.5
 43
12.5
 50
90.0
  0
INSERT
  5
28BC
330
27E7
100
AcDbEntity
  8
寸法線1
 62
     0
370
    -2
100
AcDbBlockReference
  2
_Open
 10
290.5121499897595
 20
2553.957868211514
 30
0.0
 41
12.5
 42
12.5
 43
12.5
 50
270.0
  0
MTEXT
  5
28BD
330
27E7
100
AcDbEntity
  8
寸法線1
 62
     0
100
AcDbMText
 10
278.0121499897591
 20
2573.957868211514
 30
0.0
 40
15.0
 41
0.0
 71
     5
 72
     1
  1
40
 11
0.0000000000000001
 21
1.0
 31
0.0
 73
     1
 44
1.0
  0
POINT
  5
28BE
330
27E7
100
AcDbEntity
  8
Defpoints
 62
     0
100
AcDbPoint
 10
340.5121499897596
 20
2593.957868211514
 30
0.0
  0
POINT
  5
28BF
330
27E7
100
AcDbEntity
  8
Defpoints
 62
     0
100
AcDbPoint
 10
340.5121499897596
 20
2553.957868211514
 30
0.0
  0
POINT
  5
28C0
330
27E7
100
AcDbEntity
  8
Defpoints
 62
     0
100
AcDbPoint
 10
290.5121499897595
 20
2553.957868211514
 30
0.0
  0
ENDBLK
  5
27F2
330
27E7
100
AcDbEntity
  8
0
100
AcDbBlockEnd
  0
BLOCK
  5
27FD
330
27F3
100
AcDbEntity
  8
0
100
AcDbBlockBegin
  2
*D23
 70
     1
 10
0.0
 20
0.0
 30
0.0
  3
*D23
  1

  0
LINE
  5
28C1
330
27F3
100
AcDbEntity
  8
寸法線1
 62
     0
370
    -2
100
AcDbLine
 10
712.9885804942066
 20
2036.019859846508
 30
0.0
 11
714.2385804942072
 21
2036.019859846508
 31
0.0
  0
LINE
  5
28C2
330
27F3
100
AcDbEntity
  8
寸法線1
 62
     0
370
    -2
100
AcDbLine
 10
702.9885804942073
 20
2386.019859846508
 30
0.0
 11
701.7385804942072
 21
2386.019859846508
 31
0.0
  0
LINE
  5
28C3
330
27F3
100
AcDbEntity
  8
寸法線1
 62
     0
370
    -2
100
AcDbLine
 10
707.9885804942072
 20
2048.519859846508
 30
0.0
 11
707.9885804942072
 21
2373.519859846508
 31
0.0
  0
INSERT
  5
28C4
330
27F3
100
AcDbEntity
  8
寸法線1
 62
     0
370
    -2
100
AcDbBlockReference
  2
_Open
 10
707.9885804942072
 20
2036.019859846508
 30
0.0
 41
12.5
 42
12.5
 43
12.5
 50
270.0
  0
INSERT
  5
28C5
330
27F3
100
AcDbEntity
  8
寸法線1
 62
     0
370
    -2
100
AcDbBlockReference
  2
_Open
 10
707.9885804942072
 20
2386.019859846508
 30
0.0
 41
12.5
 42
12.5
 43
12.5
 50
90.0
  0
MTEXT
  5
28C6
330
27F3
100
AcDbEntity
  8
寸法線1
 62
     0
100
AcDbMText
 10
695.4885804942068
 20
2211.019859846508
 30
0.0
 40
15.0
 41
0.0
 71
     5
 72
     1
  1
350
 11
0.0000000000000001
 21
1.0
 31
0.0
 73
     1
 44
1.0
  0
POINT
  5
28C7
330
27F3
100
AcDbEntity
  8
Defpoints
 62
     0
100
AcDbPoint
 10
707.9885804942066
 20
2036.019859846508
 30
0.0
  0
POINT
  5
28C8
330
27F3
100
AcDbEntity
  8
Defpoints
 62
     0
100
AcDbPoint
 10
707.9885804942072
 20
2386.019859846508
 30
0.0
  0
POINT
  5
28C9
330
27F3
100
AcDbEntity
  8
Defpoints
 62
     0
100
AcDbPoint
 10
707.9885804942072
 20
2386.019859846508
 30
0.0
  0
ENDBLK
  5
27FE
330
27F3
100
AcDbEntity
  8
0
100
AcDbBlockEnd
  0
BLOCK
  5
2809
330
27FF
100
AcDbEntity
  8
0
100
AcDbBlockBegin
  2
*D24
 70
     1
 10
0.0
 20
0.0
 30
0.0
  3
*D24
  1

  0
LINE
  5
28CA
330
27FF
100
AcDbEntity
  8
寸法線1
 62
     0
370
    -2
100
AcDbLine
 10
385.0121499897596
 20
2078.167808773785
 30
0.0
 11
385.0121499897596
 21
2097.904767530967
 31
0.0
  0
LINE
  5
28CB
330
27FF
100
AcDbEntity
  8
寸法線1
 62
     0
370
    -2
100
AcDbLine
 10
761.0121499897595
 20
2078.167808773785
 30
0.0
 11
761.0121499897595
 21
2097.904767530967
 31
0.0
  0
LINE
  5
28CC
330
27FF
100
AcDbEntity
  8
寸法線1
 62
     0
370
    -2
100
AcDbLine
 10
397.5121499897596
 20
2091.654767530967
 30
0.0
 11
748.5121499897595
 21
2091.654767530967
 31
0.0
  0
INSERT
  5
28CD
330
27FF
100
AcDbEntity
  8
寸法線1
 62
     0
370
    -2
100
AcDbBlockReference
  2
_Open
 10
385.0121499897596
 20
2091.654767530967
 30
0.0
 41
12.5
 42
12.5
 43
12.5
 50
180.0
  0
INSERT
  5
28CE
330
27FF
100
AcDbEntity
  8
寸法線1
 62
     0
370
    -2
100
AcDbBlockReference
  2
_Open
 10
761.0121499897595
 20
2091.654767530967
 30
0.0
 41
12.5
 42
12.5
 43
12.5
  0
MTEXT
  5
28CF
330
27FF
100
AcDbEntity
  8
寸法線1
 62
     0
100
AcDbMText
 10
573.0121499897595
 20
2104.154767530967
 30
0.0
 40
15.0
 41
0.0
 71
     5
 72
     1
  1
376
 73
     1
 44
1.0
  0
POINT
  5
28D0
330
27FF
100
AcDbEntity
  8
Defpoints
 62
     0
100
AcDbPoint
 10
385.0121499897596
 20
2073.167808773785
 30
0.0
  0
POINT
  5
28D1
330
27FF
100
AcDbEntity
  8
Defpoints
 62
     0
100
AcDbPoint
 10
761.0121499897595
 20
2073.167808773785
 30
0.0
  0
POINT
  5
28D2
330
27FF
100
AcDbEntity
  8
Defpoints
 62
     0
100
AcDbPoint
 10
761.0121499897595
 20
2091.654767530967
 30
0.0
  0
ENDBLK
  5
280A
330
27FF
100
AcDbEntity
  8
0
100
AcDbBlockEnd
  0
BLOCK
  5
2815
330
280B
100
AcDbEntity
  8
0
100
AcDbBlockBegin
  2
*D25
 70
     1
 10
0.0
 20
0.0
 30
0.0
  3
*D25
  1

  0
LINE
  5
28D3
330
280B
100
AcDbEntity
  8
寸法線1
 62
     0
370
    -2
100
AcDbLine
 10
1071.512149989759
 20
2437.019859846508
 30
0.0
 11
993.2641123954692
 21
2437.019859846509
 31
0.0
  0
LINE
  5
28D4
330
280B
100
AcDbEntity
  8
寸法線1
 62
     0
370
    -2
100
AcDbLine
 10
1071.512149989759
 20
1987.019859846508
 30
0.0
 11
993.264112395469
 21
1987.019859846508
 31
0.0
  0
LINE
  5
28D5
330
280B
100
AcDbEntity
  8
寸法線1
 62
     0
370
    -2
100
AcDbLine
 10
999.5141123954692
 20
2424.519859846509
 30
0.0
 11
999.514112395469
 21
1999.519859846508
 31
0.0
  0
INSERT
  5
28D6
330
280B
100
AcDbEntity
  8
寸法線1
 62
     0
370
    -2
100
AcDbBlockReference
  2
_Open
 10
999.5141123954692
 20
2437.019859846509
 30
0.0
 41
12.5
 42
12.5
 43
12.5
 50
90.0
  0
INSERT
  5
28D7
330
280B
100
AcDbEntity
  8
寸法線1
 62
     0
370
    -2
100
AcDbBlockReference
  2
_Open
 10
999.514112395469
 20
1987.019859846508
 30
0.0
 41
12.5
 42
12.5
 43
12.5
 50
270.0
  0
MTEXT
  5
28D8
330
280B
100
AcDbEntity
  8
寸法線1
 62
     0
100
AcDbMText
 10
987.0141123954686
 20
2212.019859846509
 30
0.0
 40
15.0
 41
0.0
 71
     5
 72
     1
  1
450
 11
0.0000000000000001
 21
1.0
 31
0.0
 73
     1
 44
1.0
  0
POINT
  5
28D9
330
280B
100
AcDbEntity
  8
Defpoints
 62
     0
100
AcDbPoint
 10
1076.512149989759
 20
2437.019859846508
 30
0.0
  0
POINT
  5
28DA
330
280B
100
AcDbEntity
  8
Defpoints
 62
     0
100
AcDbPoint
 10
1076.512149989759
 20
1987.019859846508
 30
0.0
  0
POINT
  5
28DB
330
280B
100
AcDbEntity
  8
Defpoints
 62
     0
100
AcDbPoint
 10
999.514112395469
 20
1987.019859846508
 30
0.0
  0
ENDBLK
  5
2816
330
280B
100
AcDbEntity
  8
0
100
AcDbBlockEnd
  0
BLOCK
  5
2821
330
2817
100
AcDbEntity
  8
0
100
AcDbBlockBegin
  2
*D26
 70
     1
 10
0.0
 20
0.0
 30
0.0
  3
*D26
  1

  0
LINE
  5
28DC
330
2817
100
AcDbEntity
  8
寸法線1
 62
     0
370
    -2
100
AcDbLine
 10
810.5121499897595
 20
2440.019859846508
 30
0.0
 11
861.7621499897596
 21
2440.019859846508
 31
0.0
  0
LINE
  5
28DD
330
2817
100
AcDbEntity
  8
寸法線1
 62
     0
370
    -2
100
AcDbLine
 10
810.5121499897597
 20
1982.019859846508
 30
0.0
 11
861.7621499897595
 21
1982.019859846508
 31
0.0
  0
LINE
  5
28DE
330
2817
100
AcDbEntity
  8
寸法線1
 62
     0
370
    -2
100
AcDbLine
 10
855.5121499897596
 20
2427.519859846508
 30
0.0
 11
855.5121499897595
 21
1994.519859846508
 31
0.0
  0
INSERT
  5
28DF
330
2817
100
AcDbEntity
  8
寸法線1
 62
     0
370
    -2
100
AcDbBlockReference
  2
_Open
 10
855.5121499897596
 20
2440.019859846508
 30
0.0
 41
12.5
 42
12.5
 43
12.5
 50
90.0
  0
INSERT
  5
28E0
330
2817
100
AcDbEntity
  8
寸法線1
 62
     0
370
    -2
100
AcDbBlockReference
  2
_Open
 10
855.5121499897595
 20
1982.019859846508
 30
0.0
 41
12.5
 42
12.5
 43
12.5
 50
270.0
  0
MTEXT
  5
28E1
330
2817
100
AcDbEntity
  8
寸法線1
 62
     0
100
AcDbMText
 10
843.0121499897591
 20
2211.019859846508
 30
0.0
 40
15.0
 41
0.0
 71
     5
 72
     1
  1
458
 11
0.0000000000000001
 21
1.0
 31
0.0
 73
     1
 44
1.0
  0
POINT
  5
28E2
330
2817
100
AcDbEntity
  8
Defpoints
 62
     0
100
AcDbPoint
 10
805.5121499897595
 20
2440.019859846508
 30
0.0
  0
POINT
  5
28E3
330
2817
100
AcDbEntity
  8
Defpoints
 62
     0
100
AcDbPoint
 10
805.5121499897596
 20
1982.019859846508
 30
0.0
  0
POINT
  5
28E4
330
2817
100
AcDbEntity
  8
Defpoints
 62
     0
100
AcDbPoint
 10
855.5121499897595
 20
1982.019859846508
 30
0.0
  0
ENDBLK
  5
2822
330
2817
100
AcDbEntity
  8
0
100
AcDbBlockEnd
  0
BLOCK
  5
282F
330
2823
100
AcDbEntity
  8
0
100
AcDbBlockBegin
  2
*D27
 70
     1
 10
0.0
 20
0.0
 30
0.0
  3
*D27
  1

  0
LINE
  5
28E5
330
2823
100
AcDbEntity
  8
寸法線1
 62
     0
370
    -2
100
AcDbLine
 10
810.5121499897595
 20
1982.019859846508
 30
0.0
 11
861.7621499897595
 21
1982.019859846508
 31
0.0
  0
LINE
  5
28E6
330
2823
100
AcDbEntity
  8
寸法線1
 62
     0
370
    -2
100
AcDbLine
 10
805.5121499897596
 20
1952.019859846508
 30
0.0
 11
861.7621499897595
 21
1952.019859846508
 31
0.0
  0
LINE
  5
28E7
330
2823
100
AcDbEntity
  8
寸法線1
 62
     0
370
    -2
100
AcDbLine
 10
855.5121499897595
 20
1994.519859846508
 30
0.0
 11
855.5121499897595
 21
2007.019859846508
 31
0.0
  0
LINE
  5
28E8
330
2823
100
AcDbEntity
  8
寸法線1
 62
     0
370
    -2
100
AcDbLine
 10
855.5121499897595
 20
1939.519859846508
 30
0.0
 11
855.5121499897595
 21
1927.019859846508
 31
0.0
  0
LINE
  5
28E9
330
2823
100
AcDbEntity
  8
寸法線1
 62
     0
370
    -2
100
AcDbLine
 10
855.5121499897595
 20
1982.019859846508
 30
0.0
 11
855.5121499897595
 21
1952.019859846508
 31
0.0
  0
INSERT
  5
28EA
330
2823
100
AcDbEntity
  8
寸法線1
 62
     0
370
    -2
100
AcDbBlockReference
  2
_Open
 10
855.5121499897595
 20
1982.019859846508
 30
0.0
 41
12.5
 42
12.5
 43
12.5
 50
270.0
  0
INSERT
  5
28EB
330
2823
100
AcDbEntity
  8
寸法線1
 62
     0
370
    -2
100
AcDbBlockReference
  2
_Open
 10
855.5121499897595
 20
1952.019859846508
 30
0.0
 41
12.5
 42
12.5
 43
12.5
 50
90.0
  0
MTEXT
  5
28EC
330
2823
100
AcDbEntity
  8
寸法線1
 62
     0
100
AcDbMText
 10
843.0121499897591
 20
1967.019859846509
 30
0.0
 40
15.0
 41
0.0
 71
     5
 72
     1
  1
31
 11
0.0000000000000001
 21
1.0
 31
0.0
 73
     1
 44
1.0
  0
POINT
  5
28ED
330
2823
100
AcDbEntity
  8
Defpoints
 62
     0
100
AcDbPoint
 10
805.5121499897595
 20
1982.019859846508
 30
0.0
  0
POINT
  5
28EE
330
2823
100
AcDbEntity
  8
Defpoints
 62
     0
100
AcDbPoint
 10
800.5121499897596
 20
1952.019859846508
 30
0.0
  0
POINT
  5
28EF
330
2823
100
AcDbEntity
  8
Defpoints
 62
     0
100
AcDbPoint
 10
855.5121499897595
 20
1952.019859846508
 30
0.0
  0
ENDBLK
  5
2830
330
2823
100
AcDbEntity
  8
0
100
AcDbBlockEnd
  0
BLOCK
  5
283B
330
2831
100
AcDbEntity
  8
0
100
AcDbBlockBegin
  2
*D28
 70
     1
 10
0.0
 20
0.0
 30
0.0
  3
*D28
  1

  0
LINE
  5
28F0
330
2831
100
AcDbEntity
  8
寸法線1
 62
     0
370
    -2
100
AcDbLine
 10
802.5121499897595
 20
2446.719868150994
 30
0.0
 11
899.9562118411418
 21
2446.719868150994
 31
0.0
  0
LINE
  5
28F1
330
2831
100
AcDbEntity
  8
寸法線1
 62
     0
370
    -2
100
AcDbLine
 10
805.5121499897596
 20
1952.019859846508
 30
0.0
 11
899.9562118411416
 21
1952.019859846508
 31
0.0
  0
LINE
  5
28F2
330
2831
100
AcDbEntity
  8
寸法線1
 62
     0
370
    -2
100
AcDbLine
 10
893.7062118411418
 20
2434.219868150995
 30
0.0
 11
893.7062118411416
 21
1964.519859846508
 31
0.0
  0
INSERT
  5
28F3
330
2831
100
AcDbEntity
  8
寸法線1
 62
     0
370
    -2
100
AcDbBlockReference
  2
_Open
 10
893.7062118411418
 20
2446.719868150994
 30
0.0
 41
12.5
 42
12.5
 43
12.5
 50
90.0
  0
INSERT
  5
28F4
330
2831
100
AcDbEntity
  8
寸法線1
 62
     0
370
    -2
100
AcDbBlockReference
  2
_Open
 10
893.7062118411416
 20
1952.019859846508
 30
0.0
 41
12.5
 42
12.5
 43
12.5
 50
270.0
  0
MTEXT
  5
28F5
330
2831
100
AcDbEntity
  8
寸法線1
 62
     0
100
AcDbMText
 10
881.2062118411413
 20
2209.864096339568
 30
0.0
 40
15.0
 41
0.0
 71
     5
 72
     1
  1
496
 11
0.0000000000000001
 21
1.0
 31
0.0
 73
     1
 44
1.0
  0
POINT
  5
28F6
330
2831
100
AcDbEntity
  8
Defpoints
 62
     0
100
AcDbPoint
 10
797.5121499897595
 20
2446.719868150994
 30
0.0
  0
POINT
  5
28F7
330
2831
100
AcDbEntity
  8
Defpoints
 62
     0
100
AcDbPoint
 10
800.5121499897596
 20
1952.019859846508
 30
0.0
  0
POINT
  5
28F8
330
2831
100
AcDbEntity
  8
Defpoints
 62
     0
100
AcDbPoint
 10
893.7062118411416
 20
1952.019859846508
 30
0.0
  0
ENDBLK
  5
283C
330
2831
100
AcDbEntity
  8
0
100
AcDbBlockEnd
  0
BLOCK
  5
2847
330
283D
100
AcDbEntity
  8
0
100
AcDbBlockBegin
  2
*D29
 70
     1
 10
0.0
 20
0.0
 30
0.0
  3
*D29
  1

  0
LINE
  5
28F9
330
283D
100
AcDbEntity
  8
寸法線1
 62
     0
370
    -2
100
AcDbLine
 10
340.5121499897595
 20
1977.019859846508
 30
0.0
 11
340.5121499897595
 21
1895.769859846508
 31
0.0
  0
LINE
  5
28FA
330
283D
100
AcDbEntity
  8
寸法線1
 62
     0
370
    -2
100
AcDbLine
 10
805.5121499897595
 20
1977.019859846508
 30
0.0
 11
805.5121499897595
 21
1895.769859846508
 31
0.0
  0
LINE
  5
28FB
330
283D
100
AcDbEntity
  8
寸法線1
 62
     0
370
    -2
100
AcDbLine
 10
353.0121499897595
 20
1902.019859846508
 30
0.0
 11
793.0121499897595
 21
1902.019859846508
 31
0.0
  0
INSERT
  5
28FC
330
283D
100
AcDbEntity
  8
寸法線1
 62
     0
370
    -2
100
AcDbBlockReference
  2
_Open
 10
340.5121499897595
 20
1902.019859846508
 30
0.0
 41
12.5
 42
12.5
 43
12.5
 50
180.0
  0
INSERT
  5
28FD
330
283D
100
AcDbEntity
  8
寸法線1
 62
     0
370
    -2
100
AcDbBlockReference
  2
_Open
 10
805.5121499897595
 20
1902.019859846508
 30
0.0
 41
12.5
 42
12.5
 43
12.5
  0
MTEXT
  5
28FE
330
283D
100
AcDbEntity
  8
寸法線1
 62
     0
100
AcDbMText
 10
573.0121499897595
 20
1914.519859846508
 30
0.0
 40
15.0
 41
0.0
 71
     5
 72
     1
  1
465
 73
     1
 44
1.0
  0
POINT
  5
28FF
330
283D
100
AcDbEntity
  8
Defpoints
 62
     0
100
AcDbPoint
 10
340.5121499897595
 20
1982.019859846508
 30
0.0
  0
POINT
  5
2900
330
283D
100
AcDbEntity
  8
Defpoints
 62
     0
100
AcDbPoint
 10
805.5121499897595
 20
1982.019859846508
 30
0.0
  0
POINT
  5
2901
330
283D
100
AcDbEntity
  8
Defpoints
 62
     0
100
AcDbPoint
 10
805.5121499897595
 20
1902.019859846508
 30
0.0
  0
ENDBLK
  5
2848
330
283D
100
AcDbEntity
  8
0
100
AcDbBlockEnd
  0
BLOCK
  5
2855
330
2849
100
AcDbEntity
  8
0
100
AcDbBlockBegin
  2
*D30
 70
     1
 10
0.0
 20
0.0
 30
0.0
  3
*D30
  1

  0
LINE
  5
2902
330
2849
100
AcDbEntity
  8
寸法線1
 62
     0
370
    -2
100
AcDbLine
 10
1076.512149989759
 20
2442.019859846508
 30
0.0
 11
1076.512149989759
 21
2478.269859846508
 31
0.0
  0
LINE
  5
2903
330
2849
100
AcDbEntity
  8
寸法線1
 62
     0
370
    -2
100
AcDbLine
 10
1049.514112395468
 20
2306.683737348271
 30
0.0
 11
1049.514112395468
 21
2478.269859846508
 31
0.0
  0
LINE
  5
2904
330
2849
100
AcDbEntity
  8
寸法線1
 62
     0
370
    -2
100
AcDbLine
 10
1089.012149989759
 20
2472.019859846508
 30
0.0
 11
1101.512149989759
 21
2472.019859846508
 31
0.0
  0
LINE
  5
2905
330
2849
100
AcDbEntity
  8
寸法線1
 62
     0
370
    -2
100
AcDbLine
 10
1037.014112395467
 20
2472.019859846508
 30
0.0
 11
989.514112395468
 21
2472.019859846508
 31
0.0
  0
LINE
  5
2906
330
2849
100
AcDbEntity
  8
寸法線1
 62
     0
370
    -2
100
AcDbLine
 10
1076.512149989759
 20
2472.019859846508
 30
0.0
 11
1049.514112395468
 21
2472.019859846508
 31
0.0
  0
INSERT
  5
2907
330
2849
100
AcDbEntity
  8
寸法線1
 62
     0
370
    -2
100
AcDbBlockReference
  2
_Open
 10
1076.512149989759
 20
2472.019859846508
 30
0.0
 41
12.5
 42
12.5
 43
12.5
 50
180.0
  0
INSERT
  5
2908
330
2849
100
AcDbEntity
  8
寸法線1
 62
     0
370
    -2
100
AcDbBlockReference
  2
_Open
 10
1049.514112395468
 20
2472.019859846508
 30
0.0
 41
12.5
 42
12.5
 43
12.5
  0
MTEXT
  5
2909
330
2849
100
AcDbEntity
  8
寸法線1
 62
     0
100
AcDbMText
 10
1007.014112395467
 20
2484.519859846508
 30
0.0
 40
15.0
 41
0.0
 71
     5
 72
     1
  1
27
 73
     1
 44
1.0
  0
POINT
  5
290A
330
2849
100
AcDbEntity
  8
Defpoints
 62
     0
100
AcDbPoint
 10
1076.512149989759
 20
2437.019859846508
 30
0.0
  0
POINT
  5
290B
330
2849
100
AcDbEntity
  8
Defpoints
 62
     0
100
AcDbPoint
 10
1049.514112395468
 20
2301.683737348271
 30
0.0
  0
POINT
  5
290C
330
2849
100
AcDbEntity
  8
Defpoints
 62
     0
100
AcDbPoint
 10
1049.514112395468
 20
2472.019859846508
 30
0.0
  0
ENDBLK
  5
2856
330
2849
100
AcDbEntity
  8
0
100
AcDbBlockEnd
  0
BLOCK
  5
2863
330
2857
100
AcDbEntity
  8
0
100
AcDbBlockBegin
  2
*D31
 70
     1
 10
0.0
 20
0.0
 30
0.0
  3
*D31
  1

  0
LINE
  5
290D
330
2857
100
AcDbEntity
  8
寸法線1
 62
     0
370
    -2
100
AcDbLine
 10
1520.014112395468
 20
2439.019859846508
 30
0.0
 11
1520.014112395468
 21
2478.269859846508
 31
0.0
  0
LINE
  5
290E
330
2857
100
AcDbEntity
  8
寸法線1
 62
     0
370
    -2
100
AcDbLine
 10
1516.514112395469
 20
2445.019859846508
 30
0.0
 11
1516.514112395469
 21
2478.269859846508
 31
0.0
  0
LINE
  5
290F
330
2857
100
AcDbEntity
  8
寸法線1
 62
     0
370
    -2
100
AcDbLine
 10
1504.014112395469
 20
2472.019859846508
 30
0.0
 11
1491.514112395469
 21
2472.019859846508
 31
0.0
  0
LINE
  5
2910
330
2857
100
AcDbEntity
  8
寸法線1
 62
     0
370
    -2
100
AcDbLine
 10
1532.514112395468
 20
2472.019859846508
 30
0.0
 11
1587.964853939106
 21
2472.019859846508
 31
0.0
  0
LINE
  5
2911
330
2857
100
AcDbEntity
  8
寸法線1
 62
     0
370
    -2
100
AcDbLine
 10
1516.514112395469
 20
2472.019859846508
 30
0.0
 11
1520.014112395468
 21
2472.019859846508
 31
0.0
  0
INSERT
  5
2912
330
2857
100
AcDbEntity
  8
寸法線1
 62
     0
370
    -2
100
AcDbBlockReference
  2
_Open
 10
1516.514112395469
 20
2472.019859846508
 30
0.0
 41
12.5
 42
12.5
 43
12.5
  0
INSERT
  5
2913
330
2857
100
AcDbEntity
  8
寸法線1
 62
     0
370
    -2
100
AcDbBlockReference
  2
_Open
 10
1520.014112395468
 20
2472.019859846508
 30
0.0
 41
12.5
 42
12.5
 43
12.5
 50
180.0
  0
MTEXT
  5
2914
330
2857
100
AcDbEntity
  8
寸法線1
 62
     0
100
AcDbMText
 10
1566.714853939106
 20
2485.769859846508
 30
0.0
 40
15.0
 41
0.0
 71
     5
 72
     1
  1
3,5
 73
     1
 44
1.0
  0
POINT
  5
2915
330
2857
100
AcDbEntity
  8
Defpoints
 62
     0
100
AcDbPoint
 10
1520.014112395468
 20
2434.019859846508
 30
0.0
  0
POINT
  5
2916
330
2857
100
AcDbEntity
  8
Defpoints
 62
     0
100
AcDbPoint
 10
1516.514112395469
 20
2440.019859846508
 30
0.0
  0
POINT
  5
2917
330
2857
100
AcDbEntity
  8
Defpoints
 62
     0
100
AcDbPoint
 10
1516.514112395469
 20
2472.019859846508
 30
0.0
  0
ENDBLK
  5
2864
330
2857
100
AcDbEntity
  8
0
100
AcDbBlockEnd
  0
BLOCK
  5
286F
330
2865
100
AcDbEntity
  8
0
100
AcDbBlockBegin
  2
*D32
 70
     1
 10
0.0
 20
0.0
 30
0.0
  3
*D32
  1

  0
LINE
  5
2918
330
2865
100
AcDbEntity
  8
寸法線1
 62
     0
370
    -2
100
AcDbLine
 10
341.5121499897596
 20
2997.457868211514
 30
0.0
 11
246.0680881383779
 21
2997.457868211514
 31
0.0
  0
LINE
  5
2919
330
2865
100
AcDbEntity
  8
寸法線1
 62
     0
370
    -2
100
AcDbLine
 10
357.5121499897596
 20
2526.957868211514
 30
0.0
 11
246.0680881383778
 21
2526.957868211514
 31
0.0
  0
LINE
  5
291A
330
2865
100
AcDbEntity
  8
寸法線1
 62
     0
370
    -2
100
AcDbLine
 10
252.3180881383779
 20
2984.957868211514
 30
0.0
 11
252.3180881383778
 21
2539.457868211514
 31
0.0
  0
INSERT
  5
291B
330
2865
100
AcDbEntity
  8
寸法線1
 62
     0
370
    -2
100
AcDbBlockReference
  2
_Open
 10
252.3180881383779
 20
2997.457868211514
 30
0.0
 41
12.5
 42
12.5
 43
12.5
 50
90.0
  0
INSERT
  5
291C
330
2865
100
AcDbEntity
  8
寸法線1
 62
     0
370
    -2
100
AcDbBlockReference
  2
_Open
 10
252.3180881383778
 20
2526.957868211514
 30
0.0
 41
12.5
 42
12.5
 43
12.5
 50
270.0
  0
MTEXT
  5
291D
330
2865
100
AcDbEntity
  8
寸法線1
 62
     0
100
AcDbMText
 10
238.5680881383774
 20
2804.121114247143
 30
0.0
 40
15.0
 41
0.0
 71
     5
 72
     1
  1
470,5
 11
0.0000000000000001
 21
1.0
 31
0.0
 73
     1
 44
1.0
  0
POINT
  5
291E
330
2865
100
AcDbEntity
  8
Defpoints
 62
     0
100
AcDbPoint
 10
346.5121499897596
 20
2997.457868211514
 30
0.0
  0
POINT
  5
291F
330
2865
100
AcDbEntity
  8
Defpoints
 62
     0
100
AcDbPoint
 10
362.5121499897596
 20
2526.957868211514
 30
0.0
  0
POINT
  5
2920
330
2865
100
AcDbEntity
  8
Defpoints
 62
     0
100
AcDbPoint
 10
252.3180881383778
 20
2526.957868211514
 30
0.0
  0
ENDBLK
  5
2870
330
2865
100
AcDbEntity
  8
0
100
AcDbBlockEnd
  0
BLOCK
  5
287D
330
2871
100
AcDbEntity
  8
0
100
AcDbBlockBegin
  2
*D33
 70
     1
 10
0.0
 20
0.0
 30
0.0
  3
*D33
  1

  0
LINE
  5
2921
330
2871
100
AcDbEntity
  8
寸法線1
 62
     0
370
    -2
100
AcDbLine
 10
810.5121499897595
 20
2440.019859846508
 30
0.0
 11
861.7621499897596
 21
2440.019859846508
 31
0.0
  0
LINE
  5
2922
330
2871
100
AcDbEntity
  8
寸法線1
 62
     0
370
    -2
100
AcDbLine
 10
807.5121499897596
 20
2446.719868150994
 30
0.0
 11
861.7621499897596
 21
2446.719868150994
 31
0.0
  0
LINE
  5
2923
330
2871
100
AcDbEntity
  8
寸法線1
 62
     0
370
    -2
100
AcDbLine
 10
855.5121499897596
 20
2427.519859846508
 30
0.0
 11
855.5121499897596
 21
2415.019859846508
 31
0.0
  0
LINE
  5
2924
330
2871
100
AcDbEntity
  8
寸法線1
 62
     0
370
    -2
100
AcDbLine
 10
855.5121499897596
 20
2459.219868150995
 30
0.0
 11
855.5121499897596
 21
2491.719868150994
 31
0.0
  0
LINE
  5
2925
330
2871
100
AcDbEntity
  8
寸法線1
 62
     0
370
    -2
100
AcDbLine
 10
855.5121499897596
 20
2440.019859846508
 30
0.0
 11
855.5121499897596
 21
2446.719868150994
 31
0.0
  0
INSERT
  5
2926
330
2871
100
AcDbEntity
  8
寸法線1
 62
     0
370
    -2
100
AcDbBlockReference
  2
_Open
 10
855.5121499897596
 20
2440.019859846508
 30
0.0
 41
12.5
 42
12.5
 43
12.5
 50
90.0
  0
INSERT
  5
2927
330
2871
100
AcDbEntity
  8
寸法線1
 62
     0
370
    -2
100
AcDbBlockReference
  2
_Open
 10
855.5121499897596
 20
2446.719868150994
 30
0.0
 41
12.5
 42
12.5
 43
12.5
 50
270.0
  0
MTEXT
  5
2928
330
2871
100
AcDbEntity
  8
寸法線1
 62
     0
100
AcDbMText
 10
843.0121499897591
 20
2481.719868150995
 30
0.0
 40
15.0
 41
0.0
 71
     5
 72
     1
  1
7
 11
0.0000000000000001
 21
1.0
 31
0.0
 73
     1
 44
1.0
  0
POINT
  5
2929
330
2871
100
AcDbEntity
  8
Defpoints
 62
     0
100
AcDbPoint
 10
805.5121499897595
 20
2440.019859846508
 30
0.0
  0
POINT
  5
292A
330
2871
100
AcDbEntity
  8
Defpoints
 62
     0
100
AcDbPoint
 10
802.5121499897595
 20
2446.719868150994
 30
0.0
  0
POINT
  5
292B
330
2871
100
AcDbEntity
  8
Defpoints
 62
     0
100
AcDbPoint
 10
855.5121499897596
 20
2446.719868150994
 30
0.0
  0
ENDBLK
  5
287E
330
2871
100
AcDbEntity
  8
0
100
AcDbBlockEnd
  0
BLOCK
  5
2889
330
287F
100
AcDbEntity
  8
0
100
AcDbBlockBegin
  2
*D34
 70
     1
 10
0.0
 20
0.0
 30
0.0
  3
*D34
  1

  0
LINE
  5
292C
330
287F
100
AcDbEntity
  8
寸法線1
 62
     0
370
    -2
100
AcDbLine
 10
340.5121499897595
 20
1943.840738389267
 30
0.0
 11
340.5121499897595
 21
1857.575797995126
 31
0.0
  0
LINE
  5
292D
330
287F
100
AcDbEntity
  8
寸法線1
 62
     0
370
    -2
100
AcDbLine
 10
812.2121582942458
 20
1986.033009169916
 30
0.0
 11
812.2121582942458
 21
1857.575797995126
 31
0.0
  0
LINE
  5
292E
330
287F
100
AcDbEntity
  8
寸法線1
 62
     0
370
    -2
100
AcDbLine
 10
353.0121499897595
 20
1863.825797995126
 30
0.0
 11
799.7121582942459
 21
1863.825797995126
 31
0.0
  0
INSERT
  5
292F
330
287F
100
AcDbEntity
  8
寸法線1
 62
     0
370
    -2
100
AcDbBlockReference
  2
_Open
 10
340.5121499897595
 20
1863.825797995126
 30
0.0
 41
12.5
 42
12.5
 43
12.5
 50
180.0
  0
INSERT
  5
2930
330
287F
100
AcDbEntity
  8
寸法線1
 62
     0
370
    -2
100
AcDbBlockReference
  2
_Open
 10
812.2121582942458
 20
1863.825797995126
 30
0.0
 41
12.5
 42
12.5
 43
12.5
  0
MTEXT
  5
2931
330
287F
100
AcDbEntity
  8
寸法線1
 62
     0
100
AcDbMText
 10
576.3621541420027
 20
1876.325797995126
 30
0.0
 40
15.0
 41
0.0
 71
     5
 72
     1
  1
472
 73
     1
 44
1.0
  0
POINT
  5
2932
330
287F
100
AcDbEntity
  8
Defpoints
 62
     0
100
AcDbPoint
 10
340.5121499897595
 20
1948.840738389267
 30
0.0
  0
POINT
  5
2933
330
287F
100
AcDbEntity
  8
Defpoints
 62
     0
100
AcDbPoint
 10
812.2121582942458
 20
1991.033009169916
 30
0.0
  0
POINT
  5
2934
330
287F
100
AcDbEntity
  8
Defpoints
 62
     0
100
AcDbPoint
 10
812.2121582942458
 20
1863.825797995126
 30
0.0
  0
ENDBLK
  5
288A
330
287F
100
AcDbEntity
  8
0
100
AcDbBlockEnd
  0
BLOCK
  5
2897
330
288B
100
AcDbEntity
  8
0
100
AcDbBlockBegin
  2
*D35
 70
     1
 10
0.0
 20
0.0
 30
0.0
  3
*D35
  1

  0
LINE
  5
2935
330
288B
100
AcDbEntity
  8
寸法線1
 62
     0
370
    -2
100
AcDbLine
 10
805.5121499897595
 20
1977.019859846508
 30
0.0
 11
805.5121499897595
 21
1895.769859846508
 31
0.0
  0
LINE
  5
2936
330
288B
100
AcDbEntity
  8
寸法線1
 62
     0
370
    -2
100
AcDbLine
 10
812.2121582942458
 20
1977.019859846508
 30
0.0
 11
812.2121582942458
 21
1895.769859846508
 31
0.0
  0
LINE
  5
2937
330
288B
100
AcDbEntity
  8
寸法線1
 62
     0
370
    -2
100
AcDbLine
 10
793.0121499897595
 20
1902.019859846508
 30
0.0
 11
780.5121499897595
 21
1902.019859846508
 31
0.0
  0
LINE
  5
2938
330
288B
100
AcDbEntity
  8
寸法線1
 62
     0
370
    -2
100
AcDbLine
 10
824.7121582942458
 20
1902.019859846508
 30
0.0
 11
857.2121582942459
 21
1902.019859846508
 31
0.0
  0
LINE
  5
2939
330
288B
100
AcDbEntity
  8
寸法線1
 62
     0
370
    -2
100
AcDbLine
 10
805.5121499897595
 20
1902.019859846508
 30
0.0
 11
812.2121582942458
 21
1902.019859846508
 31
0.0
  0
INSERT
  5
293A
330
288B
100
AcDbEntity
  8
寸法線1
 62
     0
370
    -2
100
AcDbBlockReference
  2
_Open
 10
805.5121499897595
 20
1902.019859846508
 30
0.0
 41
12.5
 42
12.5
 43
12.5
  0
INSERT
  5
293B
330
288B
100
AcDbEntity
  8
寸法線1
 62
     0
370
    -2
100
AcDbBlockReference
  2
_Open
 10
812.2121582942458
 20
1902.019859846508
 30
0.0
 41
12.5
 42
12.5
 43
12.5
 50
180.0
  0
MTEXT
  5
293C
330
288B
100
AcDbEntity
  8
寸法線1
 62
     0
100
AcDbMText
 10
847.212158294246
 20
1914.519859846508
 30
0.0
 40
15.0
 41
0.0
 71
     5
 72
     1
  1
7
 73
     1
 44
1.0
  0
POINT
  5
293D
330
288B
100
AcDbEntity
  8
Defpoints
 62
     0
100
AcDbPoint
 10
805.5121499897595
 20
1982.019859846508
 30
0.0
  0
POINT
  5
293E
330
288B
100
AcDbEntity
  8
Defpoints
 62
     0
100
AcDbPoint
 10
812.2121582942458
 20
1982.019859846508
 30
0.0
  0
POINT
  5
293F
330
288B
100
AcDbEntity
  8
Defpoints
 62
     0
100
AcDbPoint
 10
812.2121582942458
 20
1902.019859846508
 30
0.0
  0
ENDBLK
  5
2898
330
288B
100
AcDbEntity
  8
0
100
AcDbBlockEnd
  0
BLOCK
  5
28A3
330
2899
100
AcDbEntity
  8
0
100
AcDbBlockBegin
  2
*D36
 70
     1
 10
0.0
 20
0.0
 30
0.0
  3
*D36
  1

  0
LINE
  5
2940
330
2899
100
AcDbEntity
  8
寸法線1
 62
     0
370
    -2
100
AcDbLine
 10
335.5121499897596
 20
2993.957868211514
 30
0.0
 11
284.2621499897597
 21
2993.957868211514
 31
0.0
  0
LINE
  5
2941
330
2899
100
AcDbEntity
  8
寸法線1
 62
     0
370
    -2
100
AcDbLine
 10
330.5121499897598
 20
2593.957868211514
 30
0.0
 11
284.2621499897596
 21
2593.957868211514
 31
0.0
  0
LINE
  5
2942
330
2899
100
AcDbEntity
  8
寸法線1
 62
     0
370
    -2
100
AcDbLine
 10
290.5121499897597
 20
2981.457868211514
 30
0.0
 11
290.5121499897596
 21
2606.457868211514
 31
0.0
  0
INSERT
  5
2943
330
2899
100
AcDbEntity
  8
寸法線1
 62
     0
370
    -2
100
AcDbBlockReference
  2
_Open
 10
290.5121499897597
 20
2993.957868211514
 30
0.0
 41
12.5
 42
12.5
 43
12.5
 50
90.0
  0
INSERT
  5
2944
330
2899
100
AcDbEntity
  8
寸法線1
 62
     0
370
    -2
100
AcDbBlockReference
  2
_Open
 10
290.5121499897596
 20
2593.957868211514
 30
0.0
 41
12.5
 42
12.5
 43
12.5
 50
270.0
  0
MTEXT
  5
2945
330
2899
100
AcDbEntity
  8
寸法線1
 62
     0
100
AcDbMText
 10
278.0121499897592
 20
2793.957868211514
 30
0.0
 40
15.0
 41
0.0
 71
     5
 72
     1
  1
400
 11
0.0000000000000001
 21
1.0
 31
0.0
 73
     1
 44
1.0
  0
POINT
  5
2946
330
2899
100
AcDbEntity
  8
Defpoints
 62
     0
100
AcDbPoint
 10
340.5121499897596
 20
2993.957868211514
 30
0.0
  0
POINT
  5
2947
330
2899
100
AcDbEntity
  8
Defpoints
 62
     0
100
AcDbPoint
 10
335.5121499897598
 20
2593.957868211514
 30
0.0
  0
POINT
  5
2948
330
2899
100
AcDbEntity
  8
Defpoints
 62
     0
100
AcDbPoint
 10
290.5121499897596
 20
2593.957868211514
 30
0.0
  0
ENDBLK
  5
28A4
330
2899
100
AcDbEntity
  8
0
100
AcDbBlockEnd
  0
BLOCK
  5
28AD
330
28A5
100
AcDbEntity
  8
0
100
AcDbBlockBegin
  2
*D37
 70
     1
 10
0.0
 20
0.0
 30
0.0
  3
*D37
  1

  0
LINE
  5
2949
330
28A5
100
AcDbEntity
  8
寸法線1
 62
     0
370
    -2
100
AcDbLine
 10
1452.812149989759
 20
2091.654767530967
 30
0.0
 11
1127.812149989759
 21
2091.654767530967
 31
0.0
  0
INSERT
  5
294A
330
28A5
100
AcDbEntity
  8
寸法線1
 62
     0
370
    -2
100
AcDbBlockReference
  2
_Open
 10
1465.312149989759
 20
2091.654767530967
 30
0.0
 41
12.5
 42
12.5
 43
12.5
  0
INSERT
  5
294B
330
28A5
100
AcDbEntity
  8
寸法線1
 62
     0
370
    -2
100
AcDbBlockReference
  2
_Open
 10
1115.312149989759
 20
2091.654767530967
 30
0.0
 41
12.5
 42
12.5
 43
12.5
 50
180.0
  0
MTEXT
  5
294C
330
28A5
100
AcDbEntity
  8
寸法線1
 62
     0
100
AcDbMText
 10
1290.312149989758
 20
2104.154767530967
 30
0.0
 40
15.0
 41
0.0
 71
     5
 72
     1
  1
350
 73
     1
 44
1.0
  0
POINT
  5
294D
330
28A5
100
AcDbEntity
  8
Defpoints
 62
     0
100
AcDbPoint
 10
1465.312149989759
 20
2207.519859846508
 30
0.0
  0
POINT
  5
294E
330
28A5
100
AcDbEntity
  8
Defpoints
 62
     0
100
AcDbPoint
 10
1115.312149989759
 20
2207.519859846508
 30
0.0
  0
POINT
  5
294F
330
28A5
100
AcDbEntity
  8
Defpoints
 62
     0
100
AcDbPoint
 10
1115.312149989759
 20
2091.654767530967
 30
0.0
  0
ENDBLK
  5
28AE
330
28A5
100
AcDbEntity
  8
0
100
AcDbBlockEnd
  0
ENDSEC
  0
SECTION
  2
ENTITIES
  0
LINE
  5
4D6
330
1F
100
AcDbEntity
  8
1、実線
100
AcDbLine
 10
340.5121499897596
 20
777.8940015499
 30
0.0
 11
805.5121499897595
 21
777.8940015499
 31
0.0
  0
LINE
  5
4D7
330
1F
100
AcDbEntity
  8
1、実線
100
AcDbLine
 10
805.5121499897595
 20
777.8940015499
 30
0.0
 11
805.5121499897595
 21
323.8940015499001
 31
0.0
  0
LINE
  5
4D8
330
1F
100
AcDbEntity
  8
1、実線
100
AcDbLine
 10
805.5121499897595
 20
319.8940015499001
 30
0.0
 11
340.5121499897595
 21
319.8940015499001
 31
0.0
  0
LINE
  5
4D9
330
1F
100
AcDbEntity
  8
1、実線
100
AcDbLine
 10
340.5121499897595
 20
319.8940015499001
 30
0.0
 11
340.5121499897595
 21
777.8940015499
 31
0.0
  0
LINE
  5
4DA
330
1F
100
AcDbEntity
  8
1、実線
100
AcDbLine
 10
1103.012149989759
 20
777.8940015499
 30
0.0
 11
1516.514112395469
 21
777.8940015499
 31
0.0
  0
LINE
  5
4DB
330
1F
100
AcDbEntity
  8
1、実線
100
AcDbLine
 10
1516.514112395469
 20
777.8940015499
 30
0.0
 11
1516.514112395469
 21
319.8940015499001
 31
0.0
  0
LINE
  5
4DC
330
1F
100
AcDbEntity
  8
1、実線
100
AcDbLine
 10
1516.514112395469
 20
319.8940015499001
 30
0.0
 11
1117.512149989759
 21
319.8940015499001
 31
0.0
  0
LINE
  5
4DD
330
1F
100
AcDbEntity
  8
1、実線
100
AcDbLine
 10
1117.512149989759
 20
319.8940015499001
 30
0.0
 11
1117.512149989759
 21
320.8940015499001
 31
0.0
  0
LINE
  5
4E4
330
1F
100
AcDbEntity
  8
1、実線
100
AcDbLine
 10
340.5121499897596
 20
1331.832009914906
 30
0.0
 11
805.5121499897596
 21
1331.832009914906
 31
0.0
  0
LINE
  5
4E5
330
1F
100
AcDbEntity
  8
1、実線
100
AcDbLine
 10
805.5121499897596
 20
1331.832009914906
 30
0.0
 11
805.5121499897596
 21
979.832009914906
 31
0.0
  0
LINE
  5
4E6
330
1F
100
AcDbEntity
  8
1、実線
100
AcDbLine
 10
789.5121499897596
 20
931.832009914906
 30
0.0
 11
340.5121499897596
 21
931.832009914906
 31
0.0
  0
LINE
  5
4E7
330
1F
100
AcDbEntity
  8
1、実線
100
AcDbLine
 10
340.5121499897596
 20
931.832009914906
 30
0.0
 11
340.5121499897596
 21
1331.832009914906
 31
0.0
  0
LINE
  5
4F5
330
1F
100
AcDbEntity
  8
1、実線
100
AcDbLine
 10
1076.512149989759
 20
774.8940015499
 30
0.0
 11
1101.512149989759
 21
774.8940015499002
 31
0.0
  0
LINE
  5
4F6
330
1F
100
AcDbEntity
  8
1、実線
100
AcDbLine
 10
1101.51018758405
 20
774.8940015499002
 30
0.0
 11
1101.512149989759
 21
324.8940015499001
 31
0.0
  0
LINE
  5
4F7
330
1F
100
AcDbEntity
  8
1、実線
100
AcDbLine
 10
1101.514112395469
 20
324.8940015499001
 30
0.0
 11
1076.514112395469
 21
324.8940015499001
 31
0.0
  0
LINE
  5
4F8
330
1F
100
AcDbEntity
  8
1、実線
100
AcDbLine
 10
1076.514112395469
 20
324.8940015499001
 30
0.0
 11
1076.512149989759
 21
774.8940015499002
 31
0.0
  0
LINE
  5
4FA
330
1F
100
AcDbEntity
  8
1、実線
100
AcDbLine
 10
1081.014112395467
 20
780.8940015499
 30
0.0
 11
1162.014112395467
 21
780.8940015499
 31
0.0
  0
LINE
  5
4FB
330
1F
100
AcDbEntity
  8
1、実線
100
AcDbLine
 10
1162.014112395467
 20
780.8940015499
 30
0.0
 11
1162.014112395467
 21
777.8940015499
 31
0.0
  0
LINE
  5
4FD
330
1F
100
AcDbEntity
  8
1、実線
100
AcDbLine
 10
1081.014112395467
 20
780.8940015499
 30
0.0
 11
1081.014112395467
 21
777.8940015499
 31
0.0
  0
LINE
  5
4FE
330
1F
100
AcDbEntity
  8
1、実線
100
AcDbLine
 10
1081.014112395467
 20
777.8940015499
 30
0.0
 11
1103.012149989759
 21
777.8940015499
 31
0.0
  0
LINE
  5
508
330
1F
100
AcDbEntity
  8
1、実線
100
AcDbLine
 10
1082.014112395467
 20
777.8940015499
 30
0.0
 11
1082.014112395467
 21
776.8940015499
 31
0.0
  0
LINE
  5
509
330
1F
100
AcDbEntity
  8
1、実線
100
AcDbLine
 10
1096.014112395468
 20
777.8940015499
 30
0.0
 11
1096.014112395468
 21
776.8940015499
 31
0.0
  0
LINE
  5
50D
330
1F
100
AcDbEntity
  8
1、実線
100
AcDbLine
 10
1082.014112395467
 20
324.8940015499001
 30
0.0
 11
1082.014112395467
 21
323.8940015499001
 31
0.0
  0
LINE
  5
50E
330
1F
100
AcDbEntity
  8
1、実線
100
AcDbLine
 10
1082.014112395467
 20
323.8940015499001
 30
0.0
 11
1096.014112395468
 21
323.8940015499001
 31
0.0
  0
LINE
  5
50F
330
1F
100
AcDbEntity
  8
1、実線
100
AcDbLine
 10
1096.014112395468
 20
323.8940015499001
 30
0.0
 11
1096.014112395468
 21
324.8940015499001
 31
0.0
  0
LINE
  5
523
330
1F
100
AcDbEntity
  8
1、実線
100
AcDbLine
 10
1081.014112395467
 20
323.8940015499001
 30
0.0
 11
1103.012149989759
 21
323.8940015499001
 31
0.0
  0
LINE
  5
524
330
1F
100
AcDbEntity
  8
1、実線
100
AcDbLine
 10
1103.012149989759
 20
323.8940015499001
 30
0.0
 11
1103.012149989759
 21
326.0940015499001
 31
0.0
  0
LINE
  5
525
330
1F
100
AcDbEntity
  8
1、実線
100
AcDbLine
 10
1111.812149989759
 20
336.8940015499001
 30
0.0
 11
1154.014112395467
 21
336.8940015499001
 31
0.0
  0
LINE
  5
527
330
1F
100
AcDbEntity
  8
1、実線
100
AcDbLine
 10
1154.014112395467
 20
320.8940015499001
 30
0.0
 11
1081.014112395467
 21
320.8940015499001
 31
0.0
  0
LINE
  5
528
330
1F
100
AcDbEntity
  8
1、実線
100
AcDbLine
 10
1081.014112395467
 20
320.8940015499001
 30
0.0
 11
1081.014112395467
 21
323.8940015499001
 31
0.0
  0
LINE
  5
52B
330
1F
100
AcDbEntity
  8
1、実線
100
AcDbLine
 10
1111.812149989759
 20
338.0940015499001
 30
0.0
 11
1101.812149989759
 21
338.0940015499001
 31
0.0
  0
LINE
  5
52C
330
1F
100
AcDbEntity
  8
1、実線
100
AcDbLine
 10
1101.812149989759
 20
338.0940015499001
 30
0.0
 11
1101.812149989759
 21
326.0940015499
 31
0.0
  0
LINE
  5
52D
330
1F
100
AcDbEntity
  8
1、実線
100
AcDbLine
 10
1101.812149989759
 20
326.0940015499
 30
0.0
 11
1111.812149989759
 21
326.0940015499
 31
0.0
  0
LINE
  5
52E
330
1F
100
AcDbEntity
  8
1、実線
100
AcDbLine
 10
1111.812149989759
 20
326.0940015499
 30
0.0
 11
1111.812149989759
 21
338.0940015499001
 31
0.0
  0
LINE
  5
536
330
1F
100
AcDbEntity
  8
1、実線
100
AcDbLine
 10
1082.014112395467
 20
776.8940015499
 30
0.0
 11
1096.014112395468
 21
776.8940015499
 31
0.0
  0
LINE
  5
539
330
1F
100
AcDbEntity
  8
1、実線
100
AcDbLine
 10
1085.014112395467
 20
776.8940015499
 30
0.0
 11
1085.012149989759
 21
774.8940015499002
 31
0.0
  0
LINE
  5
53A
330
1F
100
AcDbEntity
  8
1、実線
100
AcDbLine
 10
1093.014112395467
 20
776.8940015499
 30
0.0
 11
1093.012149989759
 21
774.8940015499002
 31
0.0
  0
LINE
  5
594
330
1F
100
AcDbEntity
  8
２，細線
100
AcDbLine
 10
1155.279897054808
 20
329.6011083310867
 30
0.0
 11
1155.783684485776
 21
330.1048957620544
 31
0.0
  0
LINE
  5
595
330
1F
100
AcDbEntity
  8
２，細線
100
AcDbLine
 10
1154.714211629858
 20
330.166793756036
 30
0.0
 11
1155.217999060827
 21
330.6705811870036
 31
0.0
  0
LINE
  5
596
330
1F
100
AcDbEntity
  8
２，細線
100
AcDbLine
 10
1152.734312642536
 20
329.6011083310867
 30
0.0
 11
1152.230525211568
 21
330.1048957620544
 31
0.0
  0
LINE
  5
597
330
1F
100
AcDbEntity
  8
２，細線
100
AcDbLine
 10
1153.299998067485
 20
330.166793756036
 30
0.0
 11
1152.796210636518
 21
330.6705811870036
 31
0.0
  0
ARC
  5
598
330
1F
100
AcDbEntity
  8
２，細線
100
AcDbCircle
 10
1154.007104848672
 20
330.8739005372223
 30
0.0
 40
1.0
100
AcDbArc
 50
224.9999999999996
 51
315.0000000000001
  0
LINE
  5
599
330
1F
100
AcDbEntity
  8
２，細線
100
AcDbLine
 10
1153.299998067485
 20
327.6212093437643
 30
0.0
 11
1152.796210636518
 21
327.1174219127965
 31
0.0
  0
ARC
  5
59A
330
1F
100
AcDbEntity
  8
２，細線
100
AcDbCircle
 10
1154.007104848672
 20
326.9141025625778
 30
0.0
 40
1.0
100
AcDbArc
 50
44.99999999999976
 51
135.0000000000002
  0
LINE
  5
59B
330
1F
100
AcDbEntity
  8
２，細線
100
AcDbLine
 10
1152.734312642536
 20
328.1868947687136
 30
0.0
 11
1152.230525211568
 21
327.6831073377458
 31
0.0
  0
ARC
  5
59C
330
1F
100
AcDbEntity
  8
２，細線
100
AcDbCircle
 10
1152.02720586135
 20
328.8940015499001
 30
0.0
 40
1.0
100
AcDbArc
 50
315.0000000000001
 51
44.99999999999976
  0
LINE
  5
59D
330
1F
100
AcDbEntity
  8
２，細線
100
AcDbLine
 10
1154.714211629858
 20
327.6212093437643
 30
0.0
 11
1155.217999060827
 21
327.1174219127966
 31
0.0
  0
LINE
  5
59E
330
1F
100
AcDbEntity
  8
２，細線
100
AcDbLine
 10
1155.279897054808
 20
328.1868947687136
 30
0.0
 11
1155.783684485776
 21
327.6831073377458
 31
0.0
  0
ARC
  5
59F
330
1F
100
AcDbEntity
  8
２，細線
100
AcDbCircle
 10
1155.987003835994
 20
328.8940015499001
 30
0.0
 40
1.0
100
AcDbArc
 50
135.0000000000002
 51
224.9999999999996
  0
ARC
  5
5A0
330
1F
100
AcDbEntity
  8
２，細線
100
AcDbCircle
 10
1154.007104848672
 20
328.8940015499001
 30
0.0
 40
2.149999999999999
100
AcDbArc
 50
304.2778475844642
 51
325.7221524155428
  0
ARC
  5
5A1
330
1F
100
AcDbEntity
  8
２，細線
100
AcDbCircle
 10
1154.007104848672
 20
328.8940015499001
 30
0.0
 40
2.149999999999999
100
AcDbArc
 50
34.27784758446158
 51
55.72215241553568
  0
ARC
  5
5A2
330
1F
100
AcDbEntity
  8
２，細線
100
AcDbCircle
 10
1154.007104848672
 20
328.8940015499001
 30
0.0
 40
2.149999999999999
100
AcDbArc
 50
124.2778475844584
 51
145.7221524155384
  0
ARC
  5
5A3
330
1F
100
AcDbEntity
  8
２，細線
100
AcDbCircle
 10
1154.007104848672
 20
328.8940015499001
 30
0.0
 40
2.149999999999999
100
AcDbArc
 50
214.2778475844615
 51
235.7221524155356
  0
LINE
  5
5A4
330
1F
100
AcDbEntity
  8
２，細線
100
AcDbLine
 10
1152.734312642536
 20
329.6011083310867
 30
0.0
 11
1152.230525211568
 21
330.1048957620544
 31
0.0
  0
LINE
  5
5A8
330
1F
100
AcDbEntity
  8
２，細線
100
AcDbLine
 10
1125.279897054808
 20
329.6011083310867
 30
0.0
 11
1125.783684485776
 21
330.1048957620544
 31
0.0
  0
LINE
  5
5A9
330
1F
100
AcDbEntity
  8
２，細線
100
AcDbLine
 10
1124.714211629858
 20
330.166793756036
 30
0.0
 11
1125.217999060825
 21
330.6705811870036
 31
0.0
  0
LINE
  5
5AA
330
1F
100
AcDbEntity
  8
２，細線
100
AcDbLine
 10
1122.734312642535
 20
329.6011083310867
 30
0.0
 11
1122.230525211568
 21
330.1048957620544
 31
0.0
  0
LINE
  5
5AB
330
1F
100
AcDbEntity
  8
２，細線
100
AcDbLine
 10
1123.299998067485
 20
330.166793756036
 30
0.0
 11
1122.796210636518
 21
330.6705811870036
 31
0.0
  0
ARC
  5
5AC
330
1F
100
AcDbEntity
  8
２，細線
100
AcDbCircle
 10
1124.007104848672
 20
330.8739005372223
 30
0.0
 40
1.0
100
AcDbArc
 50
224.9999999999996
 51
315.0000000000001
  0
LINE
  5
5AD
330
1F
100
AcDbEntity
  8
２，細線
100
AcDbLine
 10
1123.299998067485
 20
327.6212093437643
 30
0.0
 11
1122.796210636518
 21
327.1174219127965
 31
0.0
  0
ARC
  5
5AE
330
1F
100
AcDbEntity
  8
２，細線
100
AcDbCircle
 10
1124.007104848672
 20
326.9141025625778
 30
0.0
 40
1.0
100
AcDbArc
 50
44.99999999999976
 51
135.0000000000002
  0
LINE
  5
5AF
330
1F
100
AcDbEntity
  8
２，細線
100
AcDbLine
 10
1122.734312642535
 20
328.1868947687136
 30
0.0
 11
1122.230525211568
 21
327.6831073377458
 31
0.0
  0
ARC
  5
5B0
330
1F
100
AcDbEntity
  8
２，細線
100
AcDbCircle
 10
1122.02720586135
 20
328.8940015499001
 30
0.0
 40
1.0
100
AcDbArc
 50
315.0000000000001
 51
44.99999999999976
  0
LINE
  5
5B1
330
1F
100
AcDbEntity
  8
２，細線
100
AcDbLine
 10
1124.714211629858
 20
327.6212093437643
 30
0.0
 11
1125.217999060825
 21
327.1174219127966
 31
0.0
  0
LINE
  5
5B2
330
1F
100
AcDbEntity
  8
２，細線
100
AcDbLine
 10
1125.279897054808
 20
328.1868947687136
 30
0.0
 11
1125.783684485776
 21
327.6831073377458
 31
0.0
  0
ARC
  5
5B3
330
1F
100
AcDbEntity
  8
２，細線
100
AcDbCircle
 10
1125.987003835993
 20
328.8940015499001
 30
0.0
 40
1.0
100
AcDbArc
 50
135.0000000000002
 51
224.9999999999996
  0
ARC
  5
5B4
330
1F
100
AcDbEntity
  8
２，細線
100
AcDbCircle
 10
1124.007104848672
 20
328.8940015499001
 30
0.0
 40
2.149999999999999
100
AcDbArc
 50
304.2778475844642
 51
325.7221524155428
  0
ARC
  5
5B5
330
1F
100
AcDbEntity
  8
２，細線
100
AcDbCircle
 10
1124.007104848672
 20
328.8940015499001
 30
0.0
 40
2.149999999999999
100
AcDbArc
 50
34.27784758446002
 51
55.72215241553568
  0
ARC
  5
5B6
330
1F
100
AcDbEntity
  8
２，細線
100
AcDbCircle
 10
1124.007104848672
 20
328.8940015499001
 30
0.0
 40
2.149999999999999
100
AcDbArc
 50
124.2778475844584
 51
145.7221524155399
  0
ARC
  5
5B7
330
1F
100
AcDbEntity
  8
２，細線
100
AcDbCircle
 10
1124.007104848672
 20
328.8940015499001
 30
0.0
 40
2.149999999999999
100
AcDbArc
 50
214.27784758446
 51
235.7221524155356
  0
LINE
  5
5B8
330
1F
100
AcDbEntity
  8
２，細線
100
AcDbLine
 10
1122.734312642535
 20
329.6011083310867
 30
0.0
 11
1122.230525211568
 21
330.1048957620544
 31
0.0
  0
ARC
  5
5BB
330
1F
100
AcDbEntity
  8
1、実線
100
AcDbCircle
 10
1154.014112395467
 20
328.8940015499001
 30
0.0
 40
8.0
100
AcDbArc
 50
0.0
 51
90.0
  0
ARC
  5
5BC
330
1F
100
AcDbEntity
  8
1、実線
100
AcDbCircle
 10
1154.014112395467
 20
328.8940015499001
 30
0.0
 40
8.0
100
AcDbArc
 50
270.0
 51
359.9999999999991
  0
LINE
  5
5BD
330
1F
100
AcDbEntity
  8
1、実線
100
AcDbLine
 10
1117.512149989759
 20
336.8940015499001
 30
0.0
 11
1117.512149989759
 21
777.8940015498999
 31
0.0
  0
LINE
  5
5C3
330
1F
100
AcDbEntity
  8
1、実線
370
     9
100
AcDbLine
 10
1106.512149989759
 20
338.0940015499001
 30
0.0
 11
1106.512149989759
 21
772.8940015499
 31
0.0
  0
LINE
  5
5C4
330
1F
100
AcDbEntity
  8
1、実線
370
     9
100
AcDbLine
 10
1110.512149989759
 20
771.8940015499001
 30
0.0
 11
1110.512149989759
 21
338.0940015499001
 31
0.0
  0
LINE
  5
5CC
330
1F
100
AcDbEntity
  8
1、実線
100
AcDbLine
 10
789.5121499897595
 20
777.8940015499
 30
0.0
 11
789.5121499897595
 21
780.8940015499
 31
0.0
  0
LINE
  5
5CD
330
1F
100
AcDbEntity
  8
1、実線
100
AcDbLine
 10
789.5121499897595
 20
780.8940015499
 30
0.0
 11
805.5121499897595
 21
780.8940015499
 31
0.0
  0
LINE
  5
5D6
330
1F
100
AcDbEntity
  8
1、実線
100
AcDbLine
 10
805.5121499897595
 20
774.8940015499002
 30
0.0
 11
340.5121499897596
 21
774.8940015499002
 31
0.0
  0
LINE
  5
5D8
330
1F
100
AcDbEntity
  8
1、実線
100
AcDbLine
 10
805.5121499897595
 20
324.8940015499001
 30
0.0
 11
340.5121499897595
 21
324.8940015499001
 31
0.0
  0
LINE
  5
5DA
330
1F
100
AcDbEntity
  8
1、実線
100
AcDbLine
 10
789.5121499897593
 20
323.8940015499001
 30
0.0
 11
805.5121499897595
 21
323.8940015499001
 31
0.0
  0
LINE
  5
5DB
330
1F
100
AcDbEntity
  8
1、実線
100
AcDbLine
 10
789.5121499897593
 20
323.8940015499001
 30
0.0
 11
789.5121499897593
 21
320.8940015499001
 31
0.0
  0
LINE
  5
5DC
330
1F
100
AcDbEntity
  8
1、実線
100
AcDbLine
 10
789.5121499897593
 20
320.8940015499001
 30
0.0
 11
805.5121499897591
 21
320.8940015499001
 31
0.0
  0
LINE
  5
5DF
330
1F
100
AcDbEntity
  8
1、実線
100
AcDbLine
 10
790.5121499897593
 20
324.8940015499001
 30
0.0
 11
790.5121499897593
 21
323.8940015499001
 31
0.0
  0
LINE
  5
5E0
330
1F
100
AcDbEntity
  8
1、実線
100
AcDbLine
 10
804.5121499897595
 20
324.8940015499001
 30
0.0
 11
804.5121499897595
 21
323.8940015499001
 31
0.0
  0
LINE
  5
5E7
330
1F
100
AcDbEntity
  8
1、実線
100
AcDbLine
 10
805.5121499897595
 20
338.0940015499001
 30
0.0
 11
809.7121499897593
 21
338.0940015499001
 31
0.0
  0
LINE
  5
5E8
330
1F
100
AcDbEntity
  8
1、実線
100
AcDbLine
 10
809.7121499897593
 20
338.0940015499001
 30
0.0
 11
809.7121499897593
 21
326.0940015499
 31
0.0
  0
LINE
  5
5E9
330
1F
100
AcDbEntity
  8
1、実線
100
AcDbLine
 10
809.7121499897593
 20
326.0940015499
 30
0.0
 11
805.5121499897595
 21
326.0940015499
 31
0.0
  0
LINE
  5
5EA
330
1F
100
AcDbEntity
  8
1、実線
100
AcDbLine
 10
808.5121499897592
 20
323.8940015499001
 30
0.0
 11
808.5121499897592
 21
326.0940015499
 31
0.0
  0
ARC
  5
5EB
330
1F
100
AcDbEntity
  8
1、実線
100
AcDbCircle
 10
805.5121499897591
 20
323.8940015499001
 30
0.0
 40
3.0
100
AcDbArc
 50
270.0
 51
0.0
  0
LINE
  5
5ED
330
1F
100
AcDbEntity
  8
1、実線
100
AcDbLine
 10
805.5121499897595
 20
320.8940015499001
 30
0.0
 11
805.5121499897595
 21
319.8940015499001
 31
0.0
  0
ARC
  5
614
330
1F
100
AcDbEntity
  8
1、実線
100
AcDbCircle
 10
801.8018350191178
 20
328.9071508733077
 30
0.0
 40
10.41032327512807
100
AcDbArc
 50
337.3913822040796
 51
22.60861779592035
  0
LINE
  5
615
330
1F
100
AcDbEntity
  8
1、実線
100
AcDbLine
 10
809.7121499897593
 20
333.0440015499001
 30
0.0
 11
809.7121499897593
 21
324.7440015499002
 31
0.0
  0
LINE
  5
616
330
1F
100
AcDbEntity
  8
1、実線
100
AcDbLine
 10
809.7121499897593
 20
324.7440015499002
 30
0.0
 11
811.4121499897596
 21
324.9050668090068
 31
0.0
  0
LINE
  5
617
330
1F
100
AcDbEntity
  8
1、実線
100
AcDbLine
 10
809.7121499897593
 20
333.0440015499001
 30
0.0
 11
811.4121499897596
 21
332.9092349376088
 31
0.0
  0
CIRCLE
  5
61E
330
1F
100
AcDbEntity
  8
1、実線
100
AcDbCircle
 10
1154.014112395467
 20
328.8940015499001
 30
0.0
 40
4.15
  0
CIRCLE
  5
61F
330
1F
100
AcDbEntity
  8
1、実線
100
AcDbCircle
 10
1124.014112395467
 20
328.8940015499001
 30
0.0
 40
4.15
  0
LINE
  5
630
330
1F
100
AcDbEntity
  8
1、実線
100
AcDbLine
 10
811.4121499897596
 20
332.9092349376088
 30
0.0
 11
811.4121499897596
 21
324.8940015499001
 31
0.0
  0
LINE
  5
634
330
1F
100
AcDbEntity
  8
1、実線
100
AcDbLine
 10
790.5121499897595
 20
774.8940015499
 30
0.0
 11
790.5121499897595
 21
775.8940015499001
 31
0.0
  0
LINE
  5
635
330
1F
100
AcDbEntity
  8
1、実線
100
AcDbLine
 10
790.5121499897595
 20
775.8940015499001
 30
0.0
 11
804.5121499897595
 21
775.8940015499001
 31
0.0
  0
LINE
  5
636
330
1F
100
AcDbEntity
  8
1、実線
100
AcDbLine
 10
804.5121499897595
 20
775.8940015499001
 30
0.0
 11
804.5121499897595
 21
774.8940015499
 31
0.0
  0
LINE
  5
639
330
1F
100
AcDbEntity
  8
1、実線
100
AcDbLine
 10
793.5121499897595
 20
777.8940015499
 30
0.0
 11
793.5121499897593
 21
775.8940015499001
 31
0.0
  0
LINE
  5
63A
330
1F
100
AcDbEntity
  8
1、実線
100
AcDbLine
 10
801.5121499897595
 20
777.8940015499
 30
0.0
 11
801.5121499897595
 21
775.8940015499001
 31
0.0
  0
LINE
  5
648
330
1F
100
AcDbEntity
  8
中箱
100
AcDbLine
 10
395.0121499897596
 20
723.8940015499001
 30
0.0
 11
751.0121499897593
 21
723.8940015498999
 31
0.0
  0
LINE
  5
649
330
1F
100
AcDbEntity
  8
中箱
100
AcDbLine
 10
761.0121499897595
 20
713.8940015499001
 30
0.0
 11
761.0121499897595
 21
383.8940015499001
 31
0.0
  0
LINE
  5
64A
330
1F
100
AcDbEntity
  8
中箱
100
AcDbLine
 10
751.0121499897596
 20
373.8940015499001
 30
0.0
 11
395.0121499897596
 21
373.8940015499001
 31
0.0
  0
LINE
  5
64B
330
1F
100
AcDbEntity
  8
中箱
100
AcDbLine
 10
385.0121499897596
 20
383.8940015499001
 30
0.0
 11
385.0121499897596
 21
713.8940015499001
 31
0.0
  0
LINE
  5
656
330
1F
100
AcDbEntity
  8
中箱
100
AcDbLine
 10
1116.512149989759
 20
723.8940015499
 30
0.0
 11
1465.312149989759
 21
723.8940015499
 31
0.0
  0
LINE
  5
657
330
1F
100
AcDbEntity
  8
中箱
100
AcDbLine
 10
1465.312149989759
 20
723.8940015499
 30
0.0
 11
1465.312149989759
 21
373.8940015499
 31
0.0
  0
LINE
  5
658
330
1F
100
AcDbEntity
  8
中箱
100
AcDbLine
 10
1465.312149989759
 20
373.8940015499
 30
0.0
 11
1116.512149989759
 21
373.8940015499
 31
0.0
  0
CIRCLE
  5
65E
330
1F
100
AcDbEntity
  8
２，細線
100
AcDbCircle
 10
1174.178802994843
 20
372.8940015499
 30
0.0
 40
0.5
  0
CIRCLE
  5
65F
330
1F
100
AcDbEntity
  8
２，細線
100
AcDbCircle
 10
1175.255138077223
 20
724.8940015499
 30
0.0
 40
0.5
  0
ARC
  5
691
330
1F
100
AcDbEntity
  8
1、実線
100
AcDbCircle
 10
797.5121499897596
 20
904.332009914906
 30
0.0
 40
8.0
100
AcDbArc
 50
180.0
 51
0.0
  0
LINE
  5
692
330
1F
100
AcDbEntity
  8
1、実線
100
AcDbLine
 10
789.5121499897596
 20
904.332009914906
 30
0.0
 11
789.5121499897596
 21
974.3320099149061
 31
0.0
  0
LINE
  5
693
330
1F
100
AcDbEntity
  8
1、実線
100
AcDbLine
 10
805.5121499897596
 20
979.832009914906
 30
0.0
 11
808.5121499897596
 21
979.832009914906
 31
0.0
  0
LINE
  5
694
330
1F
100
AcDbEntity
  8
1、実線
100
AcDbLine
 10
805.5121499897596
 20
916.832009914906
 30
0.0
 11
805.5121499897595
 21
891.8320099149056
 31
0.0
  0
LINE
  5
695
330
1F
100
AcDbEntity
  8
1、実線
100
AcDbLine
 10
805.5121499897596
 20
891.832009914906
 30
0.0
 11
340.5121499897596
 21
891.832009914906
 31
0.0
  0
LINE
  5
696
330
1F
100
AcDbEntity
  8
1、実線
100
AcDbLine
 10
340.5121499897596
 20
891.832009914906
 30
0.0
 11
340.5121499897596
 21
915.832009914906
 31
0.0
  0
LINE
  5
697
330
1F
100
AcDbEntity
  8
1、実線
100
AcDbLine
 10
340.5121499897596
 20
915.832009914906
 30
0.0
 11
789.5121499897596
 21
915.832009914906
 31
0.0
  0
LINE
  5
6A0
330
1F
100
AcDbEntity
  8
1、実線
100
AcDbLine
 10
805.5121499897596
 20
904.332009914906
 30
0.0
 11
805.5121499897595
 21
979.832009914906
 31
0.0
  0
LINE
  5
6A2
330
1F
100
AcDbEntity
  8
1、実線
100
AcDbLine
 10
808.5121499897596
 20
927.1320099149059
 30
0.0
 11
808.5121499897596
 21
958.0820099149061
 31
0.0
  0
ARC
  5
6AA
330
1F
100
AcDbEntity
  8
1、実線
100
AcDbCircle
 10
801.801835019118
 20
971.8451592383134
 30
0.0
 40
10.41032327512807
100
AcDbArc
 50
337.3913822040788
 51
22.60861779592111
  0
LINE
  5
6AB
330
1F
100
AcDbEntity
  8
1、実線
100
AcDbLine
 10
809.7121499897596
 20
975.982009914906
 30
0.0
 11
809.7121499897596
 21
967.6820099149058
 31
0.0
  0
LINE
  5
6AC
330
1F
100
AcDbEntity
  8
1、実線
100
AcDbLine
 10
809.7121499897596
 20
967.6820099149058
 30
0.0
 11
811.4121499897596
 21
967.8430751740124
 31
0.0
  0
LINE
  5
6AD
330
1F
100
AcDbEntity
  8
1、実線
100
AcDbLine
 10
809.7121499897596
 20
975.982009914906
 30
0.0
 11
811.4121499897596
 21
975.8472433026144
 31
0.0
  0
LINE
  5
6AE
330
1F
100
AcDbEntity
  8
1、実線
100
AcDbLine
 10
811.4121499897596
 20
967.8430751740124
 30
0.0
 11
811.4121499897596
 21
975.8472433026147
 31
0.0
  0
ARC
  5
6AF
330
1F
100
AcDbEntity
  8
1、実線
100
AcDbCircle
 10
801.801835019118
 20
941.8451592383135
 30
0.0
 40
10.41032327512807
100
AcDbArc
 50
337.3913822040788
 51
22.60861779592111
  0
LINE
  5
6B0
330
1F
100
AcDbEntity
  8
1、実線
100
AcDbLine
 10
809.7121499897596
 20
945.9820099149061
 30
0.0
 11
809.7121499897596
 21
937.6820099149059
 31
0.0
  0
LINE
  5
6B1
330
1F
100
AcDbEntity
  8
1、実線
100
AcDbLine
 10
809.7121499897596
 20
937.6820099149059
 30
0.0
 11
811.4121499897596
 21
937.8430751740124
 31
0.0
  0
LINE
  5
6B2
330
1F
100
AcDbEntity
  8
1、実線
100
AcDbLine
 10
809.7121499897596
 20
945.9820099149061
 30
0.0
 11
811.4121499897596
 21
945.8472433026143
 31
0.0
  0
LINE
  5
6B3
330
1F
100
AcDbEntity
  8
1、実線
100
AcDbLine
 10
811.4121499897596
 20
937.8430751740124
 30
0.0
 11
811.4121499897596
 21
945.8472433026146
 31
0.0
  0
LINE
  5
6B8
330
1F
100
AcDbEntity
  8
1、実線
100
AcDbLine
 10
808.5121499897596
 20
975.6320099149061
 30
0.0
 11
809.7121499897596
 21
975.6320099149061
 31
0.0
  0
LINE
  5
6B9
330
1F
100
AcDbEntity
  8
1、実線
100
AcDbLine
 10
808.5121499897596
 20
968.032009914906
 30
0.0
 11
809.7121499897596
 21
968.032009914906
 31
0.0
  0
LINE
  5
6BA
330
1F
100
AcDbEntity
  8
1、実線
100
AcDbLine
 10
808.5121499897596
 20
945.6320099149056
 30
0.0
 11
808.5121499897596
 21
945.6320099149056
 31
0.0
  0
LINE
  5
6BC
330
1F
100
AcDbEntity
  8
1、実線
100
AcDbLine
 10
808.5121499897596
 20
945.6320099149056
 30
0.0
 11
809.7121499897596
 21
945.6320099149056
 31
0.0
  0
LINE
  5
6BD
330
1F
100
AcDbEntity
  8
1、実線
100
AcDbLine
 10
808.5121499897596
 20
938.0320099149059
 30
0.0
 11
809.7121499897596
 21
938.0320099149059
 31
0.0
  0
LINE
  5
6BE
330
1F
100
AcDbEntity
  8
1、実線
100
AcDbLine
 10
340.5121499897596
 20
931.832009914906
 30
0.0
 11
789.5121499897596
 21
931.832009914906
 31
0.0
  0
LINE
  5
6C7
330
1F
100
AcDbEntity
  8
1、実線
100
AcDbLine
 10
343.5121499897596
 20
931.832009914906
 30
0.0
 11
343.5121499897596
 21
926.8320099149061
 31
0.0
  0
LINE
  5
6C8
330
1F
100
AcDbEntity
  8
1、実線
100
AcDbLine
 10
343.5121499897596
 20
926.8320099149061
 30
0.0
 11
789.5121499897596
 21
926.8320099149061
 31
0.0
  0
LINE
  5
6CA
330
1F
100
AcDbEntity
  8
1、実線
100
AcDbLine
 10
342.5121499897596
 20
922.8320099149057
 30
0.0
 11
341.5121499897596
 21
915.832009914906
 31
0.0
  0
ARC
  5
6CE
330
1F
100
AcDbEntity
  8
1、実線
100
AcDbCircle
 10
343.0121499897596
 20
924.832009914906
 30
0.0
 40
1.5
100
AcDbArc
 50
90.0
 51
270.0
  0
LINE
  5
6D3
330
1F
100
AcDbEntity
  8
1、実線
100
AcDbLine
 10
343.0121499897596
 20
926.3320099149057
 30
0.0
 11
789.5121499897596
 21
926.3320099149057
 31
0.0
  0
LINE
  5
6D4
330
1F
100
AcDbEntity
  8
1、実線
100
AcDbLine
 10
789.5121499897596
 20
923.3320099149061
 30
0.0
 11
343.0121499897596
 21
923.3320099149061
 31
0.0
  0
LINE
  5
6D6
330
1F
100
AcDbEntity
  8
1、実線
100
AcDbLine
 10
342.5121499897596
 20
922.8320099149057
 30
0.0
 11
789.5121499897596
 21
922.8320099149057
 31
0.0
  0
LINE
  5
6DB
330
1F
100
AcDbEntity
  8
1、実線
100
AcDbLine
 10
346.5121499897596
 20
926.8320099149061
 30
0.0
 11
346.5121499897596
 21
926.3320099149057
 31
0.0
  0
LINE
  5
6DC
330
1F
100
AcDbEntity
  8
1、実線
100
AcDbLine
 10
344.5121499897596
 20
923.3320099149061
 30
0.0
 11
344.5121499897596
 21
922.8320099149057
 31
0.0
  0
LINE
  5
6EF
330
1F
100
AcDbEntity
  8
1、実線
100
AcDbLine
 10
804.5121499897597
 20
1331.832009914906
 30
0.0
 11
804.5121499897597
 21
1332.832009914906
 31
0.0
  0
LINE
  5
6F0
330
1F
100
AcDbEntity
  8
1、実線
100
AcDbLine
 10
804.5121499897597
 20
1332.832009914906
 30
0.0
 11
341.5121499897596
 21
1332.832009914906
 31
0.0
  0
LINE
  5
6F1
330
1F
100
AcDbEntity
  8
1、実線
100
AcDbLine
 10
341.5121499897596
 20
1332.832009914906
 30
0.0
 11
341.5121499897596
 21
1331.832009914906
 31
0.0
  0
ARC
  5
725
330
1F
100
AcDbEntity
  8
２，細線
100
AcDbCircle
 10
573.0121499897595
 20
1329.232009914906
 30
0.0
 40
6.100000000000001
100
AcDbArc
 50
39.60192708110679
 51
140.3980729188932
  0
LINE
  5
726
330
1F
100
AcDbEntity
  8
２，細線
100
AcDbLine
 10
568.3121499897596
 20
1333.12045433395
 30
0.0
 11
577.7121499897596
 21
1333.12045433395
 31
0.0
  0
LINE
  5
727
330
1F
100
AcDbEntity
  8
２，細線
100
AcDbLine
 10
568.3121499897596
 20
1333.12045433395
 30
0.0
 11
568.3121499897596
 21
1332.832009914906
 31
0.0
  0
LINE
  5
728
330
1F
100
AcDbEntity
  8
２，細線
100
AcDbLine
 10
568.3121499897596
 20
1332.832009914906
 30
0.0
 11
577.7121499897596
 21
1332.832009914906
 31
0.0
  0
LINE
  5
729
330
1F
100
AcDbEntity
  8
２，細線
100
AcDbLine
 10
577.7121499897596
 20
1332.832009914906
 30
0.0
 11
577.7121499897596
 21
1333.12045433395
 31
0.0
  0
ARC
  5
72F
330
1F
100
AcDbEntity
  8
２，細線
100
AcDbCircle
 10
799.5121499897597
 20
1329.232009914906
 30
0.0
 40
6.100000000000001
100
AcDbArc
 50
39.60192708110677
 51
140.3980729188932
  0
LINE
  5
730
330
1F
100
AcDbEntity
  8
２，細線
100
AcDbLine
 10
794.8121499897596
 20
1333.12045433395
 30
0.0
 11
804.2121499897596
 21
1333.12045433395
 31
0.0
  0
LINE
  5
731
330
1F
100
AcDbEntity
  8
２，細線
100
AcDbLine
 10
794.8121499897596
 20
1333.12045433395
 30
0.0
 11
794.8121499897596
 21
1332.832009914906
 31
0.0
  0
LINE
  5
732
330
1F
100
AcDbEntity
  8
２，細線
100
AcDbLine
 10
794.8121499897596
 20
1332.832009914906
 30
0.0
 11
804.2121499897596
 21
1332.832009914906
 31
0.0
  0
LINE
  5
733
330
1F
100
AcDbEntity
  8
２，細線
100
AcDbLine
 10
804.2121499897596
 20
1332.832009914906
 30
0.0
 11
804.2121499897596
 21
1333.12045433395
 31
0.0
  0
ARC
  5
742
330
1F
100
AcDbEntity
  8
２，細線
100
AcDbCircle
 10
1513.914112395468
 20
566.8940015498999
 30
0.0
 40
6.100000000000001
100
AcDbArc
 50
309.6019270811066
 51
50.39807291889324
  0
LINE
  5
743
330
1F
100
AcDbEntity
  8
２，細線
100
AcDbLine
 10
1517.802556814513
 20
571.5940015499
 30
0.0
 11
1517.802556814513
 21
562.1940015499002
 31
0.0
  0
LINE
  5
744
330
1F
100
AcDbEntity
  8
２，細線
100
AcDbLine
 10
1517.802556814513
 20
571.5940015499
 30
0.0
 11
1517.514112395468
 21
571.5940015499
 31
0.0
  0
LINE
  5
745
330
1F
100
AcDbEntity
  8
２，細線
100
AcDbLine
 10
1517.514112395468
 20
571.5940015499
 30
0.0
 11
1517.514112395468
 21
562.1940015499002
 31
0.0
  0
LINE
  5
746
330
1F
100
AcDbEntity
  8
２，細線
100
AcDbLine
 10
1517.514112395468
 20
562.1940015499002
 30
0.0
 11
1517.802556814513
 21
562.1940015499002
 31
0.0
  0
ARC
  5
747
330
1F
100
AcDbEntity
  8
２，細線
100
AcDbCircle
 10
1513.914112395468
 20
343.8940015499001
 30
0.0
 40
6.100000000000001
100
AcDbArc
 50
309.6019270811067
 51
50.39807291889315
  0
LINE
  5
748
330
1F
100
AcDbEntity
  8
２，細線
100
AcDbLine
 10
1517.802556814513
 20
348.5940015499002
 30
0.0
 11
1517.802556814513
 21
339.1940015499003
 31
0.0
  0
LINE
  5
749
330
1F
100
AcDbEntity
  8
２，細線
100
AcDbLine
 10
1517.802556814513
 20
348.5940015499002
 30
0.0
 11
1517.514112395468
 21
348.5940015499002
 31
0.0
  0
LINE
  5
74A
330
1F
100
AcDbEntity
  8
２，細線
100
AcDbLine
 10
1517.514112395468
 20
348.5940015499002
 30
0.0
 11
1517.514112395468
 21
339.1940015499003
 31
0.0
  0
LINE
  5
74B
330
1F
100
AcDbEntity
  8
２，細線
100
AcDbLine
 10
1517.514112395468
 20
339.1940015499003
 30
0.0
 11
1517.802556814513
 21
339.1940015499003
 31
0.0
  0
LINE
  5
750
330
1F
100
AcDbEntity
  8
1、実線
100
AcDbLine
 10
1516.514112395469
 20
338.8940015499001
 30
0.0
 11
1517.514112395469
 21
338.8940015499001
 31
0.0
  0
LINE
  5
751
330
1F
100
AcDbEntity
  8
1、実線
100
AcDbLine
 10
1517.514112395468
 20
338.8940015499001
 30
0.0
 11
1517.514112395468
 21
776.8940015499
 31
0.0
  0
ARC
  5
755
330
1F
100
AcDbEntity
  8
２，細線
100
AcDbCircle
 10
1513.914112395468
 20
771.8940015499001
 30
0.0
 40
6.100000000000001
100
AcDbArc
 50
309.6019270811087
 51
50.39807291889129
  0
LINE
  5
756
330
1F
100
AcDbEntity
  8
２，細線
100
AcDbLine
 10
1517.802556814513
 20
776.5940015499
 30
0.0
 11
1517.802556814513
 21
767.1940015499002
 31
0.0
  0
LINE
  5
757
330
1F
100
AcDbEntity
  8
２，細線
100
AcDbLine
 10
1517.802556814513
 20
776.5940015499
 30
0.0
 11
1517.514112395468
 21
776.5940015499
 31
0.0
  0
LINE
  5
758
330
1F
100
AcDbEntity
  8
２，細線
100
AcDbLine
 10
1517.514112395468
 20
776.5940015499
 30
0.0
 11
1517.514112395468
 21
767.1940015499002
 31
0.0
  0
LINE
  5
759
330
1F
100
AcDbEntity
  8
1、実線
100
AcDbLine
 10
1517.802556814513
 20
767.1940015498997
 30
0.0
 11
1517.514112395468
 21
767.1940015498997
 31
0.0
  0
LINE
  5
76F
330
1F
100
AcDbEntity
  8
4、破線2
100
AcDbLine
 10
1465.312149989759
 20
698.8940015499
 30
0.0
 11
1469.312149989758
 21
698.8940015499
 31
0.0
  0
LINE
  5
770
330
1F
100
AcDbEntity
  8
4、破線2
100
AcDbLine
 10
1469.312149989758
 20
698.8940015499
 30
0.0
 11
1469.312149989758
 21
648.8940015498999
 31
0.0
  0
LINE
  5
771
330
1F
100
AcDbEntity
  8
4、破線2
100
AcDbLine
 10
1469.312149989758
 20
648.8940015498999
 30
0.0
 11
1465.312149989759
 21
648.8940015498999
 31
0.0
  0
LINE
  5
772
330
1F
100
AcDbEntity
  8
4、破線2
100
AcDbLine
 10
1465.312149989759
 20
648.8940015498999
 30
0.0
 11
1465.312149989759
 21
698.8940015499
 31
0.0
  0
LINE
  5
773
330
1F
100
AcDbEntity
  8
4、破線2
100
AcDbLine
 10
1466.512149989759
 20
698.8940015499
 30
0.0
 11
1466.512149989759
 21
648.8940015498999
 31
0.0
  0
LINE
  5
780
330
1F
100
AcDbEntity
  8
4、破線2
100
AcDbLine
 10
1469.312149989758
 20
679.4940015498999
 30
0.0
 11
1482.312149989758
 21
679.4940015498999
 31
0.0
  0
LINE
  5
781
330
1F
100
AcDbEntity
  8
4、破線2
100
AcDbLine
 10
1482.312149989758
 20
679.4940015498999
 30
0.0
 11
1482.312149989758
 21
668.2940015499
 31
0.0
  0
LINE
  5
782
330
1F
100
AcDbEntity
  8
4、破線2
100
AcDbLine
 10
1482.312149989758
 20
668.2940015499
 30
0.0
 11
1469.312149989758
 21
668.2940015499
 31
0.0
  0
LINE
  5
783
330
1F
100
AcDbEntity
  8
4、破線2
100
AcDbLine
 10
1469.312149989758
 20
668.2940015499
 30
0.0
 11
1469.312149989758
 21
679.4940015498999
 31
0.0
  0
LINE
  5
784
330
1F
100
AcDbEntity
  8
4、破線2
100
AcDbLine
 10
1481.112149989758
 20
679.4940015498999
 30
0.0
 11
1481.112149989758
 21
688.9940015499
 31
0.0
  0
LINE
  5
785
330
1F
100
AcDbEntity
  8
4、破線2
100
AcDbLine
 10
1481.112149989758
 20
688.9940015499
 30
0.0
 11
1482.312149989758
 21
688.9940015499
 31
0.0
  0
LINE
  5
786
330
1F
100
AcDbEntity
  8
4、破線2
100
AcDbLine
 10
1482.312149989758
 20
688.9940015499
 30
0.0
 11
1482.312149989758
 21
658.2940015499
 31
0.0
  0
LINE
  5
787
330
1F
100
AcDbEntity
  8
4、破線2
100
AcDbLine
 10
1482.312149989758
 20
658.2940015499
 30
0.0
 11
1481.112149989758
 21
658.2940015499
 31
0.0
  0
LINE
  5
788
330
1F
100
AcDbEntity
  8
4、破線2
100
AcDbLine
 10
1481.112149989758
 20
658.2940015499
 30
0.0
 11
1481.112149989758
 21
668.2940015499
 31
0.0
  0
LINE
  5
792
330
1F
100
AcDbEntity
  8
4、破線2
100
AcDbLine
 10
1483.112149989759
 20
652.2940015499
 30
0.0
 11
1480.112149989759
 21
652.2940015499
 31
0.0
  0
LINE
  5
793
330
1F
100
AcDbEntity
  8
4、破線2
100
AcDbLine
 10
1480.112149989759
 20
652.2940015499
 30
0.0
 11
1480.112149989759
 21
657.2940015499
 31
0.0
  0
LINE
  5
794
330
1F
100
AcDbEntity
  8
4、破線2
100
AcDbLine
 10
1480.112149989759
 20
657.2940015499
 30
0.0
 11
1482.312149989758
 21
657.2940015499
 31
0.0
  0
LINE
  5
795
330
1F
100
AcDbEntity
  8
4、破線2
100
AcDbLine
 10
1482.312149989758
 20
657.2940015499
 30
0.0
 11
1482.312149989758
 21
666.3940015498999
 31
0.0
  0
LINE
  5
797
330
1F
100
AcDbEntity
  8
4、破線2
100
AcDbLine
 10
1483.112149989759
 20
663.8940015499001
 30
0.0
 11
1483.112149989759
 21
652.2940015499
 31
0.0
  0
LINE
  5
79A
330
1F
100
AcDbEntity
  8
4、破線2
100
AcDbLine
 10
1482.312149989758
 20
663.8940015499001
 30
0.0
 11
1483.112149989759
 21
663.8940015498999
 31
0.0
  0
LINE
  5
7A0
330
1F
100
AcDbEntity
  8
4、破線2
100
AcDbLine
 10
1483.112149989759
 20
666.3940015498999
 30
0.0
 11
1483.612149989759
 21
666.3940015498999
 31
0.0
  0
LINE
  5
7A1
330
1F
100
AcDbEntity
  8
4、破線2
100
AcDbLine
 10
1483.612149989759
 20
666.3940015498999
 30
0.0
 11
1483.612149989759
 21
658.6940015499
 31
0.0
  0
LINE
  5
7A2
330
1F
100
AcDbEntity
  8
4、破線2
100
AcDbLine
 10
1483.612149989759
 20
658.6940015499
 30
0.0
 11
1483.112149989759
 21
658.6940015499
 31
0.0
  0
LINE
  5
7A3
330
1F
100
AcDbEntity
  8
4、破線2
100
AcDbLine
 10
1483.112149989759
 20
658.6940015499
 30
0.0
 11
1483.112149989759
 21
666.3940015498999
 31
0.0
  0
ARC
  5
7A8
330
1F
100
AcDbEntity
  8
4、破線2
100
AcDbCircle
 10
1478.612149989759
 20
662.5440015499
 30
0.0
 40
7.0
100
AcDbArc
 50
343.5407503717397
 51
16.45924962826022
  0
LINE
  5
7AF
330
1F
100
AcDbEntity
  8
4、破線2
100
AcDbLine
 10
1483.612149989759
 20
665.2440015498999
 30
0.0
 11
1484.366278942085
 21
665.2440015498999
 31
0.0
  0
LINE
  5
7B0
330
1F
100
AcDbEntity
  8
4、破線2
100
AcDbLine
 10
1483.612149989759
 20
659.8440015499
 30
0.0
 11
1484.366278942085
 21
659.8440015499
 31
0.0
  0
ARC
  5
7B1
330
1F
100
AcDbEntity
  8
4、破線2
100
AcDbCircle
 10
1484.366278942085
 20
664.2440015498999
 30
0.0
 40
1.0
100
AcDbArc
 50
16.45924962826022
 51
90.0
  0
ARC
  5
7B2
330
1F
100
AcDbEntity
  8
4、破線2
100
AcDbCircle
 10
1484.366278942085
 20
660.8440015499
 30
0.0
 40
1.0
100
AcDbArc
 50
270.0
 51
343.5407503717397
  0
ARC
  5
7B7
330
1F
100
AcDbEntity
  8
4、破線2
100
AcDbCircle
 10
1481.612149989759
 20
644.9940015499
 30
0.0
 40
2.149999999999999
100
AcDbArc
 50
103.4477270445094
 51
76.55227295549059
  0
ARC
  5
7BA
330
1F
100
AcDbEntity
  8
4、破線2
100
AcDbCircle
 10
1481.612149989759
 20
644.9940015499
 30
0.0
 40
0.5
100
AcDbArc
 50
180.0
 51
0.0
  0
LINE
  5
7BB
330
1F
100
AcDbEntity
  8
4、破線2
100
AcDbLine
 10
1481.112149989758
 20
644.9940015499
 30
0.0
 11
1481.112149989758
 21
657.2940015499
 31
0.0
  0
LINE
  5
7BC
330
1F
100
AcDbEntity
  8
4、破線2
100
AcDbLine
 10
1482.112149989759
 20
644.9940015499
 30
0.0
 11
1482.112149989759
 21
657.2940015499
 31
0.0
  0
LINE
  5
7C6
330
1F
100
AcDbEntity
  8
4、破線2
100
AcDbLine
 10
520.5121499897595
 20
698.8940015499001
 30
0.0
 11
625.5121499897596
 21
698.8940015499001
 31
0.0
  0
LINE
  5
7C7
330
1F
100
AcDbEntity
  8
4、破線2
100
AcDbLine
 10
625.5121499897596
 20
698.8940015499001
 30
0.0
 11
625.5121499897596
 21
648.8940015499003
 31
0.0
  0
LINE
  5
7C8
330
1F
100
AcDbEntity
  8
4、破線2
100
AcDbLine
 10
625.5121499897596
 20
648.8940015499003
 30
0.0
 11
520.5121499897595
 21
648.8940015499003
 31
0.0
  0
LINE
  5
7C9
330
1F
100
AcDbEntity
  8
4、破線2
100
AcDbLine
 10
520.5121499897595
 20
648.8940015499003
 30
0.0
 11
520.5121499897595
 21
698.8940015499004
 31
0.0
  0
LINE
  5
7CC
330
1F
100
AcDbEntity
  8
4、破線2
100
AcDbLine
 10
530.0121499897596
 20
698.8940015499001
 30
0.0
 11
530.0121499897596
 21
648.8940015499003
 31
0.0
  0
LINE
  5
7CD
330
1F
100
AcDbEntity
  8
4、破線2
100
AcDbLine
 10
616.0121499897595
 20
698.8940015499001
 30
0.0
 11
616.0121499897598
 21
648.8940015499003
 31
0.0
  0
CIRCLE
  5
7CF
330
1F
100
AcDbEntity
  8
4、破線2
100
AcDbCircle
 10
558.0121499897595
 20
673.8940015499003
 30
0.0
 40
7.5
  0
LINE
  5
7D4
330
1F
100
AcDbEntity
  8
4、破線2
100
AcDbLine
 10
580.0121499897596
 20
679.4940015499003
 30
0.0
 11
614.0121499897595
 21
679.4940015499003
 31
0.0
  0
LINE
  5
7D5
330
1F
100
AcDbEntity
  8
4、破線2
100
AcDbLine
 10
614.0121499897595
 20
679.4940015499003
 30
0.0
 11
614.0121499897595
 21
668.2940015499002
 31
0.0
  0
LINE
  5
7D6
330
1F
100
AcDbEntity
  8
4、破線2
100
AcDbLine
 10
614.0121499897595
 20
668.2940015499002
 30
0.0
 11
580.0121499897596
 21
668.2940015499002
 31
0.0
  0
LINE
  5
7D7
330
1F
100
AcDbEntity
  8
4、破線2
100
AcDbLine
 10
580.0121499897596
 20
668.2940015499002
 30
0.0
 11
580.0121499897596
 21
679.4940015499003
 31
0.0
  0
LINE
  5
7E0
330
1F
100
AcDbEntity
  8
4、破線2
100
AcDbLine
 10
582.7621499897595
 20
688.8940015499001
 30
0.0
 11
591.2621499897595
 21
688.8940015499001
 31
0.0
  0
LINE
  5
7E1
330
1F
100
AcDbEntity
  8
4、破線2
100
AcDbLine
 10
591.2621499897595
 20
688.8940015499001
 30
0.0
 11
591.2621499897595
 21
658.2940015499002
 31
0.0
  0
LINE
  5
7E2
330
1F
100
AcDbEntity
  8
4、破線2
100
AcDbLine
 10
591.2621499897595
 20
658.2940015499002
 30
0.0
 11
582.7621499897595
 21
658.2940015499002
 31
0.0
  0
LINE
  5
7E3
330
1F
100
AcDbEntity
  8
4、破線2
100
AcDbLine
 10
582.7621499897595
 20
658.2940015499002
 30
0.0
 11
582.7621499897595
 21
688.8940015499001
 31
0.0
  0
LINE
  5
7E4
330
1F
100
AcDbEntity
  8
4、破線2
100
AcDbLine
 10
602.7621499897596
 20
688.8940015499001
 30
0.0
 11
611.2621499897596
 21
688.8940015499001
 31
0.0
  0
LINE
  5
7E5
330
1F
100
AcDbEntity
  8
4、破線2
100
AcDbLine
 10
611.2621499897596
 20
688.8940015499001
 30
0.0
 11
611.2621499897596
 21
658.2940015499002
 31
0.0
  0
LINE
  5
7E6
330
1F
100
AcDbEntity
  8
4、破線2
100
AcDbLine
 10
611.2621499897596
 20
658.2940015499002
 30
0.0
 11
602.7621499897596
 21
658.2940015499002
 31
0.0
  0
LINE
  5
7E7
330
1F
100
AcDbEntity
  8
4、破線2
100
AcDbLine
 10
602.7621499897596
 20
658.2940015499002
 30
0.0
 11
602.7621499897596
 21
688.8940015499001
 31
0.0
  0
LINE
  5
7F6
330
1F
100
AcDbEntity
  8
4、破線2
100
AcDbLine
 10
604.0121499897595
 20
645.2940015499002
 30
0.0
 11
604.0121499897595
 21
641.2940015499002
 31
0.0
  0
LINE
  5
7F7
330
1F
100
AcDbEntity
  8
4、破線2
100
AcDbLine
 10
604.0121499897595
 20
641.2940015499002
 30
0.0
 11
593.0121499897595
 21
641.2940015499002
 31
0.0
  0
LINE
  5
7F8
330
1F
100
AcDbEntity
  8
4、破線2
100
AcDbLine
 10
593.0121499897595
 20
641.2940015499002
 30
0.0
 11
590.0121499897595
 21
642.0440015499003
 31
0.0
  0
LINE
  5
7F9
330
1F
100
AcDbEntity
  8
4、破線2
100
AcDbLine
 10
590.0121499897595
 20
642.0440015499003
 30
0.0
 11
590.0121499897595
 21
644.5440015499002
 31
0.0
  0
LINE
  5
7FA
330
1F
100
AcDbEntity
  8
4、破線2
100
AcDbLine
 10
590.0121499897595
 20
644.5440015499002
 30
0.0
 11
593.0121499897595
 21
645.2940015499002
 31
0.0
  0
LINE
  5
7FB
330
1F
100
AcDbEntity
  8
4、破線2
100
AcDbLine
 10
593.0121499897595
 20
645.2940015499002
 30
0.0
 11
604.0121499897595
 21
645.2940015499002
 31
0.0
  0
CIRCLE
  5
803
330
1F
100
AcDbEntity
  8
4、破線2
100
AcDbCircle
 10
587.0121499897595
 20
662.5440015499002
 30
0.0
 40
3.85
  0
CIRCLE
  5
804
330
1F
100
AcDbEntity
  8
4、破線2
100
AcDbCircle
 10
607.0121499897595
 20
662.5440015499002
 30
0.0
 40
3.85
  0
CIRCLE
  5
805
330
1F
100
AcDbEntity
  8
4、破線2
100
AcDbCircle
 10
587.0121499897595
 20
662.5440015499002
 30
0.0
 40
2.75
  0
CIRCLE
  5
806
330
1F
100
AcDbEntity
  8
4、破線2
100
AcDbCircle
 10
607.0121499897595
 20
662.5440015499002
 30
0.0
 40
2.75
  0
LINE
  5
815
330
1F
100
AcDbEntity
  8
4、破線2
100
AcDbLine
 10
586.5121499897595
 20
652.2940015499003
 30
0.0
 11
586.5121499897595
 21
642.7940015499002
 31
0.0
  0
LINE
  5
816
330
1F
100
AcDbEntity
  8
4、破線2
100
AcDbLine
 10
586.5121499897595
 20
642.7940015499002
 30
0.0
 11
590.0121499897595
 21
642.7940015499002
 31
0.0
  0
LINE
  5
817
330
1F
100
AcDbEntity
  8
4、破線2
100
AcDbLine
 10
590.0121499897595
 20
643.7940015499002
 30
0.0
 11
587.5121499897595
 21
643.7940015499002
 31
0.0
  0
LINE
  5
818
330
1F
100
AcDbEntity
  8
4、破線2
100
AcDbLine
 10
587.5121499897595
 20
643.7940015499002
 30
0.0
 11
587.5121499897595
 21
652.2940015499003
 31
0.0
  0
LINE
  5
819
330
1F
100
AcDbEntity
  8
4、破線2
100
AcDbLine
 10
604.0121499897595
 20
642.7940015499002
 30
0.0
 11
607.5121499897595
 21
642.7940015499002
 31
0.0
  0
LINE
  5
81A
330
1F
100
AcDbEntity
  8
4、破線2
100
AcDbLine
 10
607.5121499897595
 20
642.7940015499002
 30
0.0
 11
607.5121499897595
 21
652.2940015499003
 31
0.0
  0
LINE
  5
81B
330
1F
100
AcDbEntity
  8
4、破線2
100
AcDbLine
 10
606.5121499897595
 20
652.2940015499003
 30
0.0
 11
606.5121499897595
 21
643.7940015499002
 31
0.0
  0
LINE
  5
81C
330
1F
100
AcDbEntity
  8
4、破線2
100
AcDbLine
 10
606.5121499897595
 20
643.7940015499002
 30
0.0
 11
604.0121499897595
 21
643.7940015499002
 31
0.0
  0
LINE
  5
822
330
1F
100
AcDbEntity
  8
4、破線2
100
AcDbLine
 10
585.0121499897595
 20
658.2940015499002
 30
0.0
 11
585.0121499897595
 21
652.2940015499003
 31
0.0
  0
LINE
  5
823
330
1F
100
AcDbEntity
  8
4、破線2
100
AcDbLine
 10
585.0121499897595
 20
652.2940015499003
 30
0.0
 11
589.0121499897595
 21
652.2940015499003
 31
0.0
  0
LINE
  5
824
330
1F
100
AcDbEntity
  8
4、破線2
100
AcDbLine
 10
589.0121499897595
 20
652.2940015499003
 30
0.0
 11
589.0121499897595
 21
658.2940015499002
 31
0.0
  0
LINE
  5
825
330
1F
100
AcDbEntity
  8
4、破線2
100
AcDbLine
 10
605.0121499897596
 20
658.2940015499002
 30
0.0
 11
605.0121499897596
 21
652.2940015499003
 31
0.0
  0
LINE
  5
826
330
1F
100
AcDbEntity
  8
4、破線2
100
AcDbLine
 10
605.0121499897596
 20
652.2940015499003
 30
0.0
 11
609.0121499897596
 21
652.2940015499003
 31
0.0
  0
LINE
  5
827
330
1F
100
AcDbEntity
  8
4、破線2
100
AcDbLine
 10
609.0121499897596
 20
652.2940015499003
 30
0.0
 11
609.0121499897596
 21
658.2940015499002
 31
0.0
  0
LINE
  5
832
330
1F
100
AcDbEntity
  8
4、破線2
100
AcDbLine
 10
520.5121499897595
 20
1280.632009914905
 30
0.0
 11
520.5121499897595
 21
1281.832009914904
 31
0.0
  0
LINE
  5
833
330
1F
100
AcDbEntity
  8
4、破線2
100
AcDbLine
 10
520.5121499897595
 20
1281.832009914904
 30
0.0
 11
530.0121499897596
 21
1281.832009914904
 31
0.0
  0
LINE
  5
834
330
1F
100
AcDbEntity
  8
4、破線2
100
AcDbLine
 10
530.0121499897596
 20
1281.832009914904
 30
0.0
 11
530.0121499897596
 21
1284.632009914905
 31
0.0
  0
LINE
  5
835
330
1F
100
AcDbEntity
  8
4、破線2
100
AcDbLine
 10
530.0121499897596
 20
1284.632009914905
 30
0.0
 11
616.0121499897595
 21
1284.632009914905
 31
0.0
  0
LINE
  5
836
330
1F
100
AcDbEntity
  8
4、破線2
100
AcDbLine
 10
616.0121499897595
 20
1284.632009914905
 30
0.0
 11
616.0121499897595
 21
1281.832009914904
 31
0.0
  0
LINE
  5
837
330
1F
100
AcDbEntity
  8
4、破線2
100
AcDbLine
 10
616.0121499897595
 20
1281.832009914904
 30
0.0
 11
625.5121499897596
 21
1281.832009914904
 31
0.0
  0
LINE
  5
838
330
1F
100
AcDbEntity
  8
4、破線2
100
AcDbLine
 10
625.5121499897596
 20
1281.832009914904
 30
0.0
 11
625.5121499897596
 21
1280.632009914905
 31
0.0
  0
LINE
  5
839
330
1F
100
AcDbEntity
  8
4、破線2
100
AcDbLine
 10
614.8121499897595
 20
1280.632009914905
 30
0.0
 11
614.8121499897595
 21
1283.432009914905
 31
0.0
  0
LINE
  5
83A
330
1F
100
AcDbEntity
  8
4、破線2
100
AcDbLine
 10
614.8121499897595
 20
1283.432009914905
 30
0.0
 11
531.2121499897596
 21
1283.432009914905
 31
0.0
  0
LINE
  5
83B
330
1F
100
AcDbEntity
  8
4、破線2
100
AcDbLine
 10
531.2121499897596
 20
1283.432009914905
 30
0.0
 11
531.2121499897596
 21
1280.632009914905
 31
0.0
  0
LINE
  5
842
330
1F
100
AcDbEntity
  8
4、破線2
100
AcDbLine
 10
550.5121499897596
 20
1280.632009914905
 30
0.0
 11
550.5121499897596
 21
1292.632009914905
 31
0.0
  0
LINE
  5
843
330
1F
100
AcDbEntity
  8
4、破線2
100
AcDbLine
 10
550.5121499897596
 20
1292.632009914905
 30
0.0
 11
565.5121499897595
 21
1292.632009914905
 31
0.0
  0
LINE
  5
844
330
1F
100
AcDbEntity
  8
4、破線2
100
AcDbLine
 10
565.5121499897595
 20
1292.632009914905
 30
0.0
 11
565.5121499897595
 21
1280.632009914905
 31
0.0
  0
LINE
  5
849
330
1F
100
AcDbEntity
  8
4、破線2
100
AcDbLine
 10
555.5121499897595
 20
1292.632009914905
 30
0.0
 11
555.5121499897595
 21
1298.132009914905
 31
0.0
  0
LINE
  5
84A
330
1F
100
AcDbEntity
  8
4、破線2
100
AcDbLine
 10
555.5121499897595
 20
1298.132009914905
 30
0.0
 11
560.5121499897595
 21
1298.132009914905
 31
0.0
  0
LINE
  5
84B
330
1F
100
AcDbEntity
  8
4、破線2
100
AcDbLine
 10
560.5121499897595
 20
1298.132009914905
 30
0.0
 11
560.5121499897595
 21
1292.632009914905
 31
0.0
  0
LINE
  5
854
330
1F
100
AcDbEntity
  8
4、破線2
100
AcDbLine
 10
579.9121499897595
 20
1284.632009914905
 30
0.0
 11
579.9121499897595
 21
1297.732009914905
 31
0.0
  0
LINE
  5
855
330
1F
100
AcDbEntity
  8
4、破線2
100
AcDbLine
 10
579.9121499897595
 20
1297.732009914905
 30
0.0
 11
582.7621499897595
 21
1297.732009914905
 31
0.0
  0
LINE
  5
856
330
1F
100
AcDbEntity
  8
4、破線2
100
AcDbLine
 10
582.7621499897595
 20
1297.732009914905
 30
0.0
 11
582.7621499897595
 21
1296.232009914906
 31
0.0
  0
LINE
  5
857
330
1F
100
AcDbEntity
  8
4、破線2
100
AcDbLine
 10
582.7621499897595
 20
1296.232009914906
 30
0.0
 11
591.2621499897595
 21
1296.232009914906
 31
0.0
  0
LINE
  5
858
330
1F
100
AcDbEntity
  8
4、破線2
100
AcDbLine
 10
591.2621499897595
 20
1296.232009914906
 30
0.0
 11
591.2621499897595
 21
1297.732009914905
 31
0.0
  0
LINE
  5
859
330
1F
100
AcDbEntity
  8
4、破線2
100
AcDbLine
 10
591.2621499897595
 20
1297.732009914905
 30
0.0
 11
602.7621499897596
 21
1297.732009914905
 31
0.0
  0
LINE
  5
85A
330
1F
100
AcDbEntity
  8
4、破線2
100
AcDbLine
 10
602.7621499897596
 20
1297.732009914905
 30
0.0
 11
602.7621499897596
 21
1296.232009914906
 31
0.0
  0
LINE
  5
85B
330
1F
100
AcDbEntity
  8
4、破線2
100
AcDbLine
 10
602.7621499897596
 20
1296.232009914906
 30
0.0
 11
611.2621499897596
 21
1296.232009914906
 31
0.0
  0
LINE
  5
85C
330
1F
100
AcDbEntity
  8
4、破線2
100
AcDbLine
 10
611.2621499897596
 20
1296.232009914906
 30
0.0
 11
611.2621499897596
 21
1297.732009914905
 31
0.0
  0
LINE
  5
85D
330
1F
100
AcDbEntity
  8
4、破線2
100
AcDbLine
 10
611.2621499897596
 20
1297.732009914905
 30
0.0
 11
614.1121499897596
 21
1297.732009914905
 31
0.0
  0
LINE
  5
85E
330
1F
100
AcDbEntity
  8
4、破線2
100
AcDbLine
 10
614.1121499897596
 20
1297.732009914905
 30
0.0
 11
614.1121499897596
 21
1284.632009914905
 31
0.0
  0
CIRCLE
  5
864
330
1F
100
AcDbEntity
  8
4、破線2
100
AcDbCircle
 10
587.0121499897595
 20
1299.482009914904
 30
0.0
 40
1.75
  0
CIRCLE
  5
865
330
1F
100
AcDbEntity
  8
4、破線2
100
AcDbCircle
 10
607.0121499897595
 20
1299.482009914904
 30
0.0
 40
1.75
  0
LINE
  5
868
330
1F
100
AcDbEntity
  8
4、破線2
100
AcDbLine
 10
604.0121499897595
 20
1301.482009914906
 30
0.0
 11
604.0121499897595
 21
1297.482009914904
 31
0.0
  0
LINE
  5
869
330
1F
100
AcDbEntity
  8
4、破線2
100
AcDbLine
 10
604.0121499897595
 20
1297.482009914904
 30
0.0
 11
593.0121499897595
 21
1297.482009914904
 31
0.0
  0
LINE
  5
86A
330
1F
100
AcDbEntity
  8
4、破線2
100
AcDbLine
 10
593.0121499897595
 20
1297.482009914904
 30
0.0
 11
590.0121499897595
 21
1298.232009914904
 31
0.0
  0
LINE
  5
86B
330
1F
100
AcDbEntity
  8
4、破線2
100
AcDbLine
 10
590.0121499897595
 20
1298.232009914904
 30
0.0
 11
590.0121499897595
 21
1300.732009914906
 31
0.0
  0
LINE
  5
86C
330
1F
100
AcDbEntity
  8
4、破線2
100
AcDbLine
 10
590.0121499897595
 20
1300.732009914906
 30
0.0
 11
593.0121499897595
 21
1301.482009914906
 31
0.0
  0
LINE
  5
86D
330
1F
100
AcDbEntity
  8
4、破線2
100
AcDbLine
 10
593.0121499897595
 20
1301.482009914906
 30
0.0
 11
604.0121499897595
 21
1301.482009914906
 31
0.0
  0
LINE
  5
86E
330
1F
100
AcDbEntity
  8
4、破線2
100
AcDbLine
 10
586.5121499897595
 20
1298.982009914904
 30
0.0
 11
590.0121499897595
 21
1298.982009914904
 31
0.0
  0
LINE
  5
86F
330
1F
100
AcDbEntity
  8
4、破線2
100
AcDbLine
 10
590.0121499897595
 20
1299.982009914905
 30
0.0
 11
587.5121499897595
 21
1299.982009914905
 31
0.0
  0
LINE
  5
870
330
1F
100
AcDbEntity
  8
4、破線2
100
AcDbLine
 10
604.0121499897595
 20
1298.982009914904
 30
0.0
 11
607.5121499897595
 21
1298.982009914904
 31
0.0
  0
LINE
  5
871
330
1F
100
AcDbEntity
  8
4、破線2
100
AcDbLine
 10
606.5121499897595
 20
1299.982009914905
 30
0.0
 11
604.0121499897595
 21
1299.982009914905
 31
0.0
  0
LINE
  5
872
330
1F
100
AcDbEntity
  8
4、破線2
100
AcDbLine
 10
582.7621499897595
 20
1297.732009914905
 30
0.0
 11
591.2621499897595
 21
1297.732009914905
 31
0.0
  0
LINE
  5
873
330
1F
100
AcDbEntity
  8
4、破線2
100
AcDbLine
 10
602.7621499897596
 20
1297.732009914905
 30
0.0
 11
611.2621499897596
 21
1297.732009914905
 31
0.0
  0
LINE
  5
878
330
1F
100
AcDbEntity
  8
1、実線
100
AcDbLine
 10
805.5121499897595
 20
927.1320099149059
 30
0.0
 11
809.7121499897596
 21
927.1320099149059
 31
0.0
  0
LINE
  5
879
330
1F
100
AcDbEntity
  8
1、実線
100
AcDbLine
 10
809.7121499897596
 20
927.1320099149059
 30
0.0
 11
809.7121499897596
 21
917.1320099149056
 31
0.0
  0
LINE
  5
87A
330
1F
100
AcDbEntity
  8
1、実線
100
AcDbLine
 10
809.7121499897596
 20
917.1320099149056
 30
0.0
 11
805.5121499897596
 21
917.132009914906
 31
0.0
  0
LINE
  5
880
330
1F
100
AcDbEntity
  8
中箱
100
AcDbLine
 10
390.5121499897596
 20
931.832009914906
 30
0.0
 11
390.5121499897596
 21
1279.632009914904
 31
0.0
  0
LINE
  5
881
330
1F
100
AcDbEntity
  8
中箱
100
AcDbLine
 10
390.5121499897596
 20
1279.632009914904
 30
0.0
 11
755.5121499897596
 21
1279.632009914904
 31
0.0
  0
LINE
  5
882
330
1F
100
AcDbEntity
  8
中箱
100
AcDbLine
 10
755.5121499897596
 20
1279.632009914904
 30
0.0
 11
755.5121499897596
 21
932.832009914906
 31
0.0
  0
LINE
  5
892
330
1F
100
AcDbEntity
  8
1、実線
100
AcDbLine
 10
345.5121499897594
 20
319.8940015499001
 30
0.0
 11
345.5121499897594
 21
289.8940015499001
 31
0.0
  0
LINE
  5
893
330
1F
100
AcDbEntity
  8
1、実線
100
AcDbLine
 10
345.5121499897594
 20
289.8940015499001
 30
0.0
 11
385.5121499897595
 21
289.8940015499001
 31
0.0
  0
LINE
  5
894
330
1F
100
AcDbEntity
  8
1、実線
100
AcDbLine
 10
385.5121499897595
 20
289.8940015499001
 30
0.0
 11
385.5121499897595
 21
297.8940015499001
 31
0.0
  0
LINE
  5
895
330
1F
100
AcDbEntity
  8
1、実線
100
AcDbLine
 10
385.5121499897595
 20
297.8940015499001
 30
0.0
 11
397.5121499897595
 21
297.8940015499001
 31
0.0
  0
LINE
  5
896
330
1F
100
AcDbEntity
  8
1、実線
100
AcDbLine
 10
397.5121499897595
 20
297.8940015499001
 30
0.0
 11
397.5121499897595
 21
299.8940015499001
 31
0.0
  0
LINE
  5
897
330
1F
100
AcDbEntity
  8
1、実線
100
AcDbLine
 10
397.5121499897595
 20
299.8940015499001
 30
0.0
 11
385.5121499897595
 21
299.8940015499001
 31
0.0
  0
LINE
  5
898
330
1F
100
AcDbEntity
  8
1、実線
100
AcDbLine
 10
385.5121499897595
 20
299.8940015499001
 30
0.0
 11
385.5121499897595
 21
319.8940015499001
 31
0.0
  0
LINE
  5
899
330
1F
100
AcDbEntity
  8
1、実線
100
AcDbLine
 10
385.5121499897595
 20
299.8940015499001
 30
0.0
 11
345.5121499897594
 21
299.8940015499001
 31
0.0
  0
LINE
  5
89A
330
1F
100
AcDbEntity
  8
1、実線
100
AcDbLine
 10
385.5121499897595
 20
297.8940015499001
 30
0.0
 11
345.5121499897594
 21
297.8940015499001
 31
0.0
  0
LINE
  5
89B
330
1F
100
AcDbEntity
  8
1、実線
100
AcDbLine
 10
345.5121499897594
 20
295.8940015499001
 30
0.0
 11
385.5121499897595
 21
295.8940015499001
 31
0.0
  0
LINE
  5
89C
330
1F
100
AcDbEntity
  8
1、実線
100
AcDbLine
 10
800.5121499897596
 20
299.8940015499001
 30
0.0
 11
748.5121499897595
 21
299.8940015499001
 31
0.0
  0
LINE
  5
89D
330
1F
100
AcDbEntity
  8
1、実線
100
AcDbLine
 10
748.5121499897595
 20
299.8940015499001
 30
0.0
 11
748.5121499897595
 21
297.8940015499001
 31
0.0
  0
LINE
  5
89E
330
1F
100
AcDbEntity
  8
1、実線
100
AcDbLine
 10
748.5121499897595
 20
297.8940015499001
 30
0.0
 11
800.5121499897596
 21
297.8940015499001
 31
0.0
  0
LINE
  5
89F
330
1F
100
AcDbEntity
  8
1、実線
100
AcDbLine
 10
800.5121499897596
 20
319.8940015499001
 30
0.0
 11
800.5121499897596
 21
289.8940015499001
 31
0.0
  0
LINE
  5
8A0
330
1F
100
AcDbEntity
  8
1、実線
100
AcDbLine
 10
800.5121499897596
 20
289.8940015499001
 30
0.0
 11
760.5121499897595
 21
289.8940015499001
 31
0.0
  0
LINE
  5
8A1
330
1F
100
AcDbEntity
  8
1、実線
100
AcDbLine
 10
760.5121499897595
 20
289.8940015499001
 30
0.0
 11
760.5121499897595
 21
297.8940015499001
 31
0.0
  0
LINE
  5
8A2
330
1F
100
AcDbEntity
  8
1、実線
100
AcDbLine
 10
760.5121499897595
 20
299.8940015499001
 30
0.0
 11
760.5121499897595
 21
319.8940015499001
 31
0.0
  0
LINE
  5
8A3
330
1F
100
AcDbEntity
  8
1、実線
100
AcDbLine
 10
760.5121499897595
 20
295.8940015499001
 30
0.0
 11
800.5121499897596
 21
295.8940015499001
 31
0.0
  0
LINE
  5
8AB
330
1F
100
AcDbEntity
  8
1、実線
100
AcDbLine
 10
1157.512149989759
 20
319.8940015499001
 30
0.0
 11
1157.512149989759
 21
289.8940015499001
 31
0.0
  0
LINE
  5
8AC
330
1F
100
AcDbEntity
  8
1、実線
100
AcDbLine
 10
1157.512149989759
 20
289.8940015499001
 30
0.0
 11
1083.512149989759
 21
289.8940015499001
 31
0.0
  0
LINE
  5
8AD
330
1F
100
AcDbEntity
  8
1、実線
100
AcDbLine
 10
1083.512149989759
 20
289.8940015499001
 30
0.0
 11
1083.512149989759
 21
295.8940015499001
 31
0.0
  0
LINE
  5
8AE
330
1F
100
AcDbEntity
  8
1、実線
100
AcDbLine
 10
1083.512149989759
 20
295.8940015499001
 30
0.0
 11
1102.512149989759
 21
297.8940015499001
 31
0.0
  0
LINE
  5
8AF
330
1F
100
AcDbEntity
  8
1、実線
100
AcDbLine
 10
1102.512149989759
 20
297.8940015499001
 30
0.0
 11
1102.512149989759
 21
299.8940015499001
 31
0.0
  0
LINE
  5
8B0
330
1F
100
AcDbEntity
  8
1、実線
100
AcDbLine
 10
1102.512149989759
 20
299.8940015499001
 30
0.0
 11
1124.012149989759
 21
299.8940015499001
 31
0.0
  0
LINE
  5
8B2
330
1F
100
AcDbEntity
  8
1、実線
100
AcDbLine
 10
1124.012149989759
 20
299.8940015499001
 30
0.0
 11
1124.012149989759
 21
319.8940015499001
 31
0.0
  0
LINE
  5
8B8
330
1F
100
AcDbEntity
  8
1、実線
100
AcDbLine
 10
1483.514112395468
 20
319.8940015499001
 30
0.0
 11
1486.514112395468
 21
289.8940015499001
 31
0.0
  0
LINE
  5
8B9
330
1F
100
AcDbEntity
  8
1、実線
100
AcDbLine
 10
1486.514112395468
 20
289.8940015499001
 30
0.0
 11
1506.514112395468
 21
289.8940015499001
 31
0.0
  0
LINE
  5
8BA
330
1F
100
AcDbEntity
  8
1、実線
100
AcDbLine
 10
1506.514112395468
 20
289.8940015499001
 30
0.0
 11
1509.514112395468
 21
319.8940015499001
 31
0.0
  0
LINE
  5
917
330
1F
100
AcDbEntity
  8
1、実線
100
AcDbLine
 10
805.5121499897595
 20
683.8940015499002
 30
0.0
 11
805.5121499897595
 21
711.8940015499
 31
0.0
  0
ARC
  5
941
330
1F
100
AcDbEntity
  8
1、実線
100
AcDbCircle
 10
987.7987010693784
 20
495.9902450189169
 30
0.0
 40
80.00000000000005
100
AcDbArc
 50
12.37536574611428
 51
35.19908405146067
  0
ARC
  5
942
330
1F
100
AcDbEntity
  8
1、実線
100
AcDbCircle
 10
987.7987010693784
 20
677.7980640673859
 30
0.0
 40
80.00000000000003
100
AcDbArc
 50
324.8009159485393
 51
347.6246342538856
  0
LINE
  5
943
330
1F
100
AcDbEntity
  8
1、実線
100
AcDbLine
 10
1069.498297212569
 20
663.7803502492547
 30
0.0
 11
1076.514112395469
 21
664.3941545431514
 31
0.0
  0
LINE
  5
944
330
1F
100
AcDbEntity
  8
1、実線
100
AcDbLine
 10
1049.514112395468
 20
620.1561387715752
 30
0.0
 11
1049.514112395468
 21
553.6321703147278
 31
0.0
  0
LINE
  5
945
330
1F
100
AcDbEntity
  8
1、実線
100
AcDbLine
 10
1069.498297212569
 20
510.0079588370481
 30
0.0
 11
1076.514112395469
 21
509.3941545431514
 31
0.0
  0
ARC
  5
94B
330
1F
100
AcDbEntity
  8
1、実線
100
AcDbCircle
 10
1069.846920183561
 20
513.9927376294149
 30
0.0
 40
4.0
100
AcDbArc
 50
192.3753657461142
 51
265.0000000000001
  0
ARC
  5
94C
330
1F
100
AcDbEntity
  8
1、実線
100
AcDbCircle
 10
1069.846920183561
 20
659.7955714568877
 30
0.0
 40
4.0
100
AcDbArc
 50
94.99999999999976
 51
167.6246342538856
  0
ARC
  5
94D
330
1F
100
AcDbEntity
  8
1、実線
100
AcDbCircle
 10
1069.514112395467
 20
553.6321703147278
 30
0.0
 40
20.0
100
AcDbArc
 50
180.0
 51
215.1990840514605
  0
ARC
  5
94E
330
1F
100
AcDbEntity
  8
1、実線
100
AcDbCircle
 10
1069.514112395469
 20
620.1561387715752
 30
0.0
 40
20.0
100
AcDbArc
 50
144.8009159485393
 51
180.0
  0
LINE
  5
957
330
1F
100
AcDbEntity
  8
1、実線
100
AcDbLine
 10
1076.514112395469
 20
664.3941545431514
 30
0.0
 11
1076.514112395469
 21
635.8941545431514
 31
0.0
  0
LINE
  5
958
330
1F
100
AcDbEntity
  8
1、実線
100
AcDbLine
 10
1076.514112395469
 20
635.8941545431514
 30
0.0
 11
1072.514112395469
 21
635.8941545431514
 31
0.0
  0
LINE
  5
959
330
1F
100
AcDbEntity
  8
1、実線
100
AcDbLine
 10
1057.514112395468
 20
620.8941545431514
 30
0.0
 11
1057.514112395468
 21
552.8941545431514
 31
0.0
  0
LINE
  5
95A
330
1F
100
AcDbEntity
  8
1、実線
100
AcDbLine
 10
1072.514112395468
 20
537.8941545431514
 30
0.0
 11
1076.514112395469
 21
537.8941545431514
 31
0.0
  0
LINE
  5
95B
330
1F
100
AcDbEntity
  8
1、実線
100
AcDbLine
 10
1076.514112395469
 20
537.8941545431514
 30
0.0
 11
1076.514112395469
 21
509.3941545431514
 31
0.0
  0
ARC
  5
95C
330
1F
100
AcDbEntity
  8
1、実線
100
AcDbCircle
 10
1072.514112395469
 20
620.8941545431514
 30
0.0
 40
15.0
100
AcDbArc
 50
90.0
 51
180.0
  0
ARC
  5
95D
330
1F
100
AcDbEntity
  8
1、実線
100
AcDbCircle
 10
1072.514112395468
 20
552.8941545431514
 30
0.0
 40
15.0
100
AcDbArc
 50
180.0
 51
270.0
  0
LINE
  5
965
330
1F
100
AcDbEntity
  8
1、実線
100
AcDbLine
 10
360.5121499897595
 20
664.3940015499001
 30
0.0
 11
380.5121499897595
 21
664.3940015499001
 31
0.0
  0
LINE
  5
966
330
1F
100
AcDbEntity
  8
1、実線
100
AcDbLine
 10
380.5121499897595
 20
664.3940015499001
 30
0.0
 11
380.5121499897595
 21
509.3940015499001
 31
0.0
  0
LINE
  5
967
330
1F
100
AcDbEntity
  8
1、実線
100
AcDbLine
 10
380.5121499897595
 20
509.3940015499001
 30
0.0
 11
360.5121499897595
 21
509.3940015499001
 31
0.0
  0
LINE
  5
968
330
1F
100
AcDbEntity
  8
1、実線
100
AcDbLine
 10
360.5121499897595
 20
509.3940015499001
 30
0.0
 11
360.5121499897595
 21
664.3940015499001
 31
0.0
  0
LINE
  5
96B
330
1F
100
AcDbEntity
  8
1、実線
100
AcDbLine
 10
362.5121499897595
 20
626.8940015499001
 30
0.0
 11
378.5121499897595
 21
626.8940015499001
 31
0.0
  0
LINE
  5
96C
330
1F
100
AcDbEntity
  8
1、実線
100
AcDbLine
 10
362.5121499897594
 20
546.8940015499001
 30
0.0
 11
378.5121499897595
 21
546.8940015499001
 31
0.0
  0
LINE
  5
96D
330
1F
100
AcDbEntity
  8
3、破線1
100
AcDbLine
 10
360.5121499897596
 20
537.8940015499003
 30
0.0
 11
380.5121499897595
 21
537.8940015499003
 31
0.0
  0
LINE
  5
96E
330
1F
100
AcDbEntity
  8
3、破線1
100
AcDbLine
 10
360.5121499897595
 20
635.8940015499001
 30
0.0
 11
380.5121499897595
 21
635.8940015499001
 31
0.0
  0
LINE
  5
972
330
1F
100
AcDbEntity
  8
1、実線
100
AcDbLine
 10
360.5121499897596
 20
891.832009914906
 30
0.0
 11
360.5121499897596
 21
866.832009914906
 31
0.0
  0
LINE
  5
973
330
1F
100
AcDbEntity
  8
1、実線
100
AcDbLine
 10
362.5121499897596
 20
864.8320099149056
 30
0.0
 11
378.5121499897596
 21
864.8320099149056
 31
0.0
  0
LINE
  5
974
330
1F
100
AcDbEntity
  8
1、実線
100
AcDbLine
 10
380.5121499897596
 20
866.832009914906
 30
0.0
 11
380.5121499897596
 21
891.832009914906
 31
0.0
  0
LINE
  5
975
330
1F
100
AcDbEntity
  8
1、実線
100
AcDbLine
 10
380.5121499897596
 20
891.832009914906
 30
0.0
 11
360.5121499897596
 21
891.832009914906
 31
0.0
  0
LINE
  5
976
330
1F
100
AcDbEntity
  8
1、実線
100
AcDbLine
 10
362.5121499897596
 20
881.832009914906
 30
0.0
 11
378.5121499897596
 21
881.832009914906
 31
0.0
  0
LINE
  5
978
330
1F
100
AcDbEntity
  8
3、破線1
100
AcDbLine
 10
360.5121499897596
 20
872.8320099149057
 30
0.0
 11
380.5121499897596
 21
872.8320099149057
 31
0.0
  0
ARC
  5
ADC
330
1F
100
AcDbEntity
  8
1、実線
100
AcDbCircle
 10
362.5121499897596
 20
866.832009914906
 30
0.0
 40
2.0
100
AcDbArc
 50
180.0
 51
270.0
  0
ARC
  5
ADD
330
1F
100
AcDbEntity
  8
1、実線
100
AcDbCircle
 10
378.5121499897596
 20
866.832009914906
 30
0.0
 40
2.0
100
AcDbArc
 50
270.0
 51
0.0
  0
CIRCLE
  5
B2B
330
1F
100
AcDbEntity
  8
3、破線1
100
AcDbCircle
 10
754.5121499897597
 20
1291.832009914906
 30
0.0
 40
5.0
  0
CIRCLE
  5
B2D
330
1F
100
AcDbEntity
  8
3、破線1
100
AcDbCircle
 10
745.5121499897597
 20
1291.832009914906
 30
0.0
 40
4.0
  0
CIRCLE
  5
B2E
330
1F
100
AcDbEntity
  8
3、破線1
100
AcDbCircle
 10
745.5121499897597
 20
1291.832009914906
 30
0.0
 40
2.75
  0
CIRCLE
  5
B31
330
1F
100
AcDbEntity
  8
3、破線1
100
AcDbCircle
 10
755.5121499897596
 20
1291.832009914906
 30
0.0
 40
4.0
  0
ARC
  5
B33
330
1F
100
AcDbEntity
  8
3、破線1
100
AcDbCircle
 10
755.5121499897596
 20
1291.832009914906
 30
0.0
 40
8.0
100
AcDbArc
 50
255.3945472638368
 51
104.2107435690909
  0
ARC
  5
B3B
330
1F
100
AcDbEntity
  8
3、破線1
100
AcDbCircle
 10
749.2121499897597
 20
1291.832009914906
 30
0.0
 40
6.5
100
AcDbArc
 50
97.34719922178159
 51
169.361290684985
  0
LINE
  5
B3F
330
1F
100
AcDbEntity
  8
3、破線1
100
AcDbLine
 10
748.3809191347043
 20
1298.278641226342
 30
0.0
 11
753.5482366865849
 21
1299.587204595738
 31
0.0
  0
LINE
  5
B40
330
1F
100
AcDbEntity
  8
3、破線1
100
AcDbLine
 10
748.630539340457
 20
1285.358083049963
 30
0.0
 11
753.4948583718342
 21
1284.090528498002
 31
0.0
  0
ARC
  5
B44
330
1F
100
AcDbEntity
  8
3、破線1
100
AcDbCircle
 10
746.5121499897596
 20
1291.832009914906
 30
0.0
 40
1.200000000000044
100
AcDbArc
 50
270.0
 51
90.0
  0
LINE
  5
B45
330
1F
100
AcDbEntity
  8
3、破線1
100
AcDbLine
 10
746.5121499897596
 20
1293.032009914906
 30
0.0
 11
742.823879488286
 21
1293.032009914906
 31
0.0
  0
LINE
  5
B46
330
1F
100
AcDbEntity
  8
3、破線1
100
AcDbLine
 10
746.5121499897596
 20
1290.632009914905
 30
0.0
 11
742.823879488286
 21
1290.632009914905
 31
0.0
  0
ARC
  5
B47
330
1F
100
AcDbEntity
  8
3、破線1
100
AcDbCircle
 10
749.2121499897597
 20
1291.832009914906
 30
0.0
 40
6.5
100
AcDbArc
 50
190.6387093150149
 51
264.866390168975
  0
ARC
  5
B4C
330
1F
100
AcDbEntity
  8
3、破線1
100
AcDbCircle
 10
755.5121499897596
 20
1291.832009914906
 30
0.0
 40
6.0
100
AcDbArc
 50
324.314665287343
 51
35.68533471265689
  0
LINE
  5
B4D
330
1F
100
AcDbEntity
  8
3、破線1
100
AcDbLine
 10
760.3855471621643
 20
1295.332009914906
 30
0.0
 11
757.4486416628633
 21
1295.332009914906
 31
0.0
  0
LINE
  5
B4F
330
1F
100
AcDbEntity
  8
3、破線1
100
AcDbLine
 10
760.3855471621643
 20
1288.332009914906
 30
0.0
 11
757.4486416628633
 21
1288.332009914906
 31
0.0
  0
LINE
  5
B5D
330
1F
100
AcDbEntity
  8
3、破線1
100
AcDbLine
 10
771.5121499897596
 20
1295.832009914906
 30
0.0
 11
771.5121499897596
 21
1287.832009914906
 31
0.0
  0
LINE
  5
B5E
330
1F
100
AcDbEntity
  8
3、破線1
100
AcDbLine
 10
771.5121499897596
 20
1287.832009914906
 30
0.0
 11
751.5121499897596
 21
1287.832009914906
 31
0.0
  0
LINE
  5
B5F
330
1F
100
AcDbEntity
  8
3、破線1
100
AcDbLine
 10
751.5121499897596
 20
1287.832009914906
 30
0.0
 11
751.5121499897596
 21
1295.832009914906
 31
0.0
  0
LINE
  5
B60
330
1F
100
AcDbEntity
  8
3、破線1
100
AcDbLine
 10
751.5121499897596
 20
1295.832009914906
 30
0.0
 11
771.5121499897596
 21
1295.832009914906
 31
0.0
  0
LINE
  5
B62
330
1F
100
AcDbEntity
  8
3、破線1
100
AcDbLine
 10
771.5121499897596
 20
1294.332009914906
 30
0.0
 11
816.948699802079
 21
1294.332009914906
 31
0.0
  0
LINE
  5
B63
330
1F
100
AcDbEntity
  8
3、破線1
100
AcDbLine
 10
771.5121499897596
 20
1289.332009914906
 30
0.0
 11
816.948699802079
 21
1289.332009914906
 31
0.0
  0
LINE
  5
B64
330
1F
100
AcDbEntity
  8
3、破線1
100
AcDbLine
 10
771.5121499897596
 20
1291.832009914906
 30
0.0
 11
816.948699802079
 21
1291.832009914906
 31
0.0
  0
CIRCLE
  5
B67
330
1F
100
AcDbEntity
  8
3、破線1
100
AcDbCircle
 10
731.5121499897596
 20
1291.832009914906
 30
0.0
 40
2.2
  0
ARC
  5
B68
330
1F
100
AcDbEntity
  8
3、破線1
100
AcDbCircle
 10
731.5121499897596
 20
1291.832009914906
 30
0.0
 40
4.0
100
AcDbArc
 50
160.818504185618
 51
19.18149581438193
  0
LINE
  5
B6E
330
1F
100
AcDbEntity
  8
3、破線1
100
AcDbLine
 10
729.7121499897597
 20
1298.832009914906
 30
0.0
 11
729.7121499897597
 21
1303.832009914906
 31
0.0
  0
LINE
  5
B6F
330
1F
100
AcDbEntity
  8
3、破線1
100
AcDbLine
 10
729.7121499897597
 20
1303.832009914906
 30
0.0
 11
733.3121499897596
 21
1303.832009914906
 31
0.0
  0
LINE
  5
B70
330
1F
100
AcDbEntity
  8
3、破線1
100
AcDbLine
 10
733.3121499897596
 20
1303.832009914906
 30
0.0
 11
733.3121499897596
 21
1298.832009914906
 31
0.0
  0
LINE
  5
B71
330
1F
100
AcDbEntity
  8
3、破線1
100
AcDbLine
 10
733.3121499897596
 20
1298.832009914906
 30
0.0
 11
735.2900801154272
 21
1293.146256454019
 31
0.0
  0
LINE
  5
B72
330
1F
100
AcDbEntity
  8
3、破線1
100
AcDbLine
 10
729.7121499897597
 20
1298.832009914906
 30
0.0
 11
727.7342198640921
 21
1293.146256454019
 31
0.0
  0
CIRCLE
  5
B73
330
1F
100
AcDbEntity
  8
3、破線1
100
AcDbCircle
 10
731.5121499897596
 20
1291.832009914906
 30
0.0
 40
3.5
  0
LINE
  5
B78
330
1F
100
AcDbEntity
  8
3、破線1
100
AcDbLine
 10
730.0121499897596
 20
1303.832009914906
 30
0.0
 11
730.0121499897596
 21
1354.268559727225
 31
0.0
  0
LINE
  5
B79
330
1F
100
AcDbEntity
  8
3、破線1
100
AcDbLine
 10
733.0121499897597
 20
1303.832009914906
 30
0.0
 11
733.0121499897597
 21
1354.268559727225
 31
0.0
  0
LINE
  5
B7E
330
1F
100
AcDbEntity
  8
1、実線
100
AcDbLine
 10
751.5121499897595
 20
317.2940015499001
 30
0.0
 11
751.5121499897595
 21
299.8940015499001
 31
0.0
  0
LINE
  5
B7F
330
1F
100
AcDbEntity
  8
1、実線
100
AcDbLine
 10
751.5121499897595
 20
299.8940015499001
 30
0.0
 11
759.5121499897593
 21
299.8940015499001
 31
0.0
  0
LINE
  5
B80
330
1F
100
AcDbEntity
  8
1、実線
100
AcDbLine
 10
759.5121499897593
 20
307.8940015499001
 30
0.0
 11
759.5121499897593
 21
317.2940015499001
 31
0.0
  0
LINE
  5
B86
330
1F
100
AcDbEntity
  8
1、実線
100
AcDbLine
 10
747.5748960565655
 20
319.8940015499003
 30
0.0
 11
747.5748960565655
 21
317.2940015499001
 31
0.0
  0
LINE
  5
B87
330
1F
100
AcDbEntity
  8
1、実線
100
AcDbLine
 10
747.5748960565655
 20
317.2940015499001
 30
0.0
 11
760.5121499897595
 21
317.2940015499001
 31
0.0
  0
CIRCLE
  5
F55
330
1F
100
AcDbEntity
  8
0
100
AcDbCircle
 10
531.7056843935171
 20
819.8940015499001
 30
0.0
 40
14.0
  0
CIRCLE
  5
F58
330
1F
100
AcDbEntity
  8
0
100
AcDbCircle
 10
437.627787787058
 20
819.8940015499001
 30
0.0
 40
14.0
  0
CIRCLE
  5
F59
330
1F
100
AcDbEntity
  8
0
100
AcDbCircle
 10
926.0019624057092
 20
209.8940015499
 30
0.0
 40
14.0
  0
CIRCLE
  5
F5A
330
1F
100
AcDbEntity
  8
0
100
AcDbCircle
 10
704.3054831237259
 20
176.6535683134143
 30
0.0
 40
14.0
  0
CIRCLE
  5
F5C
330
1F
100
AcDbEntity
  8
0
100
AcDbCircle
 10
1193.276948670477
 20
859.8940015499
 30
0.0
 40
14.0
  0
CIRCLE
  5
F5E
330
1F
100
AcDbEntity
  8
0
100
AcDbCircle
 10
1088.317102286068
 20
209.8940015499
 30
0.0
 40
14.0
  0
CIRCLE
  5
F5F
330
1F
100
AcDbEntity
  8
0
100
AcDbCircle
 10
1616.514112395469
 20
249.8940015499
 30
0.0
 40
14.0
  0
CIRCLE
  5
F60
330
1F
100
AcDbEntity
  8
0
100
AcDbCircle
 10
1616.514112395469
 20
249.8940015499
 30
0.0
 40
14.0
  0
CIRCLE
  5
F61
330
1F
100
AcDbEntity
  8
0
100
AcDbCircle
 10
1616.514112395469
 20
249.8940015499
 30
0.0
 40
14.0
  0
CIRCLE
  5
F63
330
1F
100
AcDbEntity
  8
0
100
AcDbCircle
 10
926.0019624057092
 20
693.8194087561413
 30
0.0
 40
14.0
  0
CIRCLE
  5
F64
330
1F
100
AcDbEntity
  8
0
100
AcDbCircle
 10
926.0019624057092
 20
765.1320445187333
 30
0.0
 40
14.0
  0
CIRCLE
  5
F66
330
1F
100
AcDbEntity
  8
0
100
AcDbCircle
 10
1495.783943009076
 20
859.8940015499
 30
0.0
 40
14.0
  0
CIRCLE
  5
F68
330
1F
100
AcDbEntity
  8
0
100
AcDbCircle
 10
1616.514112395469
 20
536.8366708527504
 30
0.0
 40
14.0
  0
CIRCLE
  5
F6F
330
1F
100
AcDbEntity
  8
0
100
AcDbCircle
 10
1405.251159915389
 20
859.8940015499
 30
0.0
 40
14.0
  0
CIRCLE
  5
F70
330
1F
100
AcDbEntity
  8
0
100
AcDbCircle
 10
1380.470771025056
 20
238.716709643941
 30
0.0
 40
14.0
  0
ARC
  5
F7E
330
1F
100
AcDbEntity
  8
1、実線
100
AcDbCircle
 10
731.5121499897596
 20
325.5940015499001
 30
0.0
 40
9.0
100
AcDbArc
 50
253.3984504009768
 51
286.6015495990231
  0
LINE
  5
F86
330
1F
100
AcDbEntity
  8
1、実線
100
AcDbLine
 10
728.0121499897596
 20
318.2149772241523
 30
0.0
 11
728.0121499897596
 21
319.0940015499001
 31
0.0
  0
LINE
  5
F87
330
1F
100
AcDbEntity
  8
1、実線
100
AcDbLine
 10
735.0121499897596
 20
318.2149772241523
 30
0.0
 11
735.0121499897596
 21
319.0940015499001
 31
0.0
  0
LINE
  5
F88
330
1F
100
AcDbEntity
  8
1、実線
100
AcDbLine
 10
727.5121499897596
 20
319.8940015499001
 30
0.0
 11
735.5121499897596
 21
319.8940015499001
 31
0.0
  0
LINE
  5
F89
330
1F
100
AcDbEntity
  8
1、実線
100
AcDbLine
 10
735.5121499897596
 20
319.8940015499001
 30
0.0
 11
735.5121499897596
 21
319.0940015499001
 31
0.0
  0
LINE
  5
F8A
330
1F
100
AcDbEntity
  8
1、実線
100
AcDbLine
 10
735.5121499897596
 20
319.0940015499001
 30
0.0
 11
727.5121499897596
 21
319.0940015499001
 31
0.0
  0
LINE
  5
F8B
330
1F
100
AcDbEntity
  8
1、実線
100
AcDbLine
 10
727.5121499897596
 20
319.0940015499001
 30
0.0
 11
727.5121499897596
 21
319.8940015499001
 31
0.0
  0
ARC
  5
F8C
330
1F
100
AcDbEntity
  8
1、実線
100
AcDbCircle
 10
729.3121499897596
 20
318.2149772241523
 30
0.0
 40
1.3
100
AcDbArc
 50
180.0
 51
253.3984504009733
  0
ARC
  5
F8D
330
1F
100
AcDbEntity
  8
1、実線
100
AcDbCircle
 10
733.7121499897597
 20
318.2149772241523
 30
0.0
 40
1.3
100
AcDbArc
 50
286.6015495990264
 51
0.0
  0
SPLINE
  5
F8F
330
1F
100
AcDbEntity
  8
1、実線
100
AcDbSpline
210
0.0
220
0.0
230
1.0
 70
     8
 71
     3
 72
    11
 73
     7
 74
     5
 42
0.0000000001
 43
0.0000000001
 44
0.0000000001
 40
0.0
 40
0.0
 40
0.0
 40
0.0
 40
18.52892701610221
 40
30.1354612073803
 40
52.81200969985267
 40
59.76789609398723
 40
59.76789609398723
 40
59.76789609398723
 40
59.76789609398723
 10
1509.514112395468
 20
319.8940015499001
 30
0.0
 10
1515.889303057944
 20
320.0996916630939
 30
0.0
 10
1526.25791807444
 20
320.4342262220303
 30
0.0
 10
1541.304056507803
 20
310.31622621973
 30
0.0
 10
1556.373598602367
 20
311.0328415474373
 30
0.0
 10
1565.535968913731
 20
314.621465657435
 30
0.0
 10
1567.686734020639
 20
315.4638554818256
 30
0.0
 11
1509.514112395468
 21
319.8940015499001
 31
0.0
 11
1527.965619003374
 21
318.2019494625083
 31
0.0
 11
1538.466604695047
 21
313.2581720164061
 31
0.0
 11
1561.142642965497
 21
313.1060540079697
 31
0.0
 11
1567.686734020639
 21
315.4638554818256
 31
0.0
  0
SPLINE
  5
F90
330
1F
100
AcDbEntity
  8
1、実線
100
AcDbSpline
210
0.0
220
0.0
230
1.0
 70
     8
 71
     3
 72
    40
 73
    36
 74
     0
 42
0.0000000001
 43
0.0000000001
 40
0.0
 40
0.0
 40
0.0
 40
0.0
 40
1.806346045430064
 40
1.806346045430064
 40
5.419038136290196
 40
5.419038136290196
 40
12.64442231801044
 40
12.64442231801044
 40
15.56441962019126
 40
15.56441962019126
 40
18.61933928032965
 40
18.61933928032965
 40
21.67425894046805
 40
21.67425894046805
 40
26.44991572185031
 40
26.44991572185031
 40
28.86212094332198
 40
28.86212094332198
 40
30.3738338455353
 40
30.3738338455353
 40
31.88554674774861
 40
31.88554674774861
 40
34.90897255217524
 40
34.90897255217524
 40
40.95582416102851
 40
40.95582416102851
 40
47.34823663302242
 40
47.34823663302242
 40
51.50893273665595
 40
51.50893273665595
 40
54.2605136107142
 40
54.2605136107142
 40
57.01209448477245
 40
57.01209448477245
 40
59.76789609398739
 40
59.76789609398739
 40
59.76789609398739
 40
59.76789609398739
 10
1509.594730822591
 20
317.3953017541648
 30
0.0
 10
1510.216234724681
 20
317.415354049812
 30
0.0
 10
1510.834904730726
 20
317.4353100426896
 30
0.0
 10
1512.68048018638
 20
317.4885563548142
 30
0.0
 10
1513.896980136054
 20
317.5151597615806
 30
0.0
 10
1517.488105503552
 20
317.5198091963138
 30
0.0
 10
1519.803559479643
 20
317.4212376594046
 30
0.0
 10
1522.882631403373
 20
316.9794659894903
 30
0.0
 10
1523.748928855067
 20
316.8173093833268
 30
0.0
 10
1525.477574216618
 20
316.4001616189545
 30
0.0
 10
1526.335896181075
 20
316.1419947870888
 30
0.0
 10
1528.0135216367
 20
315.5157359087569
 30
0.0
 10
1528.863674803349
 20
315.1365651261087
 30
0.0
 10
1531.089443192074
 20
314.0579445284176
 30
0.0
 10
1532.48954734442
 20
313.2976652574536
 30
0.0
 10
1534.716836456244
 20
312.1779477846637
 30
0.0
 10
1535.485041494669
 20
311.8066860977013
 30
0.0
 10
1536.779055946921
 20
311.2390539650243
 30
0.0
 10
1537.290081944822
 20
311.0286240009945
 30
0.0
 10
1538.328670229696
 20
310.6376092133172
 30
0.0
 10
1538.852801613645
 20
310.4576601662754
 30
0.0
 10
1540.43732299294
 20
309.9629062323156
 30
0.0
 10
1541.509801921998
 20
309.6931943192933
 30
0.0
 10
1544.758063081554
 20
309.0514680619974
 30
0.0
 10
1546.964358270474
 20
308.8466157031058
 30
0.0
 10
1551.502318471623
 20
308.8155724767218
 30
0.0
 10
1553.834225159158
 20
309.011619737943
 30
0.0
 10
1557.610135381622
 20
309.6278682672518
 30
0.0
 10
1559.079951014195
 20
309.9460170831714
 30
0.0
 10
1561.470389711447
 20
310.5851650437855
 30
0.0
 10
1562.409279100661
 20
310.8706556064901
 30
0.0
 10
1564.237102267247
 20
311.480023323479
 30
0.0
 10
1565.129555043965
 20
311.8034101872911
 30
0.0
 10
1566.884204741178
 20
312.4645365486338
 30
0.0
 10
1567.746374317913
 20
312.8022971173911
 30
0.0
 10
1568.598470169804
 20
313.1360373630051
 30
0.0
  0
LINE
  5
F91
330
1F
100
AcDbEntity
  8
1、実線
100
AcDbLine
 10
1567.686734020639
 20
315.4638554818256
 30
0.0
 11
1568.598470169804
 21
313.1360373630051
 31
0.0
  0
CIRCLE
  5
F98
330
1F
100
AcDbEntity
  8
0
100
AcDbCircle
 10
1616.514112395469
 20
401.9457500449216
 30
0.0
 40
14.0
  0
LEADER
  5
FAA
330
1F
100
AcDbEntity
  8
引き出し線
100
AcDbLeader
  3
ISO-25
 76
     2
 10
1129.650051349065
 20
289.7624340572601
 30
0.0
 10
1094.751687037449
 20
222.3276703197073
 30
0.0
1001
ACAD
1000
DSTYLE
1002
{
1070
   147
1040
1.0
1070
    77
1070
     0
1002
}
  0
CIRCLE
  5
FAB
330
1F
100
AcDbEntity
  8
0
100
AcDbCircle
 10
926.0019624057092
 20
330.8871480476303
 30
0.0
 40
14.0
  0
TEXT
  5
FB8
330
1F
100
AcDbEntity
  8
0
100
AcDbText
 10
1402.950602941906
 20
854.3806113696282
 30
0.0
 40
12.0
  1
1
100
AcDbText
  0
TEXT
  5
FB9
330
1F
100
AcDbEntity
  8
0
100
AcDbText
 10
1490.396944448825
 20
853.8724032450842
 30
0.0
 40
12.0
  1
4
100
AcDbText
  0
TEXT
  5
FBA
330
1F
100
AcDbEntity
  8
0
100
AcDbText
 10
1613.260712371877
 20
531.261794661656
 30
0.0
 40
12.0
  1
2
100
AcDbText
  0
TEXT
  5
FC4
330
1F
100
AcDbEntity
  8
0
100
AcDbText
 10
524.9796577207266
 20
813.865622252687
 30
0.0
 40
12.0
  1
10
100
AcDbText
  0
TEXT
  5
FC5
330
1F
100
AcDbEntity
  8
0
100
AcDbText
 10
433.6835693794379
 20
813.3270914543951
 30
0.0
 40
12.0
  1
9
100
AcDbText
  0
TEXT
  5
FC6
330
1F
100
AcDbEntity
  8
0
100
AcDbText
 10
1187.817437130956
 20
854.2763058562819
 30
0.0
 40
12.0
  1
11
100
AcDbText
  0
TEXT
  5
FC7
330
1F
100
AcDbEntity
  8
0
100
AcDbText
 10
700.3111677837418
 20
170.5550057527848
 30
0.0
 40
12.0
  1
4
100
AcDbText
  0
TEXT
  5
FC8
330
1F
100
AcDbEntity
  8
0
100
AcDbText
 10
922.4493317846285
 20
417.6415850607686
 30
0.0
 40
12.0
  1
8
100
AcDbText
  0
TEXT
  5
FC9
330
1F
100
AcDbEntity
  8
0
100
AcDbText
 10
1080.431606437626
 20
203.7489205912688
 30
0.0
 40
12.0
  1
17
100
AcDbText
  0
TEXT
  5
FCA
330
1F
100
AcDbEntity
  8
0
100
AcDbText
 10
918.219398386401
 20
687.4927121622886
 30
0.0
 40
12.0
  1
12
100
AcDbText
  0
TEXT
  5
FCE
330
1F
100
AcDbEntity
  8
0
100
AcDbText
 10
1608.271511411897
 20
396.2601080944951
 30
0.0
 40
12.0
  1
15
100
AcDbText
  0
TEXT
  5
FCF
330
1F
100
AcDbEntity
  8
0
100
AcDbText
 10
1372.902128644998
 20
232.070614201163
 30
0.0
 40
12.0
  1
14
100
AcDbText
  0
TEXT
  5
FD0
330
1F
100
AcDbEntity
  8
0
100
AcDbText
 10
1608.523184721827
 20
243.6233864069208
 30
0.0
 40
12.0
  1
16
100
AcDbText
  0
TEXT
  5
FDE
330
1F
100
AcDbEntity
  8
0
100
AcDbText
 10
922.0956252569667
 20
204.1088688949198
 30
0.0
 40
12.0
  1
6
100
AcDbText
  0
TEXT
  5
FDF
330
1F
100
AcDbEntity
  8
0
100
AcDbText
 10
918.1991318766161
 20
758.9855649302387
 30
0.0
 40
12.0
  1
13
100
AcDbText
  0
LINE
  5
FE2
330
1F
100
AcDbEntity
  8
電源コード
100
AcDbLine
 10
805.5121499897596
 20
1294.332009914906
 30
0.0
 11
836.9486998020787
 21
1294.332009914906
 31
0.0
  0
LINE
  5
FE3
330
1F
100
AcDbEntity
  8
電源コード
100
AcDbLine
 10
836.9486998020787
 20
1294.332009914906
 30
0.0
 11
836.9486998020787
 21
1289.332009914906
 31
0.0
  0
LINE
  5
FE4
330
1F
100
AcDbEntity
  8
電源コード
100
AcDbLine
 10
836.9486998020787
 20
1289.332009914906
 30
0.0
 11
805.5121499897596
 21
1289.332009914906
 31
0.0
  0
LINE
  5
FE5
330
1F
100
AcDbEntity
  8
電源コード
100
AcDbLine
 10
730.0121499897596
 20
1332.832009914906
 30
0.0
 11
730.0121499897596
 21
1364.268559727225
 31
0.0
  0
LINE
  5
FE6
330
1F
100
AcDbEntity
  8
電源コード
100
AcDbLine
 10
730.0121499897596
 20
1364.268559727225
 30
0.0
 11
733.0121499897597
 21
1364.268559727225
 31
0.0
  0
LINE
  5
FE7
330
1F
100
AcDbEntity
  8
電源コード
100
AcDbLine
 10
733.0121499897597
 20
1364.268559727225
 30
0.0
 11
733.0121499897597
 21
1332.832009914906
 31
0.0
  0
LINE
  5
FE8
330
1F
100
AcDbEntity
  8
電源コード
100
AcDbLine
 10
805.5121499897596
 20
1291.832009914906
 30
0.0
 11
836.9486998020787
 21
1291.832009914906
 31
0.0
  0
TEXT
  5
FEA
330
1F
100
AcDbEntity
  8
0
100
AcDbText
 10
922.828969528629
 20
324.7600765401262
 30
0.0
 40
12.0
  1
3
100
AcDbText
  0
ARC
  5
1346
330
1F
100
AcDbEntity
  8
中箱
100
AcDbCircle
 10
395.0121499897596
 20
713.8940015499001
 30
0.0
 40
10.0
100
AcDbArc
 50
90.0
 51
180.0
  0
ARC
  5
1347
330
1F
100
AcDbEntity
  8
中箱
100
AcDbCircle
 10
395.0121499897596
 20
383.8940015499001
 30
0.0
 40
10.0
100
AcDbArc
 50
180.0
 51
270.0
  0
ARC
  5
1348
330
1F
100
AcDbEntity
  8
中箱
100
AcDbCircle
 10
751.0121499897596
 20
383.8940015499001
 30
0.0
 40
10.0
100
AcDbArc
 50
270.0
 51
0.0
  0
ARC
  5
1349
330
1F
100
AcDbEntity
  8
中箱
100
AcDbCircle
 10
751.0121499897593
 20
713.8940015498999
 30
0.0
 40
10.0
100
AcDbArc
 50
0.0
 51
90.0
  0
CIRCLE
  5
13D0
330
1F
100
AcDbEntity
  8
２，細線
100
AcDbCircle
 10
1175.255138077223
 20
724.8940015499
 30
0.0
 40
0.5
  0
CIRCLE
  5
13D1
330
1F
100
AcDbEntity
  8
２，細線
100
AcDbCircle
 10
1175.255138077223
 20
724.8940015499
 30
0.0
 40
0.5
  0
CIRCLE
  5
13D2
330
1F
100
AcDbEntity
  8
２，細線
100
AcDbCircle
 10
1175.255138077223
 20
724.8940015499
 30
0.0
 40
0.5
  0
CIRCLE
  5
13D3
330
1F
100
AcDbEntity
  8
２，細線
100
AcDbCircle
 10
1175.255138077223
 20
724.8940015499
 30
0.0
 40
0.5
  0
CIRCLE
  5
13D4
330
1F
100
AcDbEntity
  8
２，細線
100
AcDbCircle
 10
1175.255138077223
 20
724.8940015499
 30
0.0
 40
0.5
  0
CIRCLE
  5
13D5
330
1F
100
AcDbEntity
  8
２，細線
100
AcDbCircle
 10
1175.255138077223
 20
724.8940015499
 30
0.0
 40
0.5
  0
CIRCLE
  5
13D6
330
1F
100
AcDbEntity
  8
２，細線
100
AcDbCircle
 10
1175.255138077223
 20
724.8940015499
 30
0.0
 40
0.5
  0
CIRCLE
  5
13D7
330
1F
100
AcDbEntity
  8
２，細線
100
AcDbCircle
 10
1175.255138077223
 20
724.8940015499
 30
0.0
 40
0.5
  0
CIRCLE
  5
13D8
330
1F
100
AcDbEntity
  8
２，細線
100
AcDbCircle
 10
1175.255138077223
 20
724.8940015499
 30
0.0
 40
0.5
  0
CIRCLE
  5
13D9
330
1F
100
AcDbEntity
  8
２，細線
100
AcDbCircle
 10
1175.255138077223
 20
724.8940015499
 30
0.0
 40
0.5
  0
CIRCLE
  5
13DA
330
1F
100
AcDbEntity
  8
２，細線
100
AcDbCircle
 10
1175.255138077223
 20
724.8940015499
 30
0.0
 40
0.5
  0
CIRCLE
  5
13DB
330
1F
100
AcDbEntity
  8
２，細線
100
AcDbCircle
 10
1175.255138077223
 20
724.8940015499
 30
0.0
 40
0.5
  0
CIRCLE
  5
13DC
330
1F
100
AcDbEntity
  8
２，細線
100
AcDbCircle
 10
1175.255138077223
 20
724.8940015499
 30
0.0
 40
0.5
  0
CIRCLE
  5
13DD
330
1F
100
AcDbEntity
  8
２，細線
100
AcDbCircle
 10
1175.255138077223
 20
724.8940015499
 30
0.0
 40
0.5
  0
CIRCLE
  5
13DE
330
1F
100
AcDbEntity
  8
２，細線
100
AcDbCircle
 10
1175.255138077223
 20
724.8940015499
 30
0.0
 40
0.5
  0
CIRCLE
  5
13DF
330
1F
100
AcDbEntity
  8
２，細線
100
AcDbCircle
 10
1190.255138077223
 20
724.8940015499
 30
0.0
 40
0.5
  0
CIRCLE
  5
13E0
330
1F
100
AcDbEntity
  8
２，細線
100
AcDbCircle
 10
1190.255138077223
 20
724.8940015499
 30
0.0
 40
0.5
  0
CIRCLE
  5
13E1
330
1F
100
AcDbEntity
  8
２，細線
100
AcDbCircle
 10
1190.255138077223
 20
724.8940015499
 30
0.0
 40
0.5
  0
CIRCLE
  5
13E2
330
1F
100
AcDbEntity
  8
２，細線
100
AcDbCircle
 10
1190.255138077223
 20
724.8940015499
 30
0.0
 40
0.5
  0
CIRCLE
  5
13E3
330
1F
100
AcDbEntity
  8
２，細線
100
AcDbCircle
 10
1190.255138077223
 20
724.8940015499
 30
0.0
 40
0.5
  0
CIRCLE
  5
13E4
330
1F
100
AcDbEntity
  8
２，細線
100
AcDbCircle
 10
1190.255138077223
 20
724.8940015499
 30
0.0
 40
0.5
  0
CIRCLE
  5
13E5
330
1F
100
AcDbEntity
  8
２，細線
100
AcDbCircle
 10
1190.255138077223
 20
724.8940015499
 30
0.0
 40
0.5
  0
CIRCLE
  5
13E6
330
1F
100
AcDbEntity
  8
２，細線
100
AcDbCircle
 10
1190.255138077223
 20
724.8940015499
 30
0.0
 40
0.5
  0
CIRCLE
  5
13E7
330
1F
100
AcDbEntity
  8
２，細線
100
AcDbCircle
 10
1190.255138077223
 20
724.8940015499
 30
0.0
 40
0.5
  0
CIRCLE
  5
13E8
330
1F
100
AcDbEntity
  8
２，細線
100
AcDbCircle
 10
1190.255138077223
 20
724.8940015499
 30
0.0
 40
0.5
  0
CIRCLE
  5
13E9
330
1F
100
AcDbEntity
  8
２，細線
100
AcDbCircle
 10
1190.255138077223
 20
724.8940015499
 30
0.0
 40
0.5
  0
CIRCLE
  5
13EA
330
1F
100
AcDbEntity
  8
２，細線
100
AcDbCircle
 10
1190.255138077223
 20
724.8940015499
 30
0.0
 40
0.5
  0
CIRCLE
  5
13EB
330
1F
100
AcDbEntity
  8
２，細線
100
AcDbCircle
 10
1190.255138077223
 20
724.8940015499
 30
0.0
 40
0.5
  0
CIRCLE
  5
13EC
330
1F
100
AcDbEntity
  8
２，細線
100
AcDbCircle
 10
1190.255138077223
 20
724.8940015499
 30
0.0
 40
0.5
  0
CIRCLE
  5
13ED
330
1F
100
AcDbEntity
  8
２，細線
100
AcDbCircle
 10
1190.255138077223
 20
724.8940015499
 30
0.0
 40
0.5
  0
CIRCLE
  5
13EE
330
1F
100
AcDbEntity
  8
２，細線
100
AcDbCircle
 10
1190.255138077223
 20
724.8940015499
 30
0.0
 40
0.5
  0
CIRCLE
  5
13EF
330
1F
100
AcDbEntity
  8
２，細線
100
AcDbCircle
 10
1205.255138077223
 20
724.8940015499
 30
0.0
 40
0.5
  0
CIRCLE
  5
13F0
330
1F
100
AcDbEntity
  8
２，細線
100
AcDbCircle
 10
1205.255138077223
 20
724.8940015499
 30
0.0
 40
0.5
  0
CIRCLE
  5
13F1
330
1F
100
AcDbEntity
  8
２，細線
100
AcDbCircle
 10
1205.255138077223
 20
724.8940015499
 30
0.0
 40
0.5
  0
CIRCLE
  5
13F2
330
1F
100
AcDbEntity
  8
２，細線
100
AcDbCircle
 10
1205.255138077223
 20
724.8940015499
 30
0.0
 40
0.5
  0
CIRCLE
  5
13F3
330
1F
100
AcDbEntity
  8
２，細線
100
AcDbCircle
 10
1205.255138077223
 20
724.8940015499
 30
0.0
 40
0.5
  0
CIRCLE
  5
13F4
330
1F
100
AcDbEntity
  8
２，細線
100
AcDbCircle
 10
1205.255138077223
 20
724.8940015499
 30
0.0
 40
0.5
  0
CIRCLE
  5
13F5
330
1F
100
AcDbEntity
  8
２，細線
100
AcDbCircle
 10
1205.255138077223
 20
724.8940015499
 30
0.0
 40
0.5
  0
CIRCLE
  5
13F6
330
1F
100
AcDbEntity
  8
２，細線
100
AcDbCircle
 10
1205.255138077223
 20
724.8940015499
 30
0.0
 40
0.5
  0
CIRCLE
  5
13F7
330
1F
100
AcDbEntity
  8
２，細線
100
AcDbCircle
 10
1205.255138077223
 20
724.8940015499
 30
0.0
 40
0.5
  0
CIRCLE
  5
13F8
330
1F
100
AcDbEntity
  8
２，細線
100
AcDbCircle
 10
1205.255138077223
 20
724.8940015499
 30
0.0
 40
0.5
  0
CIRCLE
  5
13F9
330
1F
100
AcDbEntity
  8
２，細線
100
AcDbCircle
 10
1205.255138077223
 20
724.8940015499
 30
0.0
 40
0.5
  0
CIRCLE
  5
13FA
330
1F
100
AcDbEntity
  8
２，細線
100
AcDbCircle
 10
1205.255138077223
 20
724.8940015499
 30
0.0
 40
0.5
  0
CIRCLE
  5
13FB
330
1F
100
AcDbEntity
  8
２，細線
100
AcDbCircle
 10
1205.255138077223
 20
724.8940015499
 30
0.0
 40
0.5
  0
CIRCLE
  5
13FC
330
1F
100
AcDbEntity
  8
２，細線
100
AcDbCircle
 10
1205.255138077223
 20
724.8940015499
 30
0.0
 40
0.5
  0
CIRCLE
  5
13FD
330
1F
100
AcDbEntity
  8
２，細線
100
AcDbCircle
 10
1205.255138077223
 20
724.8940015499
 30
0.0
 40
0.5
  0
CIRCLE
  5
13FE
330
1F
100
AcDbEntity
  8
２，細線
100
AcDbCircle
 10
1205.255138077223
 20
724.8940015499
 30
0.0
 40
0.5
  0
CIRCLE
  5
13FF
330
1F
100
AcDbEntity
  8
２，細線
100
AcDbCircle
 10
1220.255138077223
 20
724.8940015499
 30
0.0
 40
0.5
  0
CIRCLE
  5
1400
330
1F
100
AcDbEntity
  8
２，細線
100
AcDbCircle
 10
1220.255138077223
 20
724.8940015499
 30
0.0
 40
0.5
  0
CIRCLE
  5
1401
330
1F
100
AcDbEntity
  8
２，細線
100
AcDbCircle
 10
1220.255138077223
 20
724.8940015499
 30
0.0
 40
0.5
  0
CIRCLE
  5
1402
330
1F
100
AcDbEntity
  8
２，細線
100
AcDbCircle
 10
1220.255138077223
 20
724.8940015499
 30
0.0
 40
0.5
  0
CIRCLE
  5
1403
330
1F
100
AcDbEntity
  8
２，細線
100
AcDbCircle
 10
1220.255138077223
 20
724.8940015499
 30
0.0
 40
0.5
  0
CIRCLE
  5
1404
330
1F
100
AcDbEntity
  8
２，細線
100
AcDbCircle
 10
1220.255138077223
 20
724.8940015499
 30
0.0
 40
0.5
  0
CIRCLE
  5
1405
330
1F
100
AcDbEntity
  8
２，細線
100
AcDbCircle
 10
1220.255138077223
 20
724.8940015499
 30
0.0
 40
0.5
  0
CIRCLE
  5
1406
330
1F
100
AcDbEntity
  8
２，細線
100
AcDbCircle
 10
1220.255138077223
 20
724.8940015499
 30
0.0
 40
0.5
  0
CIRCLE
  5
1407
330
1F
100
AcDbEntity
  8
２，細線
100
AcDbCircle
 10
1220.255138077223
 20
724.8940015499
 30
0.0
 40
0.5
  0
CIRCLE
  5
1408
330
1F
100
AcDbEntity
  8
２，細線
100
AcDbCircle
 10
1220.255138077223
 20
724.8940015499
 30
0.0
 40
0.5
  0
CIRCLE
  5
1409
330
1F
100
AcDbEntity
  8
２，細線
100
AcDbCircle
 10
1220.255138077223
 20
724.8940015499
 30
0.0
 40
0.5
  0
CIRCLE
  5
140A
330
1F
100
AcDbEntity
  8
２，細線
100
AcDbCircle
 10
1220.255138077223
 20
724.8940015499
 30
0.0
 40
0.5
  0
CIRCLE
  5
140B
330
1F
100
AcDbEntity
  8
２，細線
100
AcDbCircle
 10
1220.255138077223
 20
724.8940015499
 30
0.0
 40
0.5
  0
CIRCLE
  5
140C
330
1F
100
AcDbEntity
  8
２，細線
100
AcDbCircle
 10
1220.255138077223
 20
724.8940015499
 30
0.0
 40
0.5
  0
CIRCLE
  5
140D
330
1F
100
AcDbEntity
  8
２，細線
100
AcDbCircle
 10
1220.255138077223
 20
724.8940015499
 30
0.0
 40
0.5
  0
CIRCLE
  5
140E
330
1F
100
AcDbEntity
  8
２，細線
100
AcDbCircle
 10
1220.255138077223
 20
724.8940015499
 30
0.0
 40
0.5
  0
CIRCLE
  5
140F
330
1F
100
AcDbEntity
  8
２，細線
100
AcDbCircle
 10
1235.255138077223
 20
724.8940015499
 30
0.0
 40
0.5
  0
CIRCLE
  5
1410
330
1F
100
AcDbEntity
  8
２，細線
100
AcDbCircle
 10
1235.255138077223
 20
724.8940015499
 30
0.0
 40
0.5
  0
CIRCLE
  5
1411
330
1F
100
AcDbEntity
  8
２，細線
100
AcDbCircle
 10
1235.255138077223
 20
724.8940015499
 30
0.0
 40
0.5
  0
CIRCLE
  5
1412
330
1F
100
AcDbEntity
  8
２，細線
100
AcDbCircle
 10
1235.255138077223
 20
724.8940015499
 30
0.0
 40
0.5
  0
CIRCLE
  5
1413
330
1F
100
AcDbEntity
  8
２，細線
100
AcDbCircle
 10
1235.255138077223
 20
724.8940015499
 30
0.0
 40
0.5
  0
CIRCLE
  5
1414
330
1F
100
AcDbEntity
  8
２，細線
100
AcDbCircle
 10
1235.255138077223
 20
724.8940015499
 30
0.0
 40
0.5
  0
CIRCLE
  5
1415
330
1F
100
AcDbEntity
  8
２，細線
100
AcDbCircle
 10
1235.255138077223
 20
724.8940015499
 30
0.0
 40
0.5
  0
CIRCLE
  5
1416
330
1F
100
AcDbEntity
  8
２，細線
100
AcDbCircle
 10
1235.255138077223
 20
724.8940015499
 30
0.0
 40
0.5
  0
CIRCLE
  5
1417
330
1F
100
AcDbEntity
  8
２，細線
100
AcDbCircle
 10
1235.255138077223
 20
724.8940015499
 30
0.0
 40
0.5
  0
CIRCLE
  5
1418
330
1F
100
AcDbEntity
  8
２，細線
100
AcDbCircle
 10
1235.255138077223
 20
724.8940015499
 30
0.0
 40
0.5
  0
CIRCLE
  5
1419
330
1F
100
AcDbEntity
  8
２，細線
100
AcDbCircle
 10
1235.255138077223
 20
724.8940015499
 30
0.0
 40
0.5
  0
CIRCLE
  5
141A
330
1F
100
AcDbEntity
  8
２，細線
100
AcDbCircle
 10
1235.255138077223
 20
724.8940015499
 30
0.0
 40
0.5
  0
CIRCLE
  5
141B
330
1F
100
AcDbEntity
  8
２，細線
100
AcDbCircle
 10
1235.255138077223
 20
724.8940015499
 30
0.0
 40
0.5
  0
CIRCLE
  5
141C
330
1F
100
AcDbEntity
  8
２，細線
100
AcDbCircle
 10
1235.255138077223
 20
724.8940015499
 30
0.0
 40
0.5
  0
CIRCLE
  5
141D
330
1F
100
AcDbEntity
  8
２，細線
100
AcDbCircle
 10
1235.255138077223
 20
724.8940015499
 30
0.0
 40
0.5
  0
CIRCLE
  5
141E
330
1F
100
AcDbEntity
  8
２，細線
100
AcDbCircle
 10
1235.255138077223
 20
724.8940015499
 30
0.0
 40
0.5
  0
CIRCLE
  5
141F
330
1F
100
AcDbEntity
  8
２，細線
100
AcDbCircle
 10
1250.255138077223
 20
724.8940015499
 30
0.0
 40
0.5
  0
CIRCLE
  5
1420
330
1F
100
AcDbEntity
  8
２，細線
100
AcDbCircle
 10
1250.255138077223
 20
724.8940015499
 30
0.0
 40
0.5
  0
CIRCLE
  5
1421
330
1F
100
AcDbEntity
  8
２，細線
100
AcDbCircle
 10
1250.255138077223
 20
724.8940015499
 30
0.0
 40
0.5
  0
CIRCLE
  5
1422
330
1F
100
AcDbEntity
  8
２，細線
100
AcDbCircle
 10
1250.255138077223
 20
724.8940015499
 30
0.0
 40
0.5
  0
CIRCLE
  5
1423
330
1F
100
AcDbEntity
  8
２，細線
100
AcDbCircle
 10
1250.255138077223
 20
724.8940015499
 30
0.0
 40
0.5
  0
CIRCLE
  5
1424
330
1F
100
AcDbEntity
  8
２，細線
100
AcDbCircle
 10
1250.255138077223
 20
724.8940015499
 30
0.0
 40
0.5
  0
CIRCLE
  5
1425
330
1F
100
AcDbEntity
  8
２，細線
100
AcDbCircle
 10
1250.255138077223
 20
724.8940015499
 30
0.0
 40
0.5
  0
CIRCLE
  5
1426
330
1F
100
AcDbEntity
  8
２，細線
100
AcDbCircle
 10
1250.255138077223
 20
724.8940015499
 30
0.0
 40
0.5
  0
CIRCLE
  5
1427
330
1F
100
AcDbEntity
  8
２，細線
100
AcDbCircle
 10
1250.255138077223
 20
724.8940015499
 30
0.0
 40
0.5
  0
CIRCLE
  5
1428
330
1F
100
AcDbEntity
  8
２，細線
100
AcDbCircle
 10
1250.255138077223
 20
724.8940015499
 30
0.0
 40
0.5
  0
CIRCLE
  5
1429
330
1F
100
AcDbEntity
  8
２，細線
100
AcDbCircle
 10
1250.255138077223
 20
724.8940015499
 30
0.0
 40
0.5
  0
CIRCLE
  5
142A
330
1F
100
AcDbEntity
  8
２，細線
100
AcDbCircle
 10
1250.255138077223
 20
724.8940015499
 30
0.0
 40
0.5
  0
CIRCLE
  5
142B
330
1F
100
AcDbEntity
  8
２，細線
100
AcDbCircle
 10
1250.255138077223
 20
724.8940015499
 30
0.0
 40
0.5
  0
CIRCLE
  5
142C
330
1F
100
AcDbEntity
  8
２，細線
100
AcDbCircle
 10
1250.255138077223
 20
724.8940015499
 30
0.0
 40
0.5
  0
CIRCLE
  5
142D
330
1F
100
AcDbEntity
  8
２，細線
100
AcDbCircle
 10
1250.255138077223
 20
724.8940015499
 30
0.0
 40
0.5
  0
CIRCLE
  5
142E
330
1F
100
AcDbEntity
  8
２，細線
100
AcDbCircle
 10
1250.255138077223
 20
724.8940015499
 30
0.0
 40
0.5
  0
CIRCLE
  5
142F
330
1F
100
AcDbEntity
  8
２，細線
100
AcDbCircle
 10
1265.255138077223
 20
724.8940015499
 30
0.0
 40
0.5
  0
CIRCLE
  5
1430
330
1F
100
AcDbEntity
  8
２，細線
100
AcDbCircle
 10
1265.255138077223
 20
724.8940015499
 30
0.0
 40
0.5
  0
CIRCLE
  5
1431
330
1F
100
AcDbEntity
  8
２，細線
100
AcDbCircle
 10
1265.255138077223
 20
724.8940015499
 30
0.0
 40
0.5
  0
CIRCLE
  5
1432
330
1F
100
AcDbEntity
  8
２，細線
100
AcDbCircle
 10
1265.255138077223
 20
724.8940015499
 30
0.0
 40
0.5
  0
CIRCLE
  5
1433
330
1F
100
AcDbEntity
  8
２，細線
100
AcDbCircle
 10
1265.255138077223
 20
724.8940015499
 30
0.0
 40
0.5
  0
CIRCLE
  5
1434
330
1F
100
AcDbEntity
  8
２，細線
100
AcDbCircle
 10
1265.255138077223
 20
724.8940015499
 30
0.0
 40
0.5
  0
CIRCLE
  5
1435
330
1F
100
AcDbEntity
  8
２，細線
100
AcDbCircle
 10
1265.255138077223
 20
724.8940015499
 30
0.0
 40
0.5
  0
CIRCLE
  5
1436
330
1F
100
AcDbEntity
  8
２，細線
100
AcDbCircle
 10
1265.255138077223
 20
724.8940015499
 30
0.0
 40
0.5
  0
CIRCLE
  5
1437
330
1F
100
AcDbEntity
  8
２，細線
100
AcDbCircle
 10
1265.255138077223
 20
724.8940015499
 30
0.0
 40
0.5
  0
CIRCLE
  5
1438
330
1F
100
AcDbEntity
  8
２，細線
100
AcDbCircle
 10
1265.255138077223
 20
724.8940015499
 30
0.0
 40
0.5
  0
CIRCLE
  5
1439
330
1F
100
AcDbEntity
  8
２，細線
100
AcDbCircle
 10
1265.255138077223
 20
724.8940015499
 30
0.0
 40
0.5
  0
CIRCLE
  5
143A
330
1F
100
AcDbEntity
  8
２，細線
100
AcDbCircle
 10
1265.255138077223
 20
724.8940015499
 30
0.0
 40
0.5
  0
CIRCLE
  5
143B
330
1F
100
AcDbEntity
  8
２，細線
100
AcDbCircle
 10
1265.255138077223
 20
724.8940015499
 30
0.0
 40
0.5
  0
CIRCLE
  5
143C
330
1F
100
AcDbEntity
  8
２，細線
100
AcDbCircle
 10
1265.255138077223
 20
724.8940015499
 30
0.0
 40
0.5
  0
CIRCLE
  5
143D
330
1F
100
AcDbEntity
  8
２，細線
100
AcDbCircle
 10
1265.255138077223
 20
724.8940015499
 30
0.0
 40
0.5
  0
CIRCLE
  5
143E
330
1F
100
AcDbEntity
  8
２，細線
100
AcDbCircle
 10
1265.255138077223
 20
724.8940015499
 30
0.0
 40
0.5
  0
CIRCLE
  5
143F
330
1F
100
AcDbEntity
  8
２，細線
100
AcDbCircle
 10
1280.255138077223
 20
724.8940015499
 30
0.0
 40
0.5
  0
CIRCLE
  5
1440
330
1F
100
AcDbEntity
  8
２，細線
100
AcDbCircle
 10
1280.255138077223
 20
724.8940015499
 30
0.0
 40
0.5
  0
CIRCLE
  5
1441
330
1F
100
AcDbEntity
  8
２，細線
100
AcDbCircle
 10
1280.255138077223
 20
724.8940015499
 30
0.0
 40
0.5
  0
CIRCLE
  5
1442
330
1F
100
AcDbEntity
  8
２，細線
100
AcDbCircle
 10
1280.255138077223
 20
724.8940015499
 30
0.0
 40
0.5
  0
CIRCLE
  5
1443
330
1F
100
AcDbEntity
  8
２，細線
100
AcDbCircle
 10
1280.255138077223
 20
724.8940015499
 30
0.0
 40
0.5
  0
CIRCLE
  5
1444
330
1F
100
AcDbEntity
  8
２，細線
100
AcDbCircle
 10
1280.255138077223
 20
724.8940015499
 30
0.0
 40
0.5
  0
CIRCLE
  5
1445
330
1F
100
AcDbEntity
  8
２，細線
100
AcDbCircle
 10
1280.255138077223
 20
724.8940015499
 30
0.0
 40
0.5
  0
CIRCLE
  5
1446
330
1F
100
AcDbEntity
  8
２，細線
100
AcDbCircle
 10
1280.255138077223
 20
724.8940015499
 30
0.0
 40
0.5
  0
CIRCLE
  5
1447
330
1F
100
AcDbEntity
  8
２，細線
100
AcDbCircle
 10
1280.255138077223
 20
724.8940015499
 30
0.0
 40
0.5
  0
CIRCLE
  5
1448
330
1F
100
AcDbEntity
  8
２，細線
100
AcDbCircle
 10
1280.255138077223
 20
724.8940015499
 30
0.0
 40
0.5
  0
CIRCLE
  5
1449
330
1F
100
AcDbEntity
  8
２，細線
100
AcDbCircle
 10
1280.255138077223
 20
724.8940015499
 30
0.0
 40
0.5
  0
CIRCLE
  5
144A
330
1F
100
AcDbEntity
  8
２，細線
100
AcDbCircle
 10
1280.255138077223
 20
724.8940015499
 30
0.0
 40
0.5
  0
CIRCLE
  5
144B
330
1F
100
AcDbEntity
  8
２，細線
100
AcDbCircle
 10
1280.255138077223
 20
724.8940015499
 30
0.0
 40
0.5
  0
CIRCLE
  5
144C
330
1F
100
AcDbEntity
  8
２，細線
100
AcDbCircle
 10
1280.255138077223
 20
724.8940015499
 30
0.0
 40
0.5
  0
CIRCLE
  5
144D
330
1F
100
AcDbEntity
  8
２，細線
100
AcDbCircle
 10
1280.255138077223
 20
724.8940015499
 30
0.0
 40
0.5
  0
CIRCLE
  5
144E
330
1F
100
AcDbEntity
  8
２，細線
100
AcDbCircle
 10
1280.255138077223
 20
724.8940015499
 30
0.0
 40
0.5
  0
CIRCLE
  5
144F
330
1F
100
AcDbEntity
  8
２，細線
100
AcDbCircle
 10
1295.255138077223
 20
724.8940015499
 30
0.0
 40
0.5
  0
CIRCLE
  5
1450
330
1F
100
AcDbEntity
  8
２，細線
100
AcDbCircle
 10
1295.255138077223
 20
724.8940015499
 30
0.0
 40
0.5
  0
CIRCLE
  5
1451
330
1F
100
AcDbEntity
  8
２，細線
100
AcDbCircle
 10
1295.255138077223
 20
724.8940015499
 30
0.0
 40
0.5
  0
CIRCLE
  5
1452
330
1F
100
AcDbEntity
  8
２，細線
100
AcDbCircle
 10
1295.255138077223
 20
724.8940015499
 30
0.0
 40
0.5
  0
CIRCLE
  5
1453
330
1F
100
AcDbEntity
  8
２，細線
100
AcDbCircle
 10
1295.255138077223
 20
724.8940015499
 30
0.0
 40
0.5
  0
CIRCLE
  5
1454
330
1F
100
AcDbEntity
  8
２，細線
100
AcDbCircle
 10
1295.255138077223
 20
724.8940015499
 30
0.0
 40
0.5
  0
CIRCLE
  5
1455
330
1F
100
AcDbEntity
  8
２，細線
100
AcDbCircle
 10
1295.255138077223
 20
724.8940015499
 30
0.0
 40
0.5
  0
CIRCLE
  5
1456
330
1F
100
AcDbEntity
  8
２，細線
100
AcDbCircle
 10
1295.255138077223
 20
724.8940015499
 30
0.0
 40
0.5
  0
CIRCLE
  5
1457
330
1F
100
AcDbEntity
  8
２，細線
100
AcDbCircle
 10
1295.255138077223
 20
724.8940015499
 30
0.0
 40
0.5
  0
CIRCLE
  5
1458
330
1F
100
AcDbEntity
  8
２，細線
100
AcDbCircle
 10
1295.255138077223
 20
724.8940015499
 30
0.0
 40
0.5
  0
CIRCLE
  5
1459
330
1F
100
AcDbEntity
  8
２，細線
100
AcDbCircle
 10
1295.255138077223
 20
724.8940015499
 30
0.0
 40
0.5
  0
CIRCLE
  5
145A
330
1F
100
AcDbEntity
  8
２，細線
100
AcDbCircle
 10
1295.255138077223
 20
724.8940015499
 30
0.0
 40
0.5
  0
CIRCLE
  5
145B
330
1F
100
AcDbEntity
  8
２，細線
100
AcDbCircle
 10
1295.255138077223
 20
724.8940015499
 30
0.0
 40
0.5
  0
CIRCLE
  5
145C
330
1F
100
AcDbEntity
  8
２，細線
100
AcDbCircle
 10
1295.255138077223
 20
724.8940015499
 30
0.0
 40
0.5
  0
CIRCLE
  5
145D
330
1F
100
AcDbEntity
  8
２，細線
100
AcDbCircle
 10
1295.255138077223
 20
724.8940015499
 30
0.0
 40
0.5
  0
CIRCLE
  5
145E
330
1F
100
AcDbEntity
  8
２，細線
100
AcDbCircle
 10
1295.255138077223
 20
724.8940015499
 30
0.0
 40
0.5
  0
CIRCLE
  5
145F
330
1F
100
AcDbEntity
  8
２，細線
100
AcDbCircle
 10
1310.255138077223
 20
724.8940015499
 30
0.0
 40
0.5
  0
CIRCLE
  5
1460
330
1F
100
AcDbEntity
  8
２，細線
100
AcDbCircle
 10
1310.255138077223
 20
724.8940015499
 30
0.0
 40
0.5
  0
CIRCLE
  5
1461
330
1F
100
AcDbEntity
  8
２，細線
100
AcDbCircle
 10
1310.255138077223
 20
724.8940015499
 30
0.0
 40
0.5
  0
CIRCLE
  5
1462
330
1F
100
AcDbEntity
  8
２，細線
100
AcDbCircle
 10
1310.255138077223
 20
724.8940015499
 30
0.0
 40
0.5
  0
CIRCLE
  5
1463
330
1F
100
AcDbEntity
  8
２，細線
100
AcDbCircle
 10
1310.255138077223
 20
724.8940015499
 30
0.0
 40
0.5
  0
CIRCLE
  5
1464
330
1F
100
AcDbEntity
  8
２，細線
100
AcDbCircle
 10
1310.255138077223
 20
724.8940015499
 30
0.0
 40
0.5
  0
CIRCLE
  5
1465
330
1F
100
AcDbEntity
  8
２，細線
100
AcDbCircle
 10
1310.255138077223
 20
724.8940015499
 30
0.0
 40
0.5
  0
CIRCLE
  5
1466
330
1F
100
AcDbEntity
  8
２，細線
100
AcDbCircle
 10
1310.255138077223
 20
724.8940015499
 30
0.0
 40
0.5
  0
CIRCLE
  5
1467
330
1F
100
AcDbEntity
  8
２，細線
100
AcDbCircle
 10
1310.255138077223
 20
724.8940015499
 30
0.0
 40
0.5
  0
CIRCLE
  5
1468
330
1F
100
AcDbEntity
  8
２，細線
100
AcDbCircle
 10
1310.255138077223
 20
724.8940015499
 30
0.0
 40
0.5
  0
CIRCLE
  5
1469
330
1F
100
AcDbEntity
  8
２，細線
100
AcDbCircle
 10
1310.255138077223
 20
724.8940015499
 30
0.0
 40
0.5
  0
CIRCLE
  5
146A
330
1F
100
AcDbEntity
  8
２，細線
100
AcDbCircle
 10
1310.255138077223
 20
724.8940015499
 30
0.0
 40
0.5
  0
CIRCLE
  5
146B
330
1F
100
AcDbEntity
  8
２，細線
100
AcDbCircle
 10
1310.255138077223
 20
724.8940015499
 30
0.0
 40
0.5
  0
CIRCLE
  5
146C
330
1F
100
AcDbEntity
  8
２，細線
100
AcDbCircle
 10
1310.255138077223
 20
724.8940015499
 30
0.0
 40
0.5
  0
CIRCLE
  5
146D
330
1F
100
AcDbEntity
  8
２，細線
100
AcDbCircle
 10
1310.255138077223
 20
724.8940015499
 30
0.0
 40
0.5
  0
CIRCLE
  5
146E
330
1F
100
AcDbEntity
  8
２，細線
100
AcDbCircle
 10
1310.255138077223
 20
724.8940015499
 30
0.0
 40
0.5
  0
CIRCLE
  5
146F
330
1F
100
AcDbEntity
  8
２，細線
100
AcDbCircle
 10
1325.255138077223
 20
724.8940015499
 30
0.0
 40
0.5
  0
CIRCLE
  5
1470
330
1F
100
AcDbEntity
  8
２，細線
100
AcDbCircle
 10
1325.255138077223
 20
724.8940015499
 30
0.0
 40
0.5
  0
CIRCLE
  5
1471
330
1F
100
AcDbEntity
  8
２，細線
100
AcDbCircle
 10
1325.255138077223
 20
724.8940015499
 30
0.0
 40
0.5
  0
CIRCLE
  5
1472
330
1F
100
AcDbEntity
  8
２，細線
100
AcDbCircle
 10
1325.255138077223
 20
724.8940015499
 30
0.0
 40
0.5
  0
CIRCLE
  5
1473
330
1F
100
AcDbEntity
  8
２，細線
100
AcDbCircle
 10
1325.255138077223
 20
724.8940015499
 30
0.0
 40
0.5
  0
CIRCLE
  5
1474
330
1F
100
AcDbEntity
  8
２，細線
100
AcDbCircle
 10
1325.255138077223
 20
724.8940015499
 30
0.0
 40
0.5
  0
CIRCLE
  5
1475
330
1F
100
AcDbEntity
  8
２，細線
100
AcDbCircle
 10
1325.255138077223
 20
724.8940015499
 30
0.0
 40
0.5
  0
CIRCLE
  5
1476
330
1F
100
AcDbEntity
  8
２，細線
100
AcDbCircle
 10
1325.255138077223
 20
724.8940015499
 30
0.0
 40
0.5
  0
CIRCLE
  5
1477
330
1F
100
AcDbEntity
  8
２，細線
100
AcDbCircle
 10
1325.255138077223
 20
724.8940015499
 30
0.0
 40
0.5
  0
CIRCLE
  5
1478
330
1F
100
AcDbEntity
  8
２，細線
100
AcDbCircle
 10
1325.255138077223
 20
724.8940015499
 30
0.0
 40
0.5
  0
CIRCLE
  5
1479
330
1F
100
AcDbEntity
  8
２，細線
100
AcDbCircle
 10
1325.255138077223
 20
724.8940015499
 30
0.0
 40
0.5
  0
CIRCLE
  5
147A
330
1F
100
AcDbEntity
  8
２，細線
100
AcDbCircle
 10
1325.255138077223
 20
724.8940015499
 30
0.0
 40
0.5
  0
CIRCLE
  5
147B
330
1F
100
AcDbEntity
  8
２，細線
100
AcDbCircle
 10
1325.255138077223
 20
724.8940015499
 30
0.0
 40
0.5
  0
CIRCLE
  5
147C
330
1F
100
AcDbEntity
  8
２，細線
100
AcDbCircle
 10
1325.255138077223
 20
724.8940015499
 30
0.0
 40
0.5
  0
CIRCLE
  5
147D
330
1F
100
AcDbEntity
  8
２，細線
100
AcDbCircle
 10
1325.255138077223
 20
724.8940015499
 30
0.0
 40
0.5
  0
CIRCLE
  5
147E
330
1F
100
AcDbEntity
  8
２，細線
100
AcDbCircle
 10
1325.255138077223
 20
724.8940015499
 30
0.0
 40
0.5
  0
CIRCLE
  5
147F
330
1F
100
AcDbEntity
  8
２，細線
100
AcDbCircle
 10
1340.255138077223
 20
724.8940015499
 30
0.0
 40
0.5
  0
CIRCLE
  5
1480
330
1F
100
AcDbEntity
  8
２，細線
100
AcDbCircle
 10
1340.255138077223
 20
724.8940015499
 30
0.0
 40
0.5
  0
CIRCLE
  5
1481
330
1F
100
AcDbEntity
  8
２，細線
100
AcDbCircle
 10
1340.255138077223
 20
724.8940015499
 30
0.0
 40
0.5
  0
CIRCLE
  5
1482
330
1F
100
AcDbEntity
  8
２，細線
100
AcDbCircle
 10
1340.255138077223
 20
724.8940015499
 30
0.0
 40
0.5
  0
CIRCLE
  5
1483
330
1F
100
AcDbEntity
  8
２，細線
100
AcDbCircle
 10
1340.255138077223
 20
724.8940015499
 30
0.0
 40
0.5
  0
CIRCLE
  5
1484
330
1F
100
AcDbEntity
  8
２，細線
100
AcDbCircle
 10
1340.255138077223
 20
724.8940015499
 30
0.0
 40
0.5
  0
CIRCLE
  5
1485
330
1F
100
AcDbEntity
  8
２，細線
100
AcDbCircle
 10
1340.255138077223
 20
724.8940015499
 30
0.0
 40
0.5
  0
CIRCLE
  5
1486
330
1F
100
AcDbEntity
  8
２，細線
100
AcDbCircle
 10
1340.255138077223
 20
724.8940015499
 30
0.0
 40
0.5
  0
CIRCLE
  5
1487
330
1F
100
AcDbEntity
  8
２，細線
100
AcDbCircle
 10
1340.255138077223
 20
724.8940015499
 30
0.0
 40
0.5
  0
CIRCLE
  5
1488
330
1F
100
AcDbEntity
  8
２，細線
100
AcDbCircle
 10
1340.255138077223
 20
724.8940015499
 30
0.0
 40
0.5
  0
CIRCLE
  5
1489
330
1F
100
AcDbEntity
  8
２，細線
100
AcDbCircle
 10
1340.255138077223
 20
724.8940015499
 30
0.0
 40
0.5
  0
CIRCLE
  5
148A
330
1F
100
AcDbEntity
  8
２，細線
100
AcDbCircle
 10
1340.255138077223
 20
724.8940015499
 30
0.0
 40
0.5
  0
CIRCLE
  5
148B
330
1F
100
AcDbEntity
  8
２，細線
100
AcDbCircle
 10
1340.255138077223
 20
724.8940015499
 30
0.0
 40
0.5
  0
CIRCLE
  5
148C
330
1F
100
AcDbEntity
  8
２，細線
100
AcDbCircle
 10
1340.255138077223
 20
724.8940015499
 30
0.0
 40
0.5
  0
CIRCLE
  5
148D
330
1F
100
AcDbEntity
  8
２，細線
100
AcDbCircle
 10
1340.255138077223
 20
724.8940015499
 30
0.0
 40
0.5
  0
CIRCLE
  5
148E
330
1F
100
AcDbEntity
  8
２，細線
100
AcDbCircle
 10
1340.255138077223
 20
724.8940015499
 30
0.0
 40
0.5
  0
CIRCLE
  5
148F
330
1F
100
AcDbEntity
  8
２，細線
100
AcDbCircle
 10
1355.255138077223
 20
724.8940015499
 30
0.0
 40
0.5
  0
CIRCLE
  5
1490
330
1F
100
AcDbEntity
  8
２，細線
100
AcDbCircle
 10
1355.255138077223
 20
724.8940015499
 30
0.0
 40
0.5
  0
CIRCLE
  5
1491
330
1F
100
AcDbEntity
  8
２，細線
100
AcDbCircle
 10
1355.255138077223
 20
724.8940015499
 30
0.0
 40
0.5
  0
CIRCLE
  5
1492
330
1F
100
AcDbEntity
  8
２，細線
100
AcDbCircle
 10
1355.255138077223
 20
724.8940015499
 30
0.0
 40
0.5
  0
CIRCLE
  5
1493
330
1F
100
AcDbEntity
  8
２，細線
100
AcDbCircle
 10
1355.255138077223
 20
724.8940015499
 30
0.0
 40
0.5
  0
CIRCLE
  5
1494
330
1F
100
AcDbEntity
  8
２，細線
100
AcDbCircle
 10
1355.255138077223
 20
724.8940015499
 30
0.0
 40
0.5
  0
CIRCLE
  5
1495
330
1F
100
AcDbEntity
  8
２，細線
100
AcDbCircle
 10
1355.255138077223
 20
724.8940015499
 30
0.0
 40
0.5
  0
CIRCLE
  5
1496
330
1F
100
AcDbEntity
  8
２，細線
100
AcDbCircle
 10
1355.255138077223
 20
724.8940015499
 30
0.0
 40
0.5
  0
CIRCLE
  5
1497
330
1F
100
AcDbEntity
  8
２，細線
100
AcDbCircle
 10
1355.255138077223
 20
724.8940015499
 30
0.0
 40
0.5
  0
CIRCLE
  5
1498
330
1F
100
AcDbEntity
  8
２，細線
100
AcDbCircle
 10
1355.255138077223
 20
724.8940015499
 30
0.0
 40
0.5
  0
CIRCLE
  5
1499
330
1F
100
AcDbEntity
  8
２，細線
100
AcDbCircle
 10
1355.255138077223
 20
724.8940015499
 30
0.0
 40
0.5
  0
CIRCLE
  5
149A
330
1F
100
AcDbEntity
  8
２，細線
100
AcDbCircle
 10
1355.255138077223
 20
724.8940015499
 30
0.0
 40
0.5
  0
CIRCLE
  5
149B
330
1F
100
AcDbEntity
  8
２，細線
100
AcDbCircle
 10
1355.255138077223
 20
724.8940015499
 30
0.0
 40
0.5
  0
CIRCLE
  5
149C
330
1F
100
AcDbEntity
  8
２，細線
100
AcDbCircle
 10
1355.255138077223
 20
724.8940015499
 30
0.0
 40
0.5
  0
CIRCLE
  5
149D
330
1F
100
AcDbEntity
  8
２，細線
100
AcDbCircle
 10
1355.255138077223
 20
724.8940015499
 30
0.0
 40
0.5
  0
CIRCLE
  5
149E
330
1F
100
AcDbEntity
  8
２，細線
100
AcDbCircle
 10
1355.255138077223
 20
724.8940015499
 30
0.0
 40
0.5
  0
CIRCLE
  5
149F
330
1F
100
AcDbEntity
  8
２，細線
100
AcDbCircle
 10
1370.255138077223
 20
724.8940015499
 30
0.0
 40
0.5
  0
CIRCLE
  5
14A0
330
1F
100
AcDbEntity
  8
２，細線
100
AcDbCircle
 10
1370.255138077223
 20
724.8940015499
 30
0.0
 40
0.5
  0
CIRCLE
  5
14A1
330
1F
100
AcDbEntity
  8
２，細線
100
AcDbCircle
 10
1370.255138077223
 20
724.8940015499
 30
0.0
 40
0.5
  0
CIRCLE
  5
14A2
330
1F
100
AcDbEntity
  8
２，細線
100
AcDbCircle
 10
1370.255138077223
 20
724.8940015499
 30
0.0
 40
0.5
  0
CIRCLE
  5
14A3
330
1F
100
AcDbEntity
  8
２，細線
100
AcDbCircle
 10
1370.255138077223
 20
724.8940015499
 30
0.0
 40
0.5
  0
CIRCLE
  5
14A4
330
1F
100
AcDbEntity
  8
２，細線
100
AcDbCircle
 10
1370.255138077223
 20
724.8940015499
 30
0.0
 40
0.5
  0
CIRCLE
  5
14A5
330
1F
100
AcDbEntity
  8
２，細線
100
AcDbCircle
 10
1370.255138077223
 20
724.8940015499
 30
0.0
 40
0.5
  0
CIRCLE
  5
14A6
330
1F
100
AcDbEntity
  8
２，細線
100
AcDbCircle
 10
1370.255138077223
 20
724.8940015499
 30
0.0
 40
0.5
  0
CIRCLE
  5
14A7
330
1F
100
AcDbEntity
  8
２，細線
100
AcDbCircle
 10
1370.255138077223
 20
724.8940015499
 30
0.0
 40
0.5
  0
CIRCLE
  5
14A8
330
1F
100
AcDbEntity
  8
２，細線
100
AcDbCircle
 10
1370.255138077223
 20
724.8940015499
 30
0.0
 40
0.5
  0
CIRCLE
  5
14A9
330
1F
100
AcDbEntity
  8
２，細線
100
AcDbCircle
 10
1370.255138077223
 20
724.8940015499
 30
0.0
 40
0.5
  0
CIRCLE
  5
14AA
330
1F
100
AcDbEntity
  8
２，細線
100
AcDbCircle
 10
1370.255138077223
 20
724.8940015499
 30
0.0
 40
0.5
  0
CIRCLE
  5
14AB
330
1F
100
AcDbEntity
  8
２，細線
100
AcDbCircle
 10
1370.255138077223
 20
724.8940015499
 30
0.0
 40
0.5
  0
CIRCLE
  5
14AC
330
1F
100
AcDbEntity
  8
２，細線
100
AcDbCircle
 10
1370.255138077223
 20
724.8940015499
 30
0.0
 40
0.5
  0
CIRCLE
  5
14AD
330
1F
100
AcDbEntity
  8
２，細線
100
AcDbCircle
 10
1370.255138077223
 20
724.8940015499
 30
0.0
 40
0.5
  0
CIRCLE
  5
14AE
330
1F
100
AcDbEntity
  8
２，細線
100
AcDbCircle
 10
1370.255138077223
 20
724.8940015499
 30
0.0
 40
0.5
  0
CIRCLE
  5
14AF
330
1F
100
AcDbEntity
  8
２，細線
100
AcDbCircle
 10
1385.255138077223
 20
724.8940015499
 30
0.0
 40
0.5
  0
CIRCLE
  5
14B0
330
1F
100
AcDbEntity
  8
２，細線
100
AcDbCircle
 10
1385.255138077223
 20
724.8940015499
 30
0.0
 40
0.5
  0
CIRCLE
  5
14B1
330
1F
100
AcDbEntity
  8
２，細線
100
AcDbCircle
 10
1385.255138077223
 20
724.8940015499
 30
0.0
 40
0.5
  0
CIRCLE
  5
14B2
330
1F
100
AcDbEntity
  8
２，細線
100
AcDbCircle
 10
1385.255138077223
 20
724.8940015499
 30
0.0
 40
0.5
  0
CIRCLE
  5
14B3
330
1F
100
AcDbEntity
  8
２，細線
100
AcDbCircle
 10
1385.255138077223
 20
724.8940015499
 30
0.0
 40
0.5
  0
CIRCLE
  5
14B4
330
1F
100
AcDbEntity
  8
２，細線
100
AcDbCircle
 10
1385.255138077223
 20
724.8940015499
 30
0.0
 40
0.5
  0
CIRCLE
  5
14B5
330
1F
100
AcDbEntity
  8
２，細線
100
AcDbCircle
 10
1385.255138077223
 20
724.8940015499
 30
0.0
 40
0.5
  0
CIRCLE
  5
14B6
330
1F
100
AcDbEntity
  8
２，細線
100
AcDbCircle
 10
1385.255138077223
 20
724.8940015499
 30
0.0
 40
0.5
  0
CIRCLE
  5
14B7
330
1F
100
AcDbEntity
  8
２，細線
100
AcDbCircle
 10
1385.255138077223
 20
724.8940015499
 30
0.0
 40
0.5
  0
CIRCLE
  5
14B8
330
1F
100
AcDbEntity
  8
２，細線
100
AcDbCircle
 10
1385.255138077223
 20
724.8940015499
 30
0.0
 40
0.5
  0
CIRCLE
  5
14B9
330
1F
100
AcDbEntity
  8
２，細線
100
AcDbCircle
 10
1385.255138077223
 20
724.8940015499
 30
0.0
 40
0.5
  0
CIRCLE
  5
14BA
330
1F
100
AcDbEntity
  8
２，細線
100
AcDbCircle
 10
1385.255138077223
 20
724.8940015499
 30
0.0
 40
0.5
  0
CIRCLE
  5
14BB
330
1F
100
AcDbEntity
  8
２，細線
100
AcDbCircle
 10
1385.255138077223
 20
724.8940015499
 30
0.0
 40
0.5
  0
CIRCLE
  5
14BC
330
1F
100
AcDbEntity
  8
２，細線
100
AcDbCircle
 10
1385.255138077223
 20
724.8940015499
 30
0.0
 40
0.5
  0
CIRCLE
  5
14BD
330
1F
100
AcDbEntity
  8
２，細線
100
AcDbCircle
 10
1385.255138077223
 20
724.8940015499
 30
0.0
 40
0.5
  0
CIRCLE
  5
14BE
330
1F
100
AcDbEntity
  8
２，細線
100
AcDbCircle
 10
1385.255138077223
 20
724.8940015499
 30
0.0
 40
0.5
  0
CIRCLE
  5
14BF
330
1F
100
AcDbEntity
  8
２，細線
100
AcDbCircle
 10
1401.172521160101
 20
724.8940015499
 30
0.0
 40
0.5
  0
CIRCLE
  5
14C0
330
1F
100
AcDbEntity
  8
２，細線
100
AcDbCircle
 10
1401.172521160101
 20
724.8940015499
 30
0.0
 40
0.5
  0
CIRCLE
  5
14C1
330
1F
100
AcDbEntity
  8
２，細線
100
AcDbCircle
 10
1401.172521160101
 20
724.8940015499
 30
0.0
 40
0.5
  0
CIRCLE
  5
14C2
330
1F
100
AcDbEntity
  8
２，細線
100
AcDbCircle
 10
1401.172521160101
 20
724.8940015499
 30
0.0
 40
0.5
  0
CIRCLE
  5
14C3
330
1F
100
AcDbEntity
  8
２，細線
100
AcDbCircle
 10
1401.172521160101
 20
724.8940015499
 30
0.0
 40
0.5
  0
CIRCLE
  5
14C4
330
1F
100
AcDbEntity
  8
２，細線
100
AcDbCircle
 10
1401.172521160101
 20
724.8940015499
 30
0.0
 40
0.5
  0
CIRCLE
  5
14C5
330
1F
100
AcDbEntity
  8
２，細線
100
AcDbCircle
 10
1401.172521160101
 20
724.8940015499
 30
0.0
 40
0.5
  0
CIRCLE
  5
14C6
330
1F
100
AcDbEntity
  8
２，細線
100
AcDbCircle
 10
1401.172521160101
 20
724.8940015499
 30
0.0
 40
0.5
  0
CIRCLE
  5
14C7
330
1F
100
AcDbEntity
  8
２，細線
100
AcDbCircle
 10
1401.172521160101
 20
724.8940015499
 30
0.0
 40
0.5
  0
CIRCLE
  5
14C8
330
1F
100
AcDbEntity
  8
２，細線
100
AcDbCircle
 10
1401.172521160101
 20
724.8940015499
 30
0.0
 40
0.5
  0
CIRCLE
  5
14C9
330
1F
100
AcDbEntity
  8
２，細線
100
AcDbCircle
 10
1401.172521160101
 20
724.8940015499
 30
0.0
 40
0.5
  0
CIRCLE
  5
14CA
330
1F
100
AcDbEntity
  8
２，細線
100
AcDbCircle
 10
1401.172521160101
 20
724.8940015499
 30
0.0
 40
0.5
  0
CIRCLE
  5
14CB
330
1F
100
AcDbEntity
  8
２，細線
100
AcDbCircle
 10
1401.172521160101
 20
724.8940015499
 30
0.0
 40
0.5
  0
CIRCLE
  5
14CC
330
1F
100
AcDbEntity
  8
２，細線
100
AcDbCircle
 10
1401.172521160101
 20
724.8940015499
 30
0.0
 40
0.5
  0
CIRCLE
  5
14CD
330
1F
100
AcDbEntity
  8
２，細線
100
AcDbCircle
 10
1401.172521160101
 20
724.8940015499
 30
0.0
 40
0.5
  0
CIRCLE
  5
14CE
330
1F
100
AcDbEntity
  8
２，細線
100
AcDbCircle
 10
1401.172521160101
 20
724.8940015499
 30
0.0
 40
0.5
  0
CIRCLE
  5
14D0
330
1F
100
AcDbEntity
  8
２，細線
100
AcDbCircle
 10
1189.178802994842
 20
372.8940015499
 30
0.0
 40
0.5
  0
CIRCLE
  5
14D1
330
1F
100
AcDbEntity
  8
２，細線
100
AcDbCircle
 10
1204.178802994843
 20
372.8940015499
 30
0.0
 40
0.5
  0
CIRCLE
  5
14D2
330
1F
100
AcDbEntity
  8
２，細線
100
AcDbCircle
 10
1219.178802994843
 20
372.8940015499
 30
0.0
 40
0.5
  0
CIRCLE
  5
14D3
330
1F
100
AcDbEntity
  8
２，細線
100
AcDbCircle
 10
1234.178802994843
 20
372.8940015499
 30
0.0
 40
0.5
  0
CIRCLE
  5
14D4
330
1F
100
AcDbEntity
  8
２，細線
100
AcDbCircle
 10
1249.178802994842
 20
372.8940015499
 30
0.0
 40
0.5
  0
CIRCLE
  5
14D5
330
1F
100
AcDbEntity
  8
２，細線
100
AcDbCircle
 10
1264.178802994843
 20
372.8940015499
 30
0.0
 40
0.5
  0
CIRCLE
  5
14D6
330
1F
100
AcDbEntity
  8
２，細線
100
AcDbCircle
 10
1279.178802994842
 20
372.8940015499
 30
0.0
 40
0.5
  0
CIRCLE
  5
14D7
330
1F
100
AcDbEntity
  8
２，細線
100
AcDbCircle
 10
1294.178802994843
 20
372.8940015499
 30
0.0
 40
0.5
  0
CIRCLE
  5
14D8
330
1F
100
AcDbEntity
  8
２，細線
100
AcDbCircle
 10
1309.178802994843
 20
372.8940015499
 30
0.0
 40
0.5
  0
CIRCLE
  5
14D9
330
1F
100
AcDbEntity
  8
２，細線
100
AcDbCircle
 10
1324.178802994842
 20
372.8940015499
 30
0.0
 40
0.5
  0
CIRCLE
  5
14DA
330
1F
100
AcDbEntity
  8
２，細線
100
AcDbCircle
 10
1339.178802994843
 20
372.8940015499
 30
0.0
 40
0.5
  0
CIRCLE
  5
14DB
330
1F
100
AcDbEntity
  8
２，細線
100
AcDbCircle
 10
1354.178802994843
 20
372.8940015499
 30
0.0
 40
0.5
  0
CIRCLE
  5
14DC
330
1F
100
AcDbEntity
  8
２，細線
100
AcDbCircle
 10
1369.178802994843
 20
372.8940015499
 30
0.0
 40
0.5
  0
CIRCLE
  5
14DD
330
1F
100
AcDbEntity
  8
２，細線
100
AcDbCircle
 10
1384.178802994843
 20
372.8940015499
 30
0.0
 40
0.5
  0
CIRCLE
  5
14DE
330
1F
100
AcDbEntity
  8
２，細線
100
AcDbCircle
 10
1399.681614037825
 20
372.8940015499
 30
0.0
 40
0.5
  0
ARC
  5
152A
330
1F
100
AcDbEntity
  8
２，細線
100
AcDbCircle
 10
775.5121499897597
 20
1329.232009914906
 30
0.0
 40
6.100000000000001
100
AcDbArc
 50
39.60192708110677
 51
140.3980729188932
  0
LINE
  5
152B
330
1F
100
AcDbEntity
  8
２，細線
100
AcDbLine
 10
770.8121499897596
 20
1333.12045433395
 30
0.0
 11
780.2121499897597
 21
1333.12045433395
 31
0.0
  0
LINE
  5
152C
330
1F
100
AcDbEntity
  8
２，細線
100
AcDbLine
 10
770.8121499897596
 20
1333.12045433395
 30
0.0
 11
770.8121499897596
 21
1332.832009914906
 31
0.0
  0
LINE
  5
152D
330
1F
100
AcDbEntity
  8
２，細線
100
AcDbLine
 10
770.8121499897596
 20
1332.832009914906
 30
0.0
 11
780.2121499897597
 21
1332.832009914906
 31
0.0
  0
LINE
  5
152E
330
1F
100
AcDbEntity
  8
２，細線
100
AcDbLine
 10
780.2121499897597
 20
1332.832009914906
 30
0.0
 11
780.2121499897597
 21
1333.12045433395
 31
0.0
  0
ARC
  5
152F
330
1F
100
AcDbEntity
  8
２，細線
100
AcDbCircle
 10
370.5121499897596
 20
1329.232009914906
 30
0.0
 40
6.100000000000001
100
AcDbArc
 50
39.60192708110875
 51
140.3980729188911
  0
LINE
  5
1530
330
1F
100
AcDbEntity
  8
２，細線
100
AcDbLine
 10
365.8121499897595
 20
1333.12045433395
 30
0.0
 11
375.2121499897596
 21
1333.12045433395
 31
0.0
  0
LINE
  5
1531
330
1F
100
AcDbEntity
  8
２，細線
100
AcDbLine
 10
365.8121499897595
 20
1333.12045433395
 30
0.0
 11
365.8121499897595
 21
1332.832009914906
 31
0.0
  0
LINE
  5
1532
330
1F
100
AcDbEntity
  8
２，細線
100
AcDbLine
 10
365.8121499897595
 20
1332.832009914906
 30
0.0
 11
375.2121499897596
 21
1332.832009914906
 31
0.0
  0
LINE
  5
1533
330
1F
100
AcDbEntity
  8
２，細線
100
AcDbLine
 10
375.2121499897596
 20
1332.832009914906
 30
0.0
 11
375.2121499897596
 21
1333.12045433395
 31
0.0
  0
ARC
  5
1534
330
1F
100
AcDbEntity
  8
２，細線
100
AcDbCircle
 10
346.5121499897596
 20
1329.232009914906
 30
0.0
 40
6.100000000000001
100
AcDbArc
 50
39.60192708110875
 51
140.3980729188911
  0
LINE
  5
1535
330
1F
100
AcDbEntity
  8
２，細線
100
AcDbLine
 10
341.8121499897596
 20
1333.12045433395
 30
0.0
 11
351.2121499897596
 21
1333.12045433395
 31
0.0
  0
LINE
  5
1536
330
1F
100
AcDbEntity
  8
２，細線
100
AcDbLine
 10
341.8121499897596
 20
1333.12045433395
 30
0.0
 11
341.8121499897596
 21
1332.832009914906
 31
0.0
  0
LINE
  5
1537
330
1F
100
AcDbEntity
  8
２，細線
100
AcDbLine
 10
341.8121499897596
 20
1332.832009914906
 30
0.0
 11
351.2121499897596
 21
1332.832009914906
 31
0.0
  0
LINE
  5
1538
330
1F
100
AcDbEntity
  8
２，細線
100
AcDbLine
 10
351.2121499897596
 20
1332.832009914906
 30
0.0
 11
351.2121499897596
 21
1333.12045433395
 31
0.0
  0
LINE
  5
153D
330
1F
100
AcDbEntity
  8
1、実線
100
AcDbLine
 10
1517.514112395468
 20
776.8940015499
 30
0.0
 11
1516.514112395469
 21
776.8940015499
 31
0.0
  0
DIMENSION
  5
15C4
330
1F
100
AcDbEntity
  8
寸法線1
100
AcDbDimension
  2
*D3
 10
290.5121499897596
 20
931.832009914906
 30
0.0
 11
278.0121499897594
 21
1131.832009914906
 31
0.0
 70
    32
 71
     5
 42
399.9999999999997
  3
ISO-25
100
AcDbAlignedDimension
 13
340.5121499897596
 23
1331.832009914906
 33
0.0
 14
335.5121499897598
 24
931.832009914906
 34
0.0
 50
90.0
100
AcDbRotatedDimension
  0
LINE
  5
1683
330
1F
100
AcDbEntity
  8
1、実線
100
AcDbLine
 10
862.5012212534294
 20
1294.189340796568
 30
0.0
 11
862.5012212534294
 21
1289.189340796568
 31
0.0
  0
LINE
  5
1684
330
1F
100
AcDbEntity
  8
1、実線
100
AcDbLine
 10
862.5012212534294
 20
1289.189340796568
 30
0.0
 11
864.5012212534295
 21
1289.189340796568
 31
0.0
  0
LINE
  5
1685
330
1F
100
AcDbEntity
  8
1、実線
100
AcDbLine
 10
864.5012212534295
 20
1289.189340796568
 30
0.0
 11
864.5012212534295
 21
1294.189340796568
 31
0.0
  0
LINE
  5
1686
330
1F
100
AcDbEntity
  8
1、実線
100
AcDbLine
 10
864.5012212534295
 20
1294.189340796568
 30
0.0
 11
862.5012212534294
 21
1294.189340796568
 31
0.0
  0
LINE
  5
1687
330
1F
100
AcDbEntity
  8
1、実線
100
AcDbLine
 10
864.5012212534295
 20
1289.189340796568
 30
0.0
 11
882.4060213443774
 21
1287.346199610735
 31
0.0
  0
ARC
  5
1688
330
1F
100
AcDbEntity
  8
1、実線
100
AcDbCircle
 10
882.2012212534293
 20
1285.356713012955
 30
0.0
 40
2.0
100
AcDbArc
 50
0.0
 51
84.12260739335385
  0
LINE
  5
1689
330
1F
100
AcDbEntity
  8
1、実線
100
AcDbLine
 10
864.5012212534295
 20
1294.189340796568
 30
0.0
 11
881.5012212534295
 21
1295.939340796568
 31
0.0
  0
LINE
  5
168A
330
1F
100
AcDbEntity
  8
1、実線
100
AcDbLine
 10
884.2012212534282
 20
1296.73511285539
 30
0.0
 11
884.2012212534294
 21
1280.661399620098
 31
0.0
  0
LINE
  5
168B
330
1F
100
AcDbEntity
  8
1、実線
100
AcDbLine
 10
884.2012212534294
 20
1280.661399620098
 30
0.0
 11
904.7012212534294
 21
1280.661399620098
 31
0.0
  0
LINE
  5
168C
330
1F
100
AcDbEntity
  8
1、実線
100
AcDbLine
 10
904.7012212534294
 20
1280.661399620098
 30
0.0
 11
904.7012212534296
 21
1296.061399620097
 31
0.0
  0
LINE
  5
168D
330
1F
100
AcDbEntity
  8
1、実線
100
AcDbLine
 10
902.7012212534296
 20
1298.061399620097
 30
0.0
 11
888.7012212534298
 21
1298.061399620097
 31
0.0
  0
ARC
  5
168E
330
1F
100
AcDbEntity
  8
1、実線
100
AcDbCircle
 10
902.7012212534296
 20
1296.061399620097
 30
0.0
 40
2.0
100
AcDbArc
 50
0.0
 51
90.0
  0
ARC
  5
168F
330
1F
100
AcDbEntity
  8
1、実線
100
AcDbCircle
 10
895.8512212534296
 20
1268.661399620097
 30
0.0
 40
5.0
100
AcDbArc
 50
230.9498774638428
 51
309.0501225361571
  0
LINE
  5
1690
330
1F
100
AcDbEntity
  8
1、実線
100
AcDbLine
 10
892.7012212534295
 20
1264.778423957026
 30
0.0
 11
892.7012212534295
 21
1280.661399620098
 31
0.0
  0
LINE
  5
1691
330
1F
100
AcDbEntity
  8
1、実線
100
AcDbLine
 10
899.0012212534296
 20
1264.778423957026
 30
0.0
 11
899.0012212534296
 21
1280.661399620098
 31
0.0
  0
CIRCLE
  5
1692
330
1F
100
AcDbEntity
  8
1、実線
100
AcDbCircle
 10
895.8512212534296
 20
1268.661399620097
 30
0.0
 40
1.55
  0
LINE
  5
1693
330
1F
100
AcDbEntity
  8
1、実線
100
AcDbLine
 10
881.5012212534295
 20
1295.939340796568
 30
0.0
 11
888.7012212534298
 21
1298.061399620097
 31
0.0
  0
LINE
  5
1696
330
1F
100
AcDbEntity
  8
電源コード
100
AcDbLine
 10
862.5012212534294
 20
1294.189340796568
 30
0.0
 11
848.3457392301062
 21
1294.189340796568
 31
0.0
  0
LINE
  5
1697
330
1F
100
AcDbEntity
  8
電源コード
100
AcDbLine
 10
862.5012212534294
 20
1289.189340796568
 30
0.0
 11
848.3457392301062
 21
1289.189340796568
 31
0.0
  0
LINE
  5
1698
330
1F
100
AcDbEntity
  8
電源コード
100
AcDbLine
 10
848.3457392301062
 20
1289.189340796568
 30
0.0
 11
848.3457392301062
 21
1294.189340796568
 31
0.0
  0
LINE
  5
16A5
330
1F
100
AcDbEntity
  8
電源コード
100
AcDbLine
 10
1468.514112395469
 20
319.8940015499001
 30
0.0
 11
1483.514112395468
 21
319.8940015499001
 31
0.0
  0
LINE
  5
16A6
330
1F
100
AcDbEntity
  8
電源コード
100
AcDbLine
 10
1468.514112395469
 20
319.8940015499001
 30
0.0
 11
1468.514112395469
 21
317.3953017541648
 31
0.0
  0
LINE
  5
16A7
330
1F
100
AcDbEntity
  8
電源コード
100
AcDbLine
 10
1468.514112395469
 20
317.3953017541648
 30
0.0
 11
1483.763982375042
 21
317.3953017541648
 31
0.0
  0
ARC
  5
16A8
330
1F
100
AcDbEntity
  8
電源コード
100
AcDbCircle
 10
1476.514112395469
 20
348.8530991423155
 30
0.0
 40
32.45909759241536
100
AcDbArc
 50
255.7316301388478
 51
282.9382049303649
  0
LINE
  5
16A9
330
1F
100
AcDbEntity
  8
電源コード
100
AcDbLine
 10
1471.014112395469
 20
316.863366156341
 30
0.0
 11
1471.014112395469
 21
299.8940015499001
 31
0.0
  0
LINE
  5
16AA
330
1F
100
AcDbEntity
  8
電源コード
100
AcDbLine
 10
1471.014112395469
 20
299.8940015499001
 30
0.0
 11
1474.014112395468
 21
299.8940015499001
 31
0.0
  0
LINE
  5
16AB
330
1F
100
AcDbEntity
  8
電源コード
100
AcDbLine
 10
1482.014112395469
 20
299.8940015499001
 30
0.0
 11
1482.014112395469
 21
316.863366156341
 31
0.0
  0
LINE
  5
16AC
330
1F
100
AcDbEntity
  8
電源コード
100
AcDbLine
 10
1471.014112395469
 20
307.8940015499
 30
0.0
 11
1482.014112395469
 21
307.8940015499
 31
0.0
  0
LINE
  5
16AD
330
1F
100
AcDbEntity
  8
3、破線1
100
AcDbLine
 10
1483.514112395468
 20
319.8940015499001
 30
0.0
 11
1484.514112395468
 21
319.8940015499001
 31
0.0
  0
LINE
  5
16AE
330
1F
100
AcDbEntity
  8
3、破線1
100
AcDbLine
 10
1484.514112395468
 20
319.8940015499001
 30
0.0
 11
1484.514112395468
 21
317.3953017541648
 31
0.0
  0
LINE
  5
16AF
330
1F
100
AcDbEntity
  8
3、破線1
100
AcDbLine
 10
1484.514112395468
 20
317.3953017541648
 30
0.0
 11
1483.763982375042
 21
317.3953017541648
 31
0.0
  0
LINE
  5
16B0
330
1F
100
AcDbEntity
  8
3、破線1
100
AcDbLine
 10
1484.514112395468
 20
317.3953017541648
 30
0.0
 11
1483.781705608262
 21
317.2180694219674
 31
0.0
  0
LINE
  5
16B4
330
1F
100
AcDbEntity
  8
3、破線1
100
AcDbLine
 10
1472.514112395469
 20
319.8940015499001
 30
0.0
 11
1472.514112395469
 21
325.8940015499001
 31
0.0
  0
LINE
  5
16B5
330
1F
100
AcDbEntity
  8
3、破線1
100
AcDbLine
 10
1472.514112395469
 20
325.8940015499001
 30
0.0
 11
1480.514112395469
 21
325.8940015499001
 31
0.0
  0
LINE
  5
16B6
330
1F
100
AcDbEntity
  8
3、破線1
100
AcDbLine
 10
1480.514112395469
 20
325.8940015499001
 30
0.0
 11
1480.514112395469
 21
319.8940015499001
 31
0.0
  0
ARC
  5
16BA
330
1F
100
AcDbEntity
  8
電源コード
100
AcDbCircle
 10
1475.264112395469
 20
303.8940015499001
 30
0.0
 40
1.25
100
AcDbArc
 50
0.0
 51
180.0
  0
ARC
  5
16BB
330
1F
100
AcDbEntity
  8
電源コード
100
AcDbCircle
 10
1477.764112395469
 20
303.8940015499001
 30
0.0
 40
1.25
100
AcDbArc
 50
0.0
 51
180.0
  0
LINE
  5
16BE
330
1F
100
AcDbEntity
  8
電源コード
100
AcDbLine
 10
1474.014112395469
 20
303.8940015499001
 30
0.0
 11
1474.014112395469
 21
265.4225522888649
 31
0.0
  0
LINE
  5
16BF
330
1F
100
AcDbEntity
  8
電源コード
100
AcDbLine
 10
1474.014112395469
 20
265.4225522888649
 30
0.0
 11
1479.014112395469
 21
265.4225522888649
 31
0.0
  0
LINE
  5
16C0
330
1F
100
AcDbEntity
  8
電源コード
100
AcDbLine
 10
1479.014112395469
 20
265.4225522888649
 30
0.0
 11
1479.014112395469
 21
303.8940015499001
 31
0.0
  0
LINE
  5
16C1
330
1F
100
AcDbEntity
  8
電源コード
100
AcDbLine
 10
1476.514112395469
 20
303.8940015499001
 30
0.0
 11
1476.514112395469
 21
265.4225522888649
 31
0.0
  0
LINE
  5
16C2
330
1F
100
AcDbEntity
  8
電源コード
100
AcDbLine
 10
1479.014112395469
 20
299.8940015499001
 30
0.0
 11
1482.014112395469
 21
299.8940015499001
 31
0.0
  0
LINE
  5
16CE
330
1F
100
AcDbEntity
  8
4、破線2
370
    30
100
AcDbLine
 10
1117.512149989759
 20
351.3940015499
 30
0.0
 11
1113.512149989759
 21
351.3940015499
 31
0.0
  0
LINE
  5
16CF
330
1F
100
AcDbEntity
  8
4、破線2
370
    30
100
AcDbLine
 10
1113.512149989759
 20
351.3940015499
 30
0.0
 11
1103.512149989759
 21
366.3940015499
 31
0.0
  0
LINE
  5
16D0
330
1F
100
AcDbEntity
  8
4、破線2
370
    30
100
AcDbLine
 10
1103.512149989759
 20
366.3940015499
 30
0.0
 11
1103.512149989759
 21
731.3940015499
 31
0.0
  0
LINE
  5
16D1
330
1F
100
AcDbEntity
  8
4、破線2
370
    30
100
AcDbLine
 10
1103.512149989759
 20
731.3940015499
 30
0.0
 11
1113.512149989759
 21
746.3940015499002
 31
0.0
  0
LINE
  5
16D2
330
1F
100
AcDbEntity
  8
4、破線2
370
    30
100
AcDbLine
 10
1113.512149989759
 20
746.3940015499002
 30
0.0
 11
1117.512149989759
 21
746.3940015499002
 31
0.0
  0
DIMENSION
  5
16D6
330
1F
100
AcDbEntity
  8
寸法線1
100
AcDbDimension
  2
*D4
 10
1115.312149989759
 20
429.528909234359
 30
0.0
 11
1290.312149989759
 21
442.028909234359
 31
0.0
 70
    32
 71
     5
 42
350.0
  3
ISO-25
100
AcDbAlignedDimension
 13
1465.312149989759
 23
545.3940015499001
 33
0.0
 14
1115.312149989759
 24
545.3940015499001
 34
0.0
100
AcDbRotatedDimension
1001
ACAD
1000
DSTYLE
1002
{
1070
    76
1070
     1
1070
    75
1070
     1
1002
}
  0
LINE
  5
1A59
330
1F
100
AcDbEntity
  8
0
100
AcDbLine
 10
1569.999999999999
 20
1435.0
 30
0.0
 11
1569.999999999998
 21
985.0
 31
0.0
  0
LINE
  5
1A5A
330
1F
100
AcDbEntity
  8
0
100
AcDbLine
 10
1609.999999999999
 20
1435.0
 30
0.0
 11
1609.999999999998
 21
985.0
 31
0.0
  0
LINE
  5
1A5B
330
1F
100
AcDbEntity
  8
0
100
AcDbLine
 10
1799.999999999999
 20
1435.0
 30
0.0
 11
1799.999999999998
 21
985.0
 31
0.0
  0
LINE
  5
1A5C
330
1F
100
AcDbEntity
  8
0
100
AcDbLine
 10
1839.999999999999
 20
1435.0
 30
0.0
 11
1839.999999999998
 21
985.0
 31
0.0
  0
LINE
  5
1A5D
330
1F
100
AcDbEntity
  8
0
100
AcDbLine
 10
1569.999999999999
 20
1410.0
 30
0.0
 11
2049.999999999999
 21
1410.0
 31
0.0
  0
LINE
  5
1A5E
330
1F
100
AcDbEntity
  8
２，細線
100
AcDbLine
 10
1569.999999999999
 20
1385.0
 30
0.0
 11
2049.999999999999
 21
1385.0
 31
0.0
  0
LINE
  5
1A5F
330
1F
100
AcDbEntity
  8
２，細線
100
AcDbLine
 10
1569.999999999999
 20
1360.0
 30
0.0
 11
2049.999999999999
 21
1360.0
 31
0.0
  0
LINE
  5
1A60
330
1F
100
AcDbEntity
  8
２，細線
100
AcDbLine
 10
1569.999999999999
 20
1335.0
 30
0.0
 11
2049.999999999999
 21
1335.0
 31
0.0
  0
LINE
  5
1A61
330
1F
100
AcDbEntity
  8
２，細線
100
AcDbLine
 10
1569.999999999999
 20
1310.0
 30
0.0
 11
2049.999999999999
 21
1310.0
 31
0.0
  0
LINE
  5
1A62
330
1F
100
AcDbEntity
  8
２，細線
100
AcDbLine
 10
1569.999999999999
 20
1285.0
 30
0.0
 11
2049.999999999999
 21
1285.0
 31
0.0
  0
LINE
  5
1A63
330
1F
100
AcDbEntity
  8
２，細線
100
AcDbLine
 10
1569.999999999999
 20
1260.0
 30
0.0
 11
2049.999999999999
 21
1260.0
 31
0.0
  0
LINE
  5
1A64
330
1F
100
AcDbEntity
  8
２，細線
100
AcDbLine
 10
1569.999999999999
 20
1235.0
 30
0.0
 11
2049.999999999999
 21
1235.0
 31
0.0
  0
LINE
  5
1A65
330
1F
100
AcDbEntity
  8
２，細線
100
AcDbLine
 10
1569.999999999999
 20
1210.0
 30
0.0
 11
2049.999999999999
 21
1210.0
 31
0.0
  0
LINE
  5
1A66
330
1F
100
AcDbEntity
  8
２，細線
100
AcDbLine
 10
1569.999999999999
 20
1185.0
 30
0.0
 11
2049.999999999999
 21
1185.0
 31
0.0
  0
LINE
  5
1A67
330
1F
100
AcDbEntity
  8
２，細線
100
AcDbLine
 10
1569.999999999999
 20
1160.0
 30
0.0
 11
2049.999999999999
 21
1160.0
 31
0.0
  0
LINE
  5
1A68
330
1F
100
AcDbEntity
  8
２，細線
100
AcDbLine
 10
1569.999999999999
 20
1135.0
 30
0.0
 11
2049.999999999999
 21
1135.0
 31
0.0
  0
LINE
  5
1A69
330
1F
100
AcDbEntity
  8
２，細線
100
AcDbLine
 10
1569.999999999999
 20
1110.0
 30
0.0
 11
2049.999999999999
 21
1110.0
 31
0.0
  0
LINE
  5
1A6A
330
1F
100
AcDbEntity
  8
２，細線
100
AcDbLine
 10
1569.999999999999
 20
1085.0
 30
0.0
 11
2049.999999999999
 21
1085.0
 31
0.0
  0
LINE
  5
1A6B
330
1F
100
AcDbEntity
  8
２，細線
100
AcDbLine
 10
1569.999999999999
 20
1060.0
 30
0.0
 11
2049.999999999999
 21
1060.0
 31
0.0
  0
LINE
  5
1A6C
330
1F
100
AcDbEntity
  8
２，細線
100
AcDbLine
 10
1569.999999999999
 20
1035.0
 30
0.0
 11
2049.999999999999
 21
1035.0
 31
0.0
  0
LINE
  5
1A6D
330
1F
100
AcDbEntity
  8
２，細線
100
AcDbLine
 10
1569.999999999999
 20
1010.0
 30
0.0
 11
2049.999999999999
 21
1010.0
 31
0.0
  0
LINE
  5
1A6E
330
1F
100
AcDbEntity
  8
２，細線
100
AcDbLine
 10
1569.999999999999
 20
985.0
 30
0.0
 11
2049.999999999999
 21
985.0
 31
0.0
  0
TEXT
  5
1A70
330
1F
100
AcDbEntity
  8
0
100
AcDbText
 10
1578.786728119957
 20
1414.940202162506
 30
0.0
 40
15.0
  1
No
100
AcDbText
  0
TEXT
  5
1A71
330
1F
100
AcDbEntity
  8
0
100
AcDbText
 10
1804.173480067608
 20
1414.363186046843
 30
0.0
 40
15.0
  1
数量
100
AcDbText
  0
TEXT
  5
1A72
330
1F
100
AcDbEntity
  8
0
100
AcDbText
 10
1619.288901366257
 20
1414.912100191859
 30
0.0
 40
15.0
  1
品　名
100
AcDbText
  0
MTEXT
  5
1A73
330
1F
100
AcDbEntity
  8
0
100
AcDbMText
 10
1849.435408150188
 20
1429.732712965043
 30
0.0
 40
15.0
 41
206.4882970503595
 71
     1
 72
     5
  1
材質又は定格
 73
     1
 44
1.0
1001
ACAD
1000
MTEXTBEGIN
1070
    73
1070
     1
1070
    44
1040
1.0
1070
    74
1070
     0
1000
MTEXTEND
  0
TEXT
  5
1A74
330
1F
100
AcDbEntity
  8
0
100
AcDbText
 10
1587.536927342513
 20
1389.519478173562
 30
0.0
 40
15.0
  1
1
100
AcDbText
  0
TEXT
  5
1A75
330
1F
100
AcDbEntity
  8
0
100
AcDbText
 10
1584.883916682167
 20
1364.274920019801
 30
0.0
 40
15.0
  1
2
100
AcDbText
  0
TEXT
  5
1A76
330
1F
100
AcDbEntity
  8
0
100
AcDbText
 10
1584.803298002211
 20
1339.030361866038
 30
0.0
 40
15.0
  1
3
100
AcDbText
  0
TEXT
  5
1A77
330
1F
100
AcDbEntity
  8
0
100
AcDbText
 10
1584.521981180333
 20
1312.687981707902
 30
0.0
 40
15.0
  1
4
100
AcDbText
  0
TEXT
  5
1A78
330
1F
100
AcDbEntity
  8
0
100
AcDbText
 10
1585.467128425232
 20
1289.09016598919
 30
0.0
 40
15.0
  1
5
100
AcDbText
  0
TEXT
  5
1A79
330
1F
100
AcDbEntity
  8
0
100
AcDbText
 10
1585.369309191043
 20
1264.394515694784
 30
0.0
 40
15.0
  1
6
100
AcDbText
  0
TEXT
  5
1A7A
330
1F
100
AcDbEntity
  8
0
100
AcDbText
 10
1585.994053074907
 20
1238.601043396005
 30
0.0
 40
15.0
  1
7
100
AcDbText
  0
TEXT
  5
1A7B
330
1F
100
AcDbEntity
  8
0
100
AcDbText
 10
1584.793671713921
 20
1215.552141822308
 30
0.0
 40
15.0
  1
8
100
AcDbText
  0
TEXT
  5
1A7C
330
1F
100
AcDbEntity
  8
0
100
AcDbText
 10
1584.638580010779
 20
1190.856485242242
 30
0.0
 40
15.0
  1
9
100
AcDbText
  0
TEXT
  5
1A7D
330
1F
100
AcDbEntity
  8
0
100
AcDbText
 10
1581.786816516328
 20
1165.063019229122
 30
0.0
 40
15.0
  1
10
100
AcDbText
  0
TEXT
  5
1A7E
330
1F
100
AcDbEntity
  8
0
100
AcDbText
 10
1582.834501875741
 20
1139.269559501663
 30
0.0
 40
15.0
  1
11
100
AcDbText
  0
TEXT
  5
1A7F
330
1F
100
AcDbEntity
  8
0
100
AcDbText
 10
1581.140756294974
 20
1115.122823352274
 30
0.0
 40
15.0
  1
12
100
AcDbText
  0
TEXT
  5
1A80
330
1F
100
AcDbEntity
  8
0
100
AcDbText
 10
1581.124616318084
 20
1089.878258912853
 30
0.0
 40
15.0
  1
13
100
AcDbText
  0
TEXT
  5
1A81
330
1F
100
AcDbEntity
  8
0
100
AcDbText
 10
1581.121141860147
 20
1064.63370075909
 30
0.0
 40
15.0
  1
14
100
AcDbText
  0
TEXT
  5
1A82
330
1F
100
AcDbEntity
  8
0
100
AcDbText
 10
1581.130144697836
 20
1039.938056750343
 30
0.0
 40
15.0
  1
15
100
AcDbText
  0
TEXT
  5
1A83
330
1F
100
AcDbEntity
  8
0
100
AcDbText
 10
1581.128579731589
 20
1014.693504882242
 30
0.0
 40
15.0
  1
16
100
AcDbText
  0
TEXT
  5
1A84
330
1F
100
AcDbEntity
  8
0
100
AcDbText
 10
1581.102067534365
 20
988.9000325834627
 30
0.0
 40
15.0
  1
17
100
AcDbText
  0
TEXT
  5
1A85
330
1F
100
AcDbEntity
  8
0
100
AcDbText
 10
1620.345236206754
 20
1388.781113459549
 30
0.0
 40
15.0
  1
外　箱
100
AcDbText
  0
TEXT
  5
1A86
330
1F
100
AcDbEntity
  8
0
100
AcDbText
 10
1620.281542688441
 20
1363.781113459548
 30
0.0
 40
15.0
  1
外箱裏板
100
AcDbText
  0
TEXT
  5
1A87
330
1F
100
AcDbEntity
  8
0
100
AcDbText
 10
1620.281542688439
 20
1338.781113459549
 30
0.0
 40
15.0
  1
扉
100
AcDbText
  0
TEXT
  5
1A88
330
1F
100
AcDbEntity
  8
0
100
AcDbText
 10
1619.090817496804
 20
1314.425286786817
 30
0.0
 40
15.0
  1
中　箱
100
AcDbText
  0
TEXT
  5
1A89
330
1F
100
AcDbEntity
  8
0
100
AcDbText
 10
1619.637064614448
 20
1289.425286786817
 30
0.0
 40
15.0
  1
上部ヒンジ
100
AcDbText
  0
TEXT
  5
1A8A
330
1F
100
AcDbEntity
  8
0
100
AcDbText
 10
1618.992586540453
 20
1263.136940132279
 30
0.0
 40
15.0
  1
下部ヒンジ
100
AcDbText
  0
TEXT
  5
1A8B
330
1F
100
AcDbEntity
  8
0
100
AcDbText
 10
1619.637064614448
 20
1239.425286786818
 30
0.0
 40
15.0
  1
マグネットパッキン
100
AcDbText
  0
TEXT
  5
1A8C
330
1F
100
AcDbEntity
  8
0
100
AcDbText
 10
1619.154414420241
 20
1213.781107173887
 30
0.0
 40
15.0
  1
エアタイトパッキン
100
AcDbText
  0
TEXT
  5
1A8D
330
1F
100
AcDbEntity
  8
0
100
AcDbText
 10
1619.141644932687
 20
1188.781113459548
 30
0.0
 40
15.0
  1
固定サーモスタット
100
AcDbText
  0
TEXT
  5
1A8E
330
1F
100
AcDbEntity
  8
0
100
AcDbText
 10
1618.992586540453
 20
1164.425286786817
 30
0.0
 40
15.0
  1
温度ヒューズ
100
AcDbText
  0
TEXT
  5
1A8F
330
1F
100
AcDbEntity
  8
0
100
AcDbText
 10
1619.788765381016
 20
1114.425286786817
 30
0.0
 40
15.0
  1
取手
100
AcDbText
  0
TEXT
  5
1A90
330
1F
100
AcDbEntity
  8
0
100
AcDbText
 10
1619.637064614448
 20
1088.781113459549
 30
0.0
 40
15.0
  1
電源スイッチ
100
AcDbText
  0
TEXT
  5
1A92
330
1F
100
AcDbEntity
  8
0
100
AcDbText
 10
1618.348108466459
 20
1063.781113459548
 30
0.0
 40
15.0
  1
電源コード
100
AcDbText
  0
TEXT
  5
1A93
330
1F
100
AcDbEntity
  8
0
100
AcDbText
 10
1619.512948153809
 20
1038.781107173887
 30
0.0
 40
15.0
  1
アース線
100
AcDbText
  0
TEXT
  5
1A94
330
1F
100
AcDbEntity
  8
0
100
AcDbText
 10
1617.703630392466
 20
1013.781113459548
 30
0.0
 40
15.0
  1
ゴム脚
100
AcDbText
  0
TEXT
  5
1A95
330
1F
100
AcDbEntity
  8
0
100
AcDbText
 10
1619.637064614444
 20
989.425280501158
 30
0.0
 40
15.0
  1
Ｌ型樹脂脚
100
AcDbText
  0
TEXT
  5
1A96
330
1F
100
AcDbEntity
  8
0
100
AcDbText
 10
1817.962707014348
 20
1390.458033349826
 30
0.0
 40
15.0
  1
1
100
AcDbText
  0
TEXT
  5
1A97
330
1F
100
AcDbEntity
  8
0
100
AcDbText
 10
1818.540955341017
 20
1364.046889217839
 30
0.0
 40
15.0
  1
1
100
AcDbText
  0
TEXT
  5
1A98
330
1F
100
AcDbEntity
  8
0
100
AcDbText
 10
1818.367740586736
 20
1338.924098026051
 30
0.0
 40
15.0
  1
1
100
AcDbText
  0
TEXT
  5
1A99
330
1F
100
AcDbEntity
  8
0
100
AcDbText
 10
1817.962707014348
 20
1313.801306834261
 30
0.0
 40
15.0
  1
1
100
AcDbText
  0
TEXT
  5
1A9A
330
1F
100
AcDbEntity
  8
0
100
AcDbText
 10
1818.54095534102
 20
1289.900661722451
 30
0.0
 40
15.0
  1
1
100
AcDbText
  0
TEXT
  5
1A9B
330
1F
100
AcDbEntity
  8
0
100
AcDbText
 10
1818.640304862825
 20
1263.555724450686
 30
0.0
 40
15.0
  1
1
100
AcDbText
  0
TEXT
  5
1A9C
330
1F
100
AcDbEntity
  8
0
100
AcDbText
 10
1818.423364949034
 20
1239.0739008994
 30
0.0
 40
15.0
  1
1
100
AcDbText
  0
TEXT
  5
1A9D
330
1F
100
AcDbEntity
  8
0
100
AcDbText
 10
1818.128560729673
 20
1214.32176881142
 30
0.0
 40
15.0
  1
1
100
AcDbText
  0
TEXT
  5
1A9E
330
1F
100
AcDbEntity
  8
0
100
AcDbText
 10
1818.718178970047
 20
1189.569636723441
 30
0.0
 40
15.0
  1
1
100
AcDbText
  0
TEXT
  5
1A9F
330
1F
100
AcDbEntity
  8
0
100
AcDbText
 10
1818.128560729673
 20
1164.817504635464
 30
0.0
 40
15.0
  1
1
100
AcDbText
  0
TEXT
  5
1AA0
330
1F
100
AcDbEntity
  8
0
100
AcDbText
 10
1818.718178970047
 20
1114.476041606566
 30
0.0
 40
15.0
  1
1
100
AcDbText
  0
TEXT
  5
1AA1
330
1F
100
AcDbEntity
  8
0
100
AcDbText
 10
1818.128560729673
 20
1090.018574989046
 30
0.0
 40
15.0
  1
1
100
AcDbText
  0
TEXT
  5
1AA3
330
1F
100
AcDbEntity
  8
0
100
AcDbText
 10
1818.718178970047
 20
1064.129548414799
 30
0.0
 40
15.0
  1
1
100
AcDbText
  0
TEXT
  5
1AA4
330
1F
100
AcDbEntity
  8
0
100
AcDbText
 10
1818.128560729673
 20
1040.002305248207
 30
0.0
 40
15.0
  1
1
100
AcDbText
  0
TEXT
  5
1AA5
330
1F
100
AcDbEntity
  8
0
100
AcDbText
 10
1815.219235052542
 20
1013.847510018632
 30
0.0
 40
15.0
  1
2
100
AcDbText
  0
TEXT
  5
1AA6
330
1F
100
AcDbEntity
  8
0
100
AcDbText
 10
1815.827995914866
 20
989.1652053312226
 30
0.0
 40
15.0
  1
2
100
AcDbText
  0
TEXT
  5
1AA7
330
1F
100
AcDbEntity
  8
0
100
AcDbText
 10
1850.400183925281
 20
1389.96330241413
 30
0.0
 40
15.0
  1
SPCC 塗装
100
AcDbText
  0
TEXT
  5
1AAA
330
1F
100
AcDbEntity
  8
0
100
AcDbText
 10
1853.653146534997
 20
1189.367499442212
 30
0.0
 40
15.0
  1
80℃ ＯＦＦ
100
AcDbText
  0
TEXT
  5
1AAB
330
1F
100
AcDbEntity
  8
0
100
AcDbText
 10
1850.400183925281
 20
1165.147600174049
 30
0.0
 40
15.0
  1
113℃ 15Ａ
100
AcDbText
  0
TEXT
  5
1AAD
330
1F
100
AcDbEntity
  8
0
100
AcDbText
 10
1844.589026103148
 20
1064.498059719561
 30
0.0
 40
14.0
  1
ＶＦＦ 2×0.75sq 2ｍ
100
AcDbText
  0
TEXT
  5
1AAE
330
1F
100
AcDbEntity
  8
0
100
AcDbText
 10
1844.749208992756
 20
1039.498059719559
 30
0.0
 40
14.0
  1
ＶＳＦ 1.25sq 2ｍ
100
AcDbText
  0
TEXT
  5
1AAF
330
1F
100
AcDbEntity
  8
0
100
AcDbText
 10
1850.400183925282
 20
1014.367499442212
 30
0.0
 40
15.0
  1
合成ゴム
100
AcDbText
  0
TEXT
  5
1AB6
330
1F
100
AcDbEntity
  8
0
100
AcDbText
 10
1849.619717762731
 20
1315.343588647092
 30
0.0
 40
15.0
  1
アルミ
100
AcDbText
  0
TEXT
  5
1AB7
330
1F
100
AcDbEntity
  8
0
100
AcDbText
 10
1848.839251600185
 20
1115.147606459709
 30
0.0
 40
15.0
  1
ABS
100
AcDbText
  0
TEXT
  5
1AB8
330
1F
100
AcDbEntity
  8
0
100
AcDbText
 10
1850.400183925281
 20
990.3687562288178
 30
0.0
 40
15.0
  1
PP
100
AcDbText
  0
TEXT
  5
1AB9
330
1F
100
AcDbEntity
  8
0
100
AcDbText
 10
1850.400183925281
 20
1089.858366845386
 30
0.0
 40
15.0
  1
15Ａ 250Ｖ 照光式
100
AcDbText
  0
LINE
  5
1AE3
330
1F
100
AcDbEntity
  8
0
100
AcDbLine
 10
1089.999999999998
 20
1385.0
 30
0.0
 11
1509.999999999999
 21
1385.0
 31
0.0
  0
LINE
  5
1AE4
330
1F
100
AcDbEntity
  8
0
100
AcDbLine
 10
1509.999999999999
 20
1385.0
 30
0.0
 11
1509.999999999999
 21
1185.0
 31
0.0
  0
LINE
  5
1AE6
330
1F
100
AcDbEntity
  8
0
100
AcDbLine
 10
1089.999999999998
 20
1185.0
 30
0.0
 11
1089.999999999998
 21
1385.0
 31
0.0
  0
LINE
  5
1AE7
330
1F
100
AcDbEntity
  8
２，細線
100
AcDbLine
 10
1089.999999999998
 20
1360.0
 30
0.0
 11
1509.999999999999
 21
1360.0
 31
0.0
  0
LINE
  5
1AE8
330
1F
100
AcDbEntity
  8
２，細線
100
AcDbLine
 10
1089.999999999998
 20
1335.0
 30
0.0
 11
1509.999999999999
 21
1335.0
 31
0.0
  0
LINE
  5
1AE9
330
1F
100
AcDbEntity
  8
２，細線
100
AcDbLine
 10
1089.999999999998
 20
1310.0
 30
0.0
 11
1509.999999999999
 21
1310.0
 31
0.0
  0
LINE
  5
1AEA
330
1F
100
AcDbEntity
  8
２，細線
100
AcDbLine
 10
1089.999999999998
 20
1285.0
 30
0.0
 11
1509.999999999999
 21
1285.0
 31
0.0
  0
LINE
  5
1AEB
330
1F
100
AcDbEntity
  8
２，細線
100
AcDbLine
 10
1089.999999999998
 20
1260.0
 30
0.0
 11
1509.999999999999
 21
1260.0
 31
0.0
  0
LINE
  5
1AEC
330
1F
100
AcDbEntity
  8
２，細線
100
AcDbLine
 10
1089.999999999998
 20
1235.0
 30
0.0
 11
1509.999999999999
 21
1235.0
 31
0.0
  0
LINE
  5
1AED
330
1F
100
AcDbEntity
  8
２，細線
100
AcDbLine
 10
1089.999999999998
 20
1210.0
 30
0.0
 11
1509.999999999999
 21
1210.0
 31
0.0
  0
LINE
  5
1AEE
330
1F
100
AcDbEntity
  8
２，細線
100
AcDbLine
 10
1089.999999999998
 20
1185.0
 30
0.0
 11
1509.999999999999
 21
1185.0
 31
0.0
  0
LINE
  5
1AEF
330
1F
100
AcDbEntity
  8
２，細線
100
AcDbLine
 10
1184.999999999998
 20
1385.0
 30
0.0
 11
1184.999999999998
 21
1185.0
 31
0.0
  0
TEXT
  5
1AF0
330
1F
100
AcDbEntity
  8
0
100
AcDbText
 10
1103.067096433081
 20
1364.705768992813
 30
0.0
 40
15.0
  1
電    源
100
AcDbText
  0
TEXT
  5
1AF1
330
1F
100
AcDbEntity
  8
0
100
AcDbText
 10
1104.694997047434
 20
1339.79694647133
 30
0.0
 40
15.0
  1
消費電力
100
AcDbText
  0
TEXT
  5
1AF2
330
1F
100
AcDbEntity
  8
0
100
AcDbText
 10
1103.067096433081
 20
1315.796764244156
 30
0.0
 40
15.0
  1
温度調節
100
AcDbText
  0
TEXT
  5
1AF3
330
1F
100
AcDbEntity
  8
0
100
AcDbText
 10
1103.067096433081
 20
1289.355894861666
 30
0.0
 40
15.0
  1
庫内温度
100
AcDbText
  0
TEXT
  5
1AF4
330
1F
100
AcDbEntity
  8
0
100
AcDbText
 10
1103.067096433081
 20
1263.728595852682
 30
0.0
 40
15.0
  1
安全装置
100
AcDbText
  0
TEXT
  5
1AF5
330
1F
100
AcDbEntity
  8
0
100
AcDbText
 10
1102.660130590509
 20
1239.321652403947
 30
0.0
 40
15.0
  1
内 容 積
100
AcDbText
  0
TEXT
  5
1AF6
330
1F
100
AcDbEntity
  8
0
100
AcDbText
 10
1103.067096433081
 20
1213.694353394964
 30
0.0
 40
15.0
  1
外形寸法
100
AcDbText
  0
TEXT
  5
1AF7
330
1F
100
AcDbEntity
  8
0
100
AcDbText
 10
1103.067096433081
 20
1188.880624759478
 30
0.0
 40
15.0
  1
中箱寸法
100
AcDbText
  0
TEXT
  5
1AF9
330
1F
100
AcDbEntity
  8
0
100
AcDbText
 10
1199.519863325967
 20
1363.712052263191
 30
0.0
 40
15.0
  1
単相 100Ｖ　50/60Ｈｚ
100
AcDbText
  0
TEXT
  5
1AFA
330
1F
100
AcDbEntity
  8
0
100
AcDbText
 10
1200.333795011114
 20
1339.305108814461
 30
0.0
 40
15.0
  1
220Ｗ
100
AcDbText
  0
TEXT
  5
1AFB
330
1F
100
AcDbEntity
  8
0
100
AcDbText
 10
1200.740760853686
 20
1313.677809805473
 30
0.0
 40
15.0
  1
固定サーモスタット 80℃ ＯＦＦ
100
AcDbText
  0
TEXT
  5
1AFC
330
1F
100
AcDbEntity
  8
0
100
AcDbText
 10
1199.519863325967
 20
1288.45729598324
 30
0.0
 40
15.0
  1
65℃～75℃
100
AcDbText
  0
TEXT
  5
1AFD
330
1F
100
AcDbEntity
  8
0
100
AcDbText
 10
1200.333795011114
 20
1264.050328569316
 30
0.0
 40
15.0
  1
113℃温度ヒューズ(マイクロ型)
100
AcDbText
  0
TEXT
  5
1AFE
330
1F
100
AcDbEntity
  8
0
100
AcDbText
 10
1269.11236319217
 20
1263.236758195809
 30
0.0
 40
15.0
  1

100
AcDbText
  0
TEXT
  5
1AFF
330
1F
100
AcDbEntity
  8
0
100
AcDbText
 10
1200.333795011114
 20
1239.643385120581
 30
0.0
 40
15.0
  1
46Ｌ
100
AcDbText
  0
TEXT
  5
1B00
330
1F
100
AcDbEntity
  8
0
100
AcDbText
 10
1199.926829168538
 20
1214.016086111596
 30
0.0
 40
15.0
  1
465Ｗ×440Ｄ×488Ｈ
100
AcDbText
  0
TEXT
  5
1B01
330
1F
100
AcDbEntity
  8
0
100
AcDbText
 10
1199.926829168538
 20
1188.388787102609
 30
0.0
 40
15.0
  1
376Ｗ×350Ｄ×350Ｈ
100
AcDbText
  0
TEXT
  5
1B05
330
1F
100
AcDbEntity
  8
0
100
AcDbText
 10
1619.637064614448
 20
1139.307344774786
 30
0.0
 40
15.0
  1
発熱体
100
AcDbText
  0
TEXT
  5
1B06
330
1F
100
AcDbEntity
  8
0
100
AcDbText
 10
1818.128560729673
 20
1139.848006412319
 30
0.0
 40
15.0
  1
1
100
AcDbText
  0
TEXT
  5
1B07
330
1F
100
AcDbEntity
  8
0
100
AcDbText
 10
1849.805174800954
 20
1140.079107926569
 30
0.0
 40
15.0
  1
アルミ箔ヒーター
100
AcDbText
  0
CIRCLE
  5
1B1D
330
1F
100
AcDbEntity
  8
0
100
AcDbCircle
 10
926.0019624057092
 20
423.4943558453283
 30
0.0
 40
14.0
  0
LINE
  5
1B1E
330
1F
100
AcDbEntity
  8
4、破線2
370
    30
100
AcDbLine
 10
1113.512149989759
 20
746.3940015499002
 30
0.0
 11
1113.512149989759
 21
351.3940015499
 31
0.0
  0
CIRCLE
  5
1B20
330
1F
100
AcDbEntity
  8
0
100
AcDbCircle
 10
1616.21097746595
 20
730.3476042296306
 30
0.0
 40
14.0
  0
TEXT
  5
1B21
330
1F
100
AcDbEntity
  8
0
100
AcDbText
 10
1609.06512264135
 20
724.1506026870506
 30
0.0
 40
12.0
  1
10
100
AcDbText
  0
LEADER
  5
1B22
330
1F
100
AcDbEntity
  8
引き出し線
100
AcDbLeader
  3
ISO-25
 76
     2
 10
1508.397299723721
 20
300.7119795089956
 30
0.0
 10
1603.843919344086
 20
255.8493527604237
 30
0.0
1001
ACAD
1000
DSTYLE
1002
{
1070
   147
1040
1.0
1070
    77
1070
     0
1002
}
  0
LEADER
  5
1B23
330
1F
100
AcDbEntity
  8
引き出し線
100
AcDbLeader
  3
ISO-25
 76
     2
 10
1537.380240273887
 20
313.9260628194333
 30
0.0
 10
1607.154086691655
 20
391.5347021234137
 30
0.0
1001
ACAD
1000
DSTYLE
1002
{
1070
   147
1040
1.0
1070
    77
1070
     0
1002
}
  0
LEADER
  5
1B25
330
1F
100
AcDbEntity
  8
引き出し線
100
AcDbLeader
  3
ISO-25
 76
     2
 10
1518.058279907109
 20
512.5530941591196
 30
0.0
 10
1602.921453013872
 20
533.4841179544504
 30
0.0
1001
ACAD
1000
DSTYLE
1002
{
1070
   147
1040
1.0
1070
    77
1070
     0
1002
}
  0
LINE
  5
1B33
330
1F
100
AcDbEntity
  8
1、実線
100
AcDbLine
 10
759.5121499897593
 20
307.8940015499001
 30
0.0
 11
760.5121499897595
 21
307.8940015499001
 31
0.0
  0
LINE
  5
1B35
330
1F
100
AcDbEntity
  8
1、実線
100
AcDbLine
 10
771.5121499897593
 20
299.8940015499001
 30
0.0
 11
759.5121499897593
 21
299.8940015499001
 31
0.0
  0
CIRCLE
  5
1B3B
330
1F
100
AcDbEntity
  8
0
100
AcDbCircle
 10
926.0019624057092
 20
1096.056473392547
 30
0.0
 40
14.0
  0
CIRCLE
  5
1B3C
330
1F
100
AcDbEntity
  8
0
100
AcDbCircle
 10
926.0019624057092
 20
1173.959497893027
 30
0.0
 40
14.0
  0
TEXT
  5
1B3D
330
1F
100
AcDbEntity
  8
0
100
AcDbText
 10
918.020749233325
 20
1168.085049761765
 30
0.0
 40
12.0
  1
14
100
AcDbText
  0
TEXT
  5
1B3E
330
1F
100
AcDbEntity
  8
0
100
AcDbText
 10
922.1731760755822
 20
1089.909993804053
 30
0.0
 40
12.0
  1
7
100
AcDbText
  0
LEADER
  5
1B3F
330
1F
100
AcDbEntity
  8
引き出し線
100
AcDbLeader
  3
ISO-25
 76
     2
 10
831.0856179983957
 20
1289.151963946747
 30
0.0
 10
917.0991570565384
 20
1184.764129164606
 30
0.0
1001
ACAD
1000
DSTYLE
1002
{
1070
   147
1040
1.0
1070
    77
1070
     0
1002
}
  0
TEXT
  5
1B47
330
1F
100
AcDbEntity
  8
0
100
AcDbText
 10
1562.692097446158
 20
162.4699140743118
 30
0.0
 40
15.0
  1
1
100
AcDbText
  0
TEXT
  5
1B48
330
1F
100
AcDbEntity
  8
0
100
AcDbText
 10
1589.115093145021
 20
149.309143365177
 30
0.0
 40
15.0
  1
5
100
AcDbText
  0
TEXT
  5
1B49
330
1F
100
AcDbEntity
  8
0
100
AcDbText
 10
1905.279884406466
 20
107.9163630391535
 30
0.0
 40
15.0
  1
HP-42
100
AcDbText
  0
TEXT
  5
1B4A
330
1F
100
AcDbEntity
  8
0
100
AcDbText
 10
1883.274694201159
 20
64.80679814638597
 30
0.0
 40
15.0
  1
HP-42-AD
100
AcDbText
  0
TEXT
  5
1B4B
330
1F
100
AcDbEntity
  8
0
100
AcDbText
 10
1294.817607209054
 20
164.4699334580339
 30
0.0
 40
12.4995
  1
2008
100
AcDbText
  0
TEXT
  5
1B4C
330
1F
100
AcDbEntity
  8
0
100
AcDbText
 10
1379.553415345281
 20
163.7502648192152
 30
0.0
 40
12.4995
  1
03
100
AcDbText
  0
TEXT
  5
1B4D
330
1F
100
AcDbEntity
  8
0
100
AcDbText
 10
1442.42191815603
 20
163.941302986883
 30
0.0
 40
12.4995
  1
05
100
AcDbText
  0
TEXT
  5
1B4E
330
1F
100
AcDbEntity
  8
0
100
AcDbText
 10
1257.460958847452
 20
126.3470839030494
 30
0.0
 40
19.99919999999999
  1
G.Y
100
AcDbText
  0
TEXT
  5
1B4F
330
1F
100
AcDbEntity
  8
0
100
AcDbText
 10
1606.426708097114
 20
107.4314234009466
 30
0.0
 40
19.99919999999999
  1
弁当温蔵庫
100
AcDbText
  0
MTEXT
  5
1B51
330
1F
100
AcDbEntity
  8
0
100
AcDbMText
 10
1241.493318005405
 20
95.50601584473914
 30
0.0
 40
12.5
 41
387.2335335692469
 71
     1
 72
     5
  1
20.03.05
 73
     1
 44
1.0
1001
ACAD
1000
ACAD_MTEXT_DEFINED_HEIGHT_BEGIN
1070
    46
1040
0.0
1000
ACAD_MTEXT_DEFINED_HEIGHT_END
1000
MTEXTBEGIN
1070
    73
1070
     1
1070
    44
1040
1.0
1070
    74
1070
     0
1000
MTEXTEND
  0
DIMENSION
  5
1BA4
330
1F
100
AcDbEntity
  8
寸法線1
100
AcDbDimension
  2
*D5
 10
1076.512149989759
 20
809.8940015499
 30
0.0
 11
1296.513131192614
 21
822.3940015499
 31
0.0
 70
    32
 71
     5
 42
440.0019624057095
  3
ISO-25
100
AcDbAlignedDimension
 13
1516.514112395469
 23
777.8940015499
 33
0.0
 14
1076.512149989759
 24
774.8940015499002
 34
0.0
100
AcDbRotatedDimension
  0
LINE
  5
1BF1
330
1F
100
AcDbEntity
  8
1、実線
100
AcDbLine
 10
805.5121499897595
 20
777.8940015499
 30
0.0
 11
805.5121499897595
 21
780.8940015499
 31
0.0
  0
ARC
  5
1BFF
330
1F
100
AcDbEntity
  8
1、実線
100
AcDbCircle
 10
797.5121499897595
 20
974.3320099149061
 30
0.0
 40
8.0
100
AcDbArc
 50
0.0
 51
180.0
  0
LINE
  5
1C01
330
1F
100
AcDbEntity
  8
２，細線
100
AcDbLine
 10
798.7849421958952
 20
945.0391166960924
 30
0.0
 11
799.2887296268633
 21
945.5429041270603
 31
0.0
  0
LINE
  5
1C02
330
1F
100
AcDbEntity
  8
２，細線
100
AcDbLine
 10
798.2192567709462
 20
945.6048021210415
 30
0.0
 11
798.723044201914
 21
946.1085895520096
 31
0.0
  0
LINE
  5
1C03
330
1F
100
AcDbEntity
  8
２，細線
100
AcDbLine
 10
796.2393577836238
 20
945.0391166960924
 30
0.0
 11
795.7355703526559
 21
945.5429041270603
 31
0.0
  0
LINE
  5
1C04
330
1F
100
AcDbEntity
  8
２，細線
100
AcDbLine
 10
796.8050432085727
 20
945.6048021210415
 30
0.0
 11
796.3012557776051
 21
946.1085895520096
 31
0.0
  0
ARC
  5
1C05
330
1F
100
AcDbEntity
  8
２，細線
100
AcDbCircle
 10
797.5121499897595
 20
946.311908902228
 30
0.0
 40
1.0
100
AcDbArc
 50
225.0
 51
315.0
  0
LINE
  5
1C06
330
1F
100
AcDbEntity
  8
２，細線
100
AcDbLine
 10
796.8050432085727
 20
943.0592177087699
 30
0.0
 11
796.3012557776051
 21
942.5554302778024
 31
0.0
  0
ARC
  5
1C07
330
1F
100
AcDbEntity
  8
２，細線
100
AcDbCircle
 10
797.5121499897595
 20
942.3521109275835
 30
0.0
 40
1.0
100
AcDbArc
 50
45.0
 51
135.0
  0
LINE
  5
1C08
330
1F
100
AcDbEntity
  8
２，細線
100
AcDbLine
 10
796.2393577836238
 20
943.6249031337194
 30
0.0
 11
795.7355703526559
 21
943.1211157027515
 31
0.0
  0
ARC
  5
1C09
330
1F
100
AcDbEntity
  8
２，細線
100
AcDbCircle
 10
795.532251002437
 20
944.332009914906
 30
0.0
 40
1.0
100
AcDbArc
 50
315.0
 51
45.0
  0
LINE
  5
1C0A
330
1F
100
AcDbEntity
  8
２，細線
100
AcDbLine
 10
798.2192567709462
 20
943.0592177087699
 30
0.0
 11
798.723044201914
 21
942.5554302778024
 31
0.0
  0
LINE
  5
1C0B
330
1F
100
AcDbEntity
  8
２，細線
100
AcDbLine
 10
798.7849421958952
 20
943.6249031337194
 30
0.0
 11
799.2887296268633
 21
943.1211157027515
 31
0.0
  0
ARC
  5
1C0C
330
1F
100
AcDbEntity
  8
２，細線
100
AcDbCircle
 10
799.492048977082
 20
944.332009914906
 30
0.0
 40
1.0
100
AcDbArc
 50
135.0
 51
225.0
  0
ARC
  5
1C0D
330
1F
100
AcDbEntity
  8
２，細線
100
AcDbCircle
 10
797.5121499897595
 20
944.332009914906
 30
0.0
 40
2.149999999999999
100
AcDbArc
 50
304.2778475844647
 51
325.7221524155425
  0
ARC
  5
1C0E
330
1F
100
AcDbEntity
  8
２，細線
100
AcDbCircle
 10
797.5121499897595
 20
944.332009914906
 30
0.0
 40
2.149999999999999
100
AcDbArc
 50
34.27784758445749
 51
55.72215241553529
  0
ARC
  5
1C0F
330
1F
100
AcDbEntity
  8
２，細線
100
AcDbCircle
 10
797.5121499897595
 20
944.332009914906
 30
0.0
 40
2.149999999999999
100
AcDbArc
 50
124.2778475844555
 51
145.7221524155424
  0
ARC
  5
1C10
330
1F
100
AcDbEntity
  8
２，細線
100
AcDbCircle
 10
797.5121499897595
 20
944.332009914906
 30
0.0
 40
2.149999999999999
100
AcDbArc
 50
214.2778475844575
 51
235.7221524155352
  0
LINE
  5
1C11
330
1F
100
AcDbEntity
  8
２，細線
100
AcDbLine
 10
796.2393577836238
 20
945.0391166960924
 30
0.0
 11
795.7355703526559
 21
945.5429041270603
 31
0.0
  0
CIRCLE
  5
1C12
330
1F
100
AcDbEntity
  8
1、実線
100
AcDbCircle
 10
797.5191575365559
 20
944.332009914906
 30
0.0
 40
4.15
  0
LINE
  5
1C13
330
1F
100
AcDbEntity
  8
２，細線
100
AcDbLine
 10
798.7849421958952
 20
975.0391166960923
 30
0.0
 11
799.2887296268633
 21
975.5429041270602
 31
0.0
  0
LINE
  5
1C14
330
1F
100
AcDbEntity
  8
２，細線
100
AcDbLine
 10
798.2192567709462
 20
975.6048021210418
 30
0.0
 11
798.723044201914
 21
976.1085895520094
 31
0.0
  0
LINE
  5
1C15
330
1F
100
AcDbEntity
  8
２，細線
100
AcDbLine
 10
796.2393577836238
 20
975.0391166960923
 30
0.0
 11
795.7355703526559
 21
975.5429041270602
 31
0.0
  0
LINE
  5
1C16
330
1F
100
AcDbEntity
  8
２，細線
100
AcDbLine
 10
796.8050432085727
 20
975.6048021210418
 30
0.0
 11
796.3012557776051
 21
976.1085895520094
 31
0.0
  0
ARC
  5
1C17
330
1F
100
AcDbEntity
  8
２，細線
100
AcDbCircle
 10
797.5121499897595
 20
976.3119089022282
 30
0.0
 40
1.0
100
AcDbArc
 50
225.0
 51
315.0
  0
LINE
  5
1C18
330
1F
100
AcDbEntity
  8
２，細線
100
AcDbLine
 10
796.8050432085727
 20
973.05921770877
 30
0.0
 11
796.3012557776051
 21
972.5554302778023
 31
0.0
  0
ARC
  5
1C19
330
1F
100
AcDbEntity
  8
２，細線
100
AcDbCircle
 10
797.5121499897595
 20
972.3521109275836
 30
0.0
 40
1.0
100
AcDbArc
 50
45.0
 51
135.0
  0
LINE
  5
1C1A
330
1F
100
AcDbEntity
  8
２，細線
100
AcDbLine
 10
796.2393577836238
 20
973.6249031337191
 30
0.0
 11
795.7355703526559
 21
973.1211157027516
 31
0.0
  0
ARC
  5
1C1B
330
1F
100
AcDbEntity
  8
２，細線
100
AcDbCircle
 10
795.532251002437
 20
974.3320099149061
 30
0.0
 40
1.0
100
AcDbArc
 50
315.0
 51
45.0
  0
LINE
  5
1C1C
330
1F
100
AcDbEntity
  8
２，細線
100
AcDbLine
 10
798.2192567709462
 20
973.05921770877
 30
0.0
 11
798.723044201914
 21
972.5554302778023
 31
0.0
  0
LINE
  5
1C1D
330
1F
100
AcDbEntity
  8
２，細線
100
AcDbLine
 10
798.7849421958952
 20
973.6249031337191
 30
0.0
 11
799.2887296268633
 21
973.1211157027516
 31
0.0
  0
ARC
  5
1C1E
330
1F
100
AcDbEntity
  8
２，細線
100
AcDbCircle
 10
799.492048977082
 20
974.3320099149061
 30
0.0
 40
1.0
100
AcDbArc
 50
135.0
 51
225.0
  0
ARC
  5
1C1F
330
1F
100
AcDbEntity
  8
２，細線
100
AcDbCircle
 10
797.5121499897595
 20
974.3320099149061
 30
0.0
 40
2.149999999999999
100
AcDbArc
 50
304.2778475844647
 51
325.7221524155425
  0
ARC
  5
1C20
330
1F
100
AcDbEntity
  8
２，細線
100
AcDbCircle
 10
797.5121499897595
 20
974.3320099149061
 30
0.0
 40
2.149999999999999
100
AcDbArc
 50
34.27784758445749
 51
55.72215241553529
  0
ARC
  5
1C21
330
1F
100
AcDbEntity
  8
２，細線
100
AcDbCircle
 10
797.5121499897595
 20
974.3320099149061
 30
0.0
 40
2.149999999999999
100
AcDbArc
 50
124.2778475844555
 51
145.7221524155424
  0
ARC
  5
1C22
330
1F
100
AcDbEntity
  8
２，細線
100
AcDbCircle
 10
797.5121499897595
 20
974.3320099149061
 30
0.0
 40
2.149999999999999
100
AcDbArc
 50
214.2778475844575
 51
235.7221524155352
  0
LINE
  5
1C23
330
1F
100
AcDbEntity
  8
２，細線
100
AcDbLine
 10
796.2393577836238
 20
975.0391166960923
 30
0.0
 11
795.7355703526559
 21
975.5429041270602
 31
0.0
  0
CIRCLE
  5
1C24
330
1F
100
AcDbEntity
  8
1、実線
100
AcDbCircle
 10
797.5191575365559
 20
974.3320099149061
 30
0.0
 40
4.15
  0
LINE
  5
1C2B
330
1F
100
AcDbEntity
  8
1、実線
100
AcDbLine
 10
805.5121499897595
 20
967.8320099149059
 30
0.0
 11
807.5121499897596
 21
967.8320099149059
 31
0.0
  0
LINE
  5
1C2C
330
1F
100
AcDbEntity
  8
1、実線
100
AcDbLine
 10
807.5121499897596
 20
967.8320099149059
 30
0.0
 11
807.5121499897596
 21
955.8320099149057
 31
0.0
  0
LINE
  5
1C2D
330
1F
100
AcDbEntity
  8
1、実線
100
AcDbLine
 10
807.5121499897596
 20
955.8320099149057
 30
0.0
 11
805.5121499897595
 21
955.8320099149057
 31
0.0
  0
LINE
  5
1C31
330
1F
100
AcDbEntity
  8
1、実線
100
AcDbLine
 10
807.5121499897596
 20
965.582009914906
 30
0.0
 11
812.5121499897595
 21
965.582009914906
 31
0.0
  0
LINE
  5
1C32
330
1F
100
AcDbEntity
  8
1、実線
100
AcDbLine
 10
812.5121499897595
 20
965.582009914906
 30
0.0
 11
812.5121499897595
 21
958.0820099149061
 31
0.0
  0
LINE
  5
1C33
330
1F
100
AcDbEntity
  8
1、実線
100
AcDbLine
 10
812.5121499897595
 20
958.0820099149061
 30
0.0
 11
807.5121499897596
 21
958.0820099149061
 31
0.0
  0
LINE
  5
1C34
330
1F
100
AcDbEntity
  8
1、実線
100
AcDbLine
 10
808.5121499897596
 20
965.582009914906
 30
0.0
 11
808.5121499897596
 21
979.832009914906
 31
0.0
  0
ARC
  5
1C48
330
1F
100
AcDbEntity
  8
1、実線
100
AcDbCircle
 10
1124.017102556573
 20
774.1836865792582
 30
0.0
 40
10.41032327512807
100
AcDbArc
 50
67.39138220407888
 51
112.608617795921
  0
LINE
  5
1C49
330
1F
100
AcDbEntity
  8
1、実線
100
AcDbLine
 10
1119.88025187998
 20
782.0940015498997
 30
0.0
 11
1128.180251879981
 21
782.0940015498997
 31
0.0
  0
LINE
  5
1C4A
330
1F
100
AcDbEntity
  8
1、実線
100
AcDbLine
 10
1128.180251879981
 20
782.0940015498997
 30
0.0
 11
1128.019186620875
 21
783.7940015499
 31
0.0
  0
LINE
  5
1C4B
330
1F
100
AcDbEntity
  8
1、実線
100
AcDbLine
 10
1119.88025187998
 20
782.0940015498997
 30
0.0
 11
1120.015018492273
 21
783.7940015499
 31
0.0
  0
LINE
  5
1C4C
330
1F
100
AcDbEntity
  8
1、実線
100
AcDbLine
 10
1128.019186620875
 20
783.7940015499
 30
0.0
 11
1120.015018492273
 21
783.7940015499
 31
0.0
  0
LINE
  5
1C4D
330
1F
100
AcDbEntity
  8
1、実線
100
AcDbLine
 10
1120.230251879982
 20
780.8940015499
 30
0.0
 11
1120.230251879982
 21
780.8940015499
 31
0.0
  0
LINE
  5
1C4E
330
1F
100
AcDbEntity
  8
1、実線
100
AcDbLine
 10
1120.230251879982
 20
780.8940015499
 30
0.0
 11
1120.230251879982
 21
782.0940015499001
 31
0.0
  0
LINE
  5
1C4F
330
1F
100
AcDbEntity
  8
1、実線
100
AcDbLine
 10
1127.83025187998
 20
780.8940015499
 30
0.0
 11
1127.83025187998
 21
782.0940015498997
 31
0.0
  0
ARC
  5
1C50
330
1F
100
AcDbEntity
  8
1、実線
100
AcDbCircle
 10
1154.007104848672
 20
774.1836865792582
 30
0.0
 40
10.41032327512807
100
AcDbArc
 50
67.39138220407888
 51
112.608617795921
  0
LINE
  5
1C51
330
1F
100
AcDbEntity
  8
1、実線
100
AcDbLine
 10
1149.870254172079
 20
782.0940015498997
 30
0.0
 11
1158.17025417208
 21
782.0940015498997
 31
0.0
  0
LINE
  5
1C52
330
1F
100
AcDbEntity
  8
1、実線
100
AcDbLine
 10
1158.17025417208
 20
782.0940015498997
 30
0.0
 11
1158.009188912973
 21
783.7940015499
 31
0.0
  0
LINE
  5
1C53
330
1F
100
AcDbEntity
  8
1、実線
100
AcDbLine
 10
1149.870254172079
 20
782.0940015498997
 30
0.0
 11
1150.005020784371
 21
783.7940015499
 31
0.0
  0
LINE
  5
1C54
330
1F
100
AcDbEntity
  8
1、実線
100
AcDbLine
 10
1158.009188912973
 20
783.7940015499
 30
0.0
 11
1150.005020784371
 21
783.7940015499
 31
0.0
  0
LINE
  5
1C55
330
1F
100
AcDbEntity
  8
1、実線
100
AcDbLine
 10
1150.22025417208
 20
780.8940015499
 30
0.0
 11
1150.22025417208
 21
780.8940015499
 31
0.0
  0
LINE
  5
1C56
330
1F
100
AcDbEntity
  8
1、実線
100
AcDbLine
 10
1150.22025417208
 20
780.8940015499
 30
0.0
 11
1150.22025417208
 21
782.0940015499001
 31
0.0
  0
LINE
  5
1C57
330
1F
100
AcDbEntity
  8
1、実線
100
AcDbLine
 10
1157.82025417208
 20
780.8940015499
 30
0.0
 11
1157.82025417208
 21
782.0940015498997
 31
0.0
  0
LINE
  5
1C6E
330
1F
100
AcDbEntity
  8
0
100
AcDbLine
 10
1669.999999999999
 20
185.0
 30
0.0
 11
1669.999999999999
 21
140.0
 31
0.0
  0
LINE
  5
1C6F
330
1F
100
AcDbEntity
  8
0
100
AcDbLine
 10
1829.999999999999
 20
185.0
 30
0.0
 11
1829.999999999999
 21
140.0
 31
0.0
  0
LINE
  5
1C71
330
1F
100
AcDbEntity
  8
0
100
AcDbLine
 10
1990.0
 20
185.0
 30
0.0
 11
1990.0
 21
140.0
 31
0.0
  0
LINE
  5
1CA8
330
1F
100
AcDbEntity
  8
1、実線
370
     9
100
AcDbLine
 10
1110.512149989759
 20
771.8940015499001
 30
0.0
 11
1117.512149989759
 21
771.8940015499001
 31
0.0
  0
LINE
  5
1CA9
330
1F
100
AcDbEntity
  8
1、実線
370
     9
100
AcDbLine
 10
1101.510191944951
 20
773.8940015499
 30
0.0
 11
1106.512149989759
 21
772.8940015499
 31
0.0
  0
ARC
  5
1CAD
330
1F
100
AcDbEntity
  8
1、実線
370
     9
100
AcDbCircle
 10
1108.512149989759
 20
771.8940015499001
 30
0.0
 40
2.0
100
AcDbArc
 50
0.0
 51
180.0
  0
DIMENSION
  5
1CB3
330
1F
100
AcDbEntity
  8
寸法線1
100
AcDbDimension
  2
*D6
 10
290.5121499897595
 20
891.832009914906
 30
0.0
 11
278.0121499897593
 21
911.8320099149061
 31
0.0
 70
    32
 71
     5
 42
40.0
  3
ISO-25
100
AcDbAlignedDimension
 13
340.5121499897596
 23
931.832009914906
 33
0.0
 14
340.5121499897596
 24
891.832009914906
 34
0.0
 50
90.0
100
AcDbRotatedDimension
  0
DIMENSION
  5
1CEF
330
1F
100
AcDbEntity
  8
寸法線1
100
AcDbDimension
  2
*D7
 10
707.9885804942072
 20
723.8940015498997
 30
0.0
 11
695.4885804942071
 21
548.8940015499001
 31
0.0
 70
    32
 71
     5
 42
349.9999999999996
  3
ISO-25
100
AcDbAlignedDimension
 13
707.9885804942066
 23
373.8940015499001
 33
0.0
 14
707.9885804942072
 24
723.8940015498997
 34
0.0
 50
90.0
100
AcDbRotatedDimension
  0
DIMENSION
  5
1CFD
330
1F
100
AcDbEntity
  8
寸法線1
100
AcDbDimension
  2
*D8
 10
761.0121499897595
 20
429.528909234359
 30
0.0
 11
573.0121499897595
 21
429.528909234359
 31
0.0
 70
   160
 71
     5
 42
375.9999999999998
  3
ISO-25
100
AcDbAlignedDimension
 13
385.0121499897596
 23
411.0419504771774
 33
0.0
 14
761.0121499897595
 24
411.0419504771774
 34
0.0
100
AcDbRotatedDimension
  0
DIMENSION
  5
1D0A
330
1F
100
AcDbEntity
  8
寸法線1
100
AcDbDimension
  2
*D9
 10
999.514112395469
 20
324.8940015499001
 30
0.0
 11
987.014112395469
 21
549.8940015499003
 31
0.0
 70
    32
 71
     5
 42
449.9999999999998
  3
ISO-25
100
AcDbAlignedDimension
 13
1076.512149989759
 23
774.8940015499
 33
0.0
 14
1076.512149989759
 24
324.8940015499001
 34
0.0
 50
90.0
100
AcDbRotatedDimension
  0
DIMENSION
  5
1D17
330
1F
100
AcDbEntity
  8
寸法線1
100
AcDbDimension
  2
*D10
 10
855.5121499897595
 20
319.8940015499001
 30
0.0
 11
843.0121499897595
 21
548.8940015499004
 31
0.0
 70
    32
 71
     5
 42
458.0
  3
ISO-25
100
AcDbAlignedDimension
 13
805.5121499897595
 23
777.8940015499
 33
0.0
 14
805.5121499897596
 24
319.8940015499001
 34
0.0
 50
90.0
100
AcDbRotatedDimension
  0
DIMENSION
  5
1D24
330
1F
100
AcDbEntity
  8
寸法線1
100
AcDbDimension
  2
*D11
 10
855.5121499897595
 20
289.8940015499001
 30
0.0
 11
855.5121499897595
 21
304.8940015499002
 31
0.0
 70
   160
 71
     5
 42
30.0
  3
ISO-25
100
AcDbAlignedDimension
 13
805.5121499897595
 23
319.8940015499001
 33
0.0
 14
800.5121499897596
 24
289.8940015499001
 34
0.0
 50
90.0
100
AcDbRotatedDimension
  0
DIMENSION
  5
1D33
330
1F
100
AcDbEntity
  8
寸法線1
100
AcDbDimension
  2
*D12
 10
893.7062118411414
 20
289.8940015499001
 30
0.0
 11
893.7062118411413
 21
547.7382380429603
 31
0.0
 70
   160
 71
     5
 42
494.7000083044864
  3
ISO-25
100
AcDbAlignedDimension
 13
797.5121499897595
 23
784.5940098543865
 33
0.0
 14
800.5121499897596
 24
289.8940015499001
 34
0.0
 50
90.0
100
AcDbRotatedDimension
1001
ACAD
1000
DSTYLE
1002
{
1070
   271
1070
     0
1002
}
  0
DIMENSION
  5
1D42
330
1F
100
AcDbEntity
  8
寸法線1
100
AcDbDimension
  2
*D13
 10
805.5121499897595
 20
239.8940015499
 30
0.0
 11
573.0121499897595
 21
252.3940015499
 31
0.0
 70
    32
 71
     5
 42
465.0
  3
ISO-25
100
AcDbAlignedDimension
 13
340.5121499897595
 23
319.8940015499001
 33
0.0
 14
805.5121499897595
 24
319.8940015499001
 34
0.0
100
AcDbRotatedDimension
  0
LEADER
  5
1D53
330
1F
100
AcDbEntity
  8
引き出し線
100
AcDbLeader
  3
ISO-25
 76
     2
 10
1090.536667957236
 20
320.8940015499001
 30
0.0
 10
937.6078363374356
 20
217.7236688660044
 30
0.0
1001
ACAD
1000
DSTYLE
1002
{
1070
   147
1040
1.0
1070
    77
1070
     0
1002
}
  0
LEADER
  5
1D54
330
1F
100
AcDbEntity
  8
引き出し線
100
AcDbLeader
  3
ISO-25
 76
     2
 10
1076.381875905397
 20
392.1888498022598
 30
0.0
 10
938.9661764460386
 20
336.1719521420623
 30
0.0
1001
ACAD
1000
DSTYLE
1002
{
1070
   147
1040
1.0
1070
    77
1070
     0
1002
}
  0
LEADER
  5
1D55
330
1F
100
AcDbEntity
  8
引き出し線
100
AcDbLeader
  3
ISO-25
 76
     2
 10
1113.34421554004
 20
494.4481356177188
 30
0.0
 10
939.0944074903352
 20
428.4529727599577
 30
0.0
1001
ACAD
1000
DSTYLE
1002
{
1070
   147
1040
1.0
1070
    77
1070
     0
1002
}
  0
MTEXT
  5
1D57
330
1F
100
AcDbEntity
  8
引き出し線
100
AcDbMText
 10
934.6189523117537
 20
683.0670886767697
 30
0.0
 40
15.0
 41
0.0
 71
     9
 72
     1
  1

 73
     1
 44
1.0
1001
ACAD
1000
MTEXTBEGIN
1070
    73
1070
     1
1070
    44
1040
1.0
1070
    74
1070
     0
1000
MTEXTEND
  0
LEADER
  5
1D59
330
1F
100
AcDbEntity
  8
引き出し線
100
AcDbLeader
  3
ISO-25
 76
     2
 10
1140.414978041557
 20
780.7477728545165
 30
0.0
 10
937.3086356228286
 20
929.0510330483916
 30
0.0
1001
ACAD
1000
DSTYLE
1002
{
1070
   147
1040
1.0
1070
    77
1070
     0
1002
}
  0
LEADER
  5
1D5B
330
1F
100
AcDbEntity
  8
引き出し線
100
AcDbLeader
  3
ISO-25
 76
     2
 10
1361.70648495474
 20
778.2173298834053
 30
0.0
 10
1398.664834344302
 20
847.5400420440717
 30
0.0
1001
ACAD
1000
DSTYLE
1002
{
1070
   147
1040
1.0
1070
    77
1070
     0
1002
}
  0
LINE
  5
1D63
330
1F
100
AcDbEntity
  8
引き出し線
100
AcDbLine
 10
700.4946738826747
 20
926.7410850975307
 30
0.0
 11
914.8063706730459
 21
1087.650598913618
 31
0.0
  0
LEADER
  5
1D64
330
1F
100
AcDbEntity
  8
引き出し線
100
AcDbLeader
  3
ISO-25
 76
     2
 10
551.8554281146897
 20
679.0429138344761
 30
0.0
 10
446.4461356349147
 20
809.0203296202252
 30
0.0
1001
ACAD
1000
DSTYLE
1002
{
1070
   147
1040
1.0
1070
    77
1070
     0
1002
}
  0
LEADER
  5
1D65
330
1F
100
AcDbEntity
  8
引き出し線
100
AcDbLeader
  3
ISO-25
 76
     2
 10
597.7921442927445
 20
646.078676484552
 30
0.0
 10
536.681143170125
 20
806.8079475242482
 30
0.0
1001
ACAD
1000
DSTYLE
1002
{
1070
   147
1040
1.0
1070
    77
1070
     0
1002
}
  0
CIRCLE
  5
1D6B
330
1F
100
AcDbEntity
  8
0
100
AcDbCircle
 10
337.5093100554286
 20
819.8940015499001
 30
0.0
 40
14.0
  0
TEXT
  5
1D6C
330
1F
100
AcDbEntity
  8
0
100
AcDbText
 10
328.8536341214109
 20
813.3270914543951
 30
0.0
 40
12.0
  1
12
100
AcDbText
  0
LEADER
  5
1D6E
330
1F
100
AcDbEntity
  8
引き出し線
100
AcDbLeader
  3
ISO-25
 76
     2
 10
372.8200315202211
 20
664.3267363859827
 30
0.0
 10
340.6082104636114
 20
806.2412796139577
 30
0.0
1001
ACAD
1000
DSTYLE
1002
{
1070
   147
1040
1.0
1070
    77
1070
     0
1002
}
  0
LEADER
  5
1D6F
330
1F
100
AcDbEntity
  8
引き出し線
100
AcDbLeader
  3
ISO-25
 76
     2
 10
647.179060616153
 20
373.2616904044101
 30
0.0
 10
699.9023100636494
 20
189.9431155970134
 30
0.0
1001
ACAD
1000
DSTYLE
1002
{
1070
   147
1040
1.0
1070
    77
1070
     0
1002
}
  0
LEADER
  5
1D70
330
1F
100
AcDbEntity
  8
引き出し線
100
AcDbLeader
  3
ISO-25
 76
     2
 10
1474.014112395469
 20
289.8940015499001
 30
0.0
 10
1392.752818387995
 20
245.4361822850448
 30
0.0
1001
ACAD
1000
DSTYLE
1002
{
1070
   147
1040
1.0
1070
    77
1070
     0
1002
}
  0
ARC
  5
1DA4
330
1F
100
AcDbEntity
  8
1、実線
100
AcDbCircle
 10
797.5121499897595
 20
774.1836865792584
 30
0.0
 40
10.41032327512807
100
AcDbArc
 50
67.39138220407894
 51
112.608617795921
  0
LINE
  5
1DA5
330
1F
100
AcDbEntity
  8
1、実線
100
AcDbLine
 10
793.3752993131669
 20
782.0940015498998
 30
0.0
 11
801.6752993131671
 21
782.0940015498998
 31
0.0
  0
LINE
  5
1DA6
330
1F
100
AcDbEntity
  8
1、実線
100
AcDbLine
 10
801.6752993131671
 20
782.0940015498998
 30
0.0
 11
801.5142340540606
 21
783.7940015499002
 31
0.0
  0
LINE
  5
1DA7
330
1F
100
AcDbEntity
  8
1、実線
100
AcDbLine
 10
793.3752993131669
 20
782.0940015498998
 30
0.0
 11
793.5100659254585
 21
783.7940015499002
 31
0.0
  0
LINE
  5
1DA8
330
1F
100
AcDbEntity
  8
1、実線
100
AcDbLine
 10
801.5142340540606
 20
783.7940015499002
 30
0.0
 11
793.5100659254585
 21
783.7940015499002
 31
0.0
  0
LINE
  5
1DA9
330
1F
100
AcDbEntity
  8
1、実線
100
AcDbLine
 10
793.7252993131672
 20
780.8940015499
 30
0.0
 11
793.7252993131672
 21
780.8940015499
 31
0.0
  0
LINE
  5
1DAA
330
1F
100
AcDbEntity
  8
1、実線
100
AcDbLine
 10
793.7252993131672
 20
780.8940015499
 30
0.0
 11
793.7252993131672
 21
782.0940015499002
 31
0.0
  0
LINE
  5
1DAB
330
1F
100
AcDbEntity
  8
1、実線
100
AcDbLine
 10
801.3252993131672
 20
780.8940015499
 30
0.0
 11
801.3252993131672
 21
782.0940015498998
 31
0.0
  0
LINE
  5
1DCD
330
1F
100
AcDbEntity
  8
0
100
AcDbLine
 10
1549.999999999999
 20
185.0
 30
0.0
 11
1549.999999999999
 21
139.9999999999999
 31
0.0
  0
LEADER
  5
1DE4
330
1F
100
AcDbEntity
  8
引き出し線
100
AcDbLeader
  3
ISO-25
 76
     2
 10
1049.514112395468
 20
620.1561387715752
 30
0.0
 10
938.0258913317057
 20
686.6482768243895
 30
0.0
1001
ACAD
1000
DSTYLE
1002
{
1070
   147
1040
1.0
1070
    77
1070
     0
1002
}
  0
LEADER
  5
1DF7
330
1F
100
AcDbEntity
  8
引き出し線
100
AcDbLeader
  3
ISO-25
 76
     2
 10
1483.762149989758
 20
644.9940015499
 30
0.0
 10
1604.442889586528
 20
722.7639304719985
 30
0.0
1001
ACAD
1000
DSTYLE
1002
{
1070
   147
1040
1.0
1070
    77
1070
     0
1002
}
  0
LEADER
  5
1DF9
330
1F
100
AcDbEntity
  8
引き出し線
100
AcDbLeader
  3
ISO-25
 76
     2
 10
1444.293684415552
 20
723.9020703082457
 30
0.0
 10
1490.826602748531
 20
846.80107301801
 30
0.0
1001
ACAD
1000
DSTYLE
1002
{
1070
   147
1040
1.0
1070
    77
1070
     0
1002
}
  0
LEADER
  5
1DFB
330
1F
100
AcDbEntity
  8
引き出し線
100
AcDbLeader
  3
ISO-25
 76
     2
 10
1249.755138077223
 20
724.8940015499
 30
0.0
 10
1198.680159740143
 20
846.9786885402735
 30
0.0
1001
ACAD
1000
DSTYLE
1002
{
1070
   147
1040
1.0
1070
    77
1070
     0
1002
}
  0
DIMENSION
  5
1E11
330
1F
100
AcDbEntity
  8
寸法線1
100
AcDbDimension
  2
*D14
 10
1049.514112395468
 20
809.8940015499
 30
0.0
 11
1007.014112395468
 21
822.3940015499
 31
0.0
 70
    32
 71
     5
 42
26.99803759429073
  3
ISO-25
100
AcDbAlignedDimension
 13
1076.512149989759
 23
774.8940015499002
 33
0.0
 14
1049.514112395468
 24
639.5578790516629
 34
0.0
100
AcDbRotatedDimension
  0
LINE
  5
1E6C
330
1F
100
AcDbEntity
  8
1、実線
100
AcDbLine
 10
1141.012149989759
 20
708.3940015499002
 30
0.0
 11
1154.012149989759
 21
708.3940015499002
 31
0.0
  0
ARC
  5
1E6D
330
1F
100
AcDbEntity
  8
1、実線
100
AcDbCircle
 10
1141.012149989759
 20
707.3940015499
 30
0.0
 40
1.0
100
AcDbArc
 50
90.0
 51
180.0
  0
LINE
  5
1E6E
330
1F
100
AcDbEntity
  8
1、実線
100
AcDbLine
 10
1155.012149989759
 20
707.3940015499
 30
0.0
 11
1155.012149989759
 21
688.3940015499002
 31
0.0
  0
ARC
  5
1E6F
330
1F
100
AcDbEntity
  8
1、実線
100
AcDbCircle
 10
1154.012149989759
 20
707.3940015499
 30
0.0
 40
1.0
100
AcDbArc
 50
0.0
 51
90.0
  0
LINE
  5
1E70
330
1F
100
AcDbEntity
  8
1、実線
100
AcDbLine
 10
1154.012149989759
 20
687.3940015499002
 30
0.0
 11
1141.012149989759
 21
687.3940015499002
 31
0.0
  0
ARC
  5
1E71
330
1F
100
AcDbEntity
  8
1、実線
100
AcDbCircle
 10
1154.012149989759
 20
688.3940015499002
 30
0.0
 40
1.0
100
AcDbArc
 50
270.0
 51
0.0
  0
LINE
  5
1E72
330
1F
100
AcDbEntity
  8
1、実線
100
AcDbLine
 10
1140.012149989759
 20
688.3940015499002
 30
0.0
 11
1140.012149989759
 21
707.3940015499
 31
0.0
  0
ARC
  5
1E73
330
1F
100
AcDbEntity
  8
1、実線
100
AcDbCircle
 10
1141.012149989759
 20
688.3940015499002
 30
0.0
 40
1.0
100
AcDbArc
 50
180.0
 51
270.0
  0
LINE
  5
1E74
330
1F
100
AcDbEntity
  8
1、実線
100
AcDbLine
 10
1142.262149989759
 20
705.6440015499
 30
0.0
 11
1152.762149989759
 21
705.6440015499
 31
0.0
  0
LINE
  5
1E75
330
1F
100
AcDbEntity
  8
1、実線
100
AcDbLine
 10
1152.762149989759
 20
705.6440015499
 30
0.0
 11
1152.762149989759
 21
690.1440015499002
 31
0.0
  0
LINE
  5
1E76
330
1F
100
AcDbEntity
  8
1、実線
100
AcDbLine
 10
1152.762149989759
 20
690.1440015499002
 30
0.0
 11
1142.262149989759
 21
690.1440015499002
 31
0.0
  0
LINE
  5
1E77
330
1F
100
AcDbEntity
  8
1、実線
100
AcDbLine
 10
1142.262149989759
 20
690.1440015499002
 30
0.0
 11
1142.262149989759
 21
705.6440015499
 31
0.0
  0
LINE
  5
1E78
330
1F
100
AcDbEntity
  8
1、実線
100
AcDbLine
 10
1142.262149989759
 20
702.3940015499
 30
0.0
 11
1152.762149989759
 21
702.3940015499
 31
0.0
  0
LEADER
  5
1E7B
330
1F
100
AcDbEntity
  8
寸法線1
100
AcDbLeader
  3
ISO-25
 76
     2
 10
1140.012149989759
 20
697.8940015499
 30
0.0
 10
939.3582724946462
 20
760.9357389044864
 30
0.0
1001
ACAD
1000
DSTYLE
1002
{
1070
   147
1040
1.0
1070
    77
1070
     0
1002
}
  0
LINE
  5
1E95
330
1F
100
AcDbEntity
  8
1、実線
100
AcDbLine
 10
805.5121499897595
 20
708.3940015499002
 30
0.0
 11
806.5121499897596
 21
708.3940015499002
 31
0.0
  0
ARC
  5
1E96
330
1F
100
AcDbEntity
  8
1、実線
100
AcDbCircle
 10
806.5121499897596
 20
707.3940015499
 30
0.0
 40
1.0
100
AcDbArc
 50
0.0
 51
90.0
  0
LINE
  5
1E97
330
1F
100
AcDbEntity
  8
1、実線
100
AcDbLine
 10
807.5121499897596
 20
707.3940015499
 30
0.0
 11
807.5121499897596
 21
688.3940015499002
 31
0.0
  0
LINE
  5
1E98
330
1F
100
AcDbEntity
  8
1、実線
100
AcDbLine
 10
806.5121499897596
 20
687.3940015499002
 30
0.0
 11
805.5121499897595
 21
687.3940015499002
 31
0.0
  0
ARC
  5
1E99
330
1F
100
AcDbEntity
  8
1、実線
100
AcDbCircle
 10
806.5121499897596
 20
688.3940015499002
 30
0.0
 40
1.0
100
AcDbArc
 50
270.0
 51
0.0
  0
LINE
  5
1E9A
330
1F
100
AcDbEntity
  8
1、実線
100
AcDbLine
 10
805.5121499897595
 20
687.3940015499002
 30
0.0
 11
805.5121499897595
 21
708.3940015499002
 31
0.0
  0
ARC
  5
1E9B
330
1F
100
AcDbEntity
  8
1、実線
100
AcDbCircle
 10
825.6962026346881
 20
691.3678972110501
 30
0.0
 40
18.0
100
AcDbArc
 50
142.2250632813834
 51
183.2250488777305
  0
ARC
  5
1E9C
330
1F
100
AcDbEntity
  8
1、実線
100
AcDbCircle
 10
807.5250266222482
 20
690.3440015499
 30
0.0
 40
0.2
100
AcDbArc
 50
269.9999999999348
 51
3.225048877724162
  0
ARC
  5
1E9D
330
1F
100
AcDbEntity
  8
1、実線
100
AcDbCircle
 10
798.5201608802307
 20
689.9476427098561
 30
0.0
 40
18.0
100
AcDbArc
 50
43.7461393051831
 51
60.02943987050944
  0
LINE
  5
1E9E
330
1F
100
AcDbEntity
  8
1、実線
100
AcDbLine
 10
807.5121499897596
 20
690.1440015499002
 30
0.0
 11
807.5250266222482
 21
690.1440015498999
 31
0.0
  0
TEXT
  5
1F01
330
1F
100
AcDbEntity
  8
0
100
AcDbText
 10
1851.961116250375
 20
1239.367499442213
 30
0.0
 40
15.0
  1
EPT
100
AcDbText
  0
TEXT
  5
1F0C
330
1F
100
AcDbEntity
  8
0
100
AcDbText
 10
1987.081669583164
 20
1015.204437576032
 30
0.0
 40
14.0
  1

100
AcDbText
  0
LINE
  5
1F0D
330
1F
100
AcDbEntity
  8
引き出し線
100
AcDbLine
 10
913.1289789984311
 20
336.3904468943171
 30
0.0
 11
779.9088302424052
 21
393.3430792258367
 31
0.0
  0
CIRCLE
  5
1F13
330
1F
100
AcDbEntity
  8
0
100
AcDbCircle
 10
926.0019624057092
 20
937.3068879866323
 30
0.0
 40
14.0
  0
TEXT
  5
1F14
330
1F
100
AcDbEntity
  8
0
100
AcDbText
 10
922.1731760755822
 20
931.1604083981379
 30
0.0
 40
12.0
  1
5
100
AcDbText
  0
LINE
  5
1F16
330
1F
100
AcDbEntity
  8
引き出し線
100
AcDbLine
 10
798.4046532509665
 20
920.5550931403688
 30
0.0
 11
912.1210776661966
 21
935.4845162220447
 31
0.0
  0
TEXT
  5
1F29
330
1F
100
AcDbEntity
  8
0
100
AcDbText
 10
1850.400183925281
 20
1364.963302414131
 30
0.0
 40
15.0
  1
SPCC 塗装
100
AcDbText
  0
TEXT
  5
1F2A
330
1F
100
AcDbEntity
  8
0
100
AcDbText
 10
1850.400183925281
 20
1339.963302414131
 30
0.0
 40
15.0
  1
SPCC 塗装
100
AcDbText
  0
TEXT
  5
1F2B
330
1F
100
AcDbEntity
  8
0
100
AcDbText
 10
1850.400183925281
 20
1289.963302414131
 30
0.0
 40
15.0
  1
SPCC 塗装
100
AcDbText
  0
TEXT
  5
1F2C
330
1F
100
AcDbEntity
  8
0
100
AcDbText
 10
1850.400183925281
 20
1264.963302414131
 30
0.0
 40
15.0
  1
SPCC 塗装
100
AcDbText
  0
TEXT
  5
1FE8
330
1F
100
AcDbEntity
  8
文字
 62
     2
100
AcDbText
 10
1967.749764725897
 20
1164.086366371492
 30
0.0
 40
11.04999999999999
  1
2
100
AcDbText
  0
LINE
  5
1FE9
330
1F
100
AcDbEntity
  8
0
 62
     2
100
AcDbLine
 10
1971.580056718583
 20
1182.505896754706
 30
0.0
 11
1960.080056718583
 21
1162.505896754706
 31
0.0
  0
LINE
  5
1FEA
330
1F
100
AcDbEntity
  8
0
 62
     2
100
AcDbLine
 10
1960.080056718583
 20
1162.505896754706
 30
0.0
 11
1983.080056718582
 21
1162.505896754706
 31
0.0
  0
LINE
  5
1FEB
330
1F
100
AcDbEntity
  8
0
 62
     2
100
AcDbLine
 10
1983.080056718582
 20
1162.505896754706
 30
0.0
 11
1971.580056718583
 21
1182.505896754706
 31
0.0
  0
TEXT
  5
1FEC
330
1F
100
AcDbEntity
  8
0
 62
     2
100
AcDbText
 10
1989.592456624904
 20
1165.147600174049
 30
0.0
 40
15.0
  1
10Ａ
100
AcDbText
  0
LINE
  5
1FED
330
1F
100
AcDbEntity
  8
0
 62
     2
100
AcDbLine
 10
1985.470777736054
 20
1175.539790846763
 30
0.0
 11
2025.870110738468
 21
1175.539790846763
 31
0.0
  0
LINE
  5
1FEE
330
1F
100
AcDbEntity
  8
0
 62
     2
100
AcDbLine
 10
1985.470777736054
 20
1169.545424079223
 30
0.0
 11
2025.870110738468
 21
1169.545424079223
 31
0.0
  0
LINE
  5
1FEF
330
1F
100
AcDbEntity
  8
0
370
    40
100
AcDbLine
 10
2049.999999999999
 20
50.0
 30
0.0
 11
2049.999999999999
 21
190.0
 31
0.0
  0
LINE
  5
1FF0
330
1F
100
AcDbEntity
  8
0
370
    60
100
AcDbLine
 10
2049.999999999999
 20
1435.0
 30
0.0
 11
124.9999999999997
 21
1435.0
 31
0.0
  0
LINE
  5
1FF1
330
1F
100
AcDbEntity
  8
0
370
    40
100
AcDbLine
 10
1149.999999999999
 20
50.0
 30
0.0
 11
2049.999999999999
 21
50.0
 31
0.0
  0
LINE
  5
1FF2
330
1F
100
AcDbEntity
  8
0
370
    60
100
AcDbLine
 10
124.9999999999997
 20
1435.0
 30
0.0
 11
125.0
 21
50.0
 31
0.0
  0
LINE
  5
1FF3
330
1F
100
AcDbEntity
  8
0
370
    60
100
AcDbLine
 10
2049.999999999999
 20
50.0
 30
0.0
 11
2049.999999999999
 21
1435.0
 31
0.0
  0
LINE
  5
1FF4
330
1F
100
AcDbEntity
  8
0
370
    60
100
AcDbLine
 10
125.0
 20
50.0
 30
0.0
 11
2049.999999999999
 21
50.0
 31
0.0
  0
LINE
  5
1FF5
330
1F
100
AcDbEntity
  8
0
100
AcDbLine
 10
1593.264875116391
 20
177.6035487318722
 30
0.0
 11
1563.264875116391
 21
147.6035487318722
 31
0.0
  0
TEXT
  5
1FF6
330
1F
100
AcDbEntity
  8
0
100
AcDbText
 10
1416.539483194975
 20
52.97426044770901
 30
0.0
 40
18.74999999999999
  1
承　認
100
AcDbText
  0
TEXT
  5
1FF7
330
1F
100
AcDbEntity
  8
0
100
AcDbText
 10
1161.601802983646
 20
52.83645629773531
 30
0.0
 40
18.74999999999999
  1
設　計
100
AcDbText
  0
TEXT
  5
1FF8
330
1F
100
AcDbEntity
  8
0
100
AcDbText
 10
1331.770291827057
 20
53.4074769116921
 30
0.0
 40
18.75
  1
検　図
100
AcDbText
  0
TEXT
  5
1FF9
330
1F
100
AcDbEntity
  8
0
100
AcDbText
 10
1247.171721457715
 20
53.05747398543076
 30
0.0
 40
18.74999999999999
  1
製　図
100
AcDbText
  0
TEXT
  5
1FFA
330
1F
100
AcDbEntity
  8
0
100
AcDbText
 10
1501.100179046648
 20
119.9203592645406
 30
0.0
 40
18.75
  1
品
100
AcDbText
  0
TEXT
  5
1FFB
330
1F
100
AcDbEntity
  8
0
100
AcDbText
 10
1501.100172087969
 20
97.38742760635517
 30
0.0
 40
18.75
  1
名
100
AcDbText
  0
TEXT
  5
1FFC
330
1F
100
AcDbEntity
  8
0
100
AcDbText
 10
1499.634682882888
 20
153.7094889827877
 30
0.0
 40
18.75
  1
尺度
100
AcDbText
  0
TEXT
  5
1FFD
330
1F
100
AcDbEntity
  8
0
100
AcDbText
 10
1779.486713016406
 20
153.4450875062742
 30
0.0
 40
18.75000000000002
  1
処理
100
AcDbText
  0
TEXT
  5
1FFE
330
1F
100
AcDbEntity
  8
0
100
AcDbText
 10
1811.465761561607
 20
74.85663780828045
 30
0.0
 40
18.75
  1
図
100
AcDbText
  0
TEXT
  5
1FFF
330
1F
100
AcDbEntity
  8
0
100
AcDbText
 10
1811.132760929726
 20
52.23409715659925
 30
0.0
 40
18.75
  1
番
100
AcDbText
  0
TEXT
  5
2000
330
1F
100
AcDbEntity
  8
0
100
AcDbText
 10
1621.36834380982
 20
152.5367400269248
 30
0.0
 40
18.75000000000002
  1
材質
100
AcDbText
  0
TEXT
  5
2001
330
1F
100
AcDbEntity
  8
0
100
AcDbText
 10
1938.812193497913
 20
152.627705221663
 30
0.0
 40
18.75000000000002
  1
個数
100
AcDbText
  0
LINE
  5
2002
330
1F
100
AcDbEntity
  8
0
100
AcDbLine
 10
1489.999999999999
 20
95.0
 30
0.0
 11
2049.999999999999
 21
95.0
 31
0.0
  0
LINE
  5
2003
330
1F
100
AcDbEntity
  8
0
100
AcDbLine
 10
1489.999999999999
 20
140.0
 30
0.0
 11
2049.999999999999
 21
140.0
 31
0.0
  0
LINE
  5
2004
330
1F
100
AcDbEntity
  8
0
100
AcDbLine
 10
1489.999999999999
 20
185.0
 30
0.0
 11
1489.999999999999
 21
50.0
 31
0.0
  0
LINE
  5
2005
330
1F
100
AcDbEntity
  8
0
100
AcDbLine
 10
1529.999999999999
 20
140.0
 30
0.0
 11
1529.999999999999
 21
95.0
 31
0.0
  0
LINE
  5
2006
330
1F
100
AcDbEntity
  8
0
100
AcDbLine
 10
1799.999999999999
 20
140.0
 30
0.0
 11
1799.999999999999
 21
50.0
 31
0.0
  0
LINE
  5
2007
330
1F
100
AcDbEntity
  8
0
100
AcDbLine
 10
1839.999999999999
 20
140.0
 30
0.0
 11
1839.999999999999
 21
50.0
 31
0.0
  0
LINE
  5
200A
330
1F
100
AcDbEntity
  8
0
100
AcDbLine
 10
1609.999999999999
 20
185.0
 30
0.0
 11
1609.999999999999
 21
140.0
 31
0.0
  0
LINE
  5
200C
330
1F
100
AcDbEntity
  8
0
100
AcDbLine
 10
1769.999999999999
 20
185.0
 30
0.0
 11
1769.999999999999
 21
140.0
 31
0.0
  0
LINE
  5
200E
330
1F
100
AcDbEntity
  8
0
100
AcDbLine
 10
1929.999999999999
 20
185.0
 30
0.0
 11
1929.999999999999
 21
140.0
 31
0.0
  0
LINE
  5
2010
330
1F
100
AcDbEntity
  8
0
370
    60
100
AcDbLine
 10
2049.999999999999
 20
185.0
 30
0.0
 11
824.9999999999994
 21
184.9999999999999
 31
0.0
  0
LINE
  5
2012
330
1F
100
AcDbEntity
  8
0
100
AcDbLine
 10
1149.999999999999
 20
75.0
 30
0.0
 11
1489.999999999999
 21
75.0
 31
0.0
  0
LINE
  5
2013
330
1F
100
AcDbEntity
  8
0
100
AcDbLine
 10
1234.999999999999
 20
157.4999999999999
 30
0.0
 11
1234.999999999999
 21
50.0
 31
0.0
  0
LINE
  5
2014
330
1F
100
AcDbEntity
  8
0
100
AcDbLine
 10
1319.999999999999
 20
157.4999999999998
 30
0.0
 11
1319.999999999999
 21
50.0
 31
0.0
  0
TEXT
  5
2015
330
1F
100
AcDbEntity
  8
0
100
AcDbText
 10
1168.411181477071
 20
160.1806902627276
 30
0.0
 40
20.0
  1
作 成 日
100
AcDbText
1001
ACAD
1000
ACAD_MTEXT_DEFINED_HEIGHT_BEGIN
1070
    46
1040
0.0
1000
ACAD_MTEXT_DEFINED_HEIGHT_END
1000
MTEXTBEGIN
1070
    73
1070
     1
1070
    44
1040
1.0
1070
    74
1070
     0
1000
MTEXTEND
  0
LINE
  5
2016
330
1F
100
AcDbEntity
  8
0
100
AcDbLine
 10
1277.499999999999
 20
185.0
 30
0.0
 11
1277.499999999999
 21
157.4999999999998
 31
0.0
  0
LINE
  5
2017
330
1F
100
AcDbEntity
  8
0
100
AcDbLine
 10
1404.999999999999
 20
157.4999999999997
 30
0.0
 11
1404.999999999999
 21
50.0
 31
0.0
  0
TEXT
  5
2018
330
1F
100
AcDbEntity
  8
0
100
AcDbText
 10
1810.763072021926
 20
120.0525043308613
 30
0.0
 40
18.74999999999998
  1
型
100
AcDbText
  0
TEXT
  5
2019
330
1F
100
AcDbEntity
  8
0
100
AcDbText
 10
1811.156898468229
 20
97.45233899539071
 30
0.0
 40
18.75
  1
式
100
AcDbText
  0
ELLIPSE
  5
201A
330
1F
100
AcDbEntity
  8
0
100
AcDbEllipse
 10
1349.999999999999
 20
170.3403396681379
 30
0.0
 11
-1.767766952966422
 21
1.767766952966423
 31
0.0
210
0.0
220
0.0
230
1.0
 40
0.9999999999999385
 41
3.926990816987272
 42
10.21017612416685
  0
ELLIPSE
  5
201B
330
1F
100
AcDbEntity
  8
0
100
AcDbEllipse
 10
1419.999999999999
 20
170.3403396681379
 30
0.0
 11
-1.767766952966422
 21
1.767766952966423
 31
0.0
210
0.0
220
0.0
230
1.0
 40
0.9999999999999385
 41
3.926990816987272
 42
10.21017612416685
  0
ELLIPSE
  5
201C
330
1F
100
AcDbEntity
  8
0
100
AcDbEllipse
 10
1349.999999999999
 20
170.3403396681379
 30
0.0
 11
1.414213562373015
 21
1.414213562373015
 31
0.0
210
0.0
220
0.0
230
1.0
 40
0.9999999999999847
 41
5.497787143782129
 42
11.78097245096171
  0
ELLIPSE
  5
201D
330
1F
100
AcDbEntity
  8
0
100
AcDbEllipse
 10
1349.999999999999
 20
170.3403396681379
 30
0.0
 11
-1.06066017177987
 21
1.06066017177987
 31
0.0
210
0.0
220
0.0
230
1.0
 40
0.9999999999998884
 41
3.926990816987297
 42
10.21017612416688
  0
ELLIPSE
  5
201E
330
1F
100
AcDbEntity
  8
0
100
AcDbEllipse
 10
1349.999999999999
 20
170.3403396681379
 30
0.0
 11
-0.7071067811864902
 21
0.7071067811864903
 31
0.0
210
0.0
220
0.0
230
1.0
 40
0.9999999999999346
 41
3.926990816987274
 42
10.21017612416686
  0
ELLIPSE
  5
201F
330
1F
100
AcDbEntity
  8
0
100
AcDbEllipse
 10
1349.999999999999
 20
170.3403396681379
 30
0.0
 11
-0.3535533905932819
 21
0.353553390593282
 31
0.0
210
0.0
220
0.0
230
1.0
 40
0.9999999999999531
 41
3.926990816987264
 42
10.21017612416684
  0
ELLIPSE
  5
2020
330
1F
100
AcDbEntity
  8
0
100
AcDbEllipse
 10
1419.999999999999
 20
170.3403396681379
 30
0.0
 11
-1.767766952966422
 21
1.767766952966423
 31
0.0
210
0.0
220
0.0
230
1.0
 40
0.9999999999999385
 41
3.926990816987272
 42
10.21017612416685
  0
ELLIPSE
  5
2021
330
1F
100
AcDbEntity
  8
0
100
AcDbEllipse
 10
1419.999999999999
 20
170.3403396681379
 30
0.0
 11
-1.414213562373078
 21
1.414213562373078
 31
0.0
210
0.0
220
0.0
230
1.0
 40
0.9999999999998955
 41
3.926990816987293
 42
10.21017612416688
  0
ELLIPSE
  5
2022
330
1F
100
AcDbEntity
  8
0
100
AcDbEllipse
 10
1419.999999999999
 20
170.3403396681379
 30
0.0
 11
-1.06066017177987
 21
1.06066017177987
 31
0.0
210
0.0
220
0.0
230
1.0
 40
0.9999999999998884
 41
3.926990816987297
 42
10.21017612416688
  0
ELLIPSE
  5
2023
330
1F
100
AcDbEntity
  8
0
100
AcDbEllipse
 10
1419.999999999999
 20
170.3403396681379
 30
0.0
 11
-0.7071067811864902
 21
0.7071067811864903
 31
0.0
210
0.0
220
0.0
230
1.0
 40
0.9999999999999346
 41
3.926990816987274
 42
10.21017612416686
  0
ELLIPSE
  5
2024
330
1F
100
AcDbEntity
  8
0
100
AcDbEllipse
 10
1419.999999999999
 20
170.3403396681379
 30
0.0
 11
-0.3535533905932819
 21
0.353553390593282
 31
0.0
210
0.0
220
0.0
230
1.0
 40
0.9999999999999531
 41
3.926990816987264
 42
10.21017612416684
  0
TEXT
  5
2025
330
1F
100
AcDbEntity
  8
0
100
AcDbText
 10
1522.49724149632
 20
60.15344234932341
 30
0.0
 40
25.0
  1
株式会社 アンナカ
100
AcDbText
1001
ACAD
1000
MTEXTBEGIN
1070
    73
1070
     1
1070
    44
1040
1.0
1070
    74
1070
     0
1000
MTEXTEND
  0
LINE
  5
2026
330
1F
100
AcDbEntity
  8
0
100
AcDbLine
 10
1149.999999999999
 20
185.0
 30
0.0
 11
1149.999999999999
 21
50.0
 31
0.0
  0
LINE
  5
2027
330
1F
100
AcDbEntity
  8
0
100
AcDbLine
 10
824.9999999999996
 20
75.0
 30
0.0
 11
1489.999999999999
 21
75.0
 31
0.0
  0
TEXT
  5
2028
330
1F
100
AcDbEntity
  8
文字
100
AcDbText
 10
845.2121350091429
 20
78.1434576269719
 30
0.0
 40
13.81249999999999
  1
2
100
AcDbText
  0
TEXT
  5
2029
330
1F
100
AcDbEntity
  8
文字
100
AcDbText
 10
878.8176099336801
 20
79.67020803524452
 30
0.0
 40
15.0
  1
2020.03.03
 41
0.4611175258696598
  7
ED_VECTOR
 72
     5
 11
945.6796511847809
 21
79.67020803524452
 31
0.0
100
AcDbText
  0
TEXT
  5
202A
330
1F
100
AcDbEntity
  8
文字
100
AcDbText
 10
1108.379032241803
 20
80.8249270529925
 30
0.0
 40
15.0
  1
福田
 41
1.037607926710851
  7
ED_VECTOR
 72
     5
 11
1140.54487796984
 21
80.8249270529925
 31
0.0
100
AcDbText
  0
LINE
  5
202B
330
1F
100
AcDbEntity
  8
0
370
    60
100
AcDbLine
 10
824.9999999999996
 20
50.00000000000023
 30
0.0
 11
824.9999999999994
 21
184.9999999999999
 31
0.0
  0
LINE
  5
202C
330
1F
100
AcDbEntity
  8
0
100
AcDbLine
 10
1149.999999999999
 20
102.4999999999999
 30
0.0
 11
824.9999999999996
 21
102.5000000000002
 31
0.0
  0
LINE
  5
202D
330
1F
100
AcDbEntity
  8
0
100
AcDbLine
 10
1099.999999999999
 20
50.00000000000006
 30
0.0
 11
1099.999999999999
 21
184.9999999999999
 31
0.0
  0
TEXT
  5
202E
330
1F
100
AcDbEntity
  8
0
100
AcDbText
 10
833.2736037532255
 20
54.6754150197911
 30
0.0
 40
15.625
  1
記号
100
AcDbText
1001
ACAD
1000
MTEXTBEGIN
1070
    73
1070
     1
1070
    44
1040
1.0
1070
    74
1070
     0
1000
MTEXTEND
  0
TEXT
  5
202F
330
1F
100
AcDbEntity
  8
0
100
AcDbText
 10
887.2904120312529
 20
54.67541069760875
 30
0.0
 40
15.625
  1
日　付
100
AcDbText
1001
ACAD
1000
MTEXTBEGIN
1070
    73
1070
     1
1070
    44
1040
1.0
1070
    74
1070
     0
1000
MTEXTEND
  0
TEXT
  5
2030
330
1F
100
AcDbEntity
  8
0
100
AcDbText
 10
990.6745980958039
 20
54.67541934197362
 30
0.0
 40
15.625
  1
訂　　正
100
AcDbText
1001
ACAD
1000
MTEXTBEGIN
1070
    73
1070
     1
1070
    44
1040
1.0
1070
    74
1070
     0
1000
MTEXTEND
  0
TEXT
  5
2031
330
1F
100
AcDbEntity
  8
0
100
AcDbText
 10
1108.458732837626
 20
55.04449915990495
 30
0.0
 40
15.625
  1
担当
100
AcDbText
1001
ACAD
1000
MTEXTBEGIN
1070
    73
1070
     1
1070
    44
1040
1.0
1070
    74
1070
     0
1000
MTEXTEND
  0
LINE
  5
2032
330
1F
100
AcDbEntity
  8
0
100
AcDbLine
 10
949.9999999999996
 20
50.00000000000011
 30
0.0
 11
949.9999999999996
 21
185.0
 31
0.0
  0
LINE
  5
2033
330
1F
100
AcDbEntity
  8
0
100
AcDbLine
 10
849.9999999999996
 20
101.1678706059894
 30
0.0
 11
835.6249999999995
 21
76.16787060598949
 31
0.0
  0
LINE
  5
2034
330
1F
100
AcDbEntity
  8
0
100
AcDbLine
 10
835.6249999999995
 20
76.16787060598949
 30
0.0
 11
864.3749999999995
 21
76.16787060598949
 31
0.0
  0
LINE
  5
2035
330
1F
100
AcDbEntity
  8
0
100
AcDbLine
 10
864.3749999999995
 20
76.16787060598949
 30
0.0
 11
849.9999999999996
 21
101.1678706059894
 31
0.0
  0
LINE
  5
2036
330
1F
100
AcDbEntity
  8
0
100
AcDbLine
 10
1149.999999999999
 20
130.0
 30
0.0
 11
824.9999999999996
 21
130.0000000000002
 31
0.0
  0
LINE
  5
2037
330
1F
100
AcDbEntity
  8
0
100
AcDbLine
 10
1489.999999999999
 20
157.4999999999997
 30
0.0
 11
824.9999999999996
 21
157.5000000000002
 31
0.0
  0
TEXT
  5
2076
330
1F
100
AcDbEntity
  8
文字
 62
     2
100
AcDbText
 10
2020.630447355105
 20
61.96551117393733
 30
0.0
 40
13.81249999999999
  1
2
100
AcDbText
  0
LINE
  5
2077
330
1F
100
AcDbEntity
  8
0
 62
     2
100
AcDbLine
 10
2025.418312345962
 20
84.98992415295495
 30
0.0
 11
2011.043312345962
 21
59.98992415295496
 31
0.0
  0
LINE
  5
2078
330
1F
100
AcDbEntity
  8
0
 62
     2
100
AcDbLine
 10
2011.043312345962
 20
59.98992415295496
 30
0.0
 11
2039.793312345961
 21
59.98992415295496
 31
0.0
  0
LINE
  5
2079
330
1F
100
AcDbEntity
  8
0
 62
     2
100
AcDbLine
 10
2039.793312345961
 20
59.98992415295496
 30
0.0
 11
2025.418312345962
 21
84.98992415295495
 31
0.0
  0
LINE
  5
20A0
330
1F
100
AcDbEntity
  8
0
100
AcDbLine
 10
874.9999999999996
 20
50.00000000000046
 30
0.0
 11
874.9999999999996
 21
185.0000000000002
 31
0.0
  0
DIMENSION
  5
20C5
330
1F
100
AcDbEntity
  8
寸法線1
100
AcDbDimension
  2
*D16
 10
1516.514112395469
 20
809.8940015499
 30
0.0
 11
1566.714853939106
 21
809.8940015499
 31
0.0
 70
   160
 71
     5
 42
3.49999999999909
  3
ISO-25
100
AcDbAlignedDimension
 13
1520.014112395468
 23
771.8940015499001
 33
0.0
 14
1516.514112395469
 24
777.8940015499
 34
0.0
100
AcDbRotatedDimension
  0
DIMENSION
  5
2100
330
1F
100
AcDbEntity
  8
寸法線1
100
AcDbDimension
  2
*D17
 10
252.3180881383776
 20
864.8320099149058
 30
0.0
 11
252.3180881383774
 21
1141.995255950535
 31
0.0
 70
   160
 71
     5
 42
470.5
  3
ISO-25
100
AcDbAlignedDimension
 13
346.5121499897596
 23
1335.332009914905
 33
0.0
 14
362.5121499897596
 24
864.8320099149056
 34
0.0
 50
90.0
100
AcDbRotatedDimension
  0
DIMENSION
  5
2158
330
1F
100
AcDbEntity
  8
寸法線1
100
AcDbDimension
  2
*D18
 10
855.5121499897596
 20
784.5940098543865
 30
0.0
 11
843.0121499897595
 21
819.5940098543868
 31
0.0
 70
    32
 71
     5
 42
6.700008304486459
  3
ISO-25
100
AcDbAlignedDimension
 13
805.5121499897595
 23
777.8940015499
 33
0.0
 14
802.5121499897595
 24
784.5940098543865
 34
0.0
 50
90.0
100
AcDbRotatedDimension
1001
ACAD
1000
DSTYLE
1002
{
1070
   271
1070
     0
1002
}
  0
DIMENSION
  5
21AC
330
1F
100
AcDbEntity
  8
寸法線1
100
AcDbDimension
  2
*D19
 10
812.2121582942458
 20
201.6999396985181
 30
0.0
 11
576.3621541420027
 21
201.6999396985181
 31
0.0
 70
   160
 71
     5
 42
471.7000083044863
  3
ISO-25
100
AcDbAlignedDimension
 13
340.5121499897595
 23
286.7148800926592
 33
0.0
 14
812.2121582942458
 24
328.9071508733077
 34
0.0
100
AcDbRotatedDimension
1001
ACAD
1000
DSTYLE
1002
{
1070
   271
1070
     0
1002
}
  0
DIMENSION
  5
2237
330
1F
100
AcDbEntity
  8
寸法線1
100
AcDbDimension
  2
*D20
 10
812.2121582942458
 20
239.8940015499
 30
0.0
 11
847.212158294246
 21
252.3940015499
 31
0.0
 70
    32
 71
     5
 42
6.700008304486345
  3
ISO-25
100
AcDbAlignedDimension
 13
805.5121499897595
 23
319.8940015499001
 33
0.0
 14
812.2121582942458
 24
319.8940015499001
 34
0.0
100
AcDbRotatedDimension
1001
ACAD
1000
DSTYLE
1002
{
1070
   271
1070
     0
1002
}
  0
TEXT
  5
231E
330
1F
100
AcDbEntity
  8
文字
100
AcDbText
 10
956.1278413341156
 20
79.67020803524452
 30
0.0
 40
15.0
  1
定格及び材質の修正
 41
0.8093528090089566
  7
ED_VECTOR
 72
     5
 11
1084.00558515753
 21
79.67020803524452
 31
0.0
100
AcDbText
  0
TEXT
  5
231F
330
1F
100
AcDbEntity
  8
0
100
AcDbText
 10
1850.400183925283
 20
1215.426833209789
 30
0.0
 40
15.0
  1
シリコーンゴム
100
AcDbText
  0
TEXT
  5
2320
330
1F
100
AcDbEntity
  8
0
 62
     2
100
AcDbText
 10
1987.746089259066
 20
1215.426833209789
 30
0.0
 40
13.0
  1
合成ゴム
100
AcDbText
  0
TEXT
  5
2321
330
1F
100
AcDbEntity
  8
文字
 62
     2
100
AcDbText
 10
1987.850005172989
 20
1238.2862334648
 30
0.0
 40
11.04999999999999
  1
2
100
AcDbText
  0
LINE
  5
2322
330
1F
100
AcDbEntity
  8
0
 62
     2
100
AcDbLine
 10
1991.680297165674
 20
1256.705763848015
 30
0.0
 11
1980.180297165674
 21
1236.705763848014
 31
0.0
  0
LINE
  5
2323
330
1F
100
AcDbEntity
  8
0
 62
     2
100
AcDbLine
 10
1980.180297165674
 20
1236.705763848014
 30
0.0
 11
2003.180297165674
 21
1236.705763848014
 31
0.0
  0
LINE
  5
2324
330
1F
100
AcDbEntity
  8
0
 62
     2
100
AcDbLine
 10
2003.180297165674
 20
1236.705763848014
 30
0.0
 11
1991.680297165674
 21
1256.705763848015
 31
0.0
  0
LINE
  5
2325
330
1F
100
AcDbEntity
  8
0
 62
     2
100
AcDbLine
 10
1986.773889860663
 20
1225.158705543377
 30
0.0
 11
2048.863434825791
 21
1225.158705543377
 31
0.0
  0
LINE
  5
2326
330
1F
100
AcDbEntity
  8
0
 62
     2
100
AcDbLine
 10
1986.773889860663
 20
1219.164338775836
 30
0.0
 11
2048.863434825791
 21
1219.164338775836
 31
0.0
  0
ENDSEC
  0
SECTION
  2
OBJECTS
  0
DICTIONARY
  5
C
330
0
100
AcDbDictionary
281
     1
  3
ACAD_COLOR
350
4AE
  3
ACAD_GROUP
350
D
  3
ACAD_LAYOUT
350
1A
  3
ACAD_MATERIAL
350
4AD
  3
ACAD_MLINESTYLE
350
17
  3
ACAD_PLOTSETTINGS
350
19
  3
ACAD_PLOTSTYLENAME
350
E
  3
ACAD_TABLESTYLE
350
4AF
  3
AcadDim
350
1E7A
  3
AcDbVariableDictionary
350
4B6
  0
DICTIONARY
  5
645
330
2
100
AcDbDictionary
280
     1
281
     1
  3
ACAD_LAYERFILTERS
360
16CD
  3
ACLYDICTIONARY
360
16CC
  0
DICTIONARY
  5
4C2
330
1F
100
AcDbDictionary
280
     1
281
     1
  3
ACAD_SORTENTS
360
4C3
  0
DICTIONARY
  5
D8C
330
D54
100
AcDbDictionary
280
     1
281
     1
  3
ACAD_SORTENTS
360
18EE
  0
DICTIONARY
  5
1E55
330
1E47
100
AcDbDictionary
280
     1
281
     1
  3
ACAD_SORTENTS
360
1E56
  0
DICTIONARY
  5
4AE
102
{ACAD_REACTORS
330
C
102
}
330
C
100
AcDbDictionary
281
     1
  0
DICTIONARY
  5
D
102
{ACAD_REACTORS
330
C
102
}
330
C
100
AcDbDictionary
281
     1
  0
DICTIONARY
  5
1A
102
{ACAD_REACTORS
330
C
102
}
330
C
100
AcDbDictionary
281
     1
  3
Layout1
350
1E
  3
Layout2
350
26
  3
Model
350
22
  0
DICTIONARY
  5
4AD
102
{ACAD_REACTORS
330
C
102
}
330
C
100
AcDbDictionary
281
     1
  0
DICTIONARY
  5
17
102
{ACAD_REACTORS
330
C
102
}
330
C
100
AcDbDictionary
281
     1
  3
Standard
350
18
  0
DICTIONARY
  5
19
102
{ACAD_REACTORS
330
C
102
}
330
C
100
AcDbDictionary
281
     1
  0
ACDBDICTIONARYWDFLT
  5
E
102
{ACAD_REACTORS
330
C
102
}
330
C
100
AcDbDictionary
281
     1
  3
Normal
350
F
100
AcDbDictionaryWithDefault
340
F
  0
DICTIONARY
  5
4AF
102
{ACAD_REACTORS
330
C
102
}
330
C
100
AcDbDictionary
281
     1
  3
Standard
350
4B0
  0
XRECORD
  5
1E7A
102
{ACAD_REACTORS
330
C
102
}
330
C
100
AcDbXrecord
280
     1
 90
   990106
  3

 60
     0
 61
     0
 62
     1
 63
     3
 64
     0
 65
     0
 66
     0
 67
     3
 68
     1
 69
     0
 70
     0
 71
     0
 72
     0
 40
0.0
170
     0
340
1D57
  0
DICTIONARY
  5
4B6
102
{ACAD_REACTORS
330
C
102
}
330
C
100
AcDbDictionary
281
     1
  3
CTABLESTYLE
350
4B7
  3
DIMASSOC
350
1EF7
  3
PROJECTNAME
350
1EF8
  0
DICTIONARY
  5
16CD
102
{ACAD_REACTORS
330
645
102
}
330
645
100
AcDbDictionary
281
     1
  0
DICTIONARY
  5
16CC
102
{ACAD_REACTORS
330
645
102
}
330
645
100
AcDbDictionary
281
     1
1001
ACAD
1000
<All
  0
SORTENTSTABLE
  5
4C3
102
{ACAD_REACTORS
330
4C2
102
}
330
4C2
100
AcDbSortentsTable
330
1F
331
1A6B
  5
1A6F
331
F5F
  5
FC9
331
168D
  5
169F
331
6D3
  5
7A1
331
B78
  5
D93
331
6EF
  5
7A6
331
14CE
  5
153B
331
152A
  5
15AA
331
1536
  5
1642
331
942
  5
ADF
331
148B
  5
14B7
331
5ED
  5
55C
331
149F
  5
14CB
331
14B3
  5
14E5
331
1450
  5
147C
331
59E
  5
5E8
331
5B2
  5
658
331
8A3
  5
91F
331
1464
  5
1490
331
1470
  5
149C
331
140D
  5
1439
331
1AF6
  5
1AFA
331
1D70
  5
1DA7
331
50F
  5
580
331
1421
  5
144D
331
13D2
  5
13FE
331
1A93
  5
1A97
331
7F9
  5
86C
331
815
  5
879
331
1AA7
  5
1AAC
331
13E6
  5
1412
331
79A
  5
83C
331
1A6C
  5
1A70
331
F60
  5
FCA
331
F88
  5
1315
331
168E
  5
16A1
331
6D4
  5
7A2
331
B79
  5
D94
331
6F0
  5
7BA
331
1C10
  5
1C16
331
152B
  5
15B7
331
691
  5
762
331
1537
  5
1643
331
5DA
  5
66E
331
943
  5
AE2
331
148C
  5
14B8
331
957
  5
AE5
331
14A0
  5
14CC
331
14B4
  5
14E7
331
59F
  5
5E9
331
1451
  5
147D
331
1465
  5
1491
331
5B3
  5
659
331
8B8
  5
94C
331
1471
  5
149D
331
1AF7
  5
1AFB
331
140E
  5
143A
331
1422
  5
144E
331
7FA
  5
86D
331
1A94
  5
1A98
331
13D3
  5
13FF
331
816
  5
87A
331
1D42
  5
1D55
331
13E7
  5
1413
331
1A59
  5
1A5D
331
7AF
  5
843
331
1A6D
  5
1A71
331
F61
  5
FCB
331
1C48
  5
1C4B
331
780
  5
825
331
F89
  5
1316
331
B6E
  5
B87
331
168F
  5
16A2
331
6F1
  5
7BB
331
1C11
  5
1C17
331
152C
  5
15C4
331
692
  5
763
331
1538
  5
164D
331
944
  5
AE3
331
148D
  5
14B9
331
5DB
  5
66F
331
958
  5
AE7
331
14A1
  5
14CD
331
14B5
  5
14E8
331
1452
  5
147E
331
5A0
  5
5EA
331
1466
  5
1467
331
5B4
  5
65A
331
8B9
  5
94D
331
1472
  5
149E
331
140F
  5
143B
331
4F5
  5
56A
331
1423
  5
144F
331
7FB
  5
86E
331
1A95
  5
1A99
331
13D4
  5
1400
331
817
  5
87C
331
13E8
  5
1414
331
1A5A
  5
1A5E
331
7B0
  5
844
331
1A6E
  5
1A72
331
1C49
  5
1C4C
331
781
  5
826
331
F8A
  5
1317
331
6D6
  5
7A3
331
1690
  5
16A4
331
B6F
  5
B88
331
1C12
  5
1C18
331
ADC
  5
B03
331
152D
  5
15D2
331
693
  5
764
331
1B3B
  5
1B3F
331
945
  5
AE4
331
148E
  5
14BA
331
5DC
  5
670
331
959
  5
AE8
331
14A2
  5
14CE
331
634
  5
6A0
331
14B6
  5
14FB
331
965
  5
AED
331
892
  5
8EA
331
1453
  5
147F
331
5A1
  5
5EB
331
1467
  5
1493
331
5B5
  5
65B
331
1473
  5
149F
331
8BA
  5
94E
331
1AF9
  5
1AFD
331
4F6
  5
56D
331
1424
  5
1450
331
1B1D
  5
1B22
331
1438
  5
1464
331
1A96
  5
1A9A
331
13D5
  5
1401
331
818
  5
87D
331
13E9
  5
1415
331
1AAA
  5
1AAE
331
1A5B
  5
1A5F
331
7B1
  5
845
331
F63
  5
FCC
331
1C4A
  5
1C4D
331
782
  5
827
331
1C6E
  5
1C76
331
F8B
  5
1318
331
1691
  5
16A5
331
1BFF
  5
1C06
331
16A5
  5
16B2
331
1C13
  5
1C19
331
694
  5
765
331
152E
  5
15E0
331
ADD
  5
B01
331
1B3C
  5
1B43
331
148F
  5
14BB
331
14A3
  5
14D0
331
95A
  5
AEA
331
635
  5
6A4
331
14B7
  5
150F
331
966
  5
AEE
331
893
  5
8EB
331
1454
  5
1480
331
5A2
  5
5ED
331
1468
  5
1494
331
5B6
  5
65C
331
1474
  5
14A0
331
1411
  5
143D
331
1AFA
  5
1AFE
331
4F7
  5
56E
331
523
  5
59C
331
1425
  5
1451
331
1B1E
  5
1B23
331
864
  5
8A7
331
1DE4
  5
1DF6
331
1439
  5
1465
331
870
  5
8B8
331
13D6
  5
1402
331
1A97
  5
1A9B
331
13EA
  5
1416
331
1AAB
  5
1AAF
331
819
  5
880
331
1D59
  5
1D61
331
7B2
  5
846
331
1A5C
  5
1A60
331
1A70
  5
1A74
331
7C6
  5
84D
331
F64
  5
FCD
331
1C4B
  5
1C4E
331
783
  5
828
331
1C6F
  5
1C7B
331
F8C
  5
100A
331
1692
  5
16AC
331
16A6
  5
16B4
331
730
  5
7FD
331
1C14
  5
1C1A
331
16BA
  5
16C4
331
152F
  5
15E1
331
695
  5
766
331
1B3D
  5
1B47
331
1B51
  5
1B9C
331
14A4
  5
14D1
331
95B
  5
AEC
331
636
  5
6B6
331
14B8
  5
14BC
331
967
  5
AF0
331
5A3
  5
608
331
1455
  5
1481
331
894
  5
8EC
331
1469
  5
1495
331
5B7
  5
65D
331
1475
  5
14A1
331
5C3
  5
65F
331
1412
  5
143E
331
1AFB
  5
1AFF
331
4F8
  5
56F
331
524
  5
59D
331
1426
  5
1452
331
865
  5
8A8
331
143A
  5
1466
331
871
  5
8C4
331
13D7
  5
1403
331
1A98
  5
1A9C
331
13EB
  5
1417
331
81A
  5
881
331
FC4
  5
13E1
331
1A5D
  5
1A61
331
1A71
  5
1A75
331
7C7
  5
84E
331
1C4C
  5
1C4F
331
F8D
  5
1009
331
784
  5
829
331
1693
  5
16AE
331
B7E
  5
D97
331
1C01
  5
1C07
331
16A7
  5
16B5
331
1C15
  5
1C1B
331
16BB
  5
16C5
331
731
  5
7FE
331
696
  5
767
331
6AA
  5
778
331
1B3E
  5
1B49
331
B3B
  5
B6F
331
5DF
  5
671
331
14A5
  5
14D2
331
95C
  5
AE9
331
968
  5
AF1
331
14B9
  5
151C
331
5A4
  5
60B
331
1456
  5
1482
331
895
  5
8ED
331
146A
  5
1496
331
5B8
  5
65E
331
5C4
  5
660
331
1476
  5
14A2
331
1413
  5
143F
331
1AFC
  5
1B00
331
1427
  5
1453
331
1B20
  5
1B24
331
525
  5
59E
331
539
  5
5AC
331
872
  5
8C9
331
143B
  5
143C
331
13D8
  5
1404
331
1D33
  5
1D50
331
1A99
  5
1A9D
331
13EC
  5
1418
331
1AAD
  5
1AB1
331
81B
  5
882
331
1D5B
  5
1D63
331
13F8
  5
1424
331
FC5
  5
13E2
331
1A5E
  5
1A62
331
1A72
  5
1A76
331
7C8
  5
84F
331
F66
  5
FD0
331
1C4D
  5
1C50
331
1C71
  5
1C7C
331
785
  5
82A
331
B7F
  5
DA1
331
1C02
  5
1C08
331
16A8
  5
16B6
331
1C16
  5
1C1C
331
732
  5
7FF
331
697
  5
76F
331
1B3F
  5
1B4A
331
153D
  5
1658
331
6AB
  5
77A
331
614
  5
678
331
95D
  5
AEB
331
14A6
  5
14D3
331
14BA
  5
1519
331
1457
  5
1483
331
896
  5
8EE
331
146B
  5
1497
331
1477
  5
14A3
331
1414
  5
1440
331
1AFD
  5
1B01
331
4FA
  5
570
331
1B21
  5
1B25
331
1428
  5
1454
331
873
  5
8CA
331
143C
  5
1468
331
53A
  5
5AD
331
13D9
  5
1405
331
1A9A
  5
1A9E
331
81C
  5
884
331
1AAE
  5
1AB2
331
13ED
  5
1419
331
838
  5
892
331
13F9
  5
1425
331
FC6
  5
13E3
331
1A5F
  5
1A63
331
1CFD
  5
1D40
331
1A73
  5
1A77
331
7C9
  5
850
331
1C4E
  5
1C51
331
F8F
  5
1349
331
786
  5
82B
331
6DB
  5
7A4
331
B80
  5
F8B
331
1C03
  5
1C09
331
16A9
  5
16B7
331
1C17
  5
1C1D
331
733
  5
800
331
6AC
  5
780
331
14A7
  5
14D4
331
615
  5
679
331
14BB
  5
1523
331
639
  5
6CB
331
897
  5
8EF
331
8AB
  5
920
331
146C
  5
1498
331
1478
  5
14A4
331
4FB
  5
571
331
854
  5
89C
331
1AFE
  5
1B02
331
1415
  5
1441
331
868
  5
8AB
331
1B22
  5
1B27
331
1429
  5
1455
331
527
  5
5A2
331
143D
  5
1469
331
1A9B
  5
1A9F
331
13DA
  5
1406
331
1AAF
  5
1AB3
331
13EE
  5
141A
331
839
  5
893
331
1AE3
  5
1AE7
331
13FA
  5
1426
331
4D8
  5
55D
331
1A60
  5
1A64
331
FC7
  5
13E4
331
1A74
  5
1A78
331
1A80
  5
1A84
331
1C4F
  5
1C52
331
787
  5
82C
331
F90
  5
1378
331
1696
  5
16AF
331
6DC
  5
7A5
331
1C04
  5
1C0A
331
16AA
  5
16B8
331
1C18
  5
1C1E
331
16BE
  5
16CE
331
6AD
  5
781
331
14A8
  5
14D5
331
616
  5
67A
331
96B
  5
AF2
331
14BC
  5
1520
331
63A
  5
6EF
331
14D0
  5
153C
331
8AC
  5
922
331
146D
  5
1499
331
5BB
  5
59F
331
1479
  5
14A5
331
855
  5
89D
331
1AFF
  5
1B03
331
1416
  5
1442
331
869
  5
8AC
331
1DCD
  5
1DF4
331
1B23
  5
1B28
331
142A
  5
1456
331
528
  5
5A4
331
143E
  5
146A
331
1A9C
  5
1AA0
331
13DB
  5
1407
331
13EF
  5
141B
331
83A
  5
894
331
13FB
  5
1427
331
1AE4
  5
1AE8
331
4D9
  5
55E
331
7B7
  5
849
331
1A61
  5
1A65
331
FC8
  5
13E5
331
1A75
  5
1A79
331
1A81
  5
1A85
331
1C50
  5
1C53
331
788
  5
82D
331
F91
  5
13C6
331
1CA8
  5
1CD4
331
1697
  5
16B0
331
1C05
  5
1C0B
331
16AB
  5
16BA
331
1C19
  5
1C1F
331
16BF
  5
16CF
331
B2B
  5
B63
331
6AE
  5
782
331
B3F
  5
B71
331
14A9
  5
14D6
331
617
  5
67B
331
14BD
  5
1524
331
96C
  5
AF7
331
14D1
  5
153D
331
8AD
  5
923
331
146E
  5
149A
331
5BC
  5
5A1
331
147A
  5
14A6
331
856
  5
89E
331
1417
  5
1443
331
4FD
  5
572
331
86A
  5
8AD
331
142B
  5
1457
331
143F
  5
146B
331
803
  5
86F
331
1A9D
  5
1AA1
331
13DC
  5
1408
331
13F0
  5
141C
331
83B
  5
895
331
13FC
  5
1428
331
4DA
  5
55F
331
1A62
  5
1A66
331
FC9
  5
13E7
331
7CC
  5
852
331
1A76
  5
1A7A
331
7E0
  5
85E
331
1A82
  5
1A86
331
F7E
  5
FF9
331
1C51
  5
1C54
331
1CA9
  5
1CE2
331
16AC
  5
16BB
331
1C06
  5
1C0C
331
16C0
  5
16D0
331
1C1A
  5
1C20
331
6AF
  5
783
331
B40
  5
B72
331
14AA
  5
14D7
331
14BE
  5
1529
331
96D
  5
AF8
331
14D2
  5
153E
331
5BD
  5
565
331
146F
  5
149B
331
8AE
  5
925
331
147B
  5
14A7
331
857
  5
89F
331
4FE
  5
573
331
142C
  5
1458
331
1B25
  5
1B35
331
86B
  5
8AE
331
1440
  5
146C
331
804
  5
870
331
13DD
  5
1409
331
1A9E
  5
1AA2
331
13F1
  5
141D
331
13FD
  5
1429
331
1AE6
  5
1AEA
331
4DB
  5
562
331
FCA
  5
13E8
331
1A63
  5
1A67
331
7CD
  5
858
331
FDE
  5
13EF
331
1A77
  5
1A7B
331
1A83
  5
1A87
331
7E1
  5
85F
331
1C52
  5
1C55
331
16AD
  5
16BC
331
1C07
  5
1C0D
331
16C1
  5
16D1
331
1C1B
  5
1C21
331
B2D
  5
B64
331
6B0
  5
788
331
B5D
  5
B7B
331
14AB
  5
14D8
331
14BF
  5
1528
331
96E
  5
AFC
331
14D3
  5
1545
331
8AF
  5
927
331
147C
  5
14A8
331
1490
  5
1492
331
52B
  5
5A7
331
142D
  5
1459
331
86C
  5
8AF
331
1441
  5
146D
331
878
  5
8CB
331
13DE
  5
140A
331
1A9F
  5
1AA3
331
805
  5
876
331
13F2
  5
141E
331
13FE
  5
142A
331
1AE7
  5
1AEB
331
4DC
  5
563
331
1A64
  5
1A68
331
7BA
  5
84A
331
FDF
  5
13F0
331
1A78
  5
1A7C
331
1D0A
  5
1D41
331
1A84
  5
1A88
331
7E2
  5
860
331
76F
  5
81F
331
1C53
  5
1C56
331
16AE
  5
16BD
331
1C08
  5
1C0E
331
16C2
  5
16B9
331
1C1C
  5
1C22
331
B2E
  5
B69
331
6B1
  5
78A
331
B5E
  5
B7C
331
14AC
  5
14D9
331
14C0
  5
152B
331
14D4
  5
1546
331
8B0
  5
928
331
147D
  5
14A9
331
1491
  5
14BD
331
52C
  5
5A8
331
142E
  5
145A
331
86D
  5
8B0
331
879
  5
8D0
331
1442
  5
146E
331
13DF
  5
140B
331
806
  5
878
331
13F3
  5
141F
331
822
  5
885
331
13FF
  5
142B
331
1AE8
  5
1AEC
331
4DD
  5
564
331
1A65
  5
1A69
331
7BB
  5
84B
331
1CEF
  5
1D33
331
1A79
  5
1A7D
331
7CF
  5
859
331
1A85
  5
1A89
331
7E3
  5
861
331
1D17
  5
1D42
331
770
  5
820
331
1C54
  5
1C57
331
7A0
  5
83D
331
B86
  5
F8C
331
16AF
  5
16BE
331
725
  5
7BC
331
1C09
  5
1C0F
331
1C1D
  5
1C23
331
15C4
  5
1661
331
6B2
  5
78C
331
B5F
  5
B7D
331
14AD
  5
14DA
331
14C1
  5
152C
331
14D5
  5
1554
331
147E
  5
14AA
331
5CC
  5
661
331
1492
  5
14BE
331
5E0
  5
672
331
52D
  5
5A9
331
86E
  5
8B6
331
142F
  5
145B
331
87A
  5
8D1
331
1443
  5
146F
331
823
  5
886
331
13F4
  5
1420
331
1AE9
  5
1AED
331
1400
  5
142C
331
1D63
  5
1D6E
331
1A66
  5
1A6A
331
7BC
  5
84C
331
1A7A
  5
1A7E
331
1A86
  5
1A8A
331
7E4
  5
862
331
771
  5
821
331
1C55
  5
1C6E
331
7A1
  5
83E
331
FAA
  5
13D4
331
1CAD
  5
1CE3
331
B87
  5
FB0
331
16B0
  5
16BF
331
726
  5
7EB
331
1C0A
  5
1C10
331
742
  5
801
331
1C1E
  5
1C24
331
16D0
  5
18EF
331
B44
  5
B73
331
6B3
  5
78D
331
1B47
  5
1B4B
331
B60
  5
B7E
331
6C7
  5
796
331
14AE
  5
14DB
331
14C2
  5
152A
331
14D6
  5
1555
331
8B2
  5
929
331
147F
  5
14AB
331
5CD
  5
666
331
1493
  5
14BF
331
86F
  5
8B7
331
1430
  5
145C
331
52E
  5
5AA
331
1444
  5
1470
331
1DF7
  5
1DFD
331
1458
  5
1484
331
824
  5
887
331
1AB6
  5
1ABA
331
13F5
  5
1421
331
1AEA
  5
1AEE
331
1401
  5
142D
331
1D64
  5
1D6F
331
1A67
  5
1A6B
331
FCE
  5
13EB
331
1A7B
  5
1A7F
331
FE2
  5
13F1
331
7E5
  5
864
331
1A87
  5
1A8B
331
1346
  5
6F1
331
772
  5
823
331
1C56
  5
1C6F
331
7A2
  5
83F
331
FAB
  5
13D5
331
727
  5
7EC
331
1C0B
  5
1C11
331
743
  5
802
331
1C1F
  5
1C26
331
16D1
  5
19EE
331
F68
  5
FE7
331
1C2B
  5
1C32
331
B45
  5
B75
331
1B48
  5
1B4C
331
6C8
  5
799
331
1BA4
  5
1BEC
331
14AF
  5
14DC
331
972
  5
AFF
331
14C3
  5
1530
331
14D7
  5
1556
331
1480
  5
14AC
331
1494
  5
14C0
331
94B
  5
ADE
331
1431
  5
145D
331
1445
  5
1471
331
898
  5
8F0
331
1459
  5
1485
331
825
  5
888
331
1AB7
  5
1ABB
331
13F6
  5
1422
331
1AEB
  5
1AEF
331
1402
  5
142E
331
1D65
  5
1D70
331
FCF
  5
13ED
331
1A7C
  5
1A80
331
FE3
  5
13F2
331
7E6
  5
865
331
1A88
  5
1A8C
331
1347
  5
712
331
773
  5
824
331
1C57
  5
1C71
331
F98
  5
13D1
331
7A3
  5
840
331
728
  5
7FA
331
1C0C
  5
1C12
331
744
  5
803
331
F55
  5
FB2
331
1C20
  5
1C27
331
16D2
  5
19EF
331
750
  5
818
331
1C2C
  5
1C33
331
B46
  5
B76
331
1B49
  5
1B4D
331
1683
  5
1695
331
B62
  5
B7F
331
1BF1
  5
662
331
61E
  5
699
331
14C4
  5
152E
331
973
  5
B00
331
14D8
  5
1557
331
656
  5
716
331
1481
  5
14AD
331
1495
  5
14C1
331
94C
  5
AE1
331
1432
  5
145E
331
1446
  5
1472
331
594
  5
5DA
331
1DF9
  5
1E05
331
5A8
  5
613
331
145A
  5
1486
331
899
  5
905
331
826
  5
889
331
13F7
  5
1423
331
1AB8
  5
1AE3
331
842
  5
896
331
1403
  5
142F
331
1AEC
  5
1AF0
331
1B00
  5
1B05
331
1A7D
  5
1A81
331
FE4
  5
13F3
331
7E7
  5
868
331
1348
  5
6F4
331
1A89
  5
1A8D
331
729
  5
7FB
331
1C0D
  5
1C13
331
745
  5
804
331
1C21
  5
1C28
331
751
  5
819
331
1C2D
  5
1C34
331
B47
  5
B70
331
1B4A
  5
1B4E
331
6CA
  5
79F
331
1684
  5
1696
331
B63
  5
B80
331
1698
  5
16B1
331
61F
  5
69A
331
14C5
  5
1532
331
974
  5
B04
331
14D9
  5
1558
331
657
  5
717
331
1482
  5
14AE
331
1496
  5
14C2
331
94D
  5
ADD
331
1433
  5
145F
331
1447
  5
1473
331
595
  5
5DB
331
5A9
  5
618
331
145B
  5
1487
331
89A
  5
90A
331
827
  5
88A
331
1AB9
  5
1AE4
331
4D6
  5
55A
331
1D53
  5
1D59
331
1404
  5
1430
331
1AED
  5
1AF1
331
843
  5
897
331
1418
  5
1444
331
1B01
  5
1B06
331
7D4
  5
85A
331
FE5
  5
13F4
331
1A7E
  5
1A82
331
1349
  5
6F3
331
1A8A
  5
1A8E
331
F86
  5
12BF
331
16B4
  5
16C0
331
1C0E
  5
1C14
331
746
  5
805
331
1C22
  5
1C29
331
1B4B
  5
1B4F
331
B64
  5
B81
331
1685
  5
1697
331
B70
  5
B9A
331
14C6
  5
1533
331
975
  5
B3B
331
658
  5
718
331
14DA
  5
1559
331
1483
  5
14AF
331
94E
  5
AE0
331
1497
  5
14C3
331
1434
  5
1460
331
1448
  5
1474
331
596
  5
5DC
331
1DFB
  5
1E11
331
5AA
  5
619
331
145C
  5
1488
331
89B
  5
90C
331
4D7
  5
55B
331
1D54
  5
1D5A
331
1405
  5
1431
331
1AEE
  5
1AF2
331
844
  5
898
331
1419
  5
1445
331
858
  5
8A0
331
1DA4
  5
1DA8
331
FE6
  5
13F5
331
1A7F
  5
1A83
331
7D5
  5
85B
331
1A8B
  5
1A8F
331
F87
  5
12E4
331
792
  5
830
331
16B5
  5
16C1
331
1C0F
  5
1C15
331
F58
  5
FB8
331
747
  5
806
331
1C23
  5
1C2F
331
6B8
  5
78E
331
1B4C
  5
1B51
331
1686
  5
1698
331
B71
  5
B9B
331
976
  5
B59
331
14C7
  5
1531
331
14DB
  5
1561
331
1484
  5
14B0
331
1498
  5
14C4
331
1435
  5
1461
331
597
  5
5DD
331
880
  5
8E4
331
1449
  5
1475
331
5AB
  5
61E
331
89C
  5
90D
331
145D
  5
1489
331
1D55
  5
1D5B
331
1406
  5
1432
331
1AEF
  5
1AF3
331
4E4
  5
566
331
508
  5
577
331
859
  5
8A1
331
141A
  5
1446
331
1DA5
  5
1DA9
331
FE7
  5
13F9
331
7D6
  5
85C
331
1A8C
  5
1A90
331
1AA0
  5
1AA4
331
793
  5
832
331
FB8
  5
13D7
331
1CB3
  5
1CEC
331
16B6
  5
16C2
331
F59
  5
FB9
331
748
  5
807
331
1C24
  5
1C30
331
16D6
  5
1A59
331
6B9
  5
790
331
1B4D
  5
1B73
331
1687
  5
1699
331
B72
  5
BA3
331
14C8
  5
1534
331
14DC
  5
1580
331
1530
  5
15EF
331
1485
  5
14B1
331
1499
  5
14C5
331
5E7
  5
673
331
1436
  5
1462
331
598
  5
5DE
331
881
  5
8E5
331
144A
  5
1476
331
89D
  5
90E
331
145E
  5
148A
331
5AC
  5
630
331
832
  5
88B
331
4E5
  5
567
331
1AF0
  5
1AF4
331
1407
  5
1433
331
85A
  5
8A2
331
141B
  5
1447
331
509
  5
578
331
1DA6
  5
1DAA
331
FE8
  5
13FA
331
7D7
  5
85D
331
1A8D
  5
1A91
331
1AA1
  5
1AA5
331
13E0
  5
140C
331
794
  5
833
331
7A8
  5
842
331
FB9
  5
13DE
331
F5A
  5
FBA
331
749
  5
815
331
755
  5
81A
331
1C31
  5
1C47
331
6BA
  5
792
331
1B4E
  5
1B74
331
B67
  5
B82
331
1688
  5
169A
331
6CE
  5
7A0
331
B73
  5
D90
331
978
  5
B62
331
14C9
  5
1535
331
14DD
  5
1581
331
1531
  5
15FC
331
1B33
  5
1B3D
331
1486
  5
14B2
331
149A
  5
14C6
331
5E8
  5
674
331
1437
  5
1463
331
882
  5
8E6
331
144B
  5
1477
331
599
  5
5DF
331
89E
  5
90F
331
145F
  5
148B
331
5AD
  5
631
331
833
  5
88C
331
1D57
  5
1D60
331
1AF1
  5
1AF5
331
1408
  5
1434
331
4E6
  5
568
331
1D6B
  5
1D76
331
85B
  5
8A3
331
1B05
  5
1B0B
331
141C
  5
1448
331
1DA7
  5
1DAB
331
1A8E
  5
1A92
331
13E1
  5
140D
331
795
  5
83A
331
FBA
  5
13DF
331
74A
  5
816
331
756
  5
81B
331
F6F
  5
FEA
331
1C32
  5
1C48
331
B4C
  5
B78
331
1B4F
  5
1B76
331
1689
  5
169B
331
B68
  5
B86
331
14CA
  5
1536
331
648
  5
6F0
331
14DE
  5
158E
331
6A0
  5
773
331
1532
  5
1609
331
B31
  5
B6A
331
1487
  5
14B3
331
149B
  5
14C7
331
5E9
  5
675
331
536
  5
5AB
331
144C
  5
1478
331
59A
  5
5E0
331
89F
  5
910
331
1460
  5
148C
331
5AE
  5
634
331
834
  5
88D
331
1AF2
  5
1AF6
331
1409
  5
1435
331
4E7
  5
569
331
1D6C
  5
1D77
331
85C
  5
8A4
331
141D
  5
1449
331
1B06
  5
1B18
331
1DA8
  5
1DAC
331
FEA
  5
13FB
331
1A8F
  5
1A93
331
13E2
  5
140E
331
1AA3
  5
1AA7
331
1A68
  5
1A6C
331
72F
  5
7FC
331
74B
  5
817
331
F5C
  5
FC3
331
757
  5
81C
331
F70
  5
FF6
331
1C33
  5
1C49
331
6BC
  5
793
331
B4D
  5
B79
331
168A
  5
169C
331
14CB
  5
1537
331
649
  5
6F2
331
1533
  5
161B
331
1B35
  5
1B3E
331
5D6
  5
66C
331
1488
  5
14B4
331
917
  5
965
331
149C
  5
14C8
331
5EA
  5
676
331
14B0
  5
14DD
331
144D
  5
1479
331
59B
  5
5E1
331
5AF
  5
638
331
1461
  5
148D
331
8A0
  5
912
331
835
  5
88E
331
849
  5
899
331
140A
  5
1436
331
1AF3
  5
1AF7
331
141E
  5
144A
331
1B07
  5
1B19
331
85D
  5
8A5
331
1DA9
  5
1DAD
331
7F6
  5
869
331
1A90
  5
1A94
331
13E3
  5
140F
331
1AA4
  5
1AA8
331
797
  5
83B
331
FD0
  5
13EE
331
1A69
  5
1A6D
331
16CE
  5
16D2
331
758
  5
81D
331
1C34
  5
777
331
6BD
  5
794
331
168B
  5
169D
331
14CC
  5
1539
331
64A
  5
6F5
331
65E
  5
71A
331
6A2
  5
776
331
1534
  5
161C
331
B33
  5
B6E
331
1489
  5
14B5
331
149D
  5
14C9
331
5EB
  5
677
331
14B1
  5
14DE
331
144E
  5
147A
331
59C
  5
5E2
331
1E11
  5
1E27
331
5B0
  5
654
331
1462
  5
148E
331
8A1
  5
914
331
836
  5
88F
331
140B
  5
1437
331
1AF4
  5
1AF8
331
84A
  5
89A
331
1D6E
  5
1D9C
331
50D
  5
57C
331
141F
  5
144B
331
85E
  5
8A6
331
1DAA
  5
1DCD
331
13D0
  5
13FC
331
7F7
  5
86A
331
13E4
  5
1410
331
1AA5
  5
1AAA
331
1A6A
  5
1A6E
331
F5E
  5
FC5
331
16CF
  5
16D6
331
759
  5
81E
331
6BE
  5
795
331
B4F
  5
B7A
331
168C
  5
169E
331
14CD
  5
153A
331
64B
  5
711
331
65F
  5
759
331
1535
  5
162F
331
5D8
  5
66D
331
148A
  5
14B6
331
941
  5
ADC
331
149E
  5
14CA
331
630
  5
69B
331
14B2
  5
14E0
331
144F
  5
147B
331
59D
  5
5E7
331
5B1
  5
657
331
1463
  5
148F
331
8A2
  5
91E
331
837
  5
890
331
140C
  5
1438
331
1AF5
  5
1AF9
331
84B
  5
89B
331
1D6F
  5
1DA6
331
1420
  5
144C
331
50E
  5
57F
331
1DAB
  5
1DE4
331
13D1
  5
13FD
331
1A92
  5
1A96
331
7F8
  5
86B
331
1D24
  5
1D4F
331
13E5
  5
1411
331
1AA6
  5
1AAB
  0
SORTENTSTABLE
  5
18EE
102
{ACAD_REACTORS
330
D8C
102
}
330
D8C
100
AcDbSortentsTable
330
D54
331
18E6
  5
18E5
331
18E3
  5
18E7
331
18E5
  5
18E4
331
18E7
  5
18E6
331
18E4
  5
18E3
  0
SORTENTSTABLE
  5
1E56
102
{ACAD_REACTORS
330
1E55
102
}
330
1E55
100
AcDbSortentsTable
330
1E47
  0
LAYOUT
  5
1E
102
{ACAD_XDICTIONARY
360
1EF1
102
}
102
{ACAD_REACTORS
330
1A
102
}
330
1A
100
AcDbPlotSettings
  1

  2

  4

  6

 40
0.0
 41
0.0
 42
0.0
 43
0.0
 44
0.0
 45
0.0
 46
0.0
 47
0.0
 48
0.0
 49
0.0
140
0.0
141
0.0
142
1.0
143
1.0
 70
   688
 72
     0
 73
     0
 74
     5
  7

 75
    16
147
1.0
148
0.0
149
0.0
100
AcDbLayout
  1
Layout1
 70
     1
 71
     1
 10
0.0
 20
0.0
 11
420.0
 21
297.0
 12
0.0
 22
0.0
 32
0.0
 14
1.000000000000000E+20
 24
1.000000000000000E+20
 34
1.000000000000000E+20
 15
-1.000000000000000E+20
 25
-1.000000000000000E+20
 35
-1.000000000000000E+20
146
0.0
 13
0.0
 23
0.0
 33
0.0
 16
1.0
 26
0.0
 36
0.0
 17
0.0
 27
1.0
 37
0.0
 76
     0
330
1B
  0
LAYOUT
  5
26
102
{ACAD_XDICTIONARY
360
1EF5
102
}
102
{ACAD_REACTORS
330
1A
102
}
330
1A
100
AcDbPlotSettings
  1

  2

  4

  6

 40
0.0
 41
0.0
 42
0.0
 43
0.0
 44
0.0
 45
0.0
 46
0.0
 47
0.0
 48
0.0
 49
0.0
140
0.0
141
0.0
142
1.0
143
1.0
 70
   688
 72
     0
 73
     0
 74
     5
  7

 75
    16
147
1.0
148
0.0
149
0.0
100
AcDbLayout
  1
Layout2
 70
     1
 71
     2
 10
0.0
 20
0.0
 11
12.0
 21
9.0
 12
0.0
 22
0.0
 32
0.0
 14
0.0
 24
0.0
 34
0.0
 15
0.0
 25
0.0
 35
0.0
146
0.0
 13
0.0
 23
0.0
 33
0.0
 16
1.0
 26
0.0
 36
0.0
 17
0.0
 27
1.0
 37
0.0
 76
     0
330
23
  0
LAYOUT
  5
22
102
{ACAD_XDICTIONARY
360
1EF3
102
}
102
{ACAD_REACTORS
330
1A
102
}
330
1A
100
AcDbPlotSettings
  1

  2
PrimoPDF
  4
A3
  6

 40
3.174999952316283
 41
3.174999952316283
 42
3.17498779296875
 43
3.17498779296875
 44
297.0106506347656
 45
419.9889831542968
 46
6.83
 47
14.32
 48
124.9999999999999
 49
50.0
140
2049.999999999999
141
1435.0
142
1.0
143
5.0
 70
 11940
 72
     1
 73
     1
 74
     4
  7
monochrome.ctb
 75
     0
147
0.2
148
-124.9999999999999
149
-50.0
100
AcDbLayout
  1
Model
 70
     1
 71
     0
 10
0.0
 20
0.0
 11
12.0
 21
9.0
 12
0.0
 22
0.0
 32
0.0
 14
0.0
 24
0.0
 34
0.0
 15
0.0
 25
0.0
 35
0.0
146
0.0
 13
0.0
 23
0.0
 33
0.0
 16
1.0
 26
0.0
 36
0.0
 17
0.0
 27
1.0
 37
0.0
 76
     0
330
1F
1001
ACAD_PSEXT
1000
RICOH imagio Neo C246 RPCS
1000
RICOH imagio Neo C246 RPCS
1000
192.168.0.100(2)_@
1000
RPCS Driver (Windows 2000/XP/Server 2003)
1070
     0
  0
MLINESTYLE
  5
18
102
{ACAD_REACTORS
330
17
102
}
330
17
100
AcDbMlineStyle
  2
STANDARD
 70
     0
  3

 62
   256
 51
90.0
 52
90.0
 71
     2
 49
0.5
 62
   256
  6
BYLAYER
 49
-0.5
 62
   256
  6
BYLAYER
  0
ACDBPLACEHOLDER
  5
F
102
{ACAD_REACTORS
330
E
102
}
330
E
  0
ACAD_PROXY_OBJECT
  5
4B0
102
{ACAD_REACTORS
330
4AF
102
}
330
4AF
100
AcDbProxyObject
 90
      499
 91
      503
 95
   393239
 70
     0
 93
     1841
310
4214DD185B99185C9928000000000000F83F0000000000003E0FC00000000000004901028000000C1008070000C3001FDFF8000000C1003FBFF000000182007F7FE00000030400FEFFC00000060801FDFF8000000C1003FBFF000000182000000000000000C2020B0000001820100E000186003FBFF000000182007F7FE000
310
00030400FEFFC00000060801FDFF8000000C1003FBFF000000182007F7FE0000003040000000000000012404160000003040201C00030C007F7FE00000030400FEFFC00000060801FDFF8000000C1003FBFF000000182007F7FE00000030400FEFFC000000608000
340
11
340
11
340
11
 94
        0
  0
DICTIONARYVAR
  5
4B7
102
{ACAD_REACTORS
330
4B6
102
}
330
4B6
100
DictionaryVariables
280
     0
  1
STANDARD
  0
DICTIONARYVAR
  5
1EF7
102
{ACAD_REACTORS
330
4B6
102
}
330
4B6
100
DictionaryVariables
280
     0
  1
1
  0
DICTIONARYVAR
  5
1EF8
102
{ACAD_REACTORS
330
4B6
102
}
330
4B6
100
DictionaryVariables
280
     0
  1

  0
DICTIONARY
  5
1EF1
330
1E
100
AcDbDictionary
280
     1
281
     1
  3
ACAD_XREC_ROUNDTRIP
360
1EF2
  0
DICTIONARY
  5
1EF5
330
26
100
AcDbDictionary
280
     1
281
     1
  3
ACAD_XREC_ROUNDTRIP
360
1EF6
  0
DICTIONARY
  5
1EF3
330
22
100
AcDbDictionary
280
     1
281
     1
  3
ACAD_XREC_ROUNDTRIP
360
1EF4
  0
XRECORD
  5
1EF2
102
{ACAD_REACTORS
330
1EF1
102
}
330
1EF1
100
AcDbXrecord
280
     1
102
SHADEPLOT
 70
     0
102
SHADEPLOTRESLEVEL
 70
     2
102
SHADEPLOTCUSTOMDPI
 70
   300
  0
XRECORD
  5
1EF6
102
{ACAD_REACTORS
330
1EF5
102
}
330
1EF5
100
AcDbXrecord
280
     1
102
SHADEPLOT
 70
     0
102
SHADEPLOTRESLEVEL
 70
     2
102
SHADEPLOTCUSTOMDPI
 70
   300
  0
XRECORD
  5
1EF4
102
{ACAD_REACTORS
330
1EF3
102
}
330
1EF3
100
AcDbXrecord
280
     1
102
SHADEPLOT
 70
     0
102
SHADEPLOTRESLEVEL
 70
     2
102
SHADEPLOTCUSTOMDPI
 70
   300
  0
ENDSEC
  0
EOF
