  0
SECTION
  2
HEADER
  9
$ACADVER
  1
AC1014
  9
$ACADMAINTVER
 70
     9
  9
$DWGCODEPAGE
  3
ANSI_932
  9
$INSBASE
 10
0.0
 20
0.0
 30
0.0
  9
$EXTMIN
 10
125.616013937644
 20
50.59220077254622
 30
-0.00000001
  9
$EXTMAX
 10
2050.616013937644
 20
1435.592200772546
 30
0.00000001
  9
$LIMMIN
 10
0.0
 20
0.0
  9
$LIMMAX
 10
1189.0
 20
841.0
  9
$ORTHOMODE
 70
     0
  9
$REGENMODE
 70
     1
  9
$FILLMODE
 70
     1
  9
$QTEXTMODE
 70
     0
  9
$MIRRTEXT
 70
     1
  9
$DRAGMODE
 70
     2
  9
$LTSCALE
 40
1.0
  9
$OSMODE
 70
   293
  9
$ATTMODE
 70
     1
  9
$TEXTSIZE
 40
2.5
  9
$TRACEWID
 40
1.0
  9
$TEXTSTYLE
  7
STANDARD
  9
$CLAYER
  8
文字
  9
$CELTYPE
  6
BYLAYER
  9
$CECOLOR
 62
   256
  9
$CELTSCALE
 40
1.0
  9
$DELOBJ
 70
     1
  9
$DISPSILH
 70
     0
  9
$DIMSCALE
 40
5.0
  9
$DIMASZ
 40
2.5
  9
$DIMEXO
 40
1.0
  9
$DIMDLI
 40
3.75
  9
$DIMRND
 40
0.0
  9
$DIMDLE
 40
0.0
  9
$DIMEXE
 40
1.25
  9
$DIMTP
 40
0.0
  9
$DIMTM
 40
0.0
  9
$DIMTXT
 40
3.0
  9
$DIMCEN
 40
2.5
  9
$DIMTSZ
 40
0.0
  9
$DIMTOL
 70
     0
  9
$DIMLIM
 70
     0
  9
$DIMTIH
 70
     0
  9
$DIMTOH
 70
     0
  9
$DIMSE1
 70
     0
  9
$DIMSE2
 70
     0
  9
$DIMTAD
 70
     1
  9
$DIMZIN
 70
     8
  9
$DIMBLK
  1
OPEN
  9
$DIMASO
 70
     1
  9
$DIMSHO
 70
     1
  9
$DIMPOST
  1

  9
$DIMAPOST
  1

  9
$DIMALT
 70
     0
  9
$DIMALTD
 70
     3
  9
$DIMALTF
 40
0.03937007874016
  9
$DIMLFAC
 40
1.0
  9
$DIMTOFL
 70
     1
  9
$DIMTVP
 40
0.0
  9
$DIMTIX
 70
     0
  9
$DIMSOXD
 70
     0
  9
$DIMSAH
 70
     0
  9
$DIMBLK1
  1

  9
$DIMBLK2
  1

  9
$DIMSTYLE
  2
ISO-25
  9
$DIMCLRD
 70
     0
  9
$DIMCLRE
 70
     0
  9
$DIMCLRT
 70
     0
  9
$DIMTFAC
 40
1.0
  9
$DIMGAP
 40
1.0
  9
$DIMJUST
 70
     0
  9
$DIMSD1
 70
     0
  9
$DIMSD2
 70
     0
  9
$DIMTOLJ
 70
     0
  9
$DIMTZIN
 70
     8
  9
$DIMALTZ
 70
     0
  9
$DIMALTTZ
 70
     0
  9
$DIMFIT
 70
     3
  9
$DIMUPT
 70
     0
  9
$DIMUNIT
 70
     2
  9
$DIMDEC
 70
     2
  9
$DIMTDEC
 70
     2
  9
$DIMALTU
 70
     2
  9
$DIMALTTD
 70
     3
  9
$DIMTXSTY
  7
STANDARD
  9
$DIMAUNIT
 70
     0
  9
$LUNITS
 70
     2
  9
$LUPREC
 70
     4
  9
$SKETCHINC
 40
1.0
  9
$FILLETRAD
 40
10.0
  9
$AUNITS
 70
     0
  9
$AUPREC
 70
     0
  9
$MENU
  1
.
  9
$ELEVATION
 40
0.0
  9
$PELEVATION
 40
0.0
  9
$THICKNESS
 40
0.0
  9
$LIMCHECK
 70
     0
  9
$BLIPMODE
 70
     0
  9
$CHAMFERA
 40
10.0
  9
$CHAMFERB
 40
10.0
  9
$CHAMFERC
 40
20.0
  9
$CHAMFERD
 40
0.0
  9
$SKPOLY
 70
     0
  9
$TDCREATE
 40
2453036.777387036
  9
$TDUPDATE
 40
2455400.002233426
  9
$TDINDWG
 40
8.8362854167
  9
$TDUSRTIMER
 40
8.8362854167
  9
$USRTIMER
 70
     1
  9
$ANGBASE
 50
0.0
  9
$ANGDIR
 70
     0
  9
$PDMODE
 70
     0
  9
$PDSIZE
 40
0.0
  9
$PLINEWID
 40
0.0
  9
$COORDS
 70
     2
  9
$SPLFRAME
 70
     0
  9
$SPLINETYPE
 70
     6
  9
$SPLINESEGS
 70
     8
  9
$ATTDIA
 70
     0
  9
$ATTREQ
 70
     1
  9
$HANDLING
 70
 10241
  9
$HANDSEED
  5
2A6A
  9
$SURFTAB1
 70
     6
  9
$SURFTAB2
 70
     6
  9
$SURFTYPE
 70
     6
  9
$SURFU
 70
     6
  9
$SURFV
 70
     6
  9
$UCSNAME
  2

  9
$UCSORG
 10
0.0
 20
0.0
 30
0.0
  9
$UCSXDIR
 10
1.0
 20
0.0
 30
0.0
  9
$UCSYDIR
 10
0.0
 20
1.0
 30
0.0
  9
$PUCSNAME
  2

  9
$PUCSORG
 10
0.0
 20
0.0
 30
0.0
  9
$PUCSXDIR
 10
1.0
 20
0.0
 30
0.0
  9
$PUCSYDIR
 10
0.0
 20
1.0
 30
0.0
  9
$USERI1
 70
     0
  9
$USERI2
 70
     0
  9
$USERI3
 70
     0
  9
$USERI4
 70
     0
  9
$USERI5
 70
     0
  9
$USERR1
 40
0.0
  9
$USERR2
 40
0.0
  9
$USERR3
 40
0.0
  9
$USERR4
 40
0.0
  9
$USERR5
 40
0.0
  9
$WORLDVIEW
 70
     1
  9
$SHADEDGE
 70
     3
  9
$SHADEDIF
 70
    70
  9
$TILEMODE
 70
     1
  9
$MAXACTVP
 70
    64
  9
$PINSBASE
 10
0.0
 20
0.0
 30
0.0
  9
$PLIMCHECK
 70
     0
  9
$PEXTMIN
 10
1.000000000000000E+20
 20
1.000000000000000E+20
 30
1.000000000000000E+20
  9
$PEXTMAX
 10
-1.000000000000000E+20
 20
-1.000000000000000E+20
 30
-1.000000000000000E+20
  9
$PLIMMIN
 10
0.0
 20
0.0
  9
$PLIMMAX
 10
420.0
 20
297.0
  9
$UNITMODE
 70
     0
  9
$VISRETAIN
 70
     1
  9
$PLINEGEN
 70
     0
  9
$PSLTSCALE
 70
     1
  9
$TREEDEPTH
 70
  3020
  9
$PICKSTYLE
 70
     1
  9
$CMLSTYLE
  2
STANDARD
  9
$CMLJUST
 70
     0
  9
$CMLSCALE
 40
20.0
  9
$PROXYGRAPHICS
 70
     1
  9
$MEASUREMENT
 70
     0
  0
ENDSEC
  0
SECTION
  2
CLASSES
  0
CLASS
  1
ACDBDICTIONARYWDFLT
  2
AcDbDictionaryWithDefault
  3
AutoCAD 2000
 90
        0
280
     0
281
     0
  0
CLASS
  1
ACDBPLACEHOLDER
  2
AcDbPlaceHolder
  3
AutoCAD 2000
 90
        0
280
     0
281
     0
  0
CLASS
  1
LAYOUT
  2
AcDbLayout
  3
AutoCAD 2000
 90
        0
280
     0
281
     0
  0
CLASS
  1
TABLESTYLE
  2
AcDbTableStyle
  3
ObjectDBX Classes
 90
     2047
280
     0
281
     0
  0
CLASS
  1
DICTIONARYVAR
  2
AcDbDictionaryVar
  3
AutoCAD 2000
 90
        0
280
     0
281
     0
  0
CLASS
  1
SORTENTSTABLE
  2
AcDbSortentsTable
  3
AutoCAD 2000
 90
        0
280
     0
281
     0
  0
CLASS
  1
ACAD_PROXY_OBJECT_WRAPPER
  2
AcDbProxyObjectWrapper
  3
AutoCAD 2000
 90
        0
280
     0
281
     0
  0
CLASS
  1
LONG_TRANSACTION
  2
AcDbLongTransaction
  3
AutoCAD 2000
 90
        0
280
     0
281
     0
  0
CLASS
  1
LWPOLYLINE
  2
AcDbPolyline
  3
AutoCAD 2000
 90
        0
280
     0
281
     1
  0
CLASS
  1
HATCH
  2
AcDbHatch
  3
AutoCAD 2000
 90
        0
280
     0
281
     1
  0
CLASS
  1
XRECORD
  2
AcDbXrecord
  3
AutoCAD 2000
 90
        0
280
     0
281
     0
  0
ENDSEC
  0
SECTION
  2
TABLES
  0
TABLE
  2
VPORT
  5
8
330
0
100
AcDbSymbolTable
 70
     2
  0
VPORT
  5
2A43
330
8
100
AcDbSymbolTableRecord
100
AcDbViewportTableRecord
  2
*ACTIVE
 70
     0
 10
0.0
 20
0.0
 11
1.0
 21
1.0
 12
1055.622856315344
 22
717.8363039846897
 13
0.0
 23
0.0
 14
10.0
 24
10.0
 15
10.0
 25
10.0
 16
0.0
 26
0.0
 36
1.0
 17
0.0
 27
0.0
 37
0.0
 40
1446.467138856367
 41
1.55249343832021
 42
50.0
 43
0.0
 44
0.0
 50
0.0
 51
0.0
 71
     0
 72
   100
 73
     1
 74
     3
 75
     0
 76
     0
 77
     0
 78
     0
  0
ENDTAB
  0
TABLE
  2
LTYPE
  5
5
330
0
100
AcDbSymbolTable
 70
     7
  0
LTYPE
  5
14
330
5
100
AcDbSymbolTableRecord
100
AcDbLinetypeTableRecord
  2
BYBLOCK
 70
     0
  3

 72
    65
 73
     0
 40
0.0
  0
LTYPE
  5
15
330
5
100
AcDbSymbolTableRecord
100
AcDbLinetypeTableRecord
  2
BYLAYER
 70
     0
  3

 72
    65
 73
     0
 40
0.0
  0
LTYPE
  5
16
330
5
100
AcDbSymbolTableRecord
100
AcDbLinetypeTableRecord
  2
CONTINUOUS
 70
     0
  3
Solid line
 72
    65
 73
     0
 40
0.0
  0
LTYPE
  5
47
330
5
100
AcDbSymbolTableRecord
100
AcDbLinetypeTableRecord
  2
CENTER
 70
     0
  3
Center ____ _ ____ _ ____ _ ____ _ ____ _ ____
 72
    65
 73
     4
 40
50.8
 49
31.75
 74
     0
 49
-6.349999999999999
 74
     0
 49
6.349999999999999
 74
     0
 49
-6.349999999999999
 74
     0
  0
LTYPE
  5
48
330
5
100
AcDbSymbolTableRecord
100
AcDbLinetypeTableRecord
  2
CENTER2
 70
     0
  3
Center (.5x) ___ _ ___ _ ___ _ ___ _ ___ _ ___
 72
    65
 73
     4
 40
28.57499999999999
 49
19.05
 74
     0
 49
-3.174999999999999
 74
     0
 49
3.174999999999999
 74
     0
 49
-3.174999999999999
 74
     0
  0
LTYPE
  5
49
330
5
100
AcDbSymbolTableRecord
100
AcDbLinetypeTableRecord
  2
CENTERX2
 70
     0
  3
Center (2x) ________  __  ________  __  _____
 72
    65
 73
     4
 40
101.6
 49
63.5
 74
     0
 49
-12.7
 74
     0
 49
12.7
 74
     0
 49
-12.7
 74
     0
  0
LTYPE
  5
4A
330
5
100
AcDbSymbolTableRecord
100
AcDbLinetypeTableRecord
  2
HIDDEN
 70
     0
  3
Hidden __ __ __ __ __ __ __ __ __ __ __ __ __ _
 72
    65
 73
     2
 40
9.524999999999998
 49
6.349999999999999
 74
     0
 49
-3.174999999999999
 74
     0
  0
LTYPE
  5
4B
330
5
100
AcDbSymbolTableRecord
100
AcDbLinetypeTableRecord
  2
HIDDEN2
 70
     0
  3
Hidden (.5x) _ _ _ _ _ _ _ _ _ _ _ _ _ _ _ _ _
 72
    65
 73
     2
 40
4.762499999999999
 49
3.174999999999999
 74
     0
 49
-1.587499999999999
 74
     0
  0
LTYPE
  5
4C
330
5
100
AcDbSymbolTableRecord
100
AcDbLinetypeTableRecord
  2
HIDDENX2
 70
     0
  3
Hidden (2x) ____ ____ ____ ____ ____ ____ ____
 72
    65
 73
     2
 40
19.04999999999999
 49
12.7
 74
     0
 49
-6.349999999999999
 74
     0
  0
ENDTAB
  0
TABLE
  2
LAYER
  5
2
102
{ACAD_XDICTIONARY
360
4C8
102
}
330
0
100
AcDbSymbolTable
 70
    35
  0
LAYER
  5
10
330
2
100
AcDbSymbolTableRecord
100
AcDbLayerTableRecord
  2
0
 70
     0
 62
     7
  6
CONTINUOUS
  0
LAYER
  5
4D
330
2
100
AcDbSymbolTableRecord
100
AcDbLayerTableRecord
  2
1_実線
 70
     0
 62
     7
  6
CONTINUOUS
  0
LAYER
  5
4E
330
2
100
AcDbSymbolTableRecord
100
AcDbLayerTableRecord
  2
2_細線
 70
     0
 62
     7
  6
CONTINUOUS
  0
LAYER
  5
4F
330
2
100
AcDbSymbolTableRecord
100
AcDbLayerTableRecord
  2
4_破線2中
 70
     0
 62
     3
  6
HIDDEN
  0
LAYER
  5
50
330
2
100
AcDbSymbolTableRecord
100
AcDbLayerTableRecord
  2
寸法線1
 70
     0
 62
     6
  6
CONTINUOUS
  0
LAYER
  5
51
330
2
100
AcDbSymbolTableRecord
100
AcDbLayerTableRecord
  2
6_中心線1短
 70
     0
 62
     1
  6
CENTER2
  0
LAYER
  5
52
330
2
100
AcDbSymbolTableRecord
100
AcDbLayerTableRecord
  2
7_中心線2中
 70
     0
 62
     1
  6
CENTER
  0
LAYER
  5
53
330
2
100
AcDbSymbolTableRecord
100
AcDbLayerTableRecord
  2
3_破線1短
 70
     0
 62
     3
  6
HIDDEN2
  0
LAYER
  5
54
330
2
100
AcDbSymbolTableRecord
100
AcDbLayerTableRecord
  2
8_中心線3長
 70
     0
 62
     1
  6
CENTERX2
  0
LAYER
  5
55
330
2
100
AcDbSymbolTableRecord
100
AcDbLayerTableRecord
  2
9_構築線
 70
     0
 62
    -4
  6
CONTINUOUS
  0
LAYER
  5
73
330
2
100
AcDbSymbolTableRecord
100
AcDbLayerTableRecord
  2
DEFPOINTS
 70
     0
 62
     7
  6
CONTINUOUS
  0
LAYER
  5
4C5
330
2
100
AcDbSymbolTableRecord
100
AcDbLayerTableRecord
  2
5_寸法線
 70
     0
 62
     3
  6
HIDDENX2
1001
ACAECLAYERSTANDARD
1000

1000

  0
LAYER
  5
883
330
2
100
AcDbSymbolTableRecord
100
AcDbLayerTableRecord
  2
文字
 70
     0
 62
     7
  6
CONTINUOUS
  0
LAYER
  5
1250
330
2
100
AcDbSymbolTableRecord
100
AcDbLayerTableRecord
  2
タイトルブロック
 70
     0
 62
     7
  6
CONTINUOUS
  0
LAYER
  5
1307
330
2
100
AcDbSymbolTableRecord
100
AcDbLayerTableRecord
  2
中箱
 70
     0
 62
     2
  6
HIDDENX2
  0
LAYER
  5
1573
330
2
100
AcDbSymbolTableRecord
100
AcDbLayerTableRecord
  2
中箱底板
 70
     0
 62
     3
  6
HIDDENX2
  0
LAYER
  5
1594
330
2
100
AcDbSymbolTableRecord
100
AcDbLayerTableRecord
  2
本体前枠
 70
     0
 62
     1
  6
CONTINUOUS
  0
LAYER
  5
16D1
330
2
100
AcDbSymbolTableRecord
100
AcDbLayerTableRecord
  2
KOUTIKUSEN
 70
     0
 62
    -4
  6
CONTINUOUS
  0
LAYER
  5
1811
330
2
100
AcDbSymbolTableRecord
100
AcDbLayerTableRecord
  2
外箱
 70
     0
 62
     7
  6
CONTINUOUS
  0
LAYER
  5
1822
330
2
100
AcDbSymbolTableRecord
100
AcDbLayerTableRecord
  2
中箱裏板
 70
     0
 62
     7
  6
HIDDENX2
  0
LAYER
  5
1828
330
2
100
AcDbSymbolTableRecord
100
AcDbLayerTableRecord
  2
引出
 70
     0
 62
     3
  6
HIDDEN
  0
LAYER
  5
188B
330
2
100
AcDbSymbolTableRecord
100
AcDbLayerTableRecord
  2
引出パネル
 70
     0
 62
     2
  6
CONTINUOUS
  0
LAYER
  5
1C7E
330
2
100
AcDbSymbolTableRecord
100
AcDbLayerTableRecord
  2
フランジ
 70
     0
 62
     3
  6
CENTER
  0
LAYER
  5
1D00
330
2
100
AcDbSymbolTableRecord
100
AcDbLayerTableRecord
  2
中箱レ_ル
 70
     0
 62
     7
  6
HIDDEN
  0
LAYER
  5
1D1C
330
2
100
AcDbSymbolTableRecord
100
AcDbLayerTableRecord
  2
引出前板
 70
     0
 62
     6
  6
CONTINUOUS
  0
LAYER
  5
1D31
330
2
100
AcDbSymbolTableRecord
100
AcDbLayerTableRecord
  2
引出レ_ル
 70
     0
 62
     6
  6
HIDDEN
  0
LAYER
  5
2497
330
2
100
AcDbSymbolTableRecord
100
AcDbLayerTableRecord
  2
ホテルパン
 70
     0
 62
     7
  6
HIDDENX2
  0
LAYER
  5
249A
330
2
100
AcDbSymbolTableRecord
100
AcDbLayerTableRecord
  2
サ_モ
 70
     0
 62
     6
  6
HIDDEN
  0
LAYER
  5
2527
330
2
100
AcDbSymbolTableRecord
100
AcDbLayerTableRecord
  2
ゴム足
 70
     0
 62
     7
  6
CONTINUOUS
  0
LAYER
  5
2535
330
2
100
AcDbSymbolTableRecord
100
AcDbLayerTableRecord
  2
ネジ
 70
     0
 62
     7
  6
CONTINUOUS
  0
LAYER
  5
264D
330
2
100
AcDbSymbolTableRecord
100
AcDbLayerTableRecord
  2
3_破線1
 70
     0
 62
     3
  6
HIDDEN
  0
LAYER
  5
264E
330
2
100
AcDbSymbolTableRecord
100
AcDbLayerTableRecord
  2
電源コ_ド
 70
     0
 62
     1
  6
CONTINUOUS
1001
ACAECLAYERSTANDARD
1000

1000

  0
LAYER
  5
2687
330
2
100
AcDbSymbolTableRecord
100
AcDbLayerTableRecord
  2
２_細線
 70
     0
 62
     7
  6
CONTINUOUS
  0
LAYER
  5
2800
330
2
100
AcDbSymbolTableRecord
100
AcDbLayerTableRecord
  2
部品表横線
 70
     0
 62
     7
  6
CONTINUOUS
  0
LAYER
  5
2801
330
2
100
AcDbSymbolTableRecord
100
AcDbLayerTableRecord
  2
01実線
 70
     0
 62
     7
  6
CONTINUOUS
  0
ENDTAB
  0
TABLE
  2
STYLE
  5
3
330
0
100
AcDbSymbolTable
 70
     2
  0
STYLE
  5
11
330
3
100
AcDbSymbolTableRecord
100
AcDbTextStyleTableRecord
  2
STANDARD
 70
     0
 40
0.0
 41
1.0
 50
0.0
 71
     0
 42
2.5
  3
txt.shx
  4
bigfont.shx
  0
STYLE
  5
46
330
3
100
AcDbSymbolTableRecord
100
AcDbTextStyleTableRecord
  2

 70
     1
 40
0.0
 41
1.0
 50
0.0
 71
     0
 42
2.5
  3
ltypeshp.shx
  4

  0
ENDTAB
  0
TABLE
  2
VIEW
  5
6
330
0
100
AcDbSymbolTable
 70
     0
  0
ENDTAB
  0
TABLE
  2
UCS
  5
7
330
0
100
AcDbSymbolTable
 70
     0
  0
ENDTAB
  0
TABLE
  2
APPID
  5
9
330
0
100
AcDbSymbolTable
 70
    12
  0
APPID
  5
12
330
9
100
AcDbSymbolTableRecord
100
AcDbRegAppTableRecord
  2
ACAD
 70
     0
  0
APPID
  5
4C6
330
9
100
AcDbSymbolTableRecord
100
AcDbRegAppTableRecord
  2
ACAECLAYERSTANDARD
 70
     0
  0
APPID
  5
509
330
9
100
AcDbSymbolTableRecord
100
AcDbRegAppTableRecord
  2
ACAD_DSTYLE_DIMEXT_LENGTH
 70
     0
  0
APPID
  5
50A
330
9
100
AcDbSymbolTableRecord
100
AcDbRegAppTableRecord
  2
ACAD_DSTYLE_DIMEXT_ENABLED
 70
     0
  0
APPID
  5
50B
330
9
100
AcDbSymbolTableRecord
100
AcDbRegAppTableRecord
  2
ACAD_DSTYLE_DIMJOGGED_JOGA
 70
     0
  0
APPID
  5
50C
330
9
100
AcDbSymbolTableRecord
100
AcDbRegAppTableRecord
  2
ACAD_DSTYLE_DIMARC_LENGTH_
 70
     0
  0
APPID
  5
50D
330
9
100
AcDbSymbolTableRecord
100
AcDbRegAppTableRecord
  2
ACAD_PSEXT
 70
     0
  0
APPID
  5
1309
330
9
100
AcDbSymbolTableRecord
100
AcDbRegAppTableRecord
  2
ACAD_EXEMPT_FROM_CAD_STAND
 70
     0
  0
APPID
  5
130A
330
9
100
AcDbSymbolTableRecord
100
AcDbRegAppTableRecord
  2
ACAD_DSTYLE_DIMTEXT_FILL
 70
     0
  0
APPID
  5
130B
330
9
100
AcDbSymbolTableRecord
100
AcDbRegAppTableRecord
  2
ACAD_DSTYLE_DIM_LINETYPE
 70
     0
  0
APPID
  5
130C
330
9
100
AcDbSymbolTableRecord
100
AcDbRegAppTableRecord
  2
ACAD_DSTYLE_DIM_EXT1_LINET
 70
     0
  0
APPID
  5
130D
330
9
100
AcDbSymbolTableRecord
100
AcDbRegAppTableRecord
  2
ACAD_DSTYLE_DIM_EXT2_LINET
 70
     0
  0
ENDTAB
  0
TABLE
  2
DIMSTYLE
  5
A
330
0
100
AcDbSymbolTable
 70
     1
  0
DIMSTYLE
105
27
102
{ACAD_REACTORS
330
12FD
330
12FE
330
25AB
330
25B8
330
25C5
330
25FF
330
260C
330
2620
330
262E
330
263B
330
2A14
102
}
330
A
100
AcDbSymbolTableRecord
100
AcDbDimStyleTableRecord
  2
ISO-25
 70
     0
  3

  4

  5
OPEN
  6

  7

 40
5.0
 41
2.5
 42
1.0
 43
3.75
 44
1.25
 45
0.0
 46
0.0
 47
0.0
 48
0.0
140
3.0
141
2.5
142
0.0
143
0.03937007874016
144
1.0
145
0.0
146
1.0
147
1.0
 71
     0
 72
     0
 73
     0
 74
     0
 75
     0
 76
     0
 77
     1
 78
     8
170
     0
171
     3
172
     1
173
     0
174
     0
175
     0
176
     0
177
     0
178
     0
270
     2
271
     2
272
     2
273
     2
274
     3
340
11
275
     0
280
     0
281
     0
282
     0
283
     0
284
     8
285
     0
286
     0
287
     3
288
     0
  0
ENDTAB
  0
TABLE
  2
BLOCK_RECORD
  5
1
330
0
100
AcDbSymbolTable
 70
    25
  0
BLOCK_RECORD
  5
1F
102
{ACAD_XDICTIONARY
360
2345
102
}
330
1
100
AcDbSymbolTableRecord
100
AcDbBlockTableRecord
  2
*MODEL_SPACE
  0
BLOCK_RECORD
  5
1B
102
{ACAD_XDICTIONARY
360
2A65
102
}
330
1
100
AcDbSymbolTableRecord
100
AcDbBlockTableRecord
  2
*PAPER_SPACE
  0
BLOCK_RECORD
  5
1AE
330
1
100
AcDbSymbolTableRecord
100
AcDbBlockTableRecord
  2
_OPEN
  0
BLOCK_RECORD
  5
1251
330
1
100
AcDbSymbolTableRecord
100
AcDbBlockTableRecord
  2
_OPEN30
  0
BLOCK_RECORD
  5
1257
330
1
100
AcDbSymbolTableRecord
100
AcDbBlockTableRecord
  2
*D3
  0
BLOCK_RECORD
  5
1263
330
1
100
AcDbSymbolTableRecord
100
AcDbBlockTableRecord
  2
*D4
  0
BLOCK_RECORD
  5
1270
330
1
100
AcDbSymbolTableRecord
100
AcDbBlockTableRecord
  2
*D5
  0
BLOCK_RECORD
  5
127D
330
1
100
AcDbSymbolTableRecord
100
AcDbBlockTableRecord
  2
*D6
  0
BLOCK_RECORD
  5
1289
330
1
100
AcDbSymbolTableRecord
100
AcDbBlockTableRecord
  2
*D7
  0
BLOCK_RECORD
  5
1295
330
1
100
AcDbSymbolTableRecord
100
AcDbBlockTableRecord
  2
*D8
  0
BLOCK_RECORD
  5
12A1
330
1
100
AcDbSymbolTableRecord
100
AcDbBlockTableRecord
  2
*D9
  0
BLOCK_RECORD
  5
12AD
330
1
100
AcDbSymbolTableRecord
100
AcDbBlockTableRecord
  2
*D10
  0
BLOCK_RECORD
  5
12B9
330
1
100
AcDbSymbolTableRecord
100
AcDbBlockTableRecord
  2
*D11
  0
BLOCK_RECORD
  5
12C5
330
1
100
AcDbSymbolTableRecord
100
AcDbBlockTableRecord
  2
*D12
  0
BLOCK_RECORD
  5
12D1
102
{ACAD_XDICTIONARY
360
1303
102
}
330
1
100
AcDbSymbolTableRecord
100
AcDbBlockTableRecord
  2
A$C7D1D0C12
1001
ACAD
1000
DesignCenter Data
1002
{
1070
     1
1070
     4
1002
}
  0
BLOCK_RECORD
  5
130E
330
1
100
AcDbSymbolTableRecord
100
AcDbBlockTableRecord
  2
Ａ_３_タイトルブロック
1001
ACAD
1000
DesignCenter Data
1002
{
1070
     1
1070
     4
1002
}
  0
BLOCK_RECORD
  5
25AC
330
1
100
AcDbSymbolTableRecord
100
AcDbBlockTableRecord
  2
*D15
  0
BLOCK_RECORD
  5
25B9
330
1
100
AcDbSymbolTableRecord
100
AcDbBlockTableRecord
  2
*D16
  0
BLOCK_RECORD
  5
25C6
330
1
100
AcDbSymbolTableRecord
100
AcDbBlockTableRecord
  2
*D17
  0
BLOCK_RECORD
  5
2600
330
1
100
AcDbSymbolTableRecord
100
AcDbBlockTableRecord
  2
*D18
  0
BLOCK_RECORD
  5
260D
330
1
100
AcDbSymbolTableRecord
100
AcDbBlockTableRecord
  2
*D19
  0
BLOCK_RECORD
  5
2621
330
1
100
AcDbSymbolTableRecord
100
AcDbBlockTableRecord
  2
*D20
  0
BLOCK_RECORD
  5
262F
330
1
100
AcDbSymbolTableRecord
100
AcDbBlockTableRecord
  2
*D21
  0
BLOCK_RECORD
  5
263C
330
1
100
AcDbSymbolTableRecord
100
AcDbBlockTableRecord
  2
*D22
  0
BLOCK_RECORD
  5
273E
330
1
100
AcDbSymbolTableRecord
100
AcDbBlockTableRecord
  2
Ａ_３_タイトルブロック__株_アンナカ
1001
ACAD
1000
DesignCenter Data
1002
{
1070
     1
1070
     4
1002
}
  0
BLOCK_RECORD
  5
2A15
330
1
100
AcDbSymbolTableRecord
100
AcDbBlockTableRecord
  2
*D24
  0
ENDTAB
  0
ENDSEC
  0
SECTION
  2
BLOCKS
  0
BLOCK
  5
20
330
1F
100
AcDbEntity
  8
0
100
AcDbBlockBegin
  2
*MODEL_SPACE
 70
     0
 10
0.0
 20
0.0
 30
0.0
  3
*MODEL_SPACE
  1

  0
ENDBLK
  5
21
330
1F
100
AcDbEntity
  8
0
100
AcDbBlockEnd
  0
BLOCK
  5
1C
330
1B
100
AcDbEntity
 67
     1
  8
0
100
AcDbBlockBegin
  2
*PAPER_SPACE
 70
     0
 10
0.0
 20
0.0
 30
0.0
  3
*PAPER_SPACE
  1

  0
ENDBLK
  5
1D
330
1B
100
AcDbEntity
 67
     1
  8
0
100
AcDbBlockEnd
  0
BLOCK
  5
1B2
330
1AE
100
AcDbEntity
  8
0
100
AcDbBlockBegin
  2
_OPEN
 70
     0
 10
0.0
 20
0.0
 30
0.0
  3
_OPEN
  1

  0
LINE
  5
1AF
330
1AE
100
AcDbEntity
  8
寸法線1
 62
     0
100
AcDbLine
 10
-1.0
 20
0.1666666666666666
 30
0.0
 11
0.0
 21
0.0
 31
0.0
  0
LINE
  5
1B0
330
1AE
100
AcDbEntity
  8
寸法線1
 62
     0
100
AcDbLine
 10
-1.0
 20
-0.1666666666666666
 30
0.0
 11
0.0
 21
0.0
 31
0.0
  0
LINE
  5
1B1
330
1AE
100
AcDbEntity
  8
寸法線1
 62
     0
100
AcDbLine
 10
0.0
 20
0.0
 30
0.0
 11
-1.0
 21
0.0
 31
0.0
  0
ENDBLK
  5
1B3
330
1AE
100
AcDbEntity
  8
0
100
AcDbBlockEnd
  0
BLOCK
  5
1255
330
1251
100
AcDbEntity
  8
0
100
AcDbBlockBegin
  2
_OPEN30
 70
     0
 10
0.0
 20
0.0
 30
0.0
  3
_OPEN30
  1

  0
LINE
  5
1252
330
1251
100
AcDbEntity
  8
0
  6
BYBLOCK
 62
     0
100
AcDbLine
 10
-1.0
 20
0.26794919
 30
0.0
 11
0.0
 21
0.0
 31
0.0
  0
LINE
  5
1253
330
1251
100
AcDbEntity
  8
0
  6
BYBLOCK
 62
     0
100
AcDbLine
 10
0.0
 20
0.0
 30
0.0
 11
-1.0
 21
-0.26794919
 31
0.0
  0
LINE
  5
1254
330
1251
100
AcDbEntity
  8
0
  6
BYBLOCK
 62
     0
100
AcDbLine
 10
0.0
 20
0.0
 30
0.0
 11
-1.0
 21
0.0
 31
0.0
  0
ENDBLK
  5
1256
330
1251
100
AcDbEntity
  8
0
100
AcDbBlockEnd
  0
BLOCK
  5
1261
330
1257
100
AcDbEntity
  8
0
100
AcDbBlockBegin
  2
*D3
 70
     1
 10
0.0
 20
0.0
 30
0.0
  3
*D3
  1

  0
LINE
  5
1258
330
1257
100
AcDbEntity
  8
中箱
 62
     0
100
AcDbLine
 10
562.6995677391187
 20
483.1511232420789
 30
0.0
 11
601.6995677391188
 21
483.1511232420789
 31
0.0
  0
LINE
  5
1259
330
1257
100
AcDbEntity
  8
中箱
 62
     0
100
AcDbLine
 10
562.6995677391187
 20
203.1511232420789
 30
0.0
 11
601.6995677391187
 21
203.1511232420789
 31
0.0
  0
LINE
  5
125A
330
1257
100
AcDbEntity
  8
中箱
 62
     0
100
AcDbLine
 10
599.1995677391188
 20
477.1511232420789
 30
0.0
 11
599.1995677391187
 21
209.1511232420788
 31
0.0
  0
INSERT
  5
125B
330
1257
100
AcDbEntity
  8
中箱
 62
     0
100
AcDbBlockReference
  2
_OPEN30
 10
599.1995677391188
 20
483.1511232420789
 30
0.0
 41
6.0
 42
6.0
 43
6.0
 50
90.0
  0
INSERT
  5
125C
330
1257
100
AcDbEntity
  8
中箱
 62
     0
100
AcDbBlockReference
  2
_OPEN30
 10
599.1995677391187
 20
203.1511232420789
 30
0.0
 41
6.0
 42
6.0
 43
6.0
 50
270.0
  0
MTEXT
  5
125D
330
1257
100
AcDbEntity
  8
中箱
 62
     0
100
AcDbMText
 10
594.7495677391186
 20
343.151123242079
 30
0.0
 40
6.4
 41
0.0
 71
     5
 72
     1
  1
280
 11
0.0000000000000001
 21
1.0
 31
0.0
1001
ACAD
1000
MTEXTBEGIN
1070
    73
1070
     1
1070
    44
1040
1.0
1070
    74
1070
     0
1000
MTEXTEND
1000
MTEXTBEGIN
1070
    73
1070
     1
1070
    44
1040
1.0
1070
    74
1070
     0
1000
MTEXTEND
  0
POINT
  5
125E
330
1257
100
AcDbEntity
  8
DEFPOINTS
 62
     0
100
AcDbPoint
 10
560.6995677391187
 20
483.1511232420789
 30
0.0
  0
POINT
  5
125F
330
1257
100
AcDbEntity
  8
DEFPOINTS
 62
     0
100
AcDbPoint
 10
560.6995677391187
 20
203.1511232420789
 30
0.0
  0
POINT
  5
1260
330
1257
100
AcDbEntity
  8
DEFPOINTS
 62
     0
100
AcDbPoint
 10
599.1995677391187
 20
203.1511232420789
 30
0.0
  0
ENDBLK
  5
1262
330
1257
100
AcDbEntity
  8
0
100
AcDbBlockEnd
  0
BLOCK
  5
126E
330
1263
100
AcDbEntity
  8
0
100
AcDbBlockBegin
  2
*D4
 70
     1
 10
0.0
 20
0.0
 30
0.0
  3
*D4
  1

  0
LINE
  5
1264
330
1263
100
AcDbEntity
  8
中箱
 62
     0
100
AcDbLine
 10
562.6995677391187
 20
483.1511232420789
 30
0.0
 11
601.6995677391187
 21
483.1511232420789
 31
0.0
  0
LINE
  5
1265
330
1263
100
AcDbEntity
  8
中箱
 62
     0
100
AcDbLine
 10
581.1995677391187
 20
500.6511232420789
 30
0.0
 11
601.6995677391187
 21
500.6511232420789
 31
0.0
  0
LINE
  5
1266
330
1263
100
AcDbEntity
  8
中箱
 62
     0
100
AcDbLine
 10
599.1995677391187
 20
489.1511232420789
 30
0.0
 11
599.1995677391187
 21
494.6511232420789
 31
0.0
  0
LINE
  5
1267
330
1263
100
AcDbEntity
  8
中箱
 62
     0
100
AcDbLine
 10
599.1995677391187
 20
500.6511232420789
 30
0.0
 11
599.1995677391187
 21
527.2844565754123
 31
0.0
  0
INSERT
  5
1268
330
1263
100
AcDbEntity
  8
中箱
 62
     0
100
AcDbBlockReference
  2
_OPEN30
 10
599.1995677391187
 20
483.1511232420789
 30
0.0
 41
6.0
 42
6.0
 43
6.0
 50
270.0
  0
INSERT
  5
1269
330
1263
100
AcDbEntity
  8
中箱
 62
     0
100
AcDbBlockReference
  2
_OPEN30
 10
599.1995677391187
 20
500.6511232420789
 30
0.0
 41
6.0
 42
6.0
 43
6.0
 50
90.0
  0
MTEXT
  5
126A
330
1263
100
AcDbEntity
  8
中箱
 62
     0
100
AcDbMText
 10
594.2162344057853
 20
516.9677899087457
 30
0.0
 40
6.4
 41
0.0
 71
     5
 72
     1
  1
17,5
 11
0.0000000000000001
 21
1.0
 31
0.0
1001
ACAD
1000
MTEXTBEGIN
1070
    73
1070
     1
1070
    44
1040
1.0
1070
    74
1070
     0
1000
MTEXTEND
1000
MTEXTBEGIN
1070
    73
1070
     1
1070
    44
1040
1.0
1070
    74
1070
     0
1000
MTEXTEND
  0
POINT
  5
126B
330
1263
100
AcDbEntity
  8
DEFPOINTS
 62
     0
100
AcDbPoint
 10
560.6995677391187
 20
483.1511232420789
 30
0.0
  0
POINT
  5
126C
330
1263
100
AcDbEntity
  8
DEFPOINTS
 62
     0
100
AcDbPoint
 10
579.1995677391187
 20
500.6511232420789
 30
0.0
  0
POINT
  5
126D
330
1263
100
AcDbEntity
  8
DEFPOINTS
 62
     0
100
AcDbPoint
 10
599.1995677391187
 20
500.6511232420789
 30
0.0
  0
ENDBLK
  5
126F
330
1263
100
AcDbEntity
  8
0
100
AcDbBlockEnd
  0
BLOCK
  5
127B
330
1270
100
AcDbEntity
  8
0
100
AcDbBlockBegin
  2
*D5
 70
     1
 10
0.0
 20
0.0
 30
0.0
  3
*D5
  1

  0
LINE
  5
1271
330
1270
100
AcDbEntity
  8
中箱
 62
     0
100
AcDbLine
 10
564.6995677391187
 20
203.1511232420789
 30
0.0
 11
601.6995677391187
 21
203.1511232420789
 31
0.0
  0
LINE
  5
1272
330
1270
100
AcDbEntity
  8
中箱
 62
     0
100
AcDbLine
 10
581.1995677391187
 20
185.6511232420789
 30
0.0
 11
601.6995677391187
 21
185.6511232420789
 31
0.0
  0
LINE
  5
1273
330
1270
100
AcDbEntity
  8
中箱
 62
     0
100
AcDbLine
 10
599.1995677391187
 20
197.1511232420789
 30
0.0
 11
599.1995677391187
 21
191.6511232420789
 31
0.0
  0
LINE
  5
1274
330
1270
100
AcDbEntity
  8
中箱
 62
     0
100
AcDbLine
 10
599.1995677391187
 20
185.6511232420789
 30
0.0
 11
599.1995677391187
 21
159.0177899087456
 31
0.0
  0
INSERT
  5
1275
330
1270
100
AcDbEntity
  8
中箱
 62
     0
100
AcDbBlockReference
  2
_OPEN30
 10
599.1995677391187
 20
203.1511232420789
 30
0.0
 41
6.0
 42
6.0
 43
6.0
 50
90.0
  0
INSERT
  5
1276
330
1270
100
AcDbEntity
  8
中箱
 62
     0
100
AcDbBlockReference
  2
_OPEN30
 10
599.1995677391187
 20
185.6511232420789
 30
0.0
 41
6.0
 42
6.0
 43
6.0
 50
270.0
  0
MTEXT
  5
1277
330
1270
100
AcDbEntity
  8
中箱
 62
     0
100
AcDbMText
 10
594.2162344057853
 20
169.3344565754123
 30
0.0
 40
6.4
 41
0.0
 71
     5
 72
     1
  1
17,5
 11
0.0000000000000001
 21
1.0
 31
0.0
1001
ACAD
1000
MTEXTBEGIN
1070
    73
1070
     1
1070
    44
1040
1.0
1070
    74
1070
     0
1000
MTEXTEND
1000
MTEXTBEGIN
1070
    73
1070
     1
1070
    44
1040
1.0
1070
    74
1070
     0
1000
MTEXTEND
  0
POINT
  5
1278
330
1270
100
AcDbEntity
  8
DEFPOINTS
 62
     0
100
AcDbPoint
 10
562.6995677391187
 20
203.1511232420789
 30
0.0
  0
POINT
  5
1279
330
1270
100
AcDbEntity
  8
DEFPOINTS
 62
     0
100
AcDbPoint
 10
579.1995677391187
 20
185.6511232420789
 30
0.0
  0
POINT
  5
127A
330
1270
100
AcDbEntity
  8
DEFPOINTS
 62
     0
100
AcDbPoint
 10
599.1995677391187
 20
185.6511232420789
 30
0.0
  0
ENDBLK
  5
127C
330
1270
100
AcDbEntity
  8
0
100
AcDbBlockEnd
  0
BLOCK
  5
1287
330
127D
100
AcDbEntity
  8
0
100
AcDbBlockBegin
  2
*D6
 70
     1
 10
0.0
 20
0.0
 30
0.0
  3
*D6
  1

  0
LINE
  5
127E
330
127D
100
AcDbEntity
  8
中箱
 62
     0
100
AcDbLine
 10
276.6995677391187
 20
196.1511232420789
 30
0.0
 11
276.6995677391187
 21
163.1511232420789
 31
0.0
  0
LINE
  5
127F
330
127D
100
AcDbEntity
  8
中箱
 62
     0
100
AcDbLine
 10
506.6995677391187
 20
196.1511232420789
 30
0.0
 11
506.6995677391187
 21
163.1511232420789
 31
0.0
  0
LINE
  5
1280
330
127D
100
AcDbEntity
  8
中箱
 62
     0
100
AcDbLine
 10
282.6995677391187
 20
165.6511232420789
 30
0.0
 11
500.6995677391187
 21
165.6511232420789
 31
0.0
  0
INSERT
  5
1281
330
127D
100
AcDbEntity
  8
中箱
 62
     0
100
AcDbBlockReference
  2
_OPEN30
 10
276.6995677391187
 20
165.6511232420789
 30
0.0
 41
6.0
 42
6.0
 43
6.0
 50
180.0
  0
INSERT
  5
1282
330
127D
100
AcDbEntity
  8
中箱
 62
     0
100
AcDbBlockReference
  2
_OPEN30
 10
506.6995677391187
 20
165.6511232420789
 30
0.0
 41
6.0
 42
6.0
 43
6.0
  0
MTEXT
  5
1283
330
127D
100
AcDbEntity
  8
中箱
 62
     0
100
AcDbMText
 10
391.6995677391187
 20
170.1011232420789
 30
0.0
 40
6.4
 41
0.0
 71
     5
 72
     1
  1
230
1001
ACAD
1000
MTEXTBEGIN
1070
    73
1070
     1
1070
    44
1040
1.0
1070
    74
1070
     0
1000
MTEXTEND
1000
MTEXTBEGIN
1070
    73
1070
     1
1070
    44
1040
1.0
1070
    74
1070
     0
1000
MTEXTEND
  0
POINT
  5
1284
330
127D
100
AcDbEntity
  8
DEFPOINTS
 62
     0
100
AcDbPoint
 10
276.6995677391187
 20
198.1511232420789
 30
0.0
  0
POINT
  5
1285
330
127D
100
AcDbEntity
  8
DEFPOINTS
 62
     0
100
AcDbPoint
 10
506.6995677391187
 20
198.1511232420789
 30
0.0
  0
POINT
  5
1286
330
127D
100
AcDbEntity
  8
DEFPOINTS
 62
     0
100
AcDbPoint
 10
506.6995677391187
 20
165.6511232420789
 30
0.0
  0
ENDBLK
  5
1288
330
127D
100
AcDbEntity
  8
0
100
AcDbBlockEnd
  0
BLOCK
  5
1293
330
1289
100
AcDbEntity
  8
0
100
AcDbBlockBegin
  2
*D7
 70
     1
 10
0.0
 20
0.0
 30
0.0
  3
*D7
  1

  0
LINE
  5
128A
330
1289
100
AcDbEntity
  8
中箱
 62
     0
100
AcDbLine
 10
506.6995677391187
 20
196.1511232420789
 30
0.0
 11
506.6995677391187
 21
163.1511232420789
 31
0.0
  0
LINE
  5
128B
330
1289
100
AcDbEntity
  8
中箱
 62
     0
100
AcDbLine
 10
551.6995677391187
 20
192.1511232420789
 30
0.0
 11
551.6995677391187
 21
163.1511232420789
 31
0.0
  0
LINE
  5
128C
330
1289
100
AcDbEntity
  8
中箱
 62
     0
100
AcDbLine
 10
512.6995677391187
 20
165.6511232420789
 30
0.0
 11
545.6995677391187
 21
165.6511232420789
 31
0.0
  0
INSERT
  5
128D
330
1289
100
AcDbEntity
  8
中箱
 62
     0
100
AcDbBlockReference
  2
_OPEN30
 10
506.6995677391187
 20
165.6511232420789
 30
0.0
 41
6.0
 42
6.0
 43
6.0
 50
180.0
  0
INSERT
  5
128E
330
1289
100
AcDbEntity
  8
中箱
 62
     0
100
AcDbBlockReference
  2
_OPEN30
 10
551.6995677391187
 20
165.6511232420789
 30
0.0
 41
6.0
 42
6.0
 43
6.0
  0
MTEXT
  5
128F
330
1289
100
AcDbEntity
  8
中箱
 62
     0
100
AcDbMText
 10
529.1995677391187
 20
170.1011232420789
 30
0.0
 40
6.4
 41
0.0
 71
     5
 72
     1
  1
45
1001
ACAD
1000
MTEXTBEGIN
1070
    73
1070
     1
1070
    44
1040
1.0
1070
    74
1070
     0
1000
MTEXTEND
1000
MTEXTBEGIN
1070
    73
1070
     1
1070
    44
1040
1.0
1070
    74
1070
     0
1000
MTEXTEND
  0
POINT
  5
1290
330
1289
100
AcDbEntity
  8
DEFPOINTS
 62
     0
100
AcDbPoint
 10
506.6995677391187
 20
198.1511232420789
 30
0.0
  0
POINT
  5
1291
330
1289
100
AcDbEntity
  8
DEFPOINTS
 62
     0
100
AcDbPoint
 10
551.6995677391187
 20
194.1511232420789
 30
0.0
  0
POINT
  5
1292
330
1289
100
AcDbEntity
  8
DEFPOINTS
 62
     0
100
AcDbPoint
 10
551.6995677391187
 20
165.6511232420789
 30
0.0
  0
ENDBLK
  5
1294
330
1289
100
AcDbEntity
  8
0
100
AcDbBlockEnd
  0
BLOCK
  5
129F
330
1295
100
AcDbEntity
  8
0
100
AcDbBlockBegin
  2
*D8
 70
     1
 10
0.0
 20
0.0
 30
0.0
  3
*D8
  1

  0
LINE
  5
1296
330
1295
100
AcDbEntity
  8
中箱
 62
     0
100
AcDbLine
 10
231.6995677391187
 20
192.1511232420789
 30
0.0
 11
231.6995677391187
 21
163.1511232420789
 31
0.0
  0
LINE
  5
1297
330
1295
100
AcDbEntity
  8
中箱
 62
     0
100
AcDbLine
 10
276.6995677391187
 20
196.1511232420789
 30
0.0
 11
276.6995677391187
 21
163.1511232420789
 31
0.0
  0
LINE
  5
1298
330
1295
100
AcDbEntity
  8
中箱
 62
     0
100
AcDbLine
 10
237.6995677391187
 20
165.6511232420789
 30
0.0
 11
270.6995677391187
 21
165.6511232420789
 31
0.0
  0
INSERT
  5
1299
330
1295
100
AcDbEntity
  8
中箱
 62
     0
100
AcDbBlockReference
  2
_OPEN30
 10
231.6995677391187
 20
165.6511232420789
 30
0.0
 41
6.0
 42
6.0
 43
6.0
 50
180.0
  0
INSERT
  5
129A
330
1295
100
AcDbEntity
  8
中箱
 62
     0
100
AcDbBlockReference
  2
_OPEN30
 10
276.6995677391187
 20
165.6511232420789
 30
0.0
 41
6.0
 42
6.0
 43
6.0
  0
MTEXT
  5
129B
330
1295
100
AcDbEntity
  8
中箱
 62
     0
100
AcDbMText
 10
254.1995677391187
 20
170.1011232420789
 30
0.0
 40
6.4
 41
0.0
 71
     5
 72
     1
  1
45
1001
ACAD
1000
MTEXTBEGIN
1070
    73
1070
     1
1070
    44
1040
1.0
1070
    74
1070
     0
1000
MTEXTEND
1000
MTEXTBEGIN
1070
    73
1070
     1
1070
    44
1040
1.0
1070
    74
1070
     0
1000
MTEXTEND
  0
POINT
  5
129C
330
1295
100
AcDbEntity
  8
DEFPOINTS
 62
     0
100
AcDbPoint
 10
231.6995677391187
 20
194.1511232420789
 30
0.0
  0
POINT
  5
129D
330
1295
100
AcDbEntity
  8
DEFPOINTS
 62
     0
100
AcDbPoint
 10
276.6995677391187
 20
198.1511232420789
 30
0.0
  0
POINT
  5
129E
330
1295
100
AcDbEntity
  8
DEFPOINTS
 62
     0
100
AcDbPoint
 10
276.6995677391187
 20
165.6511232420789
 30
0.0
  0
ENDBLK
  5
12A0
330
1295
100
AcDbEntity
  8
0
100
AcDbBlockEnd
  0
BLOCK
  5
12AB
330
12A1
100
AcDbEntity
  8
0
100
AcDbBlockBegin
  2
*D9
 70
     1
 10
0.0
 20
0.0
 30
0.0
  3
*D9
  1

  0
LINE
  5
12A2
330
12A1
100
AcDbEntity
  8
中箱
 62
     0
100
AcDbLine
 10
231.6995677391187
 20
192.1511232420789
 30
0.0
 11
231.6995677391187
 21
163.1511232420789
 31
0.0
  0
LINE
  5
12A3
330
12A1
100
AcDbEntity
  8
中箱
 62
     0
100
AcDbLine
 10
204.1995677391187
 20
183.6511232420789
 30
0.0
 11
204.1995677391187
 21
163.1511232420789
 31
0.0
  0
LINE
  5
12A4
330
12A1
100
AcDbEntity
  8
中箱
 62
     0
100
AcDbLine
 10
225.6995677391187
 20
165.6511232420789
 30
0.0
 11
210.1995677391187
 21
165.6511232420789
 31
0.0
  0
INSERT
  5
12A5
330
12A1
100
AcDbEntity
  8
中箱
 62
     0
100
AcDbBlockReference
  2
_OPEN30
 10
231.6995677391187
 20
165.6511232420789
 30
0.0
 41
6.0
 42
6.0
 43
6.0
  0
INSERT
  5
12A6
330
12A1
100
AcDbEntity
  8
中箱
 62
     0
100
AcDbBlockReference
  2
_OPEN30
 10
204.1995677391187
 20
165.6511232420789
 30
0.0
 41
6.0
 42
6.0
 43
6.0
 50
180.0
  0
MTEXT
  5
12A7
330
12A1
100
AcDbEntity
  8
中箱
 62
     0
100
AcDbMText
 10
217.9495677391187
 20
170.6344565754122
 30
0.0
 40
6.4
 41
0.0
 71
     5
 72
     1
  1
27,5
1001
ACAD
1000
MTEXTBEGIN
1070
    73
1070
     1
1070
    44
1040
1.0
1070
    74
1070
     0
1000
MTEXTEND
1000
MTEXTBEGIN
1070
    73
1070
     1
1070
    44
1040
1.0
1070
    74
1070
     0
1000
MTEXTEND
  0
POINT
  5
12A8
330
12A1
100
AcDbEntity
  8
DEFPOINTS
 62
     0
100
AcDbPoint
 10
231.6995677391187
 20
194.1511232420789
 30
0.0
  0
POINT
  5
12A9
330
12A1
100
AcDbEntity
  8
DEFPOINTS
 62
     0
100
AcDbPoint
 10
204.1995677391187
 20
185.6511232420789
 30
0.0
  0
POINT
  5
12AA
330
12A1
100
AcDbEntity
  8
DEFPOINTS
 62
     0
100
AcDbPoint
 10
204.1995677391187
 20
165.6511232420789
 30
0.0
  0
ENDBLK
  5
12AC
330
12A1
100
AcDbEntity
  8
0
100
AcDbBlockEnd
  0
BLOCK
  5
12B7
330
12AD
100
AcDbEntity
  8
0
100
AcDbBlockBegin
  2
*D10
 70
     1
 10
0.0
 20
0.0
 30
0.0
  3
*D10
  1

  0
LINE
  5
12AE
330
12AD
100
AcDbEntity
  8
中箱
 62
     0
100
AcDbLine
 10
551.6995677391187
 20
192.1511232420789
 30
0.0
 11
551.6995677391187
 21
163.1511232420789
 31
0.0
  0
LINE
  5
12AF
330
12AD
100
AcDbEntity
  8
中箱
 62
     0
100
AcDbLine
 10
579.1995677391187
 20
183.6511232420789
 30
0.0
 11
579.1995677391187
 21
163.1511232420789
 31
0.0
  0
LINE
  5
12B0
330
12AD
100
AcDbEntity
  8
中箱
 62
     0
100
AcDbLine
 10
557.6995677391187
 20
165.6511232420789
 30
0.0
 11
573.1995677391187
 21
165.6511232420789
 31
0.0
  0
INSERT
  5
12B1
330
12AD
100
AcDbEntity
  8
中箱
 62
     0
100
AcDbBlockReference
  2
_OPEN30
 10
551.6995677391187
 20
165.6511232420789
 30
0.0
 41
6.0
 42
6.0
 43
6.0
 50
180.0
  0
INSERT
  5
12B2
330
12AD
100
AcDbEntity
  8
中箱
 62
     0
100
AcDbBlockReference
  2
_OPEN30
 10
579.1995677391187
 20
165.6511232420789
 30
0.0
 41
6.0
 42
6.0
 43
6.0
  0
MTEXT
  5
12B3
330
12AD
100
AcDbEntity
  8
中箱
 62
     0
100
AcDbMText
 10
565.4495677391187
 20
170.6344565754122
 30
0.0
 40
6.4
 41
0.0
 71
     5
 72
     1
  1
27,5
1001
ACAD
1000
MTEXTBEGIN
1070
    73
1070
     1
1070
    44
1040
1.0
1070
    74
1070
     0
1000
MTEXTEND
1000
MTEXTBEGIN
1070
    73
1070
     1
1070
    44
1040
1.0
1070
    74
1070
     0
1000
MTEXTEND
  0
POINT
  5
12B4
330
12AD
100
AcDbEntity
  8
DEFPOINTS
 62
     0
100
AcDbPoint
 10
551.6995677391187
 20
194.1511232420789
 30
0.0
  0
POINT
  5
12B5
330
12AD
100
AcDbEntity
  8
DEFPOINTS
 62
     0
100
AcDbPoint
 10
579.1995677391187
 20
185.6511232420789
 30
0.0
  0
POINT
  5
12B6
330
12AD
100
AcDbEntity
  8
DEFPOINTS
 62
     0
100
AcDbPoint
 10
579.1995677391187
 20
165.6511232420789
 30
0.0
  0
ENDBLK
  5
12B8
330
12AD
100
AcDbEntity
  8
0
100
AcDbBlockEnd
  0
BLOCK
  5
12C3
330
12B9
100
AcDbEntity
  8
0
100
AcDbBlockBegin
  2
*D11
 70
     1
 10
0.0
 20
0.0
 30
0.0
  3
*D11
  1

  0
LINE
  5
12BA
330
12B9
100
AcDbEntity
  8
中箱
 62
     0
100
AcDbLine
 10
202.1995677391187
 20
185.6511232420789
 30
0.0
 11
181.6995677391186
 21
185.6511232420789
 31
0.0
  0
LINE
  5
12BB
330
12B9
100
AcDbEntity
  8
中箱
 62
     0
100
AcDbLine
 10
202.1995677391187
 20
500.6511232420789
 30
0.0
 11
181.6995677391187
 21
500.6511232420789
 31
0.0
  0
LINE
  5
12BC
330
12B9
100
AcDbEntity
  8
中箱
 62
     0
100
AcDbLine
 10
184.1995677391186
 20
191.651123242079
 30
0.0
 11
184.1995677391187
 21
494.6511232420789
 31
0.0
  0
INSERT
  5
12BD
330
12B9
100
AcDbEntity
  8
中箱
 62
     0
100
AcDbBlockReference
  2
_OPEN30
 10
184.1995677391186
 20
185.6511232420789
 30
0.0
 41
6.0
 42
6.0
 43
6.0
 50
270.0
  0
INSERT
  5
12BE
330
12B9
100
AcDbEntity
  8
中箱
 62
     0
100
AcDbBlockReference
  2
_OPEN30
 10
184.1995677391187
 20
500.6511232420789
 30
0.0
 41
6.0
 42
6.0
 43
6.0
 50
90.0
  0
MTEXT
  5
12BF
330
12B9
100
AcDbEntity
  8
中箱
 62
     0
100
AcDbMText
 10
179.7495677391186
 20
343.151123242079
 30
0.0
 40
6.4
 41
0.0
 71
     5
 72
     1
  1
315
 11
0.0000000000000001
 21
1.0
 31
0.0
1001
ACAD
1000
MTEXTBEGIN
1070
    73
1070
     1
1070
    44
1040
1.0
1070
    74
1070
     0
1000
MTEXTEND
1000
MTEXTBEGIN
1070
    73
1070
     1
1070
    44
1040
1.0
1070
    74
1070
     0
1000
MTEXTEND
  0
POINT
  5
12C0
330
12B9
100
AcDbEntity
  8
DEFPOINTS
 62
     0
100
AcDbPoint
 10
204.1995677391187
 20
185.6511232420789
 30
0.0
  0
POINT
  5
12C1
330
12B9
100
AcDbEntity
  8
DEFPOINTS
 62
     0
100
AcDbPoint
 10
204.1995677391187
 20
500.6511232420789
 30
0.0
  0
POINT
  5
12C2
330
12B9
100
AcDbEntity
  8
DEFPOINTS
 62
     0
100
AcDbPoint
 10
184.1995677391187
 20
500.6511232420789
 30
0.0
  0
ENDBLK
  5
12C4
330
12B9
100
AcDbEntity
  8
0
100
AcDbBlockEnd
  0
BLOCK
  5
12CF
330
12C5
100
AcDbEntity
  8
0
100
AcDbBlockBegin
  2
*D12
 70
     1
 10
0.0
 20
0.0
 30
0.0
  3
*D12
  1

  0
LINE
  5
12C6
330
12C5
100
AcDbEntity
  8
中箱
 62
     0
100
AcDbLine
 10
579.1995677391187
 20
502.6511232420789
 30
0.0
 11
579.1995677391187
 21
523.1511232420789
 31
0.0
  0
LINE
  5
12C7
330
12C5
100
AcDbEntity
  8
中箱
 62
     0
100
AcDbLine
 10
204.1995677391187
 20
502.6511232420789
 30
0.0
 11
204.1995677391187
 21
523.1511232420789
 31
0.0
  0
LINE
  5
12C8
330
12C5
100
AcDbEntity
  8
中箱
 62
     0
100
AcDbLine
 10
573.1995677391187
 20
520.6511232420789
 30
0.0
 11
210.1995677391187
 21
520.6511232420789
 31
0.0
  0
INSERT
  5
12C9
330
12C5
100
AcDbEntity
  8
中箱
 62
     0
100
AcDbBlockReference
  2
_OPEN30
 10
579.1995677391187
 20
520.6511232420789
 30
0.0
 41
6.0
 42
6.0
 43
6.0
  0
INSERT
  5
12CA
330
12C5
100
AcDbEntity
  8
中箱
 62
     0
100
AcDbBlockReference
  2
_OPEN30
 10
204.1995677391187
 20
520.6511232420789
 30
0.0
 41
6.0
 42
6.0
 43
6.0
 50
180.0
  0
MTEXT
  5
12CB
330
12C5
100
AcDbEntity
  8
中箱
 62
     0
100
AcDbMText
 10
391.6995677391187
 20
525.101123242079
 30
0.0
 40
6.4
 41
0.0
 71
     5
 72
     1
  1
375
1001
ACAD
1000
MTEXTBEGIN
1070
    73
1070
     1
1070
    44
1040
1.0
1070
    74
1070
     0
1000
MTEXTEND
1000
MTEXTBEGIN
1070
    73
1070
     1
1070
    44
1040
1.0
1070
    74
1070
     0
1000
MTEXTEND
  0
POINT
  5
12CC
330
12C5
100
AcDbEntity
  8
DEFPOINTS
 62
     0
100
AcDbPoint
 10
579.1995677391187
 20
500.6511232420789
 30
0.0
  0
POINT
  5
12CD
330
12C5
100
AcDbEntity
  8
DEFPOINTS
 62
     0
100
AcDbPoint
 10
204.1995677391187
 20
500.6511232420789
 30
0.0
  0
POINT
  5
12CE
330
12C5
100
AcDbEntity
  8
DEFPOINTS
 62
     0
100
AcDbPoint
 10
204.1995677391187
 20
520.6511232420789
 30
0.0
  0
ENDBLK
  5
12D0
330
12C5
100
AcDbEntity
  8
0
100
AcDbBlockEnd
  0
BLOCK
  5
1305
330
12D1
100
AcDbEntity
  8
0
100
AcDbBlockBegin
  2
A$C7D1D0C12
 70
     0
 10
0.0
 20
0.0
 30
0.0
  3
A$C7D1D0C12
  1

  0
CIRCLE
  5
12D2
330
12D1
100
AcDbEntity
  8
1_実線
100
AcDbCircle
 10
-362.5166666666666
 20
313.8166666666665
 30
0.0
 40
6.5
  0
CIRCLE
  5
12D3
330
12D1
100
AcDbEntity
  8
1_実線
100
AcDbCircle
 10
-362.5166666666666
 20
33.81666666666655
 30
0.0
 40
6.5
  0
CIRCLE
  5
12D4
330
12D1
100
AcDbEntity
  8
1_実線
100
AcDbCircle
 10
-42.51666666666665
 20
313.8166666666665
 30
0.0
 40
6.5
  0
CIRCLE
  5
12D5
330
12D1
100
AcDbEntity
  8
1_実線
100
AcDbCircle
 10
-42.51666666666665
 20
33.81666666666655
 30
0.0
 40
6.5
  0
LINE
  5
12D6
330
12D1
100
AcDbEntity
  8
1_実線
100
AcDbLine
 10
-390.0166666666666
 20
331.3166666666665
 30
0.0
 11
-15.01666666666665
 21
331.3166666666665
 31
0.0
  0
LINE
  5
12D7
330
12D1
100
AcDbEntity
  8
1_実線
100
AcDbLine
 10
-15.01666666666665
 20
331.3166666666665
 30
0.0
 11
-15.01666666666665
 21
16.31666666666655
 31
0.0
  0
LINE
  5
12D8
330
12D1
100
AcDbEntity
  8
1_実線
100
AcDbLine
 10
-15.01666666666665
 20
16.31666666666655
 30
0.0
 11
-390.0166666666666
 21
16.31666666666655
 31
0.0
  0
LINE
  5
12D9
330
12D1
100
AcDbEntity
  8
1_実線
100
AcDbLine
 10
-390.0166666666666
 20
16.31666666666655
 30
0.0
 11
-390.0166666666666
 21
331.3166666666665
 31
0.0
  0
CIRCLE
  5
12DA
330
12D1
100
AcDbEntity
  8
1_実線
100
AcDbCircle
 10
-317.5166666666666
 20
313.8166666666665
 30
0.0
 40
2.75
  0
CIRCLE
  5
12DB
330
12D1
100
AcDbEntity
  8
1_実線
100
AcDbCircle
 10
-87.51666666666665
 20
313.8166666666665
 30
0.0
 40
2.75
  0
CIRCLE
  5
12DC
330
12D1
100
AcDbEntity
  8
1_実線
100
AcDbCircle
 10
-87.51666666666665
 20
33.81666666666655
 30
0.0
 40
2.75
  0
CIRCLE
  5
12DD
330
12D1
100
AcDbEntity
  8
1_実線
100
AcDbCircle
 10
-317.5166666666666
 20
33.81666666666655
 30
0.0
 40
2.75
  0
LINE
  5
12DE
330
12D1
100
AcDbEntity
  8
6_中心線1短
100
AcDbLine
 10
-322.5166666666666
 20
313.8166666666665
 30
0.0
 11
-312.5166666666666
 21
313.8166666666665
 31
0.0
  0
LINE
  5
12DF
330
12D1
100
AcDbEntity
  8
6_中心線1短
100
AcDbLine
 10
-317.5166666666666
 20
308.8166666666665
 30
0.0
 11
-317.5166666666666
 21
318.8166666666665
 31
0.0
  0
LINE
  5
12E0
330
12D1
100
AcDbEntity
  8
6_中心線1短
100
AcDbLine
 10
-322.5166666666666
 20
33.81666666666655
 30
0.0
 11
-312.5166666666666
 21
33.81666666666655
 31
0.0
  0
LINE
  5
12E1
330
12D1
100
AcDbEntity
  8
6_中心線1短
100
AcDbLine
 10
-317.5166666666666
 20
28.81666666666655
 30
0.0
 11
-317.5166666666666
 21
38.81666666666655
 31
0.0
  0
LINE
  5
12E2
330
12D1
100
AcDbEntity
  8
6_中心線1短
100
AcDbLine
 10
-92.51666666666665
 20
33.81666666666655
 30
0.0
 11
-82.51666666666665
 21
33.81666666666655
 31
0.0
  0
LINE
  5
12E3
330
12D1
100
AcDbEntity
  8
6_中心線1短
100
AcDbLine
 10
-87.51666666666665
 20
28.81666666666655
 30
0.0
 11
-87.51666666666665
 21
38.81666666666655
 31
0.0
  0
LINE
  5
12E4
330
12D1
100
AcDbEntity
  8
6_中心線1短
100
AcDbLine
 10
-92.51666666666665
 20
313.8166666666665
 30
0.0
 11
-82.51666666666665
 21
313.8166666666665
 31
0.0
  0
LINE
  5
12E5
330
12D1
100
AcDbEntity
  8
6_中心線1短
100
AcDbLine
 10
-87.51666666666665
 20
308.8166666666665
 30
0.0
 11
-87.51666666666665
 21
318.8166666666665
 31
0.0
  0
LINE
  5
12E6
330
12D1
100
AcDbEntity
  8
8_中心線3長
100
AcDbLine
 10
-371.5166666666666
 20
313.8166666666665
 30
0.0
 11
-353.5166666666666
 21
313.8166666666665
 31
0.0
  0
LINE
  5
12E7
330
12D1
100
AcDbEntity
  8
8_中心線3長
100
AcDbLine
 10
-362.5166666666666
 20
304.8166666666665
 30
0.0
 11
-362.5166666666666
 21
322.8166666666665
 31
0.0
  0
LINE
  5
12E8
330
12D1
100
AcDbEntity
  8
8_中心線3長
100
AcDbLine
 10
-371.5166666666666
 20
33.81666666666655
 30
0.0
 11
-353.5166666666666
 21
33.81666666666655
 31
0.0
  0
LINE
  5
12E9
330
12D1
100
AcDbEntity
  8
8_中心線3長
100
AcDbLine
 10
-362.5166666666666
 20
24.81666666666654
 30
0.0
 11
-362.5166666666666
 21
42.81666666666654
 31
0.0
  0
LINE
  5
12EA
330
12D1
100
AcDbEntity
  8
8_中心線3長
100
AcDbLine
 10
-51.51666666666665
 20
33.81666666666655
 30
0.0
 11
-33.51666666666665
 21
33.81666666666655
 31
0.0
  0
LINE
  5
12EB
330
12D1
100
AcDbEntity
  8
8_中心線3長
100
AcDbLine
 10
-42.51666666666665
 20
24.81666666666654
 30
0.0
 11
-42.51666666666665
 21
42.81666666666654
 31
0.0
  0
LINE
  5
12EC
330
12D1
100
AcDbEntity
  8
8_中心線3長
100
AcDbLine
 10
-51.51666666666665
 20
313.8166666666665
 30
0.0
 11
-33.51666666666665
 21
313.8166666666665
 31
0.0
  0
LINE
  5
12ED
330
12D1
100
AcDbEntity
  8
8_中心線3長
100
AcDbLine
 10
-42.51666666666665
 20
304.8166666666665
 30
0.0
 11
-42.51666666666665
 21
322.8166666666665
 31
0.0
  0
LINE
  5
12EE
330
12D1
100
AcDbEntity
  8
8_中心線3長
100
AcDbLine
 10
-356.0166666666666
 20
313.8166666666665
 30
0.0
 11
-51.51666666666665
 21
313.8166666666665
 31
0.0
  0
LINE
  5
12EF
330
12D1
100
AcDbEntity
  8
8_中心線3長
100
AcDbLine
 10
-356.0166666666666
 20
33.81666666666655
 30
0.0
 11
-51.51666666666665
 21
33.81666666666655
 31
0.0
  0
LINE
  5
12F0
330
12D1
100
AcDbEntity
  8
8_中心線3長
100
AcDbLine
 10
-440.0166666666666
 20
173.8166666666665
 30
0.0
 11
-420.0166666666666
 21
173.8166666666665
 31
0.0
  0
LINE
  5
12F1
330
12D1
100
AcDbEntity
  8
8_中心線3長
100
AcDbLine
 10
-410.0166666666666
 20
173.8166666666665
 30
0.0
 11
-5.016666666666651
 21
173.8166666666665
 31
0.0
  0
LINE
  5
12F2
330
12D1
100
AcDbEntity
  8
8_中心線3長
100
AcDbLine
 10
4.983333333333348
 20
173.8166666666665
 30
0.0
 11
24.98333333333334
 21
173.8166666666665
 31
0.0
  0
DIMENSION
  5
12F3
330
12D1
100
AcDbEntity
  8
中箱
100
AcDbDimension
  2
*D3
 10
4.983333333333348
 20
33.81666666666652
 30
0.0
 11
0.5333333333333031
 21
173.8166666666666
 31
0.0
 12
-594.2162344057853
 22
-169.3344565754123
 32
0.0
  3
ISO-25
100
AcDbAlignedDimension
 13
-33.51666666666665
 23
313.8166666666665
 33
0.0
 14
-33.51666666666665
 24
33.81666666666655
 34
0.0
 50
90.0
100
AcDbRotatedDimension
  0
DIMENSION
  5
12F4
330
12D1
100
AcDbEntity
  8
中箱
100
AcDbDimension
  2
*D4
 10
4.983333333333348
 20
331.3166666666665
 30
0.0
 11
-0.0000000000001137
 21
347.6333333333333
 31
0.0
 12
-594.2162344057853
 22
-169.3344565754123
 32
0.0
  3
ISO-25
100
AcDbAlignedDimension
 13
-33.51666666666665
 23
313.8166666666665
 33
0.0
 14
-15.01666666666665
 24
331.3166666666665
 34
0.0
 50
90.0
100
AcDbRotatedDimension
  0
DIMENSION
  5
12F5
330
12D1
100
AcDbEntity
  8
中箱
100
AcDbDimension
  2
*D5
 10
4.983333333333348
 20
16.31666666666655
 30
0.0
 11
0.0
 21
0.0
 31
0.0
 12
-594.2162344057853
 22
-169.3344565754123
 32
0.0
  3
ISO-25
100
AcDbAlignedDimension
 13
-31.51666666666665
 23
33.81666666666655
 33
0.0
 14
-15.01666666666665
 24
16.31666666666655
 34
0.0
 50
90.0
100
AcDbRotatedDimension
  0
DIMENSION
  5
12F6
330
12D1
100
AcDbEntity
  8
中箱
100
AcDbDimension
  2
*D6
 10
-87.51666666666665
 20
-3.68333333333345
 30
0.0
 11
-202.5166666666666
 21
0.7666666666665379
 31
0.0
 12
-594.2162344057853
 22
-169.3344565754123
 32
0.0
  3
ISO-25
100
AcDbAlignedDimension
 13
-317.5166666666666
 23
28.81666666666655
 33
0.0
 14
-87.51666666666665
 24
28.81666666666655
 34
0.0
100
AcDbRotatedDimension
  0
DIMENSION
  5
12F7
330
12D1
100
AcDbEntity
  8
中箱
100
AcDbDimension
  2
*D7
 10
-42.51666666666665
 20
-3.68333333333345
 30
0.0
 11
-65.01666666666665
 21
0.7666666666665379
 31
0.0
 12
-594.2162344057853
 22
-169.3344565754123
 32
0.0
  3
ISO-25
100
AcDbAlignedDimension
 13
-87.51666666666665
 23
28.81666666666655
 33
0.0
 14
-42.51666666666665
 24
24.81666666666654
 34
0.0
100
AcDbRotatedDimension
  0
DIMENSION
  5
12F8
330
12D1
100
AcDbEntity
  8
中箱
100
AcDbDimension
  2
*D8
 10
-317.5166666666666
 20
-3.68333333333345
 30
0.0
 11
-340.0166666666666
 21
0.7666666666665379
 31
0.0
 12
-594.2162344057853
 22
-169.3344565754123
 32
0.0
  3
ISO-25
100
AcDbAlignedDimension
 13
-362.5166666666666
 23
24.81666666666654
 33
0.0
 14
-317.5166666666666
 24
28.81666666666655
 34
0.0
100
AcDbRotatedDimension
  0
DIMENSION
  5
12F9
330
12D1
100
AcDbEntity
  8
中箱
100
AcDbDimension
  2
*D9
 10
-390.0166666666666
 20
-3.68333333333345
 30
0.0
 11
-376.2666666666666
 21
1.299999999999869
 31
0.0
 12
-594.2162344057853
 22
-169.3344565754123
 32
0.0
  3
ISO-25
100
AcDbAlignedDimension
 13
-362.5166666666666
 23
24.81666666666654
 33
0.0
 14
-390.0166666666666
 24
16.31666666666655
 34
0.0
100
AcDbRotatedDimension
  0
DIMENSION
  5
12FA
330
12D1
100
AcDbEntity
  8
中箱
100
AcDbDimension
  2
*D10
 10
-15.01666666666665
 20
-3.68333333333345
 30
0.0
 11
-28.76666666666665
 21
1.299999999999869
 31
0.0
 12
-594.2162344057853
 22
-169.3344565754123
 32
0.0
  3
ISO-25
100
AcDbAlignedDimension
 13
-42.51666666666665
 23
24.81666666666654
 33
0.0
 14
-15.01666666666665
 24
16.31666666666655
 34
0.0
100
AcDbRotatedDimension
  0
DIMENSION
  5
12FB
330
12D1
100
AcDbEntity
  8
中箱
100
AcDbDimension
  2
*D11
 10
-410.0166666666666
 20
331.3166666666665
 30
0.0
 11
-414.4666666666666
 21
173.8166666666666
 31
0.0
 12
-594.2162344057853
 22
-169.3344565754123
 32
0.0
  3
ISO-25
100
AcDbAlignedDimension
 13
-390.0166666666666
 23
16.31666666666657
 33
0.0
 14
-390.0166666666666
 24
331.3166666666665
 34
0.0
 50
90.0
100
AcDbRotatedDimension
  0
DIMENSION
  5
12FC
330
12D1
100
AcDbEntity
  8
中箱
100
AcDbDimension
  2
*D12
 10
-390.0166666666666
 20
351.3166666666665
 30
0.0
 11
-202.5166666666666
 21
355.7666666666666
 31
0.0
 12
-594.2162344057853
 22
-169.3344565754123
 32
0.0
  3
ISO-25
100
AcDbAlignedDimension
 13
-15.01666666666665
 23
331.3166666666665
 33
0.0
 14
-390.0166666666666
 24
331.3166666666665
 34
0.0
100
AcDbRotatedDimension
  0
LEADER
  5
12FD
330
12D1
100
AcDbEntity
  8
中箱
100
AcDbLeader
  3
ISO-25
 76
     2
 10
-358.0105231399277
 20
309.3233724524023
 30
0.0
 10
-309.43427463097
 20
246.8087968315546
 30
0.0
1001
ACAD
1000
DSTYLE
1002
{
1070
     5
1000
OPEN
1070
    77
1070
     0
1070
   147
1040
0.625
1002
}
  0
LEADER
  5
12FE
330
12D1
100
AcDbEntity
  8
中箱
100
AcDbLeader
  3
ISO-25
 76
     2
 10
-314.8991027111217
 20
34.98756266286324
 30
0.0
 10
-280.2885248701609
 20
85.3633861092041
 30
0.0
1001
ACAD
1000
DSTYLE
1002
{
1070
     5
1000
OPEN
1070
    77
1070
     0
1070
   147
1040
0.625
1002
}
  0
TEXT
  5
12FF
330
12D1
100
AcDbEntity
  8
中箱
100
AcDbText
 10
-308.5497921943997
 20
249.0086671517782
 30
0.0
 40
6.4
  1
4-\U+220513
100
AcDbText
  0
TEXT
  5
1300
330
12D1
100
AcDbEntity
  8
中箱
100
AcDbText
 10
-277.2083848835082
 20
88.05802740231866
 30
0.0
 40
6.4
  1
4-\U+22055.5
100
AcDbText
  0
LINE
  5
1301
330
12D1
100
AcDbEntity
  8
中箱
100
AcDbLine
 10
-309.43427463097
 20
246.8087968315546
 30
0.0
 11
-280.3311444887033
 21
246.8087968315546
 31
0.0
  0
LINE
  5
1302
330
12D1
100
AcDbEntity
  8
中箱
100
AcDbLine
 10
-280.2885248701609
 20
85.3633861092041
 30
0.0
 11
-239.2659622414432
 21
85.3633861092041
 31
0.0
  0
ENDBLK
  5
1306
330
12D1
100
AcDbEntity
  8
0
100
AcDbBlockEnd
  0
BLOCK
  5
136D
330
130E
100
AcDbEntity
  8
0
100
AcDbBlockBegin
  2
Ａ_３_タイトルブロック
 70
     0
 10
0.0
 20
0.0
 30
0.0
  3
Ａ_３_タイトルブロック
  1

  0
LINE
  5
130F
330
130E
100
AcDbEntity
  8
0
100
AcDbLine
 10
409.9999999999999
 20
10.0
 30
0.0
 11
409.9999999999999
 21
38.0
 31
0.0
  0
LINE
  5
1310
330
130E
100
AcDbEntity
  8
0
100
AcDbLine
 10
409.9999999999999
 20
287.0
 30
0.0
 11
24.99999999999994
 21
287.0
 31
0.0
  0
LINE
  5
1311
330
130E
100
AcDbEntity
  8
0
100
AcDbLine
 10
229.9999999999999
 20
10.0
 30
0.0
 11
409.9999999999999
 21
10.0
 31
0.0
  0
LINE
  5
1312
330
130E
100
AcDbEntity
  8
0
100
AcDbLine
 10
24.99999999999994
 20
287.0
 30
0.0
 11
25.0
 21
10.0
 31
0.0
  0
LINE
  5
1313
330
130E
100
AcDbEntity
  8
0
100
AcDbLine
 10
304.9999999999999
 20
22.0
 30
0.0
 11
409.9999999999999
 21
22.0
 31
0.0
  0
LINE
  5
1314
330
130E
100
AcDbEntity
  8
0
100
AcDbLine
 10
304.9999999999999
 20
30.0
 30
0.0
 11
409.9999999999999
 21
30.0
 31
0.0
  0
LINE
  5
1315
330
130E
100
AcDbEntity
  8
0
100
AcDbLine
 10
229.9999999999999
 20
38.0
 30
0.0
 11
409.9999999999999
 21
38.0
 31
0.0
  0
LINE
  5
1316
330
130E
100
AcDbEntity
  8
0
100
AcDbLine
 10
304.9999999999999
 20
10.0
 30
0.0
 11
304.9999999999999
 21
38.0
 31
0.0
  0
LINE
  5
1317
330
130E
100
AcDbEntity
  8
0
100
AcDbLine
 10
229.9999999999999
 20
10.0
 30
0.0
 11
229.9999999999999
 21
38.0
 31
0.0
  0
LINE
  5
1318
330
130E
100
AcDbEntity
  8
0
100
AcDbLine
 10
328.9999999999999
 20
30.0
 30
0.0
 11
328.9999999999999
 21
38.0
 31
0.0
  0
LINE
  5
1319
330
130E
100
AcDbEntity
  8
0
100
AcDbLine
 10
336.9999999999999
 20
30.0
 30
0.0
 11
336.9999999999999
 21
38.0
 31
0.0
  0
LINE
  5
131A
330
130E
100
AcDbEntity
  8
0
100
AcDbLine
 10
344.9999999999999
 20
30.0
 30
0.0
 11
344.9999999999999
 21
38.0
 31
0.0
  0
LINE
  5
131B
330
130E
100
AcDbEntity
  8
0
100
AcDbLine
 10
352.9999999999999
 20
30.0
 30
0.0
 11
352.9999999999999
 21
38.0
 31
0.0
  0
LINE
  5
131C
330
130E
100
AcDbEntity
  8
0
100
AcDbLine
 10
367.9999999999999
 20
30.0
 30
0.0
 11
367.9999999999999
 21
38.0
 31
0.0
  0
LINE
  5
131D
330
130E
100
AcDbEntity
  8
0
100
AcDbLine
 10
375.9999999999999
 20
30.0
 30
0.0
 11
375.9999999999999
 21
38.0
 31
0.0
  0
LINE
  5
131E
330
130E
100
AcDbEntity
  8
0
100
AcDbLine
 10
393.9999999999999
 20
30.0
 30
0.0
 11
393.9999999999999
 21
38.0
 31
0.0
  0
LINE
  5
131F
330
130E
100
AcDbEntity
  8
0
100
AcDbLine
 10
401.9999999999999
 20
30.0
 30
0.0
 11
401.9999999999999
 21
38.0
 31
0.0
  0
LINE
  5
1320
330
130E
100
AcDbEntity
  8
0
100
AcDbLine
 10
362.9999999999999
 20
10.0
 30
0.0
 11
362.9999999999999
 21
30.0
 31
0.0
  0
LINE
  5
1321
330
130E
100
AcDbEntity
  8
0
100
AcDbLine
 10
304.9999999999999
 20
30.0
 30
0.0
 11
230.0
 21
30.00000000000005
 31
0.0
  0
LINE
  5
1322
330
130E
100
AcDbEntity
  8
0
100
AcDbLine
 10
304.9999999999999
 20
34.0
 30
0.0
 11
230.0
 21
34.00000000000005
 31
0.0
  0
LINE
  5
1323
330
130E
100
AcDbEntity
  8
0
100
AcDbLine
 10
304.9999999999999
 20
26.0
 30
0.0
 11
229.9999999999999
 21
26.00000000000005
 31
0.0
  0
LINE
  5
1324
330
130E
100
AcDbEntity
  8
0
100
AcDbLine
 10
229.9999999999999
 20
14.0
 30
0.0
 11
304.9999999999999
 21
14.0
 31
0.0
  0
LINE
  5
1325
330
130E
100
AcDbEntity
  8
0
100
AcDbLine
 10
304.9999999999999
 20
34.0
 30
0.0
 11
328.9999999999999
 21
34.0
 31
0.0
  0
LINE
  5
1326
330
130E
100
AcDbEntity
  8
0
100
AcDbLine
 10
281.9999999999999
 20
10.0
 30
0.0
 11
281.9999999999999
 21
38.0
 31
0.0
  0
LINE
  5
1327
330
130E
100
AcDbEntity
  8
0
100
AcDbLine
 10
281.9999999999999
 20
18.0
 30
0.0
 11
304.9999999999999
 21
18.0
 31
0.0
  0
LINE
  5
1328
330
130E
100
AcDbEntity
  8
0
100
AcDbLine
 10
281.9999999999999
 20
22.0
 30
0.0
 11
304.9999999999999
 21
22.0
 31
0.0
  0
LINE
  5
1329
330
130E
100
AcDbEntity
  8
0
100
AcDbLine
 10
268.9999999999999
 20
10.0
 30
0.0
 11
268.9999999999999
 21
26.00000000000003
 31
0.0
  0
LINE
  5
132A
330
130E
100
AcDbEntity
  8
0
100
AcDbLine
 10
255.9999999999999
 20
10.0
 30
0.0
 11
255.9999999999999
 21
26.00000000000004
 31
0.0
  0
LINE
  5
132B
330
130E
100
AcDbEntity
  8
0
100
AcDbLine
 10
242.9999999999999
 20
10.0
 30
0.0
 11
242.9999999999999
 21
26.00000000000004
 31
0.0
  0
LINE
  5
132C
330
130E
100
AcDbEntity
  8
0
100
AcDbLine
 10
293.9999999999999
 20
10.0
 30
0.0
 11
294.0
 21
34.00000000000001
 31
0.0
  0
LINE
  5
132D
330
130E
100
AcDbEntity
  8
0
100
AcDbLine
 10
273.9999999999999
 20
26.00000000000002
 30
0.0
 11
273.9999999999999
 21
38.0
 31
0.0
  0
LINE
  5
132E
330
130E
100
AcDbEntity
  8
0
100
AcDbLine
 10
309.9999999999999
 20
22.0
 30
0.0
 11
309.9999999999999
 21
30.0
 31
0.0
  0
LINE
  5
132F
330
130E
100
AcDbEntity
  8
0
100
AcDbLine
 10
367.9999999999999
 20
10.0
 30
0.0
 11
367.9999999999999
 21
30.0
 31
0.0
  0
MTEXT
  5
1330
330
130E
100
AcDbEntity
  8
0
100
AcDbMText
 10
231.3237766005161
 20
29.2480664031666
 30
0.0
 40
2.5
 41
10.9292
 71
     1
 72
     5
  1
記号
1001
ACAD
1000
MTEXTBEGIN
1070
    73
1070
     1
1070
    44
1040
1.0
1070
    74
1070
     0
1000
MTEXTEND
1000
MTEXTBEGIN
1070
    73
1070
     1
1070
    44
1040
1.0
1070
    74
1070
     0
1000
MTEXTEND
  0
MTEXT
  5
1331
330
130E
100
AcDbEntity
  8
0
100
AcDbMText
 10
239.9664659250005
 20
29.24806571161741
 30
0.0
 40
2.5
 41
9.8658
 71
     1
 72
     5
  1
日　付
1001
ACAD
1000
MTEXTBEGIN
1070
    73
1070
     1
1070
    44
1040
1.0
1070
    74
1070
     0
1000
MTEXTEND
1000
MTEXTBEGIN
1070
    73
1070
     1
1070
    44
1040
1.0
1070
    74
1070
     0
1000
MTEXTEND
  0
MTEXT
  5
1332
330
130E
100
AcDbEntity
  8
0
100
AcDbMText
 10
256.5079356953286
 20
29.24806709471579
 30
0.0
 40
2.5
 41
16.4233
 71
     1
 72
     5
  1
訂　　正
1001
ACAD
1000
MTEXTBEGIN
1070
    73
1070
     1
1070
    44
1040
1.0
1070
    74
1070
     0
1000
MTEXTEND
1000
MTEXTBEGIN
1070
    73
1070
     1
1070
    44
1040
1.0
1070
    74
1070
     0
1000
MTEXTEND
  0
MTEXT
  5
1333
330
130E
100
AcDbEntity
  8
0
100
AcDbMText
 10
275.3533972540202
 20
29.30711986558481
 30
0.0
 40
2.5
 41
10.6929
 71
     1
 72
     5
  1
担当
1001
ACAD
1000
MTEXTBEGIN
1070
    73
1070
     1
1070
    44
1040
1.0
1070
    74
1070
     0
1000
MTEXTEND
1000
MTEXTBEGIN
1070
    73
1070
     1
1070
    44
1040
1.0
1070
    74
1070
     0
1000
MTEXTEND
  0
LINE
  5
1334
330
130E
100
AcDbEntity
  8
0
100
AcDbLine
 10
238.0
 20
26.00000000000004
 30
0.0
 11
237.9999999999999
 21
38.0
 31
0.0
  0
LINE
  5
1335
330
130E
100
AcDbEntity
  8
0
100
AcDbLine
 10
250.0
 20
26.00000000000004
 30
0.0
 11
249.9999999999999
 21
38.0
 31
0.0
  0
LINE
  5
1336
330
130E
100
AcDbEntity
  8
0
100
AcDbLine
 10
231.9999999999999
 20
34.00000000000005
 30
0.0
 11
235.9999999999999
 21
34.00000000000005
 31
0.0
  0
MTEXT
  5
1337
330
130E
100
AcDbEntity
  8
0
100
AcDbMText
 10
232.1683446627442
 20
13.36253702110434
 30
0.0
 40
2.5
 41
15.3009
 71
     1
 72
     5
  1
設　計
1001
ACAD
1000
MTEXTBEGIN
1070
    73
1070
     1
1070
    44
1040
1.0
1070
    74
1070
     0
1000
MTEXTEND
1000
MTEXTBEGIN
1070
    73
1070
     1
1070
    44
1040
1.0
1070
    74
1070
     0
1000
MTEXTEND
  0
MTEXT
  5
1338
330
130E
100
AcDbEntity
  8
0
100
AcDbMText
 10
245.2242900941809
 20
13.2444294047184
 30
0.0
 40
2.5
 41
13.2332
 71
     1
 72
     5
  1
製　図
1001
ACAD
1000
MTEXTBEGIN
1070
    73
1070
     1
1070
    44
1040
1.0
1070
    74
1070
     0
1000
MTEXTEND
1000
MTEXTBEGIN
1070
    73
1070
     1
1070
    44
1040
1.0
1070
    74
1070
     0
1000
MTEXTEND
  0
MTEXT
  5
1339
330
130E
100
AcDbEntity
  8
0
100
AcDbMText
 10
258.2802355256168
 20
13.24442871316921
 30
0.0
 40
2.5
 41
12.2289
 71
     1
 72
     5
  1
検　図
1001
ACAD
1000
MTEXTBEGIN
1070
    73
1070
     1
1070
    44
1040
1.0
1070
    74
1070
     0
1000
MTEXTEND
1000
MTEXTBEGIN
1070
    73
1070
     1
1070
    44
1040
1.0
1070
    74
1070
     0
1000
MTEXTEND
  0
MTEXT
  5
133A
330
130E
100
AcDbEntity
  8
0
100
AcDbMText
 10
271.2180283046965
 20
13.24442871316921
 30
0.0
 40
2.5
 41
8.5661
 71
     1
 72
     5
  1
承　認
1001
ACAD
1000
MTEXTBEGIN
1070
    73
1070
     1
1070
    44
1040
1.0
1070
    74
1070
     0
1000
MTEXTEND
1000
MTEXTBEGIN
1070
    73
1070
     1
1070
    44
1040
1.0
1070
    74
1070
     0
1000
MTEXTEND
  0
LINE
  5
133B
330
130E
100
AcDbEntity
  8
0
100
AcDbLine
 10
409.9999999999999
 20
10.0
 30
0.0
 11
409.9999999999999
 21
287.0
 31
0.0
  0
LINE
  5
133C
330
130E
100
AcDbEntity
  8
0
100
AcDbLine
 10
25.0
 20
10.0
 30
0.0
 11
409.9999999999999
 21
10.0
 31
0.0
  0
MTEXT
  5
133D
330
130E
100
AcDbEntity
  8
0
100
AcDbMText
 10
286.8057466895101
 20
37.28748650804993
 30
0.0
 40
2.5
 41
21.2646
 71
     1
 72
     5
  1
寸 法 差
1001
ACAD
1000
MTEXTBEGIN
1070
    73
1070
     1
1070
    44
1040
1.0
1070
    74
1070
     0
1000
MTEXTEND
1000
MTEXTBEGIN
1070
    73
1070
     1
1070
    44
1040
1.0
1070
    74
1070
     0
1000
MTEXTEND
  0
TEXT
  5
133E
330
130E
100
AcDbEntity
  8
0
100
AcDbText
 10
294.5342705509705
 20
30.5835318381587
 30
0.0
 40
2.5
  1
±
100
AcDbText
  0
TEXT
  5
133F
330
130E
100
AcDbEntity
  8
0
100
AcDbText
 10
297.0342705509705
 20
30.5835318381587
 30
0.0
 40
2.5
  1
0.05
100
AcDbText
  0
TEXT
  5
1340
330
130E
100
AcDbEntity
  8
0
100
AcDbText
 10
292.5686336695338
 20
26.86342893006538
 30
0.0
 40
2.5
  1
　 0.1
100
AcDbText
  0
TEXT
  5
1341
330
130E
100
AcDbEntity
  8
0
100
AcDbText
 10
292.3899411426205
 20
22.69676226339872
 30
0.0
 40
2.5
  1
　 0.15
100
AcDbText
  0
TEXT
  5
1342
330
130E
100
AcDbEntity
  8
0
100
AcDbText
 10
292.4792879083246
 20
18.61940848675658
 30
0.0
 40
2.5
  1
　 0.2
100
AcDbText
  0
TEXT
  5
1343
330
130E
100
AcDbEntity
  8
0
100
AcDbText
 10
292.5686346740281
 20
14.72068049016351
 30
0.0
 40
2.5
  1
　 0.3
100
AcDbText
  0
TEXT
  5
1344
330
130E
100
AcDbEntity
  8
0
100
AcDbText
 10
292.4792879083246
 20
10.7326389119966
 30
0.0
 40
2.5
  1
　 0.5
100
AcDbText
  0
TEXT
  5
1345
330
130E
100
AcDbEntity
  8
0
100
AcDbText
 10
288.9947509874531
 20
30.76215761820765
 30
0.0
 40
2.5
  1
0～
100
AcDbText
  0
TEXT
  5
1346
330
130E
100
AcDbEntity
  8
0
100
AcDbText
 10
288.6373629201438
 20
26.68480315001632
 30
0.0
 40
2.5
  1
6～
100
AcDbText
  0
TEXT
  5
1347
330
130E
100
AcDbEntity
  8
0
100
AcDbText
 10
286.4930325072999
 20
22.78607515342325
 30
0.0
 40
2.5
  1
30～
100
AcDbText
  0
TEXT
  5
1348
330
130E
100
AcDbEntity
  8
0
100
AcDbText
 10
284.9741314633705
 20
18.79803426680553
 30
0.0
 40
2.5
  1
120～
100
AcDbText
  0
TEXT
  5
1349
330
130E
100
AcDbEntity
  8
0
100
AcDbText
 10
284.2593543242577
 20
14.7206797986142
 30
0.0
 40
2.5
  1
315～
100
AcDbText
  0
TEXT
  5
134A
330
130E
100
AcDbEntity
  8
0
100
AcDbText
 10
283.1871901223302
 20
10.64332602197207
 30
0.0
 40
2.5
  1
1000～
100
AcDbText
  0
LINE
  5
134B
330
130E
100
AcDbEntity
  8
0
100
AcDbLine
 10
310.3995670880194
 20
37.12761554280757
 30
0.0
 11
311.5995670880193
 21
34.62761554280757
 31
0.0
  0
LINE
  5
134C
330
130E
100
AcDbEntity
  8
0
100
AcDbLine
 10
311.5995670880193
 20
34.62761554280757
 30
0.0
 11
312.7995670880193
 21
37.12761554280757
 31
0.0
  0
LINE
  5
134D
330
130E
100
AcDbEntity
  8
0
100
AcDbLine
 10
312.7995670880193
 20
37.12761554280757
 30
0.0
 11
310.3995670880194
 21
37.12761554280757
 31
0.0
  0
LINE
  5
134E
330
130E
100
AcDbEntity
  8
0
100
AcDbLine
 10
315.6201866121019
 20
34.62761554280757
 30
0.0
 11
316.8201866121019
 21
37.12761554280757
 31
0.0
  0
LINE
  5
134F
330
130E
100
AcDbEntity
  8
0
100
AcDbLine
 10
314.420186612102
 20
37.12761554280757
 30
0.0
 11
315.6201866121019
 21
34.62761554280757
 31
0.0
  0
LINE
  5
1350
330
130E
100
AcDbEntity
  8
0
100
AcDbLine
 10
316.8201866121019
 20
37.12761554280757
 30
0.0
 11
314.420186612102
 21
37.12761554280757
 31
0.0
  0
LINE
  5
1351
330
130E
100
AcDbEntity
  8
0
100
AcDbLine
 10
318.0201866121019
 20
34.62761554280757
 30
0.0
 11
319.2201866121019
 21
37.12761554280757
 31
0.0
  0
LINE
  5
1352
330
130E
100
AcDbEntity
  8
0
100
AcDbLine
 10
316.8201866121019
 20
37.12761554280757
 30
0.0
 11
318.0201866121019
 21
34.62761554280757
 31
0.0
  0
LINE
  5
1353
330
130E
100
AcDbEntity
  8
0
100
AcDbLine
 10
319.2201866121019
 20
37.12761554280757
 30
0.0
 11
316.8201866121019
 21
37.12761554280757
 31
0.0
  0
LINE
  5
1354
330
130E
100
AcDbEntity
  8
0
100
AcDbLine
 10
323.0236245769026
 20
37.12761554280757
 30
0.0
 11
324.2236245769026
 21
34.62761554280757
 31
0.0
  0
LINE
  5
1355
330
130E
100
AcDbEntity
  8
0
100
AcDbLine
 10
324.2236245769026
 20
34.62761554280757
 30
0.0
 11
325.4236245769026
 21
37.12761554280757
 31
0.0
  0
LINE
  5
1356
330
130E
100
AcDbEntity
  8
0
100
AcDbLine
 10
320.6236245769026
 20
37.12761554280757
 30
0.0
 11
321.8236245769026
 21
34.62761554280757
 31
0.0
  0
LINE
  5
1357
330
130E
100
AcDbEntity
  8
0
100
AcDbLine
 10
321.8236245769026
 20
34.62761554280757
 30
0.0
 11
323.0236245769026
 21
37.12761554280757
 31
0.0
  0
LINE
  5
1358
330
130E
100
AcDbEntity
  8
0
100
AcDbLine
 10
323.0236245769026
 20
37.12761554280757
 30
0.0
 11
320.6236245769026
 21
37.12761554280757
 31
0.0
  0
LINE
  5
1359
330
130E
100
AcDbEntity
  8
0
100
AcDbLine
 10
325.4236245769026
 20
37.12761554280757
 30
0.0
 11
323.0236245769026
 21
37.12761554280757
 31
0.0
  0
LINE
  5
135A
330
130E
100
AcDbEntity
  8
0
100
AcDbLine
 10
326.6236245769026
 20
34.62761554280757
 30
0.0
 11
327.8236245769026
 21
37.12761554280757
 31
0.0
  0
LINE
  5
135B
330
130E
100
AcDbEntity
  8
0
100
AcDbLine
 10
325.4236245769026
 20
37.12761554280757
 30
0.0
 11
326.6236245769026
 21
34.62761554280757
 31
0.0
  0
LINE
  5
135C
330
130E
100
AcDbEntity
  8
0
100
AcDbLine
 10
327.8236245769026
 20
37.12761554280757
 30
0.0
 11
325.4236245769026
 21
37.12761554280757
 31
0.0
  0
MTEXT
  5
135D
330
130E
100
AcDbEntity
  8
0
100
AcDbMText
 10
306.4174345873165
 20
37.12761623435687
 30
0.0
 40
2.5
 41
5.450199999999999
 71
     1
 72
     5
  1
～
1001
ACAD
1000
MTEXTBEGIN
1070
    73
1070
     1
1070
    44
1040
1.0
1070
    74
1070
     0
1000
MTEXTEND
1000
MTEXTBEGIN
1070
    73
1070
     1
1070
    44
1040
1.0
1070
    74
1070
     0
1000
MTEXTEND
  0
MTEXT
  5
135E
330
130E
100
AcDbEntity
  8
0
100
AcDbMText
 10
311.6889138537229
 20
33.10853964099931
 30
0.0
 40
2.5
 41
37.4364
 71
     1
 72
     5
  1
仕　　上
1001
ACAD
1000
MTEXTBEGIN
1070
    73
1070
     1
1070
    44
1040
1.0
1070
    74
1070
     0
1000
MTEXTEND
1000
MTEXTBEGIN
1070
    73
1070
     1
1070
    44
1040
1.0
1070
    74
1070
     0
1000
MTEXTEND
  0
MTEXT
  5
135F
330
130E
100
AcDbEntity
  8
0
100
AcDbMText
 10
306.4174345873165
 20
29.26808813614161
 30
0.0
 40
2.5
 41
6.5223
 71
     1
 72
     5
  1
品\P名
1001
ACAD
1000
MTEXTBEGIN
1070
    73
1070
     1
1070
    44
1040
1.0
1070
    74
1070
     0
1000
MTEXTEND
1000
MTEXTBEGIN
1070
    73
1070
     1
1070
    44
1040
1.0
1070
    74
1070
     0
1000
MTEXTEND
  0
MTEXT
  5
1360
330
130E
100
AcDbEntity
  8
0
100
AcDbMText
 10
364.2164998961196
 20
29.26808813614161
 30
0.0
 40
2.5
 41
5.628899999999999
 71
     1
 72
     5
  1
機\P名
1001
ACAD
1000
MTEXTBEGIN
1070
    73
1070
     1
1070
    44
1040
1.0
1070
    74
1070
     0
1000
MTEXTEND
1000
MTEXTBEGIN
1070
    73
1070
     1
1070
    44
1040
1.0
1070
    74
1070
     0
1000
MTEXTEND
  0
MTEXT
  5
1361
330
130E
100
AcDbEntity
  8
0
100
AcDbMText
 10
364.3058466618232
 20
19.26505206043634
 30
0.0
 40
2.5
 41
4.1993
 71
     1
 72
     5
  1
図\P番
1001
ACAD
1000
MTEXTBEGIN
1070
    73
1070
     1
1070
    44
1040
1.0
1070
    74
1070
     0
1000
MTEXTEND
1000
MTEXTBEGIN
1070
    73
1070
     1
1070
    44
1040
1.0
1070
    74
1070
     0
1000
MTEXTEND
  0
MTEXT
  5
1362
330
130E
100
AcDbEntity
  8
0
100
AcDbMText
 10
330.6282434075291
 20
39.36043710187152
 30
0.0
 40
2.5
 41
11.79379999999999
 71
     1
 72
     5
  1
\P尺度
1001
ACAD
1000
MTEXTBEGIN
1070
    73
1070
     1
1070
    44
1040
1.0
1070
    74
1070
     0
1000
MTEXTEND
1000
MTEXTBEGIN
1070
    73
1070
     1
1070
    44
1040
1.0
1070
    74
1070
     0
1000
MTEXTEND
  0
LINE
  5
1363
330
130E
100
AcDbEntity
  8
0
100
AcDbLine
 10
343.9999999999999
 20
37.0
 30
0.0
 11
337.9999999999999
 21
31.0
 31
0.0
  0
MTEXT
  5
1364
330
130E
100
AcDbEntity
  8
0
100
AcDbMText
 10
346.3533324320559
 20
35.34135981696477
 30
0.0
 40
2.5
 41
8.934699999999999
 71
     1
 72
     5
  1
材質
1001
ACAD
1000
MTEXTBEGIN
1070
    73
1070
     1
1070
    44
1040
1.0
1070
    74
1070
     0
1000
MTEXTEND
1000
MTEXTBEGIN
1070
    73
1070
     1
1070
    44
1040
1.0
1070
    74
1070
     0
1000
MTEXTEND
  0
MTEXT
  5
1365
330
130E
100
AcDbEntity
  8
0
100
AcDbMText
 10
369.5835789060312
 20
35.16273472846501
 30
0.0
 40
2.5
 41
9.1134
 71
     1
 72
     5
  1
処理
1001
ACAD
1000
MTEXTBEGIN
1070
    73
1070
     1
1070
    44
1040
1.0
1070
    74
1070
     0
1000
MTEXTEND
1000
MTEXTBEGIN
1070
    73
1070
     1
1070
    44
1040
1.0
1070
    74
1070
     0
1000
MTEXTEND
  0
MTEXT
  5
1366
330
130E
100
AcDbEntity
  8
0
100
AcDbMText
 10
395.315542855665
 20
35.25204692694023
 30
0.0
 40
2.5
 41
7.9519
 71
     1
 72
     5
  1
個数
1001
ACAD
1000
MTEXTBEGIN
1070
    73
1070
     1
1070
    44
1040
1.0
1070
    74
1070
     0
1000
MTEXTEND
1000
MTEXTBEGIN
1070
    73
1070
     1
1070
    44
1040
1.0
1070
    74
1070
     0
1000
MTEXTEND
  0
LINE
  5
1367
330
130E
100
AcDbEntity
  8
0
100
AcDbLine
 10
233.9999999999999
 20
38.0
 30
0.0
 11
231.6999999999999
 21
34.00000000000005
 31
0.0
  0
LINE
  5
1368
330
130E
100
AcDbEntity
  8
0
100
AcDbLine
 10
231.6999999999999
 20
34.00000000000005
 30
0.0
 11
236.2999999999999
 21
34.00000000000005
 31
0.0
  0
LINE
  5
1369
330
130E
100
AcDbEntity
  8
0
100
AcDbLine
 10
236.2999999999999
 20
34.00000000000005
 30
0.0
 11
233.9999999999999
 21
38.0
 31
0.0
  0
LINE
  5
136A
330
130E
100
AcDbEntity
  8
0
100
AcDbLine
 10
233.9999999999999
 20
34.00000000000005
 30
0.0
 11
231.6999999999999
 21
30.00000000000005
 31
0.0
  0
LINE
  5
136B
330
130E
100
AcDbEntity
  8
0
100
AcDbLine
 10
231.6999999999999
 20
30.00000000000005
 30
0.0
 11
236.2999999999999
 21
30.00000000000005
 31
0.0
  0
LINE
  5
136C
330
130E
100
AcDbEntity
  8
0
100
AcDbLine
 10
236.2999999999999
 20
30.00000000000005
 30
0.0
 11
233.9999999999999
 21
34.00000000000005
 31
0.0
  0
ENDBLK
  5
136E
330
130E
100
AcDbEntity
  8
0
100
AcDbBlockEnd
  0
BLOCK
  5
25B6
330
25AC
100
AcDbEntity
  8
0
100
AcDbBlockBegin
  2
*D15
 70
     1
 10
0.0
 20
0.0
 30
0.0
  3
*D15
  1

  0
LINE
  5
27EF
330
25AC
100
AcDbEntity
  8
寸法線1
 62
     0
100
AcDbLine
 10
1076.230541469914
 20
546.7288932575436
 30
0.0
 11
1024.980541469914
 21
546.7288932575436
 31
0.0
  0
LINE
  5
27F0
330
25AC
100
AcDbEntity
  8
寸法線1
 62
     0
100
AcDbLine
 10
1076.230541469914
 20
354.7288932575436
 30
0.0
 11
1024.980541469914
 21
354.7288932575436
 31
0.0
  0
LINE
  5
27F1
330
25AC
100
AcDbEntity
  8
寸法線1
 62
     0
100
AcDbLine
 10
1031.230541469914
 20
534.2288932575436
 30
0.0
 11
1031.230541469913
 21
367.2288932575436
 31
0.0
  0
INSERT
  5
27F2
330
25AC
100
AcDbEntity
  8
寸法線1
 62
     0
100
AcDbBlockReference
  2
_OPEN
 10
1031.230541469914
 20
546.7288932575436
 30
0.0
 41
12.5
 42
12.5
 43
12.5
 50
90.0
  0
INSERT
  5
27F3
330
25AC
100
AcDbEntity
  8
寸法線1
 62
     0
100
AcDbBlockReference
  2
_OPEN
 10
1031.230541469913
 20
354.7288932575436
 30
0.0
 41
12.5
 42
12.5
 43
12.5
 50
270.0
  0
MTEXT
  5
27F4
330
25AC
100
AcDbEntity
  8
寸法線1
 62
     0
100
AcDbMText
 10
1018.730541469913
 20
450.7288932575438
 30
0.0
 40
15.0
 41
0.0
 71
     5
 72
     1
  1
192
 11
0.0000000000000001
 21
1.0
 31
0.0
1001
ACAD
1000
MTEXTBEGIN
1070
    73
1070
     1
1070
    44
1040
1.0
1070
    74
1070
     0
1000
MTEXTEND
  0
POINT
  5
27F5
330
25AC
100
AcDbEntity
  8
DEFPOINTS
 62
     0
100
AcDbPoint
 10
1081.230541469913
 20
546.7288932575436
 30
0.0
  0
POINT
  5
27F6
330
25AC
100
AcDbEntity
  8
DEFPOINTS
 62
     0
100
AcDbPoint
 10
1081.230541469913
 20
354.7288932575436
 30
0.0
  0
POINT
  5
27F7
330
25AC
100
AcDbEntity
  8
DEFPOINTS
 62
     0
100
AcDbPoint
 10
1031.230541469913
 20
354.7288932575436
 30
0.0
  0
ENDBLK
  5
25B7
330
25AC
100
AcDbEntity
  8
0
100
AcDbBlockEnd
  0
BLOCK
  5
25C3
330
25B9
100
AcDbEntity
  8
0
100
AcDbBlockBegin
  2
*D16
 70
     1
 10
0.0
 20
0.0
 30
0.0
  3
*D16
  1

  0
LINE
  5
27DD
330
25B9
100
AcDbEntity
  8
寸法線1
 62
     0
100
AcDbLine
 10
806.2305414699139
 20
569.8288932575436
 30
0.0
 11
887.4805414699139
 21
569.8288932575436
 31
0.0
  0
LINE
  5
27DE
330
25B9
100
AcDbEntity
  8
寸法線1
 62
     0
100
AcDbLine
 10
806.2305414699139
 20
334.8288932575436
 30
0.0
 11
887.4805414699139
 21
334.8288932575436
 31
0.0
  0
LINE
  5
27DF
330
25B9
100
AcDbEntity
  8
寸法線1
 62
     0
100
AcDbLine
 10
881.2305414699139
 20
557.3288932575436
 30
0.0
 11
881.2305414699139
 21
347.3288932575436
 31
0.0
  0
INSERT
  5
27E0
330
25B9
100
AcDbEntity
  8
寸法線1
 62
     0
100
AcDbBlockReference
  2
_OPEN
 10
881.2305414699139
 20
569.8288932575436
 30
0.0
 41
12.5
 42
12.5
 43
12.5
 50
90.0
  0
INSERT
  5
27E1
330
25B9
100
AcDbEntity
  8
寸法線1
 62
     0
100
AcDbBlockReference
  2
_OPEN
 10
881.2305414699139
 20
334.8288932575436
 30
0.0
 41
12.5
 42
12.5
 43
12.5
 50
270.0
  0
MTEXT
  5
27E2
330
25B9
100
AcDbEntity
  8
寸法線1
 62
     0
100
AcDbMText
 10
868.7305414699137
 20
452.3288932575438
 30
0.0
 40
15.0
 41
0.0
 71
     5
 72
     1
  1
235
 11
0.0000000000000001
 21
1.0
 31
0.0
1001
ACAD
1000
MTEXTBEGIN
1070
    73
1070
     1
1070
    44
1040
1.0
1070
    74
1070
     0
1000
MTEXTEND
  0
POINT
  5
27E3
330
25B9
100
AcDbEntity
  8
DEFPOINTS
 62
     0
100
AcDbPoint
 10
801.230541469914
 20
569.8288932575436
 30
0.0
  0
POINT
  5
27E4
330
25B9
100
AcDbEntity
  8
DEFPOINTS
 62
     0
100
AcDbPoint
 10
801.230541469914
 20
334.8288932575436
 30
0.0
  0
POINT
  5
27E5
330
25B9
100
AcDbEntity
  8
DEFPOINTS
 62
     0
100
AcDbPoint
 10
881.2305414699139
 20
334.8288932575436
 30
0.0
  0
ENDBLK
  5
25C4
330
25B9
100
AcDbEntity
  8
0
100
AcDbBlockEnd
  0
BLOCK
  5
25D0
330
25C6
100
AcDbEntity
  8
0
100
AcDbBlockBegin
  2
*D17
 70
     1
 10
0.0
 20
0.0
 30
0.0
  3
*D17
  1

  0
LINE
  5
27D4
330
25C6
100
AcDbEntity
  8
寸法線1
 62
     0
100
AcDbLine
 10
806.2305414699139
 20
569.8288932575436
 30
0.0
 11
937.4805414699139
 21
569.8288932575436
 31
0.0
  0
LINE
  5
27D5
330
25C6
100
AcDbEntity
  8
寸法線1
 62
     0
100
AcDbLine
 10
789.230541469914
 20
315.8288932575436
 30
0.0
 11
937.4805414699139
 21
315.8288932575436
 31
0.0
  0
LINE
  5
27D6
330
25C6
100
AcDbEntity
  8
寸法線1
 62
     0
100
AcDbLine
 10
931.2305414699139
 20
557.3288932575436
 30
0.0
 11
931.2305414699139
 21
328.3288932575436
 31
0.0
  0
INSERT
  5
27D7
330
25C6
100
AcDbEntity
  8
寸法線1
 62
     0
100
AcDbBlockReference
  2
_OPEN
 10
931.2305414699139
 20
569.8288932575436
 30
0.0
 41
12.5
 42
12.5
 43
12.5
 50
90.0
  0
INSERT
  5
27D8
330
25C6
100
AcDbEntity
  8
寸法線1
 62
     0
100
AcDbBlockReference
  2
_OPEN
 10
931.2305414699139
 20
315.8288932575436
 30
0.0
 41
12.5
 42
12.5
 43
12.5
 50
270.0
  0
MTEXT
  5
27D9
330
25C6
100
AcDbEntity
  8
寸法線1
 62
     0
100
AcDbMText
 10
918.7305414699137
 20
442.8288932575438
 30
0.0
 40
15.0
 41
0.0
 71
     5
 72
     1
  1
254
 11
0.0000000000000001
 21
1.0
 31
0.0
1001
ACAD
1000
MTEXTBEGIN
1070
    73
1070
     1
1070
    44
1040
1.0
1070
    74
1070
     0
1000
MTEXTEND
  0
POINT
  5
27DA
330
25C6
100
AcDbEntity
  8
DEFPOINTS
 62
     0
100
AcDbPoint
 10
801.230541469914
 20
569.8288932575436
 30
0.0
  0
POINT
  5
27DB
330
25C6
100
AcDbEntity
  8
DEFPOINTS
 62
     0
100
AcDbPoint
 10
784.230541469914
 20
315.8288932575436
 30
0.0
  0
POINT
  5
27DC
330
25C6
100
AcDbEntity
  8
DEFPOINTS
 62
     0
100
AcDbPoint
 10
931.2305414699139
 20
315.8288932575436
 30
0.0
  0
ENDBLK
  5
25D1
330
25C6
100
AcDbEntity
  8
0
100
AcDbBlockEnd
  0
BLOCK
  5
260A
330
2600
100
AcDbEntity
  8
0
100
AcDbBlockBegin
  2
*D18
 70
     1
 10
0.0
 20
0.0
 30
0.0
  3
*D18
  1

  0
LINE
  5
27E6
330
2600
100
AcDbEntity
  8
寸法線1
 62
     0
100
AcDbLine
 10
1671.230541469914
 20
330.8288932575436
 30
0.0
 11
1671.230541469914
 21
248.5788932575436
 31
0.0
  0
LINE
  5
27E7
330
2600
100
AcDbEntity
  8
寸法線1
 62
     0
100
AcDbLine
 10
1081.230541469913
 20
299.8288932575436
 30
0.0
 11
1081.230541469913
 21
248.5788932575436
 31
0.0
  0
LINE
  5
27E8
330
2600
100
AcDbEntity
  8
寸法線1
 62
     0
100
AcDbLine
 10
1658.730541469914
 20
254.8288932575436
 30
0.0
 11
1093.730541469913
 21
254.8288932575436
 31
0.0
  0
INSERT
  5
27E9
330
2600
100
AcDbEntity
  8
寸法線1
 62
     0
100
AcDbBlockReference
  2
_OPEN
 10
1671.230541469914
 20
254.8288932575436
 30
0.0
 41
12.5
 42
12.5
 43
12.5
  0
INSERT
  5
27EA
330
2600
100
AcDbEntity
  8
寸法線1
 62
     0
100
AcDbBlockReference
  2
_OPEN
 10
1081.230541469913
 20
254.8288932575436
 30
0.0
 41
12.5
 42
12.5
 43
12.5
 50
180.0
  0
MTEXT
  5
27EB
330
2600
100
AcDbEntity
  8
寸法線1
 62
     0
100
AcDbMText
 10
1376.230541469914
 20
267.3288932575436
 30
0.0
 40
15.0
 41
0.0
 71
     5
 72
     1
  1
590
1001
ACAD
1000
MTEXTBEGIN
1070
    73
1070
     1
1070
    44
1040
1.0
1070
    74
1070
     0
1000
MTEXTEND
  0
POINT
  5
27EC
330
2600
100
AcDbEntity
  8
DEFPOINTS
 62
     0
100
AcDbPoint
 10
1671.230541469914
 20
335.8288932575436
 30
0.0
  0
POINT
  5
27ED
330
2600
100
AcDbEntity
  8
DEFPOINTS
 62
     0
100
AcDbPoint
 10
1081.230541469913
 20
304.8288932575436
 30
0.0
  0
POINT
  5
27EE
330
2600
100
AcDbEntity
  8
DEFPOINTS
 62
     0
100
AcDbPoint
 10
1081.230541469913
 20
254.8288932575436
 30
0.0
  0
ENDBLK
  5
260B
330
2600
100
AcDbEntity
  8
0
100
AcDbBlockEnd
  0
BLOCK
  5
2617
330
260D
100
AcDbEntity
  8
0
100
AcDbBlockBegin
  2
*D19
 70
     1
 10
0.0
 20
0.0
 30
0.0
  3
*D19
  1

  0
LINE
  5
27B9
330
260D
100
AcDbEntity
  8
寸法線1
 62
     0
100
AcDbLine
 10
322.7305414699139
 20
349.8288932575436
 30
0.0
 11
322.7305414699139
 21
248.5788932575436
 31
0.0
  0
LINE
  5
27BA
330
260D
100
AcDbEntity
  8
寸法線1
 62
     0
100
AcDbLine
 10
679.7305414699139
 20
349.8288932575436
 30
0.0
 11
679.7305414699139
 21
248.5788932575436
 31
0.0
  0
LINE
  5
27BB
330
260D
100
AcDbEntity
  8
寸法線1
 62
     0
100
AcDbLine
 10
335.2305414699139
 20
254.8288932575436
 30
0.0
 11
667.2305414699139
 21
254.8288932575436
 31
0.0
  0
INSERT
  5
27BC
330
260D
100
AcDbEntity
  8
寸法線1
 62
     0
100
AcDbBlockReference
  2
_OPEN
 10
322.7305414699139
 20
254.8288932575436
 30
0.0
 41
12.5
 42
12.5
 43
12.5
 50
180.0
  0
INSERT
  5
27BD
330
260D
100
AcDbEntity
  8
寸法線1
 62
     0
100
AcDbBlockReference
  2
_OPEN
 10
679.7305414699139
 20
254.8288932575436
 30
0.0
 41
12.5
 42
12.5
 43
12.5
  0
MTEXT
  5
27BE
330
260D
100
AcDbEntity
  8
寸法線1
 62
     0
100
AcDbMText
 10
501.230541469914
 20
267.3288932575436
 30
0.0
 40
15.0
 41
0.0
 71
     5
 72
     1
  1
357
1001
ACAD
1000
MTEXTBEGIN
1070
    73
1070
     1
1070
    44
1040
1.0
1070
    74
1070
     0
1000
MTEXTEND
  0
POINT
  5
27BF
330
260D
100
AcDbEntity
  8
DEFPOINTS
 62
     0
100
AcDbPoint
 10
322.7305414699139
 20
354.8288932575436
 30
0.0
  0
POINT
  5
27C0
330
260D
100
AcDbEntity
  8
DEFPOINTS
 62
     0
100
AcDbPoint
 10
679.7305414699139
 20
354.8288932575436
 30
0.0
  0
POINT
  5
27C1
330
260D
100
AcDbEntity
  8
DEFPOINTS
 62
     0
100
AcDbPoint
 10
679.7305414699139
 20
254.8288932575436
 30
0.0
  0
ENDBLK
  5
2618
330
260D
100
AcDbEntity
  8
0
100
AcDbBlockEnd
  0
BLOCK
  5
262B
330
2621
100
AcDbEntity
  8
0
100
AcDbBlockBegin
  2
*D20
 70
     1
 10
0.0
 20
0.0
 30
0.0
  3
*D20
  1

  0
LINE
  5
27B0
330
2621
100
AcDbEntity
  8
寸法線1
 62
     0
100
AcDbLine
 10
301.2305414699138
 20
329.8288932575436
 30
0.0
 11
301.2305414699138
 21
198.5788932575436
 31
0.0
  0
LINE
  5
27B1
330
2621
100
AcDbEntity
  8
寸法線1
 62
     0
100
AcDbLine
 10
801.2305414699138
 20
329.8288932575436
 30
0.0
 11
801.2305414699138
 21
198.5788932575436
 31
0.0
  0
LINE
  5
27B2
330
2621
100
AcDbEntity
  8
寸法線1
 62
     0
100
AcDbLine
 10
313.7305414699138
 20
204.8288932575436
 30
0.0
 11
788.7305414699138
 21
204.8288932575436
 31
0.0
  0
INSERT
  5
27B3
330
2621
100
AcDbEntity
  8
寸法線1
 62
     0
100
AcDbBlockReference
  2
_OPEN
 10
301.2305414699138
 20
204.8288932575436
 30
0.0
 41
12.5
 42
12.5
 43
12.5
 50
180.0
  0
INSERT
  5
27B4
330
2621
100
AcDbEntity
  8
寸法線1
 62
     0
100
AcDbBlockReference
  2
_OPEN
 10
801.2305414699138
 20
204.8288932575436
 30
0.0
 41
12.5
 42
12.5
 43
12.5
  0
MTEXT
  5
27B5
330
2621
100
AcDbEntity
  8
寸法線1
 62
     0
100
AcDbMText
 10
551.2305414699138
 20
217.3288932575436
 30
0.0
 40
15.0
 41
0.0
 71
     5
 72
     1
  1
500
1001
ACAD
1000
MTEXTBEGIN
1070
    73
1070
     1
1070
    44
1040
1.0
1070
    74
1070
     0
1000
MTEXTEND
  0
POINT
  5
27B6
330
2621
100
AcDbEntity
  8
DEFPOINTS
 62
     0
100
AcDbPoint
 10
301.2305414699138
 20
334.8288932575436
 30
0.0
  0
POINT
  5
27B7
330
2621
100
AcDbEntity
  8
DEFPOINTS
 62
     0
100
AcDbPoint
 10
801.2305414699138
 20
334.8288932575436
 30
0.0
  0
POINT
  5
27B8
330
2621
100
AcDbEntity
  8
DEFPOINTS
 62
     0
100
AcDbPoint
 10
801.2305414699138
 20
204.8288932575436
 30
0.0
  0
ENDBLK
  5
262C
330
2621
100
AcDbEntity
  8
0
100
AcDbBlockEnd
  0
BLOCK
  5
2639
330
262F
100
AcDbEntity
  8
0
100
AcDbBlockBegin
  2
*D21
 70
     1
 10
0.0
 20
0.0
 30
0.0
  3
*D21
  1

  0
LINE
  5
27CB
330
262F
100
AcDbEntity
  8
寸法線1
 62
     0
100
AcDbLine
 10
266.2305414699139
 20
599.8288932575436
 30
0.0
 11
214.980541469914
 21
599.8288932575437
 31
0.0
  0
LINE
  5
27CC
330
262F
100
AcDbEntity
  8
寸法線1
 62
     0
100
AcDbLine
 10
266.2305414699139
 20
304.8288932575436
 30
0.0
 11
214.980541469914
 21
304.8288932575436
 31
0.0
  0
LINE
  5
27CD
330
262F
100
AcDbEntity
  8
寸法線1
 62
     0
100
AcDbLine
 10
221.230541469914
 20
587.3288932575437
 30
0.0
 11
221.230541469914
 21
317.3288932575436
 31
0.0
  0
INSERT
  5
27CE
330
262F
100
AcDbEntity
  8
寸法線1
 62
     0
100
AcDbBlockReference
  2
_OPEN
 10
221.230541469914
 20
599.8288932575437
 30
0.0
 41
12.5
 42
12.5
 43
12.5
 50
90.0
  0
INSERT
  5
27CF
330
262F
100
AcDbEntity
  8
寸法線1
 62
     0
100
AcDbBlockReference
  2
_OPEN
 10
221.230541469914
 20
304.8288932575436
 30
0.0
 41
12.5
 42
12.5
 43
12.5
 50
270.0
  0
MTEXT
  5
27D0
330
262F
100
AcDbEntity
  8
寸法線1
 62
     0
100
AcDbMText
 10
208.730541469914
 20
452.3288932575438
 30
0.0
 40
15.0
 41
0.0
 71
     5
 72
     1
  1
295
 11
0.0000000000000001
 21
1.0
 31
0.0
1001
ACAD
1000
MTEXTBEGIN
1070
    73
1070
     1
1070
    44
1040
1.0
1070
    74
1070
     0
1000
MTEXTEND
  0
POINT
  5
27D1
330
262F
100
AcDbEntity
  8
DEFPOINTS
 62
     0
100
AcDbPoint
 10
271.230541469914
 20
599.8288932575436
 30
0.0
  0
POINT
  5
27D2
330
262F
100
AcDbEntity
  8
DEFPOINTS
 62
     0
100
AcDbPoint
 10
271.230541469914
 20
304.8288932575436
 30
0.0
  0
POINT
  5
27D3
330
262F
100
AcDbEntity
  8
DEFPOINTS
 62
     0
100
AcDbPoint
 10
221.230541469914
 20
304.8288932575436
 30
0.0
  0
ENDBLK
  5
263A
330
262F
100
AcDbEntity
  8
0
100
AcDbBlockEnd
  0
BLOCK
  5
2646
330
263C
100
AcDbEntity
  8
0
100
AcDbBlockBegin
  2
*D22
 70
     1
 10
0.0
 20
0.0
 30
0.0
  3
*D22
  1

  0
LINE
  5
27C2
330
263C
100
AcDbEntity
  8
寸法線1
 62
     0
100
AcDbLine
 10
271.230541469914
 20
604.8288932575436
 30
0.0
 11
271.230541469914
 21
656.0788932575436
 31
0.0
  0
LINE
  5
27C3
330
263C
100
AcDbEntity
  8
寸法線1
 62
     0
100
AcDbLine
 10
831.2305414699139
 20
604.8288932575435
 30
0.0
 11
831.2305414699139
 21
656.0788932575436
 31
0.0
  0
LINE
  5
27C4
330
263C
100
AcDbEntity
  8
寸法線1
 62
     0
100
AcDbLine
 10
283.730541469914
 20
649.8288932575436
 30
0.0
 11
818.7305414699139
 21
649.8288932575436
 31
0.0
  0
INSERT
  5
27C5
330
263C
100
AcDbEntity
  8
寸法線1
 62
     0
100
AcDbBlockReference
  2
_OPEN
 10
271.230541469914
 20
649.8288932575436
 30
0.0
 41
12.5
 42
12.5
 43
12.5
 50
180.0
  0
INSERT
  5
27C6
330
263C
100
AcDbEntity
  8
寸法線1
 62
     0
100
AcDbBlockReference
  2
_OPEN
 10
831.2305414699139
 20
649.8288932575436
 30
0.0
 41
12.5
 42
12.5
 43
12.5
  0
MTEXT
  5
27C7
330
263C
100
AcDbEntity
  8
寸法線1
 62
     0
100
AcDbMText
 10
551.230541469914
 20
662.3288932575436
 30
0.0
 40
15.0
 41
0.0
 71
     5
 72
     1
  1
560
1001
ACAD
1000
MTEXTBEGIN
1070
    73
1070
     1
1070
    44
1040
1.0
1070
    74
1070
     0
1000
MTEXTEND
  0
POINT
  5
27C8
330
263C
100
AcDbEntity
  8
DEFPOINTS
 62
     0
100
AcDbPoint
 10
271.230541469914
 20
599.8288932575436
 30
0.0
  0
POINT
  5
27C9
330
263C
100
AcDbEntity
  8
DEFPOINTS
 62
     0
100
AcDbPoint
 10
831.2305414699139
 20
599.8288932575435
 30
0.0
  0
POINT
  5
27CA
330
263C
100
AcDbEntity
  8
DEFPOINTS
 62
     0
100
AcDbPoint
 10
831.2305414699139
 20
649.8288932575436
 30
0.0
  0
ENDBLK
  5
2647
330
263C
100
AcDbEntity
  8
0
100
AcDbBlockEnd
  0
BLOCK
  5
2776
330
273E
100
AcDbEntity
  8
0
100
AcDbBlockBegin
  2
Ａ_３_タイトルブロック__株_アンナカ
 70
     0
 10
0.0
 20
0.0
 30
0.0
  3
Ａ_３_タイトルブロック__株_アンナカ
  1

  0
LINE
  5
2778
330
273E
100
AcDbEntity
  8
0
100
AcDbLine
 10
409.9999999999999
 20
10.0
 30
0.0
 11
409.9999999999999
 21
38.0
 31
0.0
  0
LINE
  5
2779
330
273E
100
AcDbEntity
  8
0
100
AcDbLine
 10
409.9999999999999
 20
287.0
 30
0.0
 11
24.99999999999994
 21
287.0
 31
0.0
  0
LINE
  5
277A
330
273E
100
AcDbEntity
  8
0
100
AcDbLine
 10
229.9999999999999
 20
10.0
 30
0.0
 11
409.9999999999999
 21
10.0
 31
0.0
  0
LINE
  5
277B
330
273E
100
AcDbEntity
  8
0
100
AcDbLine
 10
24.99999999999994
 20
287.0
 30
0.0
 11
25.0
 21
10.0
 31
0.0
  0
LINE
  5
277C
330
273E
100
AcDbEntity
  8
0
100
AcDbLine
 10
409.9999999999999
 20
10.0
 30
0.0
 11
409.9999999999999
 21
287.0
 31
0.0
  0
LINE
  5
277D
330
273E
100
AcDbEntity
  8
0
100
AcDbLine
 10
25.0
 20
10.0
 30
0.0
 11
409.9999999999999
 21
10.0
 31
0.0
  0
LINE
  5
277E
330
273E
100
AcDbEntity
  8
0
100
AcDbLine
 10
318.6529750232782
 20
35.52070974637445
 30
0.0
 11
312.6529750232782
 21
29.52070974637445
 31
0.0
  0
TEXT
  5
277F
330
273E
100
AcDbEntity
  8
0
100
AcDbText
 10
283.307896638995
 20
10.5948520895418
 30
0.0
 40
3.75
  1
承　認
100
AcDbText
  0
TEXT
  5
2780
330
273E
100
AcDbEntity
  8
0
100
AcDbText
 10
232.3203605967294
 20
10.56729125954706
 30
0.0
 40
3.75
  1
設　計
100
AcDbText
  0
TEXT
  5
2781
330
273E
100
AcDbEntity
  8
0
100
AcDbText
 10
266.3540583654115
 20
10.68149538233842
 30
0.0
 40
3.75
  1
検　図
100
AcDbText
  0
TEXT
  5
2782
330
273E
100
AcDbEntity
  8
0
100
AcDbText
 10
249.434344291543
 20
10.61149479708615
 30
0.0
 40
3.75
  1
製　図
100
AcDbText
  0
TEXT
  5
2783
330
273E
100
AcDbEntity
  8
0
100
AcDbText
 10
300.3860198268868
 20
24.07594500052893
 30
0.0
 40
3.5625
  1
品
100
AcDbText
  0
TEXT
  5
2784
330
273E
100
AcDbEntity
  8
0
100
AcDbText
 10
300.3860185047378
 20
19.79468798547369
 30
0.0
 40
3.5625
  1
名
100
AcDbText
  0
TEXT
  5
2785
330
273E
100
AcDbEntity
  8
0
100
AcDbText
 10
299.9269365765777
 20
30.74189779655756
 30
0.0
 40
3.75
  1
尺度
100
AcDbText
  0
TEXT
  5
2786
330
273E
100
AcDbEntity
  8
0
100
AcDbText
 10
355.8973426032813
 20
30.68901750125485
 30
0.0
 40
3.75
  1
処理
100
AcDbText
  0
TEXT
  5
2787
330
273E
100
AcDbEntity
  8
0
100
AcDbText
 10
362.3524425224288
 20
15.09020158298824
 30
0.0
 40
3.5625
  1
図
100
AcDbText
  0
TEXT
  5
2788
330
273E
100
AcDbEntity
  8
0
100
AcDbText
 10
362.2891724023712
 20
10.79191885916881
 30
0.0
 40
3.5625
  1
番
100
AcDbText
  0
TEXT
  5
2789
330
273E
100
AcDbEntity
  8
0
100
AcDbText
 10
324.2736687619641
 20
30.50734800538498
 30
0.0
 40
3.75
  1
材質
100
AcDbText
  0
TEXT
  5
278A
330
273E
100
AcDbEntity
  8
0
100
AcDbText
 10
387.7624386995826
 20
30.52554104433261
 30
0.0
 40
3.75
  1
個数
100
AcDbText
  0
LINE
  5
278B
330
273E
100
AcDbEntity
  8
0
100
AcDbLine
 10
297.9999999999999
 20
19.0
 30
0.0
 11
409.9999999999998
 21
19.0
 31
0.0
  0
LINE
  5
278C
330
273E
100
AcDbEntity
  8
0
100
AcDbLine
 10
297.9999999999999
 20
28.0
 30
0.0
 11
409.9999999999999
 21
28.0
 31
0.0
  0
LINE
  5
278D
330
273E
100
AcDbEntity
  8
0
100
AcDbLine
 10
297.9999999999999
 20
37.0
 30
0.0
 11
297.9999999999999
 21
10.0
 31
0.0
  0
LINE
  5
278E
330
273E
100
AcDbEntity
  8
0
100
AcDbLine
 10
305.9999999999999
 20
28.0
 30
0.0
 11
305.9999999999998
 21
19.0
 31
0.0
  0
LINE
  5
278F
330
273E
100
AcDbEntity
  8
0
100
AcDbLine
 10
359.9999999999999
 20
28.0
 30
0.0
 11
359.9999999999999
 21
10.0
 31
0.0
  0
LINE
  5
2790
330
273E
100
AcDbEntity
  8
0
100
AcDbLine
 10
367.9999999999999
 20
28.0
 30
0.0
 11
367.9999999999999
 21
10.0
 31
0.0
  0
LINE
  5
2791
330
273E
100
AcDbEntity
  8
0
100
AcDbLine
 10
229.9999999999999
 20
37.0
 30
0.0
 11
229.9999999999999
 21
10.0
 31
0.0
  0
LINE
  5
2792
330
273E
100
AcDbEntity
  8
0
100
AcDbLine
 10
321.9999999999999
 20
37.0
 30
0.0
 11
321.9999999999999
 21
28.0
 31
0.0
  0
LINE
  5
2793
330
273E
100
AcDbEntity
  8
0
100
AcDbLine
 10
353.9999999999999
 20
37.0
 30
0.0
 11
353.9999999999999
 21
28.0
 31
0.0
  0
LINE
  5
2794
330
273E
100
AcDbEntity
  8
0
100
AcDbLine
 10
385.9999999999999
 20
37.0
 30
0.0
 11
385.9999999999999
 21
28.0
 31
0.0
  0
LINE
  5
2795
330
273E
100
AcDbEntity
  8
0
100
AcDbLine
 10
409.9999999999999
 20
37.0
 30
0.0
 11
229.9999999999999
 21
37.0
 31
0.0
  0
LINE
  5
2796
330
273E
100
AcDbEntity
  8
0
100
AcDbLine
 10
229.9999999999999
 20
32.0
 30
0.0
 11
297.9999999999999
 21
32.0
 31
0.0
  0
LINE
  5
2797
330
273E
100
AcDbEntity
  8
0
100
AcDbLine
 10
229.9999999999999
 20
15.0
 30
0.0
 11
297.9999999999999
 21
15.0
 31
0.0
  0
LINE
  5
2798
330
273E
100
AcDbEntity
  8
0
100
AcDbLine
 10
246.9999999999999
 20
32.0
 30
0.0
 11
246.9999999999999
 21
10.0
 31
0.0
  0
LINE
  5
2799
330
273E
100
AcDbEntity
  8
0
100
AcDbLine
 10
263.9999999999999
 20
32.0
 30
0.0
 11
263.9999999999999
 21
10.0
 31
0.0
  0
MTEXT
  5
279A
330
273E
100
AcDbEntity
  8
0
100
AcDbMText
 10
233.6822362954143
 20
36.53613805254554
 30
0.0
 40
4.0
 41
51.15817715169351
 71
     1
 72
     5
  1
作 成 日
1001
ACAD
1000
ACAD_MTEXT_DEFINED_HEIGHT_BEGIN
1070
    46
1040
0.0
1000
ACAD_MTEXT_DEFINED_HEIGHT_END
1000
MTEXTBEGIN
1070
    73
1070
     1
1070
    44
1040
1.0
1070
    74
1070
     0
1000
MTEXTEND
1000
MTEXTBEGIN
1070
    73
1070
     1
1070
    44
1040
1.0
1070
    74
1070
     0
1000
MTEXTEND
  0
LINE
  5
279B
330
273E
100
AcDbEntity
  8
0
100
AcDbLine
 10
255.4999999999999
 20
37.0
 30
0.0
 11
255.4999999999999
 21
32.0
 31
0.0
  0
LINE
  5
279C
330
273E
100
AcDbEntity
  8
0
100
AcDbLine
 10
280.9999999999999
 20
32.0
 30
0.0
 11
280.9999999999999
 21
10.0
 31
0.0
  0
TEXT
  5
279D
330
273E
100
AcDbEntity
  8
0
100
AcDbText
 10
362.2047990478845
 20
24.11988018255296
 30
0.0
 40
3.5625
  1
型
100
AcDbText
  0
TEXT
  5
279E
330
273E
100
AcDbEntity
  8
0
100
AcDbText
 10
362.279626072682
 20
19.82584876881355
 30
0.0
 40
3.5625
  1
式
100
AcDbText
  0
CIRCLE
  5
279F
330
273E
100
AcDbEntity
  8
0
100
AcDbCircle
 10
269.9999999999999
 20
34.56806793362761
 30
0.0
 40
0.5
  0
CIRCLE
  5
27A0
330
273E
100
AcDbEntity
  8
0
100
AcDbCircle
 10
283.9999999999999
 20
34.56806793362761
 30
0.0
 40
0.5
  0
CIRCLE
  5
27A1
330
273E
100
AcDbEntity
  8
0
100
AcDbCircle
 10
269.9999999999999
 20
34.56806793362761
 30
0.0
 40
0.4
  0
CIRCLE
  5
27A2
330
273E
100
AcDbEntity
  8
0
100
AcDbCircle
 10
269.9999999999999
 20
34.56806793362761
 30
0.0
 40
0.3
  0
CIRCLE
  5
27A3
330
273E
100
AcDbEntity
  8
0
100
AcDbCircle
 10
269.9999999999999
 20
34.56806793362761
 30
0.0
 40
0.2
  0
CIRCLE
  5
27A4
330
273E
100
AcDbEntity
  8
0
100
AcDbCircle
 10
269.9999999999999
 20
34.56806793362761
 30
0.0
 40
0.1
  0
CIRCLE
  5
27A5
330
273E
100
AcDbEntity
  8
0
100
AcDbCircle
 10
283.9999999999999
 20
34.56806793362761
 30
0.0
 40
0.5
  0
CIRCLE
  5
27A6
330
273E
100
AcDbEntity
  8
0
100
AcDbCircle
 10
283.9999999999999
 20
34.56806793362761
 30
0.0
 40
0.4
  0
CIRCLE
  5
27A7
330
273E
100
AcDbEntity
  8
0
100
AcDbCircle
 10
283.9999999999999
 20
34.56806793362761
 30
0.0
 40
0.3
  0
CIRCLE
  5
27A8
330
273E
100
AcDbEntity
  8
0
100
AcDbCircle
 10
283.9999999999999
 20
34.56806793362761
 30
0.0
 40
0.2
  0
CIRCLE
  5
27A9
330
273E
100
AcDbEntity
  8
0
100
AcDbCircle
 10
283.9999999999999
 20
34.56806793362761
 30
0.0
 40
0.1
  0
MTEXT
  5
27AA
330
273E
100
AcDbEntity
  8
0
100
AcDbMText
 10
304.499448299264
 20
17.03068846986468
 30
0.0
 40
5.0
 41
78.66862485691354
 71
     1
 72
     5
  1
株式会社 アンナカ
1001
ACAD
1000
MTEXTBEGIN
1070
    73
1070
     1
1070
    44
1040
1.0
1070
    74
1070
     0
1000
MTEXTEND
1000
MTEXTBEGIN
1070
    73
1070
     1
1070
    44
1040
1.0
1070
    74
1070
     0
1000
MTEXTEND
  0
LINE
  5
27AB
330
273E
100
AcDbEntity
  8
0
100
AcDbLine
 10
309.9999999999999
 20
37.0
 30
0.0
 11
309.9999999999998
 21
28.0
 31
0.0
  0
LINE
  5
27AC
330
273E
100
AcDbEntity
  8
0
100
AcDbLine
 10
333.9999999999999
 20
37.0
 30
0.0
 11
333.9999999999999
 21
28.0
 31
0.0
  0
LINE
  5
27AD
330
273E
100
AcDbEntity
  8
0
100
AcDbLine
 10
365.9999999999999
 20
37.0
 30
0.0
 11
365.9999999999999
 21
28.0
 31
0.0
  0
LINE
  5
27AE
330
273E
100
AcDbEntity
  8
0
100
AcDbLine
 10
397.9999999999999
 20
37.0
 30
0.0
 11
397.9999999999999
 21
28.0
 31
0.0
  0
ENDBLK
  5
2777
330
273E
100
AcDbEntity
  8
0
100
AcDbBlockEnd
  0
BLOCK
  5
2A21
330
2A15
100
AcDbEntity
  8
0
100
AcDbBlockBegin
  2
*D24
 70
     1
 10
0.0
 20
0.0
 30
0.0
  3
*D24
  1

  0
LINE
  5
2A23
330
2A15
100
AcDbEntity
  8
寸法線1
 62
     0
100
AcDbLine
 10
811.230541469914
 20
334.8288932575436
 30
0.0
 11
887.497376529218
 21
334.8288932575436
 31
0.0
  0
LINE
  5
2A24
330
2A15
100
AcDbEntity
  8
寸法線1
 62
     0
100
AcDbLine
 10
794.230541469914
 20
315.8288932575436
 30
0.0
 11
887.497376529218
 21
315.8288932575436
 31
0.0
  0
LINE
  5
2A25
330
2A15
100
AcDbEntity
  8
寸法線1
 62
     0
100
AcDbLine
 10
881.247376529218
 20
347.3288932575436
 30
0.0
 11
881.247376529218
 21
359.8288932575436
 31
0.0
  0
LINE
  5
2A26
330
2A15
100
AcDbEntity
  8
寸法線1
 62
     0
100
AcDbLine
 10
881.247376529218
 20
303.3288932575436
 30
0.0
 11
881.247376529218
 21
260.8288932575436
 31
0.0
  0
LINE
  5
2A27
330
2A15
100
AcDbEntity
  8
寸法線1
 62
     0
100
AcDbLine
 10
881.247376529218
 20
334.8288932575436
 30
0.0
 11
881.247376529218
 21
315.8288932575436
 31
0.0
  0
INSERT
  5
2A28
330
2A15
100
AcDbEntity
  8
寸法線1
 62
     0
100
AcDbBlockReference
  2
_OPEN
 10
881.247376529218
 20
334.8288932575436
 30
0.0
 41
12.5
 42
12.5
 43
12.5
 50
270.0
  0
INSERT
  5
2A29
330
2A15
100
AcDbEntity
  8
寸法線1
 62
     0
100
AcDbBlockReference
  2
_OPEN
 10
881.247376529218
 20
315.8288932575436
 30
0.0
 41
12.5
 42
12.5
 43
12.5
 50
90.0
  0
MTEXT
  5
2A2A
330
2A15
100
AcDbEntity
  8
寸法線1
 62
     0
100
AcDbMText
 10
868.747376529218
 20
275.8288932575437
 30
0.0
 40
15.0
 41
0.0
 71
     5
 72
     1
  1
19
 11
0.0000000000000001
 21
1.0
 31
0.0
1001
ACAD
1000
MTEXTBEGIN
1070
    73
1070
     1
1070
    44
1040
1.0
1070
    74
1070
     0
1000
MTEXTEND
  0
POINT
  5
2A2B
330
2A15
100
AcDbEntity
  8
DEFPOINTS
 62
     0
100
AcDbPoint
 10
806.2305414699139
 20
334.8288932575436
 30
0.0
  0
POINT
  5
2A2C
330
2A15
100
AcDbEntity
  8
DEFPOINTS
 62
     0
100
AcDbPoint
 10
789.230541469914
 20
315.8288932575436
 30
0.0
  0
POINT
  5
2A2D
330
2A15
100
AcDbEntity
  8
DEFPOINTS
 62
     0
100
AcDbPoint
 10
881.247376529218
 20
315.8288932575436
 30
0.0
  0
ENDBLK
  5
2A22
330
2A15
100
AcDbEntity
  8
0
100
AcDbBlockEnd
  0
ENDSEC
  0
SECTION
  2
ENTITIES
  0
XLINE
  5
101A
330
1F
100
AcDbEntity
  8
9_構築線
100
AcDbXline
 10
0.0
 20
1180.0
 30
0.0
 11
0.0
 21
-1.0
 31
0.0
  0
XLINE
  5
101B
330
1F
100
AcDbEntity
  8
9_構築線
100
AcDbXline
 10
0.0
 20
0.0
 30
0.0
 11
1.0
 21
0.0
 31
0.0
  0
XLINE
  5
1021
330
1F
100
AcDbEntity
  8
9_構築線
100
AcDbXline
 10
150.0
 20
1298.0
 30
0.0
 11
1.0
 21
0.0
 31
0.0
  0
LINE
  5
1609
330
1F
100
AcDbEntity
  8
本体前枠
100
AcDbLine
 10
321.230541469914
 20
549.8288932575436
 30
0.0
 11
681.230541469914
 21
549.8288932575436
 31
0.0
  0
LINE
  5
160A
330
1F
100
AcDbEntity
  8
本体前枠
100
AcDbLine
 10
681.230541469914
 20
549.8288932575436
 30
0.0
 11
681.230541469914
 21
354.8288932575436
 31
0.0
  0
LINE
  5
160B
330
1F
100
AcDbEntity
  8
本体前枠
100
AcDbLine
 10
681.230541469914
 20
354.8288932575436
 30
0.0
 11
321.230541469914
 21
354.8288932575436
 31
0.0
  0
LINE
  5
160C
330
1F
100
AcDbEntity
  8
本体前枠
100
AcDbLine
 10
321.230541469914
 20
354.8288932575436
 30
0.0
 11
321.230541469914
 21
549.8288932575436
 31
0.0
  0
LINE
  5
1622
330
1F
100
AcDbEntity
  8
本体前枠
100
AcDbLine
 10
301.2305414699139
 20
569.8288932575436
 30
0.0
 11
801.230541469914
 21
569.8288932575436
 31
0.0
  0
LINE
  5
1623
330
1F
100
AcDbEntity
  8
本体前枠
100
AcDbLine
 10
801.230541469914
 20
334.8288932575436
 30
0.0
 11
301.2305414699137
 21
334.8288932575436
 31
0.0
  0
LINE
  5
1624
330
1F
100
AcDbEntity
  8
本体前枠
100
AcDbLine
 10
301.2305414699139
 20
334.8288932575436
 30
0.0
 11
301.2305414699139
 21
569.8288932575436
 31
0.0
  0
LINE
  5
1627
330
1F
100
AcDbEntity
  8
本体前枠
100
AcDbLine
 10
801.230541469914
 20
569.8288932575436
 30
0.0
 11
801.2305414699138
 21
334.8288932575436
 31
0.0
  0
LINE
  5
182D
330
1F
100
AcDbEntity
  8
引出パネル
100
AcDbLine
 10
679.7305414699139
 20
354.7288932575436
 30
0.0
 11
322.7305414699139
 21
354.7288932575436
 31
0.0
  0
LINE
  5
182E
330
1F
100
AcDbEntity
  8
引出パネル
100
AcDbLine
 10
322.7305414699139
 20
354.7288932575436
 30
0.0
 11
322.7305414699139
 21
546.7288932575436
 31
0.0
  0
LINE
  5
182F
330
1F
100
AcDbEntity
  8
引出パネル
100
AcDbLine
 10
322.7305414699139
 20
546.7288932575436
 30
0.0
 11
679.7305414699139
 21
546.7288932575436
 31
0.0
  0
LINE
  5
1830
330
1F
100
AcDbEntity
  8
引出パネル
100
AcDbLine
 10
679.7305414699139
 20
546.7288932575436
 30
0.0
 11
679.7305414699139
 21
354.7288932575436
 31
0.0
  0
LINE
  5
1841
330
1F
100
AcDbEntity
  8
引出
100
AcDbLine
 10
332.9805414699139
 20
496.5288932575435
 30
0.0
 11
669.4805414699139
 21
496.5288932575435
 31
0.0
  0
LINE
  5
1842
330
1F
100
AcDbEntity
  8
引出
100
AcDbLine
 10
669.4805414699139
 20
496.5288932575435
 30
0.0
 11
669.4805414699139
 21
396.5288932575436
 31
0.0
  0
LINE
  5
1843
330
1F
100
AcDbEntity
  8
引出
100
AcDbLine
 10
669.4805414699139
 20
396.5288932575436
 30
0.0
 11
332.9805414699139
 21
396.5288932575436
 31
0.0
  0
LINE
  5
1844
330
1F
100
AcDbEntity
  8
引出
100
AcDbLine
 10
332.9805414699139
 20
396.5288932575436
 30
0.0
 11
332.9805414699139
 21
496.5288932575435
 31
0.0
  0
LINE
  5
184A
330
1F
100
AcDbEntity
  8
引出
100
AcDbLine
 10
674.480541469914
 20
423.1288932575436
 30
0.0
 11
679.480541469914
 21
423.1288932575436
 31
0.0
  0
LINE
  5
184B
330
1F
100
AcDbEntity
  8
引出
100
AcDbLine
 10
679.480541469914
 20
423.1288932575436
 30
0.0
 11
679.480541469914
 21
401.1288932575435
 31
0.0
  0
LINE
  5
184C
330
1F
100
AcDbEntity
  8
引出
100
AcDbLine
 10
679.480541469914
 20
401.1288932575435
 30
0.0
 11
674.480541469914
 21
401.1288932575435
 31
0.0
  0
LINE
  5
184D
330
1F
100
AcDbEntity
  8
引出
100
AcDbLine
 10
674.480541469914
 20
401.1288932575435
 30
0.0
 11
674.480541469914
 21
423.1288932575436
 31
0.0
  0
LINE
  5
1851
330
1F
100
AcDbEntity
  8
引出
100
AcDbLine
 10
671.080541469914
 20
418.1288932575435
 30
0.0
 11
674.480541469914
 21
418.1288932575435
 31
0.0
  0
LINE
  5
1852
330
1F
100
AcDbEntity
  8
引出
100
AcDbLine
 10
671.080541469914
 20
406.1288932575435
 30
0.0
 11
674.480541469914
 21
406.1288932575435
 31
0.0
  0
LINE
  5
1856
330
1F
100
AcDbEntity
  8
引出レ_ル
100
AcDbLine
 10
669.4805414699139
 20
396.5288932575436
 30
0.0
 11
671.080541469914
 21
396.5288932575436
 31
0.0
  0
LINE
  5
1857
330
1F
100
AcDbEntity
  8
引出レ_ル
100
AcDbLine
 10
671.080541469914
 20
396.5288932575436
 30
0.0
 11
671.080541469914
 21
418.9288932575435
 31
0.0
  0
LINE
  5
1858
330
1F
100
AcDbEntity
  8
引出レ_ル
100
AcDbLine
 10
671.080541469914
 20
418.9288932575435
 30
0.0
 11
677.730541469914
 21
418.9288932575435
 31
0.0
  0
LINE
  5
185A
330
1F
100
AcDbEntity
  8
引出レ_ル
100
AcDbLine
 10
677.730541469914
 20
415.5288932575436
 30
0.0
 11
679.480541469914
 21
415.5288932575436
 31
0.0
  0
LINE
  5
185C
330
1F
100
AcDbEntity
  8
引出レ_ル
100
AcDbLine
 10
679.480541469914
 20
420.5288932575436
 30
0.0
 11
671.080541469914
 21
420.5288932575436
 31
0.0
  0
LINE
  5
185D
330
1F
100
AcDbEntity
  8
引出レ_ル
100
AcDbLine
 10
671.080541469914
 20
420.5288932575436
 30
0.0
 11
669.4805414699139
 21
420.5288932575436
 31
0.0
  0
LINE
  5
185F
330
1F
100
AcDbEntity
  8
引出レ_ル
100
AcDbLine
 10
324.9805414699139
 20
420.5288932575436
 30
0.0
 11
331.3805414699139
 21
420.5288932575436
 31
0.0
  0
LINE
  5
1860
330
1F
100
AcDbEntity
  8
引出レ_ル
100
AcDbLine
 10
331.3805414699139
 20
418.9288932575435
 30
0.0
 11
324.9805414699139
 21
418.9288932575435
 31
0.0
  0
LINE
  5
1861
330
1F
100
AcDbEntity
  8
引出
100
AcDbLine
 10
331.3805414699139
 20
406.1288932575435
 30
0.0
 11
327.9805414699139
 21
406.1288932575435
 31
0.0
  0
LINE
  5
1862
330
1F
100
AcDbEntity
  8
引出
100
AcDbLine
 10
331.3805414699139
 20
418.1288932575435
 30
0.0
 11
327.9805414699139
 21
418.1288932575435
 31
0.0
  0
LINE
  5
1864
330
1F
100
AcDbEntity
  8
引出レ_ル
100
AcDbLine
 10
331.3805414699139
 20
396.5288932575436
 30
0.0
 11
331.3805414699139
 21
418.9288932575435
 31
0.0
  0
LINE
  5
1865
330
1F
100
AcDbEntity
  8
引出レ_ル
100
AcDbLine
 10
332.9805414699139
 20
396.5288932575436
 30
0.0
 11
331.3805414699139
 21
396.5288932575436
 31
0.0
  0
LINE
  5
1866
330
1F
100
AcDbEntity
  8
引出レ_ル
100
AcDbLine
 10
331.3805414699139
 20
420.5288932575436
 30
0.0
 11
332.9805414699139
 21
420.5288932575436
 31
0.0
  0
LINE
  5
1867
330
1F
100
AcDbEntity
  8
引出
100
AcDbLine
 10
327.9805414699139
 20
401.1288932575435
 30
0.0
 11
327.9805414699139
 21
423.1288932575436
 31
0.0
  0
LINE
  5
1868
330
1F
100
AcDbEntity
  8
引出
100
AcDbLine
 10
322.9805414699139
 20
423.1288932575436
 30
0.0
 11
322.9805414699139
 21
401.1288932575435
 31
0.0
  0
LINE
  5
1869
330
1F
100
AcDbEntity
  8
引出
100
AcDbLine
 10
322.9805414699139
 20
401.1288932575435
 30
0.0
 11
327.9805414699139
 21
401.1288932575435
 31
0.0
  0
LINE
  5
186D
330
1F
100
AcDbEntity
  8
引出
100
AcDbLine
 10
327.9805414699139
 20
423.1288932575436
 30
0.0
 11
322.9805414699139
 21
423.1288932575436
 31
0.0
  0
LINE
  5
186E
330
1F
100
AcDbEntity
  8
引出レ_ル
100
AcDbLine
 10
324.9805414699139
 20
422.5288932575436
 30
0.0
 11
324.9805414699139
 21
418.9288932575435
 31
0.0
  0
LINE
  5
195D
330
1F
100
AcDbEntity
  8
中箱レ_ル
100
AcDbLine
 10
328.2305414699139
 20
399.4288932575436
 30
0.0
 11
320.2305414699139
 21
399.4288932575436
 31
0.0
  0
LINE
  5
1960
330
1F
100
AcDbEntity
  8
中箱レ_ル
100
AcDbLine
 10
320.2305414699139
 20
425.9288932575436
 30
0.0
 11
328.2305414699139
 21
425.9288932575436
 31
0.0
  0
LINE
  5
1961
330
1F
100
AcDbEntity
  8
中箱レ_ル
100
AcDbLine
 10
328.2305414699139
 20
425.9288932575436
 30
0.0
 11
328.2305414699139
 21
424.3288932575436
 31
0.0
  0
LINE
  5
1962
330
1F
100
AcDbEntity
  8
中箱レ_ル
100
AcDbLine
 10
328.2305414699139
 20
424.3288932575436
 30
0.0
 11
321.830541469914
 21
424.3288932575436
 31
0.0
  0
LINE
  5
1963
330
1F
100
AcDbEntity
  8
中箱レ_ル
100
AcDbLine
 10
321.830541469914
 20
424.3288932575436
 30
0.0
 11
321.830541469914
 21
401.0288932575436
 31
0.0
  0
LINE
  5
1964
330
1F
100
AcDbEntity
  8
中箱レ_ル
100
AcDbLine
 10
321.830541469914
 20
401.0288932575436
 30
0.0
 11
328.2305414699139
 21
401.0288932575436
 31
0.0
  0
LINE
  5
196D
330
1F
100
AcDbEntity
  8
中箱
100
AcDbLine
 10
321.830541469914
 20
415.9288932575436
 30
0.0
 11
325.230541469914
 21
415.9288932575436
 31
0.0
  0
LINE
  5
196E
330
1F
100
AcDbEntity
  8
中箱
100
AcDbLine
 10
321.830541469914
 20
403.9288932575436
 30
0.0
 11
325.230541469914
 21
403.9288932575436
 31
0.0
  0
LINE
  5
1971
330
1F
100
AcDbEntity
  8
中箱
100
AcDbLine
 10
325.230541469914
 20
398.9288932575436
 30
0.0
 11
325.230541469914
 21
420.9288932575436
 31
0.0
  0
LINE
  5
1972
330
1F
100
AcDbEntity
  8
中箱
100
AcDbLine
 10
325.230541469914
 20
420.9288932575436
 30
0.0
 11
330.2305414699139
 21
420.9288932575436
 31
0.0
  0
LINE
  5
1973
330
1F
100
AcDbEntity
  8
中箱
100
AcDbLine
 10
330.2305414699139
 20
420.9288932575436
 30
0.0
 11
330.2305414699139
 21
398.9288932575436
 31
0.0
  0
LINE
  5
1974
330
1F
100
AcDbEntity
  8
中箱
100
AcDbLine
 10
330.2305414699139
 20
398.9288932575436
 30
0.0
 11
325.230541469914
 21
398.9288932575436
 31
0.0
  0
LINE
  5
1976
330
1F
100
AcDbEntity
  8
中箱
100
AcDbLine
 10
672.230541469914
 20
420.9288932575436
 30
0.0
 11
672.230541469914
 21
398.9288932575436
 31
0.0
  0
LINE
  5
1977
330
1F
100
AcDbEntity
  8
中箱
100
AcDbLine
 10
677.230541469914
 20
398.9288932575436
 30
0.0
 11
677.230541469914
 21
420.9288932575436
 31
0.0
  0
LINE
  5
1978
330
1F
100
AcDbEntity
  8
中箱レ_ル
100
AcDbLine
 10
680.630541469914
 20
424.3288932575436
 30
0.0
 11
680.630541469914
 21
401.0288932575436
 31
0.0
  0
LINE
  5
197B
330
1F
100
AcDbEntity
  8
中箱
100
AcDbLine
 10
680.630541469914
 20
403.9288932575436
 30
0.0
 11
677.230541469914
 21
403.9288932575436
 31
0.0
  0
LINE
  5
197C
330
1F
100
AcDbEntity
  8
中箱レ_ル
100
AcDbLine
 10
672.230541469914
 20
399.4288932575436
 30
0.0
 11
682.2305414699139
 21
399.4288932575436
 31
0.0
  0
LINE
  5
197D
330
1F
100
AcDbEntity
  8
中箱レ_ル
100
AcDbLine
 10
680.630541469914
 20
401.0288932575436
 30
0.0
 11
673.830541469914
 21
401.0288932575436
 31
0.0
  0
LINE
  5
197E
330
1F
100
AcDbEntity
  8
中箱
100
AcDbLine
 10
672.230541469914
 20
398.9288932575436
 30
0.0
 11
677.230541469914
 21
398.9288932575436
 31
0.0
  0
LINE
  5
197F
330
1F
100
AcDbEntity
  8
中箱レ_ル
100
AcDbLine
 10
673.830541469914
 20
404.4288932575436
 30
0.0
 11
672.230541469914
 21
404.4288932575436
 31
0.0
  0
LINE
  5
1981
330
1F
100
AcDbEntity
  8
中箱レ_ル
100
AcDbLine
 10
673.830541469914
 20
401.0288932575436
 30
0.0
 11
673.830541469914
 21
404.4288932575436
 31
0.0
  0
LINE
  5
1982
330
1F
100
AcDbEntity
  8
中箱
100
AcDbLine
 10
680.630541469914
 20
415.9288932575436
 30
0.0
 11
677.230541469914
 21
415.9288932575436
 31
0.0
  0
LINE
  5
1984
330
1F
100
AcDbEntity
  8
中箱レ_ル
100
AcDbLine
 10
674.2305414699139
 20
424.3288932575436
 30
0.0
 11
680.630541469914
 21
424.3288932575436
 31
0.0
  0
LINE
  5
1985
330
1F
100
AcDbEntity
  8
中箱レ_ル
100
AcDbLine
 10
682.2305414699139
 20
425.9288932575436
 30
0.0
 11
674.2305414699139
 21
425.9288932575436
 31
0.0
  0
LINE
  5
1987
330
1F
100
AcDbEntity
  8
中箱
100
AcDbLine
 10
677.230541469914
 20
420.9288932575436
 30
0.0
 11
672.230541469914
 21
420.9288932575436
 31
0.0
  0
LINE
  5
1988
330
1F
100
AcDbEntity
  8
中箱レ_ル
100
AcDbLine
 10
674.2305414699139
 20
425.9288932575436
 30
0.0
 11
674.2305414699139
 21
424.3288932575436
 31
0.0
  0
LINE
  5
19D2
330
1F
100
AcDbEntity
  8
本体前枠
100
AcDbLine
 10
1101.230541469914
 20
335.8288932575436
 30
0.0
 11
1101.230541469914
 21
334.8288932575436
 31
0.0
  0
LINE
  5
19D3
330
1F
100
AcDbEntity
  8
本体前枠
100
AcDbLine
 10
1101.230541469914
 20
334.8288932575436
 30
0.0
 11
1081.230541469913
 21
334.8288932575436
 31
0.0
  0
LINE
  5
19D4
330
1F
100
AcDbEntity
  8
本体前枠
100
AcDbLine
 10
1081.230541469913
 20
334.8288932575436
 30
0.0
 11
1081.230541469913
 21
569.8288932575436
 31
0.0
  0
LINE
  5
19D5
330
1F
100
AcDbEntity
  8
本体前枠
100
AcDbLine
 10
1081.230541469913
 20
569.8288932575436
 30
0.0
 11
1101.230541469914
 21
569.8288932575436
 31
0.0
  0
LINE
  5
19D6
330
1F
100
AcDbEntity
  8
本体前枠
100
AcDbLine
 10
1101.230541469914
 20
569.8288932575436
 30
0.0
 11
1101.230541469914
 21
568.8288932575436
 31
0.0
  0
LINE
  5
19E1
330
1F
100
AcDbEntity
  8
本体前枠
100
AcDbLine
 10
1101.230541469914
 20
335.8288932575436
 30
0.0
 11
1101.230541469914
 21
334.8288932575436
 31
0.0
  0
LINE
  5
19E9
330
1F
100
AcDbEntity
  8
外箱
100
AcDbLine
 10
1671.230541469914
 20
568.0288932575435
 30
0.0
 11
1671.230541469914
 21
568.8288932575436
 31
0.0
  0
LINE
  5
19EA
330
1F
100
AcDbEntity
  8
外箱
100
AcDbLine
 10
1671.230541469914
 20
568.8288932575436
 30
0.0
 11
1083.230541469914
 21
568.8288932575438
 31
0.0
  0
LINE
  5
19EB
330
1F
100
AcDbEntity
  8
外箱
100
AcDbLine
 10
1083.230541469914
 20
568.8288932575438
 30
0.0
 11
1083.230541469914
 21
568.0288932575437
 31
0.0
  0
LINE
  5
19EC
330
1F
100
AcDbEntity
  8
外箱
100
AcDbLine
 10
1083.230541469914
 20
336.6288932575436
 30
0.0
 11
1083.230541469914
 21
335.8288932575436
 31
0.0
  0
LINE
  5
19ED
330
1F
100
AcDbEntity
  8
外箱
100
AcDbLine
 10
1083.230541469914
 20
335.8288932575436
 30
0.0
 11
1671.230541469914
 21
335.8288932575436
 31
0.0
  0
LINE
  5
19EE
330
1F
100
AcDbEntity
  8
外箱
100
AcDbLine
 10
1671.230541469914
 20
335.8288932575436
 30
0.0
 11
1671.230541469914
 21
336.6288932575436
 31
0.0
  0
LINE
  5
19F3
330
1F
100
AcDbEntity
  8
外箱
100
AcDbLine
 10
1671.230541469914
 20
336.6288932575436
 30
0.0
 11
1671.230541469914
 21
355.8288932575436
 31
0.0
  0
LINE
  5
19F4
330
1F
100
AcDbEntity
  8
外箱
100
AcDbLine
 10
1671.230541469914
 20
355.8288932575436
 30
0.0
 11
1670.430541469914
 21
355.8288932575436
 31
0.0
  0
LINE
  5
19F7
330
1F
100
AcDbEntity
  8
外箱
100
AcDbLine
 10
1671.230541469914
 20
568.8288932575436
 30
0.0
 11
1671.230541469914
 21
548.8288932575436
 31
0.0
  0
LINE
  5
19F8
330
1F
100
AcDbEntity
  8
外箱
100
AcDbLine
 10
1671.230541469914
 20
548.8288932575436
 30
0.0
 11
1670.430541469914
 21
548.8288932575436
 31
0.0
  0
LINE
  5
1A05
330
1F
100
AcDbEntity
  8
外箱
100
AcDbLine
 10
1672.030541469914
 20
338.3288932575436
 30
0.0
 11
1671.230541469914
 21
338.3288932575436
 31
0.0
  0
LINE
  5
1A13
330
1F
100
AcDbEntity
  8
外箱
100
AcDbLine
 10
1672.030541469914
 20
338.3288932575436
 30
0.0
 11
1672.030541469914
 21
357.5535408508931
 31
0.0
  0
LINE
  5
1A14
330
1F
100
AcDbEntity
  8
外箱
100
AcDbLine
 10
1672.030541469914
 20
566.3288932575436
 30
0.0
 11
1671.230541469914
 21
566.3288932575436
 31
0.0
  0
LINE
  5
1A15
330
1F
100
AcDbEntity
  8
外箱
100
AcDbLine
 10
1671.230541469914
 20
566.3288932575436
 30
0.0
 11
1671.230541469914
 21
360.4756312117352
 31
0.0
  0
LINE
  5
1A69
330
1F
100
AcDbEntity
  8
本体前枠
100
AcDbLine
 10
1116.230541469914
 20
399.8288932575436
 30
0.0
 11
1102.230541469914
 21
399.8288932575436
 31
0.0
  0
LINE
  5
1A6A
330
1F
100
AcDbEntity
  8
本体前枠
100
AcDbLine
 10
1116.230541469914
 20
429.8288932575436
 30
0.0
 11
1102.230541469914
 21
429.8288932575436
 31
0.0
  0
LINE
  5
1A6E
330
1F
100
AcDbEntity
  8
本体前枠
100
AcDbLine
 10
1102.230541469914
 20
429.8288932575436
 30
0.0
 11
1102.230541469914
 21
399.8288932575436
 31
0.0
  0
CIRCLE
  5
1A84
330
1F
100
AcDbEntity
  8
中箱
100
AcDbCircle
 10
1122.730541469914
 20
409.9288932575436
 30
0.0
 40
11.0
  0
CIRCLE
  5
1A85
330
1F
100
AcDbEntity
  8
中箱
100
AcDbCircle
 10
1122.730541469914
 20
409.9288932575436
 30
0.0
 40
6.0
  0
LINE
  5
1A8C
330
1F
100
AcDbEntity
  8
中箱
100
AcDbLine
 10
1143.079197599426
 20
399.9584788457181
 30
0.0
 11
1104.230541469914
 21
399.9584788457181
 31
0.0
  0
LINE
  5
1A8D
330
1F
100
AcDbEntity
  8
中箱
100
AcDbLine
 10
1104.230541469914
 20
399.9288932575436
 30
0.0
 11
1104.230541469914
 21
425.9288932575436
 31
0.0
  0
LINE
  5
1A8E
330
1F
100
AcDbEntity
  8
中箱
100
AcDbLine
 10
1104.230541469914
 20
425.9288932575436
 30
0.0
 11
1650.230541469914
 21
425.9288932575436
 31
0.0
  0
LINE
  5
1A8F
330
1F
100
AcDbEntity
  8
中箱
100
AcDbLine
 10
1143.079197599426
 20
425.9288932575436
 30
0.0
 11
1143.079197599426
 21
424.3288932575436
 31
0.0
  0
LINE
  5
1A91
330
1F
100
AcDbEntity
  8
中箱
100
AcDbLine
 10
1650.230541469914
 20
425.9288932575436
 30
0.0
 11
1650.230541469914
 21
399.4288932575436
 31
0.0
  0
LINE
  5
1A98
330
1F
100
AcDbEntity
  8
中箱
100
AcDbLine
 10
1605.230541469914
 20
398.9288932575436
 30
0.0
 11
1143.079197599426
 21
398.9288932575436
 31
0.0
  0
LINE
  5
1A99
330
1F
100
AcDbEntity
  8
中箱
100
AcDbLine
 10
1143.079197599426
 20
398.9288932575436
 30
0.0
 11
1143.079197599426
 21
404.4288932575436
 31
0.0
  0
SPLINE
  5
1A9C
330
1F
100
AcDbEntity
  8
中箱
100
AcDbSpline
210
0.0
220
0.0
230
1.0
 70
     8
 71
     3
 72
     9
 73
     5
 74
     3
 42
0.0000000001
 43
0.0000000001
 44
0.0000000001
 40
0.0
 40
0.0
 40
0.0
 40
0.0
 40
15.0
 40
45.01666203960726
 40
45.01666203960726
 40
45.01666203960726
 40
45.01666203960726
 10
1650.230541469914
 20
403.4288932575436
 30
0.0
 10
1645.23007906361
 20
403.401141174712
 30
0.0
 10
1630.223137317855
 20
403.3178540991303
 30
0.0
 10
1615.228689789561
 20
403.9844282502937
 30
0.0
 10
1605.230541469914
 20
404.4288932575436
 30
0.0
 11
1650.230541469914
 21
403.4288932575436
 31
0.0
 11
1635.230541469914
 21
403.4288932575436
 31
0.0
 11
1605.230541469914
 21
404.4288932575436
 31
0.0
  0
LINE
  5
1A9D
330
1F
100
AcDbEntity
  8
中箱
100
AcDbLine
 10
1650.230541469914
 20
399.4288932575436
 30
0.0
 11
1650.230541469914
 21
397.9288932575436
 31
0.0
  0
LINE
  5
1AA6
330
1F
100
AcDbEntity
  8
1_実線
100
AcDbLine
 10
744.4520081706144
 20
787.2564857183405
 30
0.0
 11
747.9875420765472
 21
790.7920196242733
 31
0.0
  0
LINE
  5
1AA7
330
1F
100
AcDbEntity
  8
1_実線
100
AcDbLine
 10
744.4520081706143
 20
790.7920196242733
 30
0.0
 11
747.9875420765472
 21
787.2564857183405
 31
0.0
  0
LINE
  5
1AB0
330
1F
100
AcDbEntity
  8
中箱
100
AcDbLine
 10
1081.230541469913
 20
546.7288932575436
 30
0.0
 11
1101.230541469914
 21
546.7288932575436
 31
0.0
  0
LINE
  5
1AB1
330
1F
100
AcDbEntity
  8
引出パネル
100
AcDbLine
 10
1101.230541469914
 20
546.7288932575436
 30
0.0
 11
1101.230541469914
 21
354.7288932575436
 31
0.0
  0
LINE
  5
1AB2
330
1F
100
AcDbEntity
  8
中箱
100
AcDbLine
 10
1101.230541469914
 20
354.7288932575436
 30
0.0
 11
1081.230541469913
 21
354.7288932575436
 31
0.0
  0
LINE
  5
1AB3
330
1F
100
AcDbEntity
  8
引出パネル
100
AcDbLine
 10
1081.230541469913
 20
354.7288932575436
 30
0.0
 11
1081.230541469913
 21
546.7288932575436
 31
0.0
  0
LINE
  5
1AB7
330
1F
100
AcDbEntity
  8
引出
100
AcDbLine
 10
1101.230541469914
 20
544.7288932575436
 30
0.0
 11
1102.030541469914
 21
544.7288932575436
 31
0.0
  0
LINE
  5
1AB9
330
1F
100
AcDbEntity
  8
引出
100
AcDbLine
 10
1102.430541469914
 20
356.7288932575436
 30
0.0
 11
1101.630541469914
 21
356.7288932575436
 31
0.0
  0
LINE
  5
1ABA
330
1F
100
AcDbEntity
  8
引出
100
AcDbLine
 10
1101.630541469914
 20
356.7288932575436
 30
0.0
 11
1101.630541469914
 21
544.7288932575436
 31
0.0
  0
LINE
  5
1ABD
330
1F
100
AcDbEntity
  8
引出
100
AcDbLine
 10
1102.430541469914
 20
496.5288932575435
 30
0.0
 11
1105.580541469913
 21
496.5288932575435
 31
0.0
  0
LINE
  5
1ABE
330
1F
100
AcDbEntity
  8
引出
100
AcDbLine
 10
1638.730541469914
 20
496.5288932575435
 30
0.0
 11
1638.730541469914
 21
396.5288932575436
 31
0.0
  0
LINE
  5
1ABF
330
1F
100
AcDbEntity
  8
引出
100
AcDbLine
 10
1638.730541469914
 20
396.5288932575436
 30
0.0
 11
1102.430541469914
 21
396.5288932575436
 31
0.0
  0
LINE
  5
1AC6
330
1F
100
AcDbEntity
  8
引出レ_ル
100
AcDbLine
 10
1624.730541469914
 20
420.5288932575436
 30
0.0
 11
1624.730541469914
 21
418.9288932575435
 31
0.0
  0
LINE
  5
1AC8
330
1F
100
AcDbEntity
  8
引出レ_ル
100
AcDbLine
 10
1148.230541469913
 20
420.5288932575436
 30
0.0
 11
1624.730541469914
 21
420.5288932575436
 31
0.0
  0
LINE
  5
1AC9
330
1F
100
AcDbEntity
  8
引出レ_ル
100
AcDbLine
 10
1624.730541469914
 20
420.5288932575436
 30
0.0
 11
1624.730541469914
 21
418.9288932575435
 31
0.0
  0
SPLINE
  5
1ACA
330
1F
100
AcDbEntity
  8
引出レ_ル
100
AcDbSpline
210
0.0
220
0.0
230
1.0
 70
    24
 71
     3
 72
     8
 73
     4
 74
     2
 42
0.0000000001
 43
0.0000000001
 44
0.0000000001
 40
0.0
 40
0.0
 40
0.0
 40
0.0
 40
2.090258806924931
 40
2.090258806924931
 40
2.090258806924931
 40
2.090258806924931
 10
1626.227558185633
 20
418.48387044061
 30
0.0
 10
1626.486420215086
 20
419.1307514984814
 30
0.0
 10
1626.745282244539
 20
419.7776325563528
 30
0.0
 10
1627.004144273992
 20
420.4245136142243
 30
0.0
 11
1626.227558185633
 21
418.48387044061
 31
0.0
 11
1627.004144273992
 21
420.4245136142243
 31
0.0
  0
LINE
  5
1ACB
330
1F
100
AcDbEntity
  8
引出レ_ル
100
AcDbLine
 10
1627.004144273992
 20
420.4245136142242
 30
0.0
 11
1649.730541469914
 21
420.4245136142242
 31
0.0
  0
LINE
  5
1ACC
330
1F
100
AcDbEntity
  8
引出レ_ル
100
AcDbLine
 10
1649.730541469914
 20
420.4245136142242
 30
0.0
 11
1649.730541469914
 21
412.1288932575436
 31
0.0
  0
LINE
  5
1ACD
330
1F
100
AcDbEntity
  8
引出レ_ル
100
AcDbLine
 10
1649.730541469914
 20
412.1288932575436
 30
0.0
 11
1645.642210394587
 21
396.5546048677575
 31
0.0
  0
LINE
  5
1ACE
330
1F
100
AcDbEntity
  8
引出レ_ル
100
AcDbLine
 10
1645.642210394587
 20
396.5546048677575
 30
0.0
 11
1638.730541469914
 21
396.5546048677575
 31
0.0
  0
CIRCLE
  5
1AD0
330
1F
100
AcDbEntity
  8
引出レ_ル
100
AcDbCircle
 10
1635.730541469914
 20
411.5288932575436
 30
0.0
 40
11.0
  0
CIRCLE
  5
1AD1
330
1F
100
AcDbEntity
  8
引出レ_ル
100
AcDbCircle
 10
1635.730541469914
 20
411.5288932575436
 30
0.0
 40
6.0
  0
LINE
  5
1ADD
330
1F
100
AcDbEntity
  8
引出レ_ル
100
AcDbLine
 10
1103.230541469913
 20
422.5288932575436
 30
0.0
 11
1118.230541469914
 21
422.5288932575436
 31
0.0
  0
SPLINE
  5
1ADE
330
1F
100
AcDbEntity
  8
引出レ_ル
100
AcDbSpline
210
0.0
220
0.0
230
1.0
 70
    24
 71
     3
 72
     8
 73
     4
 74
     2
 42
0.0000000001
 43
0.0000000001
 44
0.0000000001
 40
0.0
 40
0.0
 40
0.0
 40
0.0
 40
30.06659275674581
 40
30.06659275674581
 40
30.06659275674581
 40
30.06659275674581
 10
1118.230541469914
 20
422.5288932575436
 30
0.0
 10
1128.230541469914
 20
421.862226590877
 30
0.0
 10
1138.230541469914
 20
421.1955599242103
 30
0.0
 10
1148.230541469913
 20
420.5288932575436
 30
0.0
 11
1118.230541469914
 21
422.5288932575436
 31
0.0
 11
1148.230541469913
 21
420.5288932575436
 31
0.0
  0
LINE
  5
1AF5
330
1F
100
AcDbEntity
  8
中箱
100
AcDbLine
 10
1657.430541469913
 20
561.1288932575436
 30
0.0
 11
1658.230541469913
 21
561.1288932575436
 31
0.0
  0
LINE
  5
1AF7
330
1F
100
AcDbEntity
  8
中箱
100
AcDbLine
 10
1658.230541469913
 20
343.5288932575436
 30
0.0
 11
1657.430541469913
 21
343.5288932575436
 31
0.0
  0
LINE
  5
1AF8
330
1F
100
AcDbEntity
  8
中箱
100
AcDbLine
 10
1657.430541469913
 20
343.5288932575436
 30
0.0
 11
1657.430541469913
 21
561.1288932575436
 31
0.0
  0
LINE
  5
1AFB
330
1F
100
AcDbEntity
  8
中箱
100
AcDbLine
 10
1083.230541469914
 20
351.9288932575436
 30
0.0
 11
1657.430541469913
 21
351.9288932575436
 31
0.0
  0
LINE
  5
1B03
330
1F
100
AcDbEntity
  8
中箱
100
AcDbLine
 10
1083.230541469914
 20
551.1288932575435
 30
0.0
 11
1083.230541469914
 21
551.9288932575436
 31
0.0
  0
LINE
  5
1B04
330
1F
100
AcDbEntity
  8
中箱
100
AcDbLine
 10
1083.230541469914
 20
551.9288932575436
 30
0.0
 11
1657.430541469913
 21
551.9288932575436
 31
0.0
  0
LINE
  5
1B14
330
1F
100
AcDbEntity
  8
中箱裏板
100
AcDbLine
 10
1658.230541469913
 20
339.3288932575436
 30
0.0
 11
1659.030541469913
 21
339.3288932575436
 31
0.0
  0
LINE
  5
1B15
330
1F
100
AcDbEntity
  8
中箱裏板
100
AcDbLine
 10
1659.030541469913
 20
339.3288932575436
 30
0.0
 11
1659.030541469913
 21
563.3288932575436
 31
0.0
  0
LINE
  5
1B16
330
1F
100
AcDbEntity
  8
中箱裏板
100
AcDbLine
 10
1659.030541469913
 20
563.3288932575436
 30
0.0
 11
1658.230541469913
 21
563.3288932575436
 31
0.0
  0
XLINE
  5
1B58
330
1F
100
AcDbEntity
  8
9_構築線
100
AcDbXline
 10
288.6409878928457
 20
560.046377831798
 30
0.0
 11
-1.0
 21
0.0
 31
0.0
  0
LINE
  5
1C58
330
1F
100
AcDbEntity
  8
本体前枠
100
AcDbLine
 10
301.2305414699139
 20
798.9982604119723
 30
0.0
 11
302.230541469914
 21
798.9982604119723
 31
0.0
  0
LINE
  5
1C64
330
1F
100
AcDbEntity
  8
本体前枠
100
AcDbLine
 10
800.230541469914
 20
798.9982604119723
 30
0.0
 11
801.230541469914
 21
798.9982604119723
 31
0.0
  0
LINE
  5
1C66
330
1F
100
AcDbEntity
  8
本体前枠
100
AcDbLine
 10
801.4805414699139
 20
778.9982604119723
 30
0.0
 11
300.9805414699139
 21
778.9982604119723
 31
0.0
  0
LINE
  5
1C6D
330
1F
100
AcDbEntity
  8
外箱
100
AcDbLine
 10
799.430541469914
 20
780.9982604119722
 30
0.0
 11
800.230541469914
 21
780.9982604119722
 31
0.0
  0
LINE
  5
1C6E
330
1F
100
AcDbEntity
  8
外箱
100
AcDbLine
 10
800.2305414699138
 20
798.9982604119723
 30
0.0
 11
800.230541469914
 21
1368.998260411972
 31
0.0
  0
LINE
  5
1C71
330
1F
100
AcDbEntity
  8
外箱
100
AcDbLine
 10
302.230541469914
 20
1368.998260411972
 30
0.0
 11
302.230541469914
 21
780.9982604119722
 31
0.0
  0
LINE
  5
1C72
330
1F
100
AcDbEntity
  8
外箱
100
AcDbLine
 10
302.230541469914
 20
780.9982604119722
 30
0.0
 11
303.0305414699139
 21
780.9982604119722
 31
0.0
  0
LINE
  5
1C82
330
1F
100
AcDbEntity
  8
本体前枠
100
AcDbLine
 10
300.9805414699139
 20
798.9982604119723
 30
0.0
 11
300.9805414699139
 21
778.9982604119723
 31
0.0
  0
LINE
  5
1C83
330
1F
100
AcDbEntity
  8
フランジ
100
AcDbLine
 10
300.9805414699139
 20
778.9982604119723
 30
0.0
 11
272.430541469914
 21
778.9982604119723
 31
0.0
  0
LINE
  5
1C84
330
1F
100
AcDbEntity
  8
フランジ
100
AcDbLine
 10
271.230541469914
 20
780.1982604119723
 30
0.0
 11
271.230541469914
 21
780.1982604119722
 31
0.0
  0
LINE
  5
1C85
330
1F
100
AcDbEntity
  8
フランジ
100
AcDbLine
 10
272.430541469914
 20
781.3982604119723
 30
0.0
 11
295.7305414699139
 21
781.3982604119723
 31
0.0
  0
LINE
  5
1C8A
330
1F
100
AcDbEntity
  8
フランジ
100
AcDbLine
 10
299.780541469914
 20
781.3982604119721
 30
0.0
 11
299.780541469914
 21
798.9982604119723
 31
0.0
  0
LINE
  5
1C8B
330
1F
100
AcDbEntity
  8
フランジ
100
AcDbLine
 10
299.780541469914
 20
798.9982604119723
 30
0.0
 11
300.9805414699139
 21
798.9982604119723
 31
0.0
  0
LINE
  5
1C8C
330
1F
100
AcDbEntity
  8
本体前枠
100
AcDbLine
 10
801.4805414699139
 20
798.9982604119723
 30
0.0
 11
801.4805414699139
 21
778.9982604119723
 31
0.0
  0
LINE
  5
1C8D
330
1F
100
AcDbEntity
  8
フランジ
100
AcDbLine
 10
801.4805414699139
 20
778.9982604119723
 30
0.0
 11
830.0305414699138
 21
778.9982604119723
 31
0.0
  0
LINE
  5
1C8E
330
1F
100
AcDbEntity
  8
フランジ
100
AcDbLine
 10
831.2305414699139
 20
780.1982604119723
 30
0.0
 11
831.2305414699139
 21
780.1982604119722
 31
0.0
  0
LINE
  5
1C8F
330
1F
100
AcDbEntity
  8
フランジ
100
AcDbLine
 10
830.0305414699138
 20
781.3982604119723
 30
0.0
 11
806.730541469914
 21
781.3982604119723
 31
0.0
  0
LINE
  5
1C92
330
1F
100
AcDbEntity
  8
フランジ
100
AcDbLine
 10
802.6805414699138
 20
781.3982604119721
 30
0.0
 11
802.680541469914
 21
798.9982604119723
 31
0.0
  0
LINE
  5
1C93
330
1F
100
AcDbEntity
  8
フランジ
100
AcDbLine
 10
802.680541469914
 20
798.9982604119723
 30
0.0
 11
801.4805414699139
 21
798.9982604119723
 31
0.0
  0
LINE
  5
1CD4
330
1F
100
AcDbEntity
  8
中箱レ_ル
100
AcDbLine
 10
328.2305414699139
 20
401.0288932575436
 30
0.0
 11
328.2305414699139
 21
397.4288932575436
 31
0.0
  0
LINE
  5
1D33
330
1F
100
AcDbEntity
  8
引出レ_ル
100
AcDbLine
 10
677.730541469914
 20
418.9288932575435
 30
0.0
 11
677.730541469914
 21
415.5288932575436
 31
0.0
  0
LINE
  5
1D34
330
1F
100
AcDbEntity
  8
引出レ_ル
100
AcDbLine
 10
669.4805414699139
 20
422.5288932575436
 30
0.0
 11
669.4805414699139
 21
396.5288932575436
 31
0.0
  0
LINE
  5
1D35
330
1F
100
AcDbEntity
  8
引出レ_ル
100
AcDbLine
 10
679.480541469914
 20
422.5288932575436
 30
0.0
 11
679.480541469914
 21
415.5288932575436
 31
0.0
  0
LINE
  5
1D36
330
1F
100
AcDbEntity
  8
引出レ_ル
100
AcDbLine
 10
332.9805414699139
 20
422.5288932575436
 30
0.0
 11
332.9805414699139
 21
396.5288932575436
 31
0.0
  0
LINE
  5
1D37
330
1F
100
AcDbEntity
  8
中箱レ_ル
100
AcDbLine
 10
672.230541469914
 20
404.4288932575436
 30
0.0
 11
672.230541469914
 21
399.4288932575436
 31
0.0
  0
LINE
  5
1D38
330
1F
100
AcDbEntity
  8
中箱レ_ル
100
AcDbLine
 10
682.2305414699139
 20
425.9288932575436
 30
0.0
 11
682.2305414699139
 21
397.4288932575436
 31
0.0
  0
LINE
  5
1D39
330
1F
100
AcDbEntity
  8
中箱レ_ル
100
AcDbLine
 10
320.2305414699139
 20
425.9288932575436
 30
0.0
 11
320.2305414699139
 21
397.4288932575436
 31
0.0
  0
LINE
  5
1D3B
330
1F
100
AcDbEntity
  8
中箱レ_ル
100
AcDbLine
 10
320.2305414699139
 20
397.4288932575436
 30
0.0
 11
328.2305414699139
 21
397.4288932575436
 31
0.0
  0
LINE
  5
1D3D
330
1F
100
AcDbEntity
  8
3_破線1短
100
AcDbLine
 10
321.830541469914
 20
399.4288932575436
 30
0.0
 11
321.830541469914
 21
397.4288932575436
 31
0.0
  0
LINE
  5
1D3E
330
1F
100
AcDbEntity
  8
3_破線1短
100
AcDbLine
 10
321.830541469914
 20
397.4288932575436
 30
0.0
 11
328.2305414699139
 21
397.4288932575436
 31
0.0
  0
LINE
  5
1D43
330
1F
100
AcDbEntity
  8
引出レ_ル
100
AcDbLine
 10
332.9805414699139
 20
422.5288932575436
 30
0.0
 11
324.9805414699139
 21
422.5288932575436
 31
0.0
  0
LINE
  5
1D45
330
1F
100
AcDbEntity
  8
3_破線1短
100
AcDbLine
 10
331.3805414699139
 20
418.9288932575435
 30
0.0
 11
331.3805414699139
 21
420.9288932575436
 31
0.0
  0
LINE
  5
1D46
330
1F
100
AcDbEntity
  8
3_破線1短
100
AcDbLine
 10
331.3805414699139
 20
420.9288932575436
 30
0.0
 11
324.9805414699139
 21
420.9288932575436
 31
0.0
  0
LINE
  5
1D48
330
1F
100
AcDbEntity
  8
引出レ_ル
100
AcDbLine
 10
669.4805414699139
 20
422.5288932575436
 30
0.0
 11
679.480541469914
 21
422.5288932575436
 31
0.0
  0
LINE
  5
1D4A
330
1F
100
AcDbEntity
  8
3_破線1短
100
AcDbLine
 10
671.080541469914
 20
418.9288932575435
 30
0.0
 11
671.080541469914
 21
420.9288932575436
 31
0.0
  0
LINE
  5
1D4B
330
1F
100
AcDbEntity
  8
3_破線1短
100
AcDbLine
 10
671.080541469914
 20
420.9288932575436
 30
0.0
 11
679.480541469914
 21
420.9288932575436
 31
0.0
  0
LINE
  5
1D4D
330
1F
100
AcDbEntity
  8
中箱レ_ル
100
AcDbLine
 10
672.230541469914
 20
402.4288932575435
 30
0.0
 11
672.230541469914
 21
397.4288932575436
 31
0.0
  0
LINE
  5
1D4E
330
1F
100
AcDbEntity
  8
中箱レ_ル
100
AcDbLine
 10
673.8305414699141
 20
401.0288932575436
 30
0.0
 11
673.830541469914
 21
402.4288932575435
 31
0.0
  0
LINE
  5
1D50
330
1F
100
AcDbEntity
  8
中箱レ_ル
100
AcDbLine
 10
672.230541469914
 20
397.4288932575436
 30
0.0
 11
682.2305414699139
 21
397.4288932575436
 31
0.0
  0
LINE
  5
1D51
330
1F
100
AcDbEntity
  8
3_破線1短
100
AcDbLine
 10
673.830541469914
 20
400.8288932575435
 30
0.0
 11
672.230541469914
 21
400.8288932575435
 31
0.0
  0
LINE
  5
1D52
330
1F
100
AcDbEntity
  8
3_破線1短
100
AcDbLine
 10
680.630541469914
 20
399.4288932575436
 30
0.0
 11
680.630541469914
 21
397.4288932575436
 31
0.0
  0
LINE
  5
1D53
330
1F
100
AcDbEntity
  8
3_破線1短
100
AcDbLine
 10
680.630541469914
 20
397.4288932575436
 30
0.0
 11
673.830541469914
 21
397.4288932575436
 31
0.0
  0
LINE
  5
1D54
330
1F
100
AcDbEntity
  8
3_破線1短
100
AcDbLine
 10
673.830541469914
 20
397.4288932575436
 30
0.0
 11
673.830541469914
 21
399.4288932575436
 31
0.0
  0
XLINE
  5
1D90
330
1F
100
AcDbEntity
  8
KOUTIKUSEN
100
AcDbXline
 10
538.1643242248178
 20
-56.87321977074316
 30
0.0
 11
1.0
 21
0.0
 31
0.0
  0
LINE
  5
1E8C
330
1F
100
AcDbEntity
  8
引出
100
AcDbLine
 10
1638.730541469914
 20
396.5288932575436
 30
0.0
 11
1102.430541469914
 21
396.5288932575436
 31
0.0
  0
LINE
  5
1EC4
330
1F
100
AcDbEntity
  8
中箱
100
AcDbLine
 10
1605.230541469914
 20
398.9288932575436
 30
0.0
 11
1650.230541469914
 21
397.9288932575436
 31
0.0
  0
LINE
  5
1ED6
330
1F
100
AcDbEntity
  8
1_実線
100
AcDbLine
 10
1103.230541469913
 20
416.1584788457181
 30
0.0
 11
1103.230541469913
 21
419.558478845718
 31
0.0
  0
LINE
  5
1ED7
330
1F
100
AcDbEntity
  8
1_実線
100
AcDbLine
 10
1103.230541469913
 20
419.558478845718
 30
0.0
 11
1106.808634615718
 21
419.558478845718
 31
0.0
  0
LINE
  5
1ED8
330
1F
100
AcDbEntity
  8
1_実線
100
AcDbLine
 10
1106.808634615718
 20
419.558478845718
 30
0.0
 11
1106.830541469913
 21
416.1584788457181
 31
0.0
  0
LINE
  5
1ED9
330
1F
100
AcDbEntity
  8
1_実線
100
AcDbLine
 10
1106.830541469913
 20
416.1584788457181
 30
0.0
 11
1103.230541469913
 21
416.1584788457181
 31
0.0
  0
LINE
  5
1EE4
330
1F
100
AcDbEntity
  8
引出レ_ル
100
AcDbLine
 10
1638.730541469914
 20
396.5546048677575
 30
0.0
 11
1103.230541469913
 21
396.5546048677575
 31
0.0
  0
LINE
  5
1EE5
330
1F
100
AcDbEntity
  8
引出レ_ル
100
AcDbLine
 10
1103.230541469913
 20
396.5546048677575
 30
0.0
 11
1103.230541469913
 21
422.5288932575436
 31
0.0
  0
XLINE
  5
2004
330
1F
100
AcDbEntity
  8
9_構築線
100
AcDbXline
 10
176.7166328697567
 20
509.0038933033859
 30
0.0
 11
1.0
 21
0.0
 31
0.0
  0
LINE
  5
2005
330
1F
100
AcDbEntity
  8
フランジ
100
AcDbLine
 10
271.230541469914
 20
599.8288932575436
 30
0.0
 11
831.2305414699139
 21
599.8288932575436
 31
0.0
  0
LINE
  5
2006
330
1F
100
AcDbEntity
  8
フランジ
100
AcDbLine
 10
831.2305414699139
 20
599.8288932575436
 30
0.0
 11
831.2305414699139
 21
304.8288932575436
 31
0.0
  0
LINE
  5
2007
330
1F
100
AcDbEntity
  8
フランジ
100
AcDbLine
 10
831.2305414699139
 20
304.8288932575436
 30
0.0
 11
271.230541469914
 21
304.8288932575436
 31
0.0
  0
LINE
  5
2008
330
1F
100
AcDbEntity
  8
フランジ
100
AcDbLine
 10
271.230541469914
 20
304.8288932575436
 30
0.0
 11
271.230541469914
 21
599.8288932575436
 31
0.0
  0
LINE
  5
2009
330
1F
100
AcDbEntity
  8
フランジ
100
AcDbLine
 10
300.9805414699139
 20
570.0788932575436
 30
0.0
 11
801.4805414699139
 21
570.0788932575436
 31
0.0
  0
LINE
  5
200A
330
1F
100
AcDbEntity
  8
フランジ
100
AcDbLine
 10
801.4805414699139
 20
570.0788932575436
 30
0.0
 11
801.4805414699139
 21
334.5788932575436
 31
0.0
  0
LINE
  5
200B
330
1F
100
AcDbEntity
  8
フランジ
100
AcDbLine
 10
801.4805414699139
 20
334.5788932575436
 30
0.0
 11
300.9805414699139
 21
334.5788932575436
 31
0.0
  0
LINE
  5
200C
330
1F
100
AcDbEntity
  8
フランジ
100
AcDbLine
 10
300.9805414699139
 20
334.5788932575436
 30
0.0
 11
300.9805414699139
 21
570.0788932575436
 31
0.0
  0
LINE
  5
2022
330
1F
100
AcDbEntity
  8
フランジ
100
AcDbLine
 10
300.9805414699139
 20
778.9982604119723
 30
0.0
 11
801.4805414699139
 21
778.9982604119723
 31
0.0
  0
LINE
  5
2023
330
1F
100
AcDbEntity
  8
フランジ
100
AcDbLine
 10
300.9805414699139
 20
798.9982604119723
 30
0.0
 11
353.7305414699139
 21
798.9982604119723
 31
0.0
  0
LINE
  5
202A
330
1F
100
AcDbEntity
  8
フランジ
100
AcDbLine
 10
806.730541469914
 20
781.3982604119723
 30
0.0
 11
295.7305414699139
 21
781.3982604119723
 31
0.0
  0
XLINE
  5
205B
330
1F
100
AcDbEntity
  8
9_構築線
100
AcDbXline
 10
176.7166328697567
 20
361.503893303386
 30
0.0
 11
1.0
 21
0.0
 31
0.0
  0
ARC
  5
2060
330
1F
100
AcDbEntity
  8
フランジ
100
AcDbCircle
 10
356.2305414699139
 20
788.9982604119722
 30
0.0
 40
2.5
100
AcDbArc
 50
180.0
 51
0.0
  0
LINE
  5
2061
330
1F
100
AcDbEntity
  8
フランジ
100
AcDbLine
 10
353.7305414699139
 20
788.9982604119722
 30
0.0
 11
353.7305414699139
 21
798.9982604119723
 31
0.0
  0
LINE
  5
2062
330
1F
100
AcDbEntity
  8
フランジ
100
AcDbLine
 10
358.730541469914
 20
788.9982604119722
 30
0.0
 11
358.730541469914
 21
798.9982604119723
 31
0.0
  0
LINE
  5
2063
330
1F
100
AcDbEntity
  8
フランジ
100
AcDbLine
 10
358.730541469914
 20
798.9982604119723
 30
0.0
 11
801.4805414699139
 21
798.9982604119723
 31
0.0
  0
LINE
  5
2075
330
1F
100
AcDbEntity
  8
フランジ
100
AcDbLine
 10
351.2305414699139
 20
788.9982604119722
 30
0.0
 11
361.230541469914
 21
788.9982604119722
 31
0.0
  0
LINE
  5
2076
330
1F
100
AcDbEntity
  8
フランジ
100
AcDbLine
 10
356.2305414699139
 20
783.9982604119723
 30
0.0
 11
356.2305414699139
 21
793.9982604119722
 31
0.0
  0
LINE
  5
2077
330
1F
100
AcDbEntity
  8
フランジ
100
AcDbLine
 10
486.230541469914
 20
783.9982604119723
 30
0.0
 11
486.230541469914
 21
793.9982604119722
 31
0.0
  0
ARC
  5
2078
330
1F
100
AcDbEntity
  8
フランジ
100
AcDbCircle
 10
486.230541469914
 20
788.9982604119722
 30
0.0
 40
2.5
100
AcDbArc
 50
180.0
 51
0.0
  0
LINE
  5
2079
330
1F
100
AcDbEntity
  8
フランジ
100
AcDbLine
 10
481.230541469914
 20
788.9982604119722
 30
0.0
 11
491.2305414699139
 21
788.9982604119722
 31
0.0
  0
LINE
  5
207A
330
1F
100
AcDbEntity
  8
フランジ
100
AcDbLine
 10
488.730541469914
 20
788.9982604119722
 30
0.0
 11
488.730541469914
 21
798.9982604119723
 31
0.0
  0
LINE
  5
207B
330
1F
100
AcDbEntity
  8
フランジ
100
AcDbLine
 10
483.7305414699139
 20
788.9982604119722
 30
0.0
 11
483.7305414699139
 21
798.9982604119723
 31
0.0
  0
ARC
  5
207C
330
1F
100
AcDbEntity
  8
フランジ
100
AcDbCircle
 10
616.2305414699139
 20
788.9982604119722
 30
0.0
 40
2.5
100
AcDbArc
 50
180.0
 51
0.0
  0
LINE
  5
207D
330
1F
100
AcDbEntity
  8
フランジ
100
AcDbLine
 10
616.2305414699139
 20
783.9982604119723
 30
0.0
 11
616.2305414699139
 21
793.9982604119722
 31
0.0
  0
LINE
  5
207E
330
1F
100
AcDbEntity
  8
フランジ
100
AcDbLine
 10
613.730541469914
 20
788.9982604119722
 30
0.0
 11
613.730541469914
 21
798.9982604119723
 31
0.0
  0
LINE
  5
207F
330
1F
100
AcDbEntity
  8
フランジ
100
AcDbLine
 10
618.730541469914
 20
788.9982604119722
 30
0.0
 11
618.730541469914
 21
798.9982604119723
 31
0.0
  0
LINE
  5
2080
330
1F
100
AcDbEntity
  8
フランジ
100
AcDbLine
 10
611.230541469914
 20
788.9982604119722
 30
0.0
 11
621.2305414699139
 21
788.9982604119722
 31
0.0
  0
LINE
  5
2081
330
1F
100
AcDbEntity
  8
フランジ
100
AcDbLine
 10
746.2305414699139
 20
783.9982604119723
 30
0.0
 11
746.2305414699139
 21
793.9982604119722
 31
0.0
  0
ARC
  5
2082
330
1F
100
AcDbEntity
  8
フランジ
100
AcDbCircle
 10
746.2305414699139
 20
788.9982604119722
 30
0.0
 40
2.5
100
AcDbArc
 50
180.0
 51
0.0
  0
LINE
  5
2083
330
1F
100
AcDbEntity
  8
フランジ
100
AcDbLine
 10
741.2305414699139
 20
788.9982604119722
 30
0.0
 11
751.230541469914
 21
788.9982604119722
 31
0.0
  0
LINE
  5
2084
330
1F
100
AcDbEntity
  8
フランジ
100
AcDbLine
 10
748.730541469914
 20
788.9982604119722
 30
0.0
 11
748.730541469914
 21
798.9982604119723
 31
0.0
  0
LINE
  5
2085
330
1F
100
AcDbEntity
  8
フランジ
100
AcDbLine
 10
743.730541469914
 20
788.9982604119722
 30
0.0
 11
743.730541469914
 21
798.9982604119723
 31
0.0
  0
ARC
  5
20A7
330
1F
100
AcDbEntity
  8
フランジ
100
AcDbCircle
 10
272.430541469914
 20
780.1982604119722
 30
0.0
 40
1.199999999999999
100
AcDbArc
 50
90.0
 51
180.0
  0
ARC
  5
20A8
330
1F
100
AcDbEntity
  8
フランジ
100
AcDbCircle
 10
272.430541469914
 20
780.1982604119723
 30
0.0
 40
1.199999999999999
100
AcDbArc
 50
180.0
 51
270.0
  0
ARC
  5
20A9
330
1F
100
AcDbEntity
  8
フランジ
100
AcDbCircle
 10
830.0305414699138
 20
780.1982604119722
 30
0.0
 40
1.199999999999999
100
AcDbArc
 50
0.0
 51
90.0
  0
ARC
  5
20AA
330
1F
100
AcDbEntity
  8
フランジ
100
AcDbCircle
 10
830.0305414699138
 20
780.1982604119723
 30
0.0
 40
1.199999999999999
100
AcDbArc
 50
270.0
 51
0.0
  0
LINE
  5
22D1
330
1F
100
AcDbEntity
  8
外箱
100
AcDbLine
 10
800.230541469914
 20
1368.998260411972
 30
0.0
 11
302.230541469914
 21
1368.998260411972
 31
0.0
  0
CIRCLE
  5
22E1
330
1F
100
AcDbEntity
  8
1_実線
100
AcDbCircle
 10
741.2305414699139
 20
522.3288932575436
 30
0.0
 40
8.5
  0
CIRCLE
  5
22E2
330
1F
100
AcDbEntity
  8
1_実線
100
AcDbCircle
 10
721.2305414699139
 20
402.3288932575436
 30
0.0
 40
8.5
  0
CIRCLE
  5
22E5
330
1F
100
AcDbEntity
  8
1_実線
100
AcDbCircle
 10
761.230541469914
 20
402.3288932575436
 30
0.0
 40
7.5
  0
ARC
  5
22E6
330
1F
100
AcDbEntity
  8
1_実線
100
AcDbCircle
 10
761.230541469914
 20
402.3288932575436
 30
0.0
 40
3.0
100
AcDbArc
 50
147.6018744919793
 51
32.39812550801769
  0
ARC
  5
22E9
330
1F
100
AcDbEntity
  8
1_実線
100
AcDbCircle
 10
761.230541469914
 20
402.3288932575436
 30
0.0
 40
6.0
100
AcDbArc
 50
110.8486512301843
 51
69.15134876981568
  0
CIRCLE
  5
22EB
330
1F
100
AcDbEntity
  8
1_実線
100
AcDbCircle
 10
761.230541469914
 20
405.8288932575436
 30
0.0
 40
3.0
  0
ARC
  5
22EC
330
1F
100
AcDbEntity
  8
1_実線
100
AcDbCircle
 10
761.230541469914
 20
402.3288932575436
 30
0.0
 40
2.0
100
AcDbArc
 50
179.9999999999967
 51
359.9999999999967
  0
LINE
  5
22ED
330
1F
100
AcDbEntity
  8
1_実線
100
AcDbLine
 10
759.230541469914
 20
402.3288932575436
 30
0.0
 11
758.3830266860704
 21
404.8846159911684
 31
0.0
  0
LINE
  5
22EE
330
1F
100
AcDbEntity
  8
1_実線
100
AcDbLine
 10
763.2305414699139
 20
402.3288932575436
 30
0.0
 11
764.0780562537575
 21
404.8846159911684
 31
0.0
  0
LINE
  5
22F3
330
1F
100
AcDbEntity
  8
1_実線
100
AcDbLine
 10
750.7305414699139
 20
419.8288932575436
 30
0.0
 11
771.730541469914
 21
419.8288932575436
 31
0.0
  0
LINE
  5
22F4
330
1F
100
AcDbEntity
  8
1_実線
100
AcDbLine
 10
771.730541469914
 20
419.8288932575436
 30
0.0
 11
771.730541469914
 21
384.8288932575436
 31
0.0
  0
LINE
  5
22F5
330
1F
100
AcDbEntity
  8
1_実線
100
AcDbLine
 10
771.730541469914
 20
384.8288932575436
 30
0.0
 11
750.7305414699139
 21
384.8288932575436
 31
0.0
  0
LINE
  5
22F6
330
1F
100
AcDbEntity
  8
1_実線
100
AcDbLine
 10
750.7305414699139
 20
384.8288932575436
 30
0.0
 11
750.7305414699139
 21
419.8288932575436
 31
0.0
  0
CIRCLE
  5
22F9
330
1F
100
AcDbEntity
  8
1_実線
100
AcDbCircle
 10
741.2305414699139
 20
462.3288932575436
 30
0.0
 40
25.0
  0
LWPOLYLINE
  5
22FA
330
1F
100
AcDbEntity
  8
1_実線
100
AcDbPolyline
 90
        8
 70
     1
 43
0.0
 10
741.2305414699139
 20
475.8288932575436
 10
731.6845999238956
 20
471.874834803562
 10
727.730541469914
 20
462.3288932575436
 10
731.6845999238956
 20
452.7829517115252
 10
741.2305414699139
 20
448.8288932575436
 10
750.7764830159324
 20
452.7829517115252
 10
754.7305414699139
 20
462.3288932575436
 10
750.7764830159324
 20
471.874834803562
  0
LWPOLYLINE
  5
22FB
330
1F
100
AcDbEntity
  8
1_実線
100
AcDbPolyline
 90
        8
 70
     1
 43
0.0
 10
741.2305414699139
 20
477.4524815579822
 10
730.5365496268003
 20
473.0228851006573
 10
726.1069531694754
 20
462.3288932575436
 10
730.5365496268003
 20
451.6349014144299
 10
741.2305414699139
 20
447.2053049571051
 10
751.9245333130275
 20
451.6349014144299
 10
756.3541297703525
 20
462.3288932575436
 10
751.9245333130275
 20
473.0228851006573
  0
CIRCLE
  5
22FC
330
1F
100
AcDbEntity
  8
1_実線
100
AcDbCircle
 10
741.2305414699139
 20
462.3288932575436
 30
0.0
 40
10.0
  0
LWPOLYLINE
  5
2300
330
1F
100
AcDbEntity
  8
1_実線
100
AcDbPolyline
 90
        3
 70
     1
 43
0.0
 10
741.2305414699139
 20
488.5289109564137
 10
743.395604979375
 20
492.2789109564137
 10
739.0654779604528
 20
492.2789109564137
  0
LINE
  5
2301
330
1F
100
AcDbEntity
  8
1_実線
100
AcDbLine
 10
703.2305414699139
 20
356.8288932575436
 30
0.0
 11
779.2305414699139
 21
356.8288932575436
 31
0.0
  0
LINE
  5
2302
330
1F
100
AcDbEntity
  8
1_実線
100
AcDbLine
 10
779.2305414699139
 20
356.8288932575436
 30
0.0
 11
779.2305414699139
 21
547.8288932575436
 31
0.0
  0
LINE
  5
2303
330
1F
100
AcDbEntity
  8
1_実線
100
AcDbLine
 10
779.2305414699139
 20
547.8288932575436
 30
0.0
 11
703.2305414699139
 21
547.8288932575436
 31
0.0
  0
LINE
  5
2304
330
1F
100
AcDbEntity
  8
1_実線
100
AcDbLine
 10
703.2305414699139
 20
547.8288932575436
 30
0.0
 11
703.2305414699139
 21
356.8288932575436
 31
0.0
  0
LINE
  5
2307
330
1F
100
AcDbEntity
  8
1_実線
100
AcDbLine
 10
686.7305414699139
 20
565.8288932575435
 30
0.0
 11
795.7305414699138
 21
565.8288932575437
 31
0.0
  0
LINE
  5
2308
330
1F
100
AcDbEntity
  8
1_実線
100
AcDbLine
 10
797.2305414699138
 20
564.3288932575437
 30
0.0
 11
797.230541469914
 21
340.3288932575436
 31
0.0
  0
LINE
  5
2309
330
1F
100
AcDbEntity
  8
1_実線
100
AcDbLine
 10
795.7305414699139
 20
338.8288932575436
 30
0.0
 11
686.7305414699139
 21
338.8288932575436
 31
0.0
  0
LINE
  5
230A
330
1F
100
AcDbEntity
  8
1_実線
100
AcDbLine
 10
685.230541469914
 20
340.3288932575436
 30
0.0
 11
685.230541469914
 21
564.3288932575435
 31
0.0
  0
ARC
  5
230B
330
1F
100
AcDbEntity
  8
1_実線
100
AcDbCircle
 10
686.7305414699139
 20
564.3288932575435
 30
0.0
 40
1.5
100
AcDbArc
 50
90.0
 51
180.0
  0
ARC
  5
230C
330
1F
100
AcDbEntity
  8
1_実線
100
AcDbCircle
 10
795.7305414699138
 20
564.3288932575437
 30
0.0
 40
1.5
100
AcDbArc
 50
0.0
 51
90.0
  0
ARC
  5
230D
330
1F
100
AcDbEntity
  8
1_実線
100
AcDbCircle
 10
795.7305414699139
 20
340.3288932575436
 30
0.0
 40
1.5
100
AcDbArc
 50
270.0
 51
0.0000000000000254
  0
ARC
  5
230E
330
1F
100
AcDbEntity
  8
1_実線
100
AcDbCircle
 10
686.7305414699139
 20
340.3288932575436
 30
0.0
 40
1.5
100
AcDbArc
 50
180.0
 51
270.0
  0
LINE
  5
2319
330
1F
100
AcDbEntity
  8
1_実線
100
AcDbLine
 10
438.730541469914
 20
515.7288932575436
 30
0.0
 11
563.730541469914
 21
515.7288932575436
 31
0.0
  0
LINE
  5
231A
330
1F
100
AcDbEntity
  8
1_実線
100
AcDbLine
 10
565.7305414699139
 20
513.7288932575436
 30
0.0
 11
565.7305414699139
 21
467.7288932575436
 31
0.0
  0
LINE
  5
231B
330
1F
100
AcDbEntity
  8
1_実線
100
AcDbLine
 10
563.730541469914
 20
465.7288932575436
 30
0.0
 11
438.730541469914
 21
465.7288932575436
 31
0.0
  0
LINE
  5
231C
330
1F
100
AcDbEntity
  8
1_実線
100
AcDbLine
 10
436.7305414699139
 20
467.7288932575436
 30
0.0
 11
436.7305414699139
 21
513.7288932575436
 31
0.0
  0
LINE
  5
2323
330
1F
100
AcDbEntity
  8
1_実線
100
AcDbLine
 10
467.730541469914
 20
496.7288932575436
 30
0.0
 11
534.730541469914
 21
496.7288932575436
 31
0.0
  0
LINE
  5
2324
330
1F
100
AcDbEntity
  8
1_実線
100
AcDbLine
 10
543.230541469914
 20
488.2288932575436
 30
0.0
 11
543.230541469914
 21
485.2288932575436
 31
0.0
  0
LINE
  5
2325
330
1F
100
AcDbEntity
  8
1_実線
100
AcDbLine
 10
534.730541469914
 20
476.7288932575436
 30
0.0
 11
467.730541469914
 21
476.7288932575436
 31
0.0
  0
LINE
  5
2326
330
1F
100
AcDbEntity
  8
1_実線
100
AcDbLine
 10
459.2305414699139
 20
485.2288932575436
 30
0.0
 11
459.2305414699139
 21
488.2288932575436
 31
0.0
  0
ARC
  5
2327
330
1F
100
AcDbEntity
  8
1_実線
100
AcDbCircle
 10
467.730541469914
 20
488.2288932575436
 30
0.0
 40
8.5
100
AcDbArc
 50
90.0
 51
180.0
  0
ARC
  5
2328
330
1F
100
AcDbEntity
  8
1_実線
100
AcDbCircle
 10
467.730541469914
 20
485.2288932575436
 30
0.0
 40
8.5
100
AcDbArc
 50
180.0
 51
270.0
  0
ARC
  5
2329
330
1F
100
AcDbEntity
  8
1_実線
100
AcDbCircle
 10
534.730541469914
 20
488.2288932575436
 30
0.0
 40
8.5
100
AcDbArc
 50
0.0
 51
90.00000000000005
  0
ARC
  5
232A
330
1F
100
AcDbEntity
  8
1_実線
100
AcDbCircle
 10
534.730541469914
 20
485.2288932575436
 30
0.0
 40
8.5
100
AcDbArc
 50
269.9999999999999
 51
0.0
  0
ARC
  5
232B
330
1F
100
AcDbEntity
  8
1_実線
100
AcDbCircle
 10
438.730541469914
 20
513.7288932575436
 30
0.0
 40
2.0
100
AcDbArc
 50
90.0
 51
180.0
  0
ARC
  5
232C
330
1F
100
AcDbEntity
  8
1_実線
100
AcDbCircle
 10
438.730541469914
 20
467.7288932575436
 30
0.0
 40
2.0
100
AcDbArc
 50
180.0
 51
270.0
  0
ARC
  5
232D
330
1F
100
AcDbEntity
  8
1_実線
100
AcDbCircle
 10
563.730541469914
 20
467.7288932575436
 30
0.0
 40
2.0
100
AcDbArc
 50
270.0
 51
0.0
  0
ARC
  5
232E
330
1F
100
AcDbEntity
  8
1_実線
100
AcDbCircle
 10
563.730541469914
 20
513.7288932575436
 30
0.0
 40
2.0
100
AcDbArc
 50
0.0
 51
90.0
  0
LINE
  5
2338
330
1F
100
AcDbEntity
  8
1_実線
100
AcDbLine
 10
1081.230541469913
 20
515.7288932575436
 30
0.0
 11
1080.778681380256
 21
515.7288932575436
 31
0.0
  0
LINE
  5
2339
330
1F
100
AcDbEntity
  8
1_実線
100
AcDbLine
 10
1079.865863128361
 20
515.1372593176019
 30
0.0
 11
1071.944925927678
 21
497.431634986665
 31
0.0
  0
LINE
  5
233B
330
1F
100
AcDbEntity
  8
1_実線
100
AcDbLine
 10
1071.868494294007
 20
495.9967307218733
 30
0.0
 11
1078.130541469914
 21
476.7288932575436
 31
0.0
  0
LINE
  5
233C
330
1F
100
AcDbEntity
  8
1_実線
100
AcDbLine
 10
1078.130541469914
 20
476.7288932575436
 30
0.0
 11
1079.981247913223
 21
466.5500078193436
 31
0.0
  0
LINE
  5
233D
330
1F
100
AcDbEntity
  8
1_実線
100
AcDbLine
 10
1080.965117823323
 20
465.7288932575436
 30
0.0
 11
1081.230541469913
 21
465.7288932575436
 31
0.0
  0
ARC
  5
2344
330
1F
100
AcDbEntity
  8
1_実線
100
AcDbCircle
 10
1073.770562431469
 20
496.6149028665484
 30
0.0
 40
2.0
100
AcDbArc
 50
155.8977654988388
 51
198.0041616059133
  0
ARC
  5
2347
330
1F
100
AcDbEntity
  8
1_実線
100
AcDbCircle
 10
1080.778681380256
 20
514.7288932575436
 30
0.0
 40
1.0
100
AcDbArc
 50
90.0
 51
155.8977654988391
  0
ARC
  5
2348
330
1F
100
AcDbEntity
  8
1_実線
100
AcDbCircle
 10
1080.965117823323
 20
466.7288932575436
 30
0.0
 40
1.0
100
AcDbArc
 50
190.304846468766
 51
270.0
  0
LINE
  5
234C
330
1F
100
AcDbEntity
  8
フランジ
100
AcDbLine
 10
1083.630541469914
 20
575.2788932575436
 30
0.0
 11
1083.630541469914
 21
598.6288932575437
 31
0.0
  0
LINE
  5
234D
330
1F
100
AcDbEntity
  8
フランジ
100
AcDbLine
 10
1082.430541469914
 20
599.8288932575437
 30
0.0
 11
1082.430541469914
 21
599.8288932575436
 31
0.0
  0
LINE
  5
234E
330
1F
100
AcDbEntity
  8
フランジ
100
AcDbLine
 10
1081.230541469913
 20
598.6288932575437
 30
0.0
 11
1081.230541469913
 21
570.0788932575436
 31
0.0
  0
LINE
  5
234F
330
1F
100
AcDbEntity
  8
フランジ
100
AcDbLine
 10
1101.230541469914
 20
570.0788932575436
 30
0.0
 11
1101.230541469914
 21
571.2788932575436
 31
0.0
  0
LINE
  5
2350
330
1F
100
AcDbEntity
  8
フランジ
100
AcDbLine
 10
1101.230541469914
 20
571.2788932575436
 30
0.0
 11
1082.430541469914
 21
571.2788932575436
 31
0.0
  0
LINE
  5
2351
330
1F
100
AcDbEntity
  8
フランジ
100
AcDbLine
 10
1083.630541469914
 20
329.3288932575436
 30
0.0
 11
1083.630541469914
 21
306.0288932575436
 31
0.0
  0
LINE
  5
2352
330
1F
100
AcDbEntity
  8
フランジ
100
AcDbLine
 10
1082.430541469914
 20
304.8288932575436
 30
0.0
 11
1082.430541469914
 21
304.8288932575436
 31
0.0
  0
LINE
  5
2353
330
1F
100
AcDbEntity
  8
フランジ
100
AcDbLine
 10
1081.230541469913
 20
306.0288932575435
 30
0.0
 11
1081.230541469913
 21
334.5788932575436
 31
0.0
  0
LINE
  5
2354
330
1F
100
AcDbEntity
  8
フランジ
100
AcDbLine
 10
1101.230541469914
 20
334.5788932575436
 30
0.0
 11
1101.230541469914
 21
333.3788932575436
 31
0.0
  0
LINE
  5
2355
330
1F
100
AcDbEntity
  8
フランジ
100
AcDbLine
 10
1101.230541469914
 20
333.3788932575436
 30
0.0
 11
1082.430541469914
 21
333.3788932575436
 31
0.0
  0
LINE
  5
2356
330
1F
100
AcDbEntity
  8
フランジ
100
AcDbLine
 10
1081.230541469913
 20
570.0788932575436
 30
0.0
 11
1081.230541469913
 21
334.5788932575436
 31
0.0
  0
LINE
  5
2357
330
1F
100
AcDbEntity
  8
フランジ
100
AcDbLine
 10
1101.230541469914
 20
570.0788932575436
 30
0.0
 11
1101.230541469914
 21
534.8288932575436
 31
0.0
  0
LINE
  5
2358
330
1F
100
AcDbEntity
  8
フランジ
100
AcDbLine
 10
1083.630541469914
 20
575.2788932575436
 30
0.0
 11
1083.630541469914
 21
329.3288932575436
 31
0.0
  0
ARC
  5
2359
330
1F
100
AcDbEntity
  8
フランジ
100
AcDbCircle
 10
1091.230541469914
 20
532.3288932575436
 30
0.0
 40
2.5
100
AcDbArc
 50
90.0
 51
270.0
  0
ARC
  5
235A
330
1F
100
AcDbEntity
  8
フランジ
100
AcDbCircle
 10
1091.230541469914
 20
372.3288932575436
 30
0.0
 40
2.5
100
AcDbArc
 50
90.0
 51
270.0
  0
LINE
  5
235B
330
1F
100
AcDbEntity
  8
フランジ
100
AcDbLine
 10
1091.230541469914
 20
534.8288932575436
 30
0.0
 11
1101.230541469914
 21
534.8288932575437
 31
0.0
  0
LINE
  5
235C
330
1F
100
AcDbEntity
  8
フランジ
100
AcDbLine
 10
1091.230541469914
 20
529.8288932575436
 30
0.0
 11
1101.230541469914
 21
529.8288932575436
 31
0.0
  0
LINE
  5
235D
330
1F
100
AcDbEntity
  8
フランジ
100
AcDbLine
 10
1091.230541469914
 20
374.8288932575436
 30
0.0
 11
1101.230541469914
 21
374.8288932575436
 31
0.0
  0
LINE
  5
235E
330
1F
100
AcDbEntity
  8
フランジ
100
AcDbLine
 10
1091.230541469914
 20
369.8288932575436
 30
0.0
 11
1101.230541469914
 21
369.8288932575436
 31
0.0
  0
LINE
  5
235F
330
1F
100
AcDbEntity
  8
フランジ
100
AcDbLine
 10
1101.230541469914
 20
369.8288932575436
 30
0.0
 11
1101.230541469914
 21
334.5788932575436
 31
0.0
  0
LINE
  5
2360
330
1F
100
AcDbEntity
  8
フランジ
100
AcDbLine
 10
1101.230541469914
 20
529.8288932575436
 30
0.0
 11
1101.230541469914
 21
374.8288932575437
 31
0.0
  0
XLINE
  5
2365
330
1F
100
AcDbEntity
  8
9_構築線
100
AcDbXline
 10
176.7166328697567
 20
507.803893303386
 30
0.0
 11
1.0
 21
0.0
 31
0.0
  0
ARC
  5
2367
330
1F
100
AcDbEntity
  8
フランジ
100
AcDbCircle
 10
1082.430541469914
 20
598.6288932575437
 30
0.0
 40
1.199999999999999
100
AcDbArc
 50
90.0
 51
180.0
  0
ARC
  5
2368
330
1F
100
AcDbEntity
  8
フランジ
100
AcDbCircle
 10
1082.430541469914
 20
598.6288932575437
 30
0.0
 40
1.199999999999999
100
AcDbArc
 50
0.0
 51
90.0
  0
ARC
  5
236D
330
1F
100
AcDbEntity
  8
フランジ
100
AcDbCircle
 10
1082.430541469914
 20
306.0288932575435
 30
0.0
 40
1.199999999999999
100
AcDbArc
 50
180.0
 51
270.0
  0
ARC
  5
236E
330
1F
100
AcDbEntity
  8
フランジ
100
AcDbCircle
 10
1082.430541469914
 20
306.0288932575436
 30
0.0
 40
1.199999999999999
100
AcDbArc
 50
270.0
 51
0.0
  0
LINE
  5
2370
330
1F
100
AcDbEntity
  8
本体前枠
100
AcDbLine
 10
1101.230541469914
 20
569.8288932575436
 30
0.0
 11
1101.230541469914
 21
334.8288932575436
 31
0.0
  0
LINE
  5
2373
330
1F
100
AcDbEntity
  8
本体前枠
100
AcDbLine
 10
300.9805414699139
 20
798.9982604119723
 30
0.0
 11
801.4805414699139
 21
798.9982604119723
 31
0.0
  0
LINE
  5
2380
330
1F
100
AcDbEntity
  8
外箱
100
AcDbLine
 10
798.2305414699141
 20
1369.798260411972
 30
0.0
 11
304.2305414699139
 21
1369.798260411972
 31
0.0
  0
LINE
  5
2387
330
1F
100
AcDbEntity
  8
外箱
100
AcDbLine
 10
798.2305414699141
 20
1369.798260411972
 30
0.0
 11
798.230541469914
 21
1368.998260411972
 31
0.0
  0
LINE
  5
2388
330
1F
100
AcDbEntity
  8
外箱
100
AcDbLine
 10
304.2305414699139
 20
1369.798260411972
 30
0.0
 11
304.2305414699139
 21
1368.998260411972
 31
0.0
  0
LINE
  5
23A0
330
1F
100
AcDbEntity
  8
4_破線2中
100
AcDbLine
 10
683.0305414699139
 20
781.4749633259106
 30
0.0
 11
683.0305414699139
 21
1356.798260411972
 31
0.0
  0
LINE
  5
23A1
330
1F
100
AcDbEntity
  8
4_破線2中
100
AcDbLine
 10
319.430541469914
 20
781.3982604119723
 30
0.0
 11
319.430541469914
 21
1356.798260411972
 31
0.0
  0
XLINE
  5
23A2
330
1F
100
AcDbEntity
  8
9_構築線
100
AcDbXline
 10
150.0
 20
1278.973260457814
 30
0.0
 11
1.0
 21
0.0
 31
0.0
  0
LINE
  5
23A4
330
1F
100
AcDbEntity
  8
4_破線2中
100
AcDbLine
 10
319.430541469914
 20
1356.798260411972
 30
0.0
 11
683.0305414699139
 21
1356.798260411972
 31
0.0
  0
LINE
  5
23A7
330
1F
100
AcDbEntity
  8
引出レ_ル
100
AcDbLine
 10
1624.730541469914
 20
418.9288932575435
 30
0.0
 11
1626.227558185633
 21
418.48387044061
 31
0.0
  0
LINE
  5
23B9
330
1F
100
AcDbEntity
  8
1_実線
100
AcDbLine
 10
685.230541469914
 20
778.9982604119723
 30
0.0
 11
685.230541469914
 21
778.1982604119723
 31
0.0
  0
LINE
  5
23BA
330
1F
100
AcDbEntity
  8
1_実線
100
AcDbLine
 10
685.230541469914
 20
778.1982604119723
 30
0.0
 11
797.230541469914
 21
778.1982604119723
 31
0.0
  0
LINE
  5
23BB
330
1F
100
AcDbEntity
  8
1_実線
100
AcDbLine
 10
797.230541469914
 20
778.1982604119723
 30
0.0
 11
797.230541469914
 21
778.9982604119723
 31
0.0
  0
LINE
  5
23CC
330
1F
100
AcDbEntity
  8
1_実線
100
AcDbLine
 10
436.7305414699139
 20
778.9982604119723
 30
0.0
 11
436.7305414699139
 21
778.5982604119721
 31
0.0
  0
LINE
  5
23CD
330
1F
100
AcDbEntity
  8
1_実線
100
AcDbLine
 10
437.930541469914
 20
777.3982604119721
 30
0.0
 11
564.5305414699139
 21
777.3982604119724
 31
0.0
  0
LINE
  5
23CE
330
1F
100
AcDbEntity
  8
1_実線
100
AcDbLine
 10
565.7305414699139
 20
778.5982604119724
 30
0.0
 11
565.7305414699139
 21
778.9982604119723
 31
0.0
  0
ARC
  5
23CF
330
1F
100
AcDbEntity
  8
1_実線
100
AcDbCircle
 10
437.930541469914
 20
778.5982604119721
 30
0.0
 40
1.199999999999999
100
AcDbArc
 50
180.0
 51
270.0
  0
ARC
  5
23D0
330
1F
100
AcDbEntity
  8
1_実線
100
AcDbCircle
 10
564.5305414699139
 20
778.5982604119724
 30
0.0
 40
1.199999999999999
100
AcDbArc
 50
270.0
 51
0.0
  0
LINE
  5
23D2
330
1F
100
AcDbEntity
  8
1_実線
100
AcDbLine
 10
459.0201492439803
 20
769.0803614763904
 30
0.0
 11
437.4943053299334
 21
777.4803614763904
 31
0.0
  0
LINE
  5
23D3
330
1F
100
AcDbEntity
  8
1_実線
100
AcDbLine
 10
543.4409336958477
 20
769.0803614763905
 30
0.0
 11
564.9667776098945
 21
777.4803614763905
 31
0.0
  0
LINE
  5
23D4
330
1F
100
AcDbEntity
  8
1_実線
100
AcDbLine
 10
459.4563853839608
 20
768.9982604119721
 30
0.0
 11
543.0046975558673
 21
768.9982604119722
 31
0.0
  0
ARC
  5
23D5
330
1F
100
AcDbEntity
  8
1_実線
100
AcDbCircle
 10
459.4563853839608
 20
770.1982604119722
 30
0.0
 40
1.199999999999999
100
AcDbArc
 50
248.6828484660765
 51
270.0
  0
ARC
  5
23D6
330
1F
100
AcDbEntity
  8
1_実線
100
AcDbCircle
 10
543.0046975558673
 20
770.1982604119723
 30
0.0
 40
1.199999999999999
100
AcDbArc
 50
270.0000000000001
 51
291.3171515339239
  0
LINE
  5
242E
330
1F
100
AcDbEntity
  8
5_寸法線
100
AcDbLine
 10
367.7305414699139
 20
876.7249633259107
 30
0.0
 11
367.7305414699139
 21
1258.97496332591
 31
0.0
  0
LINE
  5
242F
330
1F
100
AcDbEntity
  8
5_寸法線
100
AcDbLine
 10
374.7305414699139
 20
876.7249633259107
 30
0.0
 11
374.7305414699139
 21
1258.97496332591
 31
0.0
  0
ARC
  5
2430
330
1F
100
AcDbEntity
  8
5_寸法線
100
AcDbCircle
 10
397.4805414699139
 20
876.7249633259107
 30
0.0
 40
29.75
100
AcDbArc
 50
180.0
 51
0.0
  0
ARC
  5
2431
330
1F
100
AcDbEntity
  8
5_寸法線
100
AcDbCircle
 10
397.4805414699139
 20
876.7249633259107
 30
0.0
 40
22.74999999999999
100
AcDbArc
 50
180.0
 51
0.0
  0
LINE
  5
2432
330
1F
100
AcDbEntity
  8
5_寸法線
100
AcDbLine
 10
420.2305414699139
 20
876.7249633259107
 30
0.0
 11
420.2305414699139
 21
1206.47496332591
 31
0.0
  0
LINE
  5
2433
330
1F
100
AcDbEntity
  8
5_寸法線
100
AcDbLine
 10
427.230541469914
 20
876.7249633259107
 30
0.0
 11
427.230541469914
 21
1206.47496332591
 31
0.0
  0
ARC
  5
2434
330
1F
100
AcDbEntity
  8
5_寸法線
100
AcDbCircle
 10
449.980541469914
 20
1206.47496332591
 30
0.0
 40
29.75
100
AcDbArc
 50
0.0
 51
180.0
  0
ARC
  5
2435
330
1F
100
AcDbEntity
  8
5_寸法線
100
AcDbCircle
 10
449.980541469914
 20
1206.47496332591
 30
0.0
 40
22.74999999999999
100
AcDbArc
 50
0.0
 51
180.0
  0
LINE
  5
2436
330
1F
100
AcDbEntity
  8
5_寸法線
100
AcDbLine
 10
472.730541469914
 20
876.7249633259107
 30
0.0
 11
472.730541469914
 21
1206.47496332591
 31
0.0
  0
LINE
  5
2437
330
1F
100
AcDbEntity
  8
5_寸法線
100
AcDbLine
 10
479.7305414699139
 20
876.7249633259107
 30
0.0
 11
479.7305414699139
 21
1206.47496332591
 31
0.0
  0
ARC
  5
2438
330
1F
100
AcDbEntity
  8
5_寸法線
100
AcDbCircle
 10
501.230541469914
 20
876.7249633259107
 30
0.0
 40
28.5
100
AcDbArc
 50
180.0
 51
0.0
  0
ARC
  5
2439
330
1F
100
AcDbEntity
  8
5_寸法線
100
AcDbCircle
 10
501.230541469914
 20
876.7249633259107
 30
0.0
 40
21.49999999999999
100
AcDbArc
 50
180.0
 51
0.0
  0
LINE
  5
243A
330
1F
100
AcDbEntity
  8
5_寸法線
100
AcDbLine
 10
522.730541469914
 20
1206.47496332591
 30
0.0
 11
522.730541469914
 21
876.7249633259107
 31
0.0
  0
LINE
  5
243B
330
1F
100
AcDbEntity
  8
5_寸法線
100
AcDbLine
 10
529.7305414699139
 20
1206.47496332591
 30
0.0
 11
529.7305414699139
 21
876.7249633259107
 31
0.0
  0
ARC
  5
243C
330
1F
100
AcDbEntity
  8
5_寸法線
100
AcDbCircle
 10
552.4805414699139
 20
1206.47496332591
 30
0.0
 40
29.75
100
AcDbArc
 50
0.0
 51
180.0
  0
ARC
  5
243D
330
1F
100
AcDbEntity
  8
5_寸法線
100
AcDbCircle
 10
552.4805414699139
 20
1206.47496332591
 30
0.0
 40
22.74999999999999
100
AcDbArc
 50
0.0
 51
180.0
  0
LINE
  5
243E
330
1F
100
AcDbEntity
  8
5_寸法線
100
AcDbLine
 10
575.2305414699139
 20
876.7249633259107
 30
0.0
 11
575.2305414699139
 21
1206.47496332591
 31
0.0
  0
LINE
  5
243F
330
1F
100
AcDbEntity
  8
5_寸法線
100
AcDbLine
 10
582.2305414699139
 20
876.7249633259107
 30
0.0
 11
582.2305414699139
 21
1206.47496332591
 31
0.0
  0
ARC
  5
2440
330
1F
100
AcDbEntity
  8
5_寸法線
100
AcDbCircle
 10
604.980541469914
 20
876.7249633259107
 30
0.0
 40
29.75
100
AcDbArc
 50
180.0
 51
0.0
  0
ARC
  5
2441
330
1F
100
AcDbEntity
  8
5_寸法線
100
AcDbCircle
 10
604.980541469914
 20
876.7249633259107
 30
0.0
 40
22.74999999999999
100
AcDbArc
 50
180.0
 51
0.0
  0
LINE
  5
2442
330
1F
100
AcDbEntity
  8
5_寸法線
100
AcDbLine
 10
627.730541469914
 20
1258.97496332591
 30
0.0
 11
627.730541469914
 21
876.7249633259107
 31
0.0
  0
LINE
  5
2443
330
1F
100
AcDbEntity
  8
5_寸法線
100
AcDbLine
 10
634.730541469914
 20
1258.97496332591
 30
0.0
 11
634.730541469914
 21
876.7249633259107
 31
0.0
  0
LINE
  5
2444
330
1F
100
AcDbEntity
  8
5_寸法線
100
AcDbLine
 10
367.7305414699139
 20
1258.97496332591
 30
0.0
 11
374.7305414699139
 21
1258.97496332591
 31
0.0
  0
LINE
  5
2445
330
1F
100
AcDbEntity
  8
5_寸法線
100
AcDbLine
 10
627.730541469914
 20
1258.97496332591
 30
0.0
 11
634.730541469914
 21
1258.97496332591
 31
0.0
  0
LINE
  5
2450
330
1F
100
AcDbEntity
  8
5_寸法線
100
AcDbLine
 10
367.7305414699139
 20
369.5288932575436
 30
0.0
 11
367.7305414699139
 21
361.5288932575436
 31
0.0
  0
LINE
  5
2451
330
1F
100
AcDbEntity
  8
5_寸法線
100
AcDbLine
 10
367.7305414699139
 20
361.5288932575436
 30
0.0
 11
634.730541469914
 21
361.5288932575436
 31
0.0
  0
LINE
  5
2452
330
1F
100
AcDbEntity
  8
5_寸法線
100
AcDbLine
 10
634.730541469914
 20
361.5288932575436
 30
0.0
 11
634.730541469914
 21
369.5288932575436
 31
0.0
  0
LINE
  5
2453
330
1F
100
AcDbEntity
  8
5_寸法線
100
AcDbLine
 10
634.730541469914
 20
369.5288932575436
 30
0.0
 11
367.7305414699139
 21
369.5288932575436
 31
0.0
  0
CIRCLE
  5
2454
330
1F
100
AcDbEntity
  8
5_寸法線
100
AcDbCircle
 10
423.230541469914
 20
365.5288932575436
 30
0.0
 40
4.0
  0
CIRCLE
  5
2455
330
1F
100
AcDbEntity
  8
5_寸法線
100
AcDbCircle
 10
371.7305414699139
 20
365.5288932575436
 30
0.0
 40
4.0
  0
CIRCLE
  5
2456
330
1F
100
AcDbEntity
  8
5_寸法線
100
AcDbCircle
 10
476.730541469914
 20
365.5288932575436
 30
0.0
 40
4.0
  0
CIRCLE
  5
2457
330
1F
100
AcDbEntity
  8
5_寸法線
100
AcDbCircle
 10
525.7305414699139
 20
365.5288932575436
 30
0.0
 40
4.0
  0
CIRCLE
  5
2458
330
1F
100
AcDbEntity
  8
5_寸法線
100
AcDbCircle
 10
579.2305414699139
 20
365.5288932575436
 30
0.0
 40
4.0
  0
CIRCLE
  5
2459
330
1F
100
AcDbEntity
  8
5_寸法線
100
AcDbCircle
 10
630.730541469914
 20
365.5288932575436
 30
0.0
 40
4.0
  0
XLINE
  5
245A
330
1F
100
AcDbEntity
  8
9_構築線
100
AcDbXline
 10
788.0000739425788
 20
244.003893303386
 30
0.0
 11
0.0
 21
-1.0
 31
0.0
  0
CIRCLE
  5
2460
330
1F
100
AcDbEntity
  8
5_寸法線
100
AcDbCircle
 10
1154.230541469914
 20
365.5288932575436
 30
0.0
 40
4.0
  0
LINE
  5
2461
330
1F
100
AcDbEntity
  8
5_寸法線
100
AcDbLine
 10
1154.230541469914
 20
369.5288932575436
 30
0.0
 11
1562.230541469913
 21
369.5288932575436
 31
0.0
  0
LINE
  5
2462
330
1F
100
AcDbEntity
  8
5_寸法線
100
AcDbLine
 10
1562.230541469913
 20
369.5288932575436
 30
0.0
 11
1562.230541469913
 21
361.5288932575436
 31
0.0
  0
LINE
  5
2463
330
1F
100
AcDbEntity
  8
5_寸法線
100
AcDbLine
 10
1562.230541469913
 20
361.5288932575436
 30
0.0
 11
1154.230541469914
 21
361.5288932575436
 31
0.0
  0
CIRCLE
  5
2465
330
1F
100
AcDbEntity
  8
5_寸法線
100
AcDbCircle
 10
1535.480541469913
 20
365.5288932575436
 30
0.0
 40
4.0
  0
XLINE
  5
2476
330
1F
100
AcDbEntity
  8
9_構築線
100
AcDbXline
 10
774.7110618173764
 20
156.444902497632
 30
0.0
 11
1.0
 21
0.0
 31
0.0
  0
XLINE
  5
2477
330
1F
100
AcDbEntity
  8
9_構築線
100
AcDbXline
 10
773.4524102454952
 20
99.82721460059975
 30
0.0
 11
1.0
 21
0.0
 31
0.0
  0
LINE
  5
2484
330
1F
100
AcDbEntity
  8
2_細線
100
AcDbLine
 10
1105.580541469913
 20
496.5288932575435
 30
0.0
 11
1105.580541469913
 21
496.5288932575435
 31
0.0
  0
LINE
  5
2485
330
1F
100
AcDbEntity
  8
ホテルパン
100
AcDbLine
 10
1113.580541469913
 20
504.5288932575435
 30
0.0
 11
1627.580541469914
 21
504.5288932575435
 31
0.0
  0
LINE
  5
2486
330
1F
100
AcDbEntity
  8
2_細線
100
AcDbLine
 10
1635.580541469914
 20
496.5288932575435
 30
0.0
 11
1635.580541469914
 21
496.5288932575435
 31
0.0
  0
LINE
  5
2487
330
1F
100
AcDbEntity
  8
ホテルパン
100
AcDbLine
 10
1635.580541469914
 20
496.5288932575435
 30
0.0
 11
1105.580541469913
 21
496.5288932575435
 31
0.0
  0
LINE
  5
2490
330
1F
100
AcDbEntity
  8
ホテルパン
100
AcDbLine
 10
1118.080541469913
 20
504.5288932575435
 30
0.0
 11
1124.886633931095
 21
413.7809937751272
 31
0.0
  0
LINE
  5
2491
330
1F
100
AcDbEntity
  8
ホテルパン
100
AcDbLine
 10
1134.858627029979
 20
404.5288932575436
 30
0.0
 11
1606.302455909847
 21
404.5288932575435
 31
0.0
  0
LINE
  5
2492
330
1F
100
AcDbEntity
  8
ホテルパン
100
AcDbLine
 10
1616.274449008732
 20
413.7809937751272
 30
0.0
 11
1623.080541469914
 21
504.5288932575435
 31
0.0
  0
ARC
  5
2493
330
1F
100
AcDbEntity
  8
2_細線
100
AcDbCircle
 10
1627.580541469914
 20
496.5288932575435
 30
0.0
 40
8.0
100
AcDbArc
 50
0.0
 51
90.0
  0
ARC
  5
2494
330
1F
100
AcDbEntity
  8
ホテルパン
100
AcDbCircle
 10
1113.580541469913
 20
496.5288932575435
 30
0.0
 40
8.0
100
AcDbArc
 50
90.0
 51
180.0
  0
ARC
  5
2495
330
1F
100
AcDbEntity
  8
ホテルパン
100
AcDbCircle
 10
1134.858627029979
 20
414.5288932575436
 30
0.0
 40
10.0
100
AcDbArc
 50
184.289153328819
 51
270.0
  0
ARC
  5
2496
330
1F
100
AcDbEntity
  8
ホテルパン
100
AcDbCircle
 10
1606.302455909847
 20
414.5288932575436
 30
0.0
 40
10.0
100
AcDbArc
 50
270.0
 51
355.710846671181
  0
CIRCLE
  5
249E
330
1F
100
AcDbEntity
  8
サ_モ
100
AcDbCircle
 10
1301.230541469914
 20
383.5288932575436
 30
0.0
 40
8.0
  0
CIRCLE
  5
24A4
330
1F
100
AcDbEntity
  8
サ_モ
100
AcDbCircle
 10
1301.230541469914
 20
383.5288932575436
 30
0.0
 40
1.5
  0
LINE
  5
24A7
330
1F
100
AcDbEntity
  8
サ_モ
100
AcDbLine
 10
1293.230541469914
 20
385.5288932575436
 30
0.0
 11
1294.230541469914
 21
385.5288932575436
 31
0.0
  0
LINE
  5
24A8
330
1F
100
AcDbEntity
  8
サ_モ
100
AcDbLine
 10
1294.230541469914
 20
385.5288932575436
 30
0.0
 11
1294.230541469914
 21
381.5288932575436
 31
0.0
  0
LINE
  5
24A9
330
1F
100
AcDbEntity
  8
サ_モ
100
AcDbLine
 10
1294.230541469914
 20
381.5288932575436
 30
0.0
 11
1293.230541469914
 21
381.5288932575436
 31
0.0
  0
LINE
  5
24AA
330
1F
100
AcDbEntity
  8
サ_モ
100
AcDbLine
 10
1293.230541469914
 20
381.5288932575436
 30
0.0
 11
1293.230541469914
 21
385.5288932575436
 31
0.0
  0
LINE
  5
24AB
330
1F
100
AcDbEntity
  8
サ_モ
100
AcDbLine
 10
1308.230541469914
 20
385.5288932575436
 30
0.0
 11
1309.230541469914
 21
385.5288932575436
 31
0.0
  0
LINE
  5
24AC
330
1F
100
AcDbEntity
  8
サ_モ
100
AcDbLine
 10
1309.230541469914
 20
385.5288932575436
 30
0.0
 11
1309.230541469914
 21
381.5288932575436
 31
0.0
  0
LINE
  5
24AD
330
1F
100
AcDbEntity
  8
サ_モ
100
AcDbLine
 10
1309.230541469914
 20
381.5288932575436
 30
0.0
 11
1308.230541469914
 21
381.5288932575436
 31
0.0
  0
LINE
  5
24AE
330
1F
100
AcDbEntity
  8
サ_モ
100
AcDbLine
 10
1308.230541469914
 20
381.5288932575436
 30
0.0
 11
1308.230541469914
 21
385.5288932575436
 31
0.0
  0
LINE
  5
24B3
330
1F
100
AcDbEntity
  8
サ_モ
100
AcDbLine
 10
1210.230541469914
 20
386.5288932575436
 30
0.0
 11
1210.230541469914
 21
380.5288932575436
 31
0.0
  0
LINE
  5
24B4
330
1F
100
AcDbEntity
  8
サ_モ
100
AcDbLine
 10
1210.230541469914
 20
380.5288932575436
 30
0.0
 11
1272.230541469913
 21
380.5288932575436
 31
0.0
  0
LINE
  5
24B5
330
1F
100
AcDbEntity
  8
サ_モ
100
AcDbLine
 10
1272.230541469913
 20
380.5288932575436
 30
0.0
 11
1272.230541469913
 21
386.5288932575436
 31
0.0
  0
LINE
  5
24B6
330
1F
100
AcDbEntity
  8
サ_モ
100
AcDbLine
 10
1272.230541469913
 20
386.5288932575436
 30
0.0
 11
1210.230541469914
 21
386.5288932575436
 31
0.0
  0
LINE
  5
24BB
330
1F
100
AcDbEntity
  8
サ_モ
100
AcDbLine
 10
1272.230541469913
 20
386.5288932575436
 30
0.0
 11
1283.230541469914
 21
385.0288932575436
 31
0.0
  0
LINE
  5
24BC
330
1F
100
AcDbEntity
  8
サ_モ
100
AcDbLine
 10
1283.230541469914
 20
385.0288932575436
 30
0.0
 11
1283.230541469914
 21
382.0288932575436
 31
0.0
  0
LINE
  5
24BD
330
1F
100
AcDbEntity
  8
サ_モ
100
AcDbLine
 10
1283.230541469914
 20
382.0288932575436
 30
0.0
 11
1272.230541469913
 21
380.5288932575436
 31
0.0
  0
LINE
  5
24BE
330
1F
100
AcDbEntity
  8
サ_モ
100
AcDbLine
 10
1210.230541469914
 20
386.5288932575436
 30
0.0
 11
1199.230541469914
 21
385.0288932575436
 31
0.0
  0
LINE
  5
24BF
330
1F
100
AcDbEntity
  8
サ_モ
100
AcDbLine
 10
1199.230541469914
 20
385.0288932575436
 30
0.0
 11
1199.230541469914
 21
382.0288932575436
 31
0.0
  0
LINE
  5
24C0
330
1F
100
AcDbEntity
  8
サ_モ
100
AcDbLine
 10
1199.230541469914
 20
382.0288932575436
 30
0.0
 11
1210.230541469914
 21
380.5288932575436
 31
0.0
  0
LINE
  5
24C7
330
1F
100
AcDbEntity
  8
サ_モ
100
AcDbLine
 10
1283.230541469914
 20
384.5288932575436
 30
0.0
 11
1298.230541469914
 21
384.5288932575436
 31
0.0
  0
LINE
  5
24C8
330
1F
100
AcDbEntity
  8
サ_モ
100
AcDbLine
 10
1298.230541469914
 20
384.5288932575436
 30
0.0
 11
1298.230541469914
 21
382.5288932575436
 31
0.0
  0
LINE
  5
24C9
330
1F
100
AcDbEntity
  8
サ_モ
100
AcDbLine
 10
1298.230541469914
 20
382.5288932575436
 30
0.0
 11
1283.230541469914
 21
382.5288932575436
 31
0.0
  0
LINE
  5
24D6
330
1F
100
AcDbEntity
  8
サ_モ
100
AcDbLine
 10
669.0305414699137
 20
908.9982604119724
 30
0.0
 11
675.0305414699137
 21
908.9982604119724
 31
0.0
  0
LINE
  5
24D7
330
1F
100
AcDbEntity
  8
サ_モ
100
AcDbLine
 10
675.0305414699137
 20
908.9982604119724
 30
0.0
 11
675.0305414699138
 21
970.9982604119723
 31
0.0
  0
LINE
  5
24D8
330
1F
100
AcDbEntity
  8
サ_モ
100
AcDbLine
 10
675.0305414699138
 20
970.9982604119723
 30
0.0
 11
669.0305414699138
 21
970.9982604119723
 31
0.0
  0
LINE
  5
24D9
330
1F
100
AcDbEntity
  8
サ_モ
100
AcDbLine
 10
669.0305414699138
 20
970.9982604119723
 30
0.0
 11
669.0305414699137
 21
908.9982604119724
 31
0.0
  0
LINE
  5
24DA
330
1F
100
AcDbEntity
  8
サ_モ
100
AcDbLine
 10
669.0305414699138
 20
970.9982604119723
 30
0.0
 11
670.5305414699138
 21
981.9982604119722
 31
0.0
  0
LINE
  5
24DB
330
1F
100
AcDbEntity
  8
サ_モ
100
AcDbLine
 10
670.5305414699138
 20
981.9982604119722
 30
0.0
 11
673.5305414699138
 21
981.9982604119722
 31
0.0
  0
LINE
  5
24DC
330
1F
100
AcDbEntity
  8
サ_モ
100
AcDbLine
 10
673.5305414699138
 20
981.9982604119722
 30
0.0
 11
675.0305414699138
 21
970.9982604119723
 31
0.0
  0
LINE
  5
24DD
330
1F
100
AcDbEntity
  8
サ_モ
100
AcDbLine
 10
669.0305414699137
 20
908.9982604119724
 30
0.0
 11
670.5305414699137
 21
897.9982604119722
 31
0.0
  0
LINE
  5
24DE
330
1F
100
AcDbEntity
  8
サ_モ
100
AcDbLine
 10
670.5305414699137
 20
897.9982604119722
 30
0.0
 11
673.5305414699137
 21
897.9982604119722
 31
0.0
  0
LINE
  5
24DF
330
1F
100
AcDbEntity
  8
サ_モ
100
AcDbLine
 10
673.5305414699137
 20
897.9982604119722
 30
0.0
 11
675.0305414699137
 21
908.9982604119724
 31
0.0
  0
LINE
  5
24E0
330
1F
100
AcDbEntity
  8
サ_モ
100
AcDbLine
 10
671.0305414699138
 20
981.9982604119722
 30
0.0
 11
671.0305414699138
 21
996.9982604119723
 31
0.0
  0
LINE
  5
24E1
330
1F
100
AcDbEntity
  8
サ_モ
100
AcDbLine
 10
671.0305414699138
 20
996.9982604119723
 30
0.0
 11
673.0305414699138
 21
996.9982604119723
 31
0.0
  0
LINE
  5
24E2
330
1F
100
AcDbEntity
  8
サ_モ
100
AcDbLine
 10
673.0305414699138
 20
996.9982604119723
 30
0.0
 11
673.0305414699138
 21
981.9982604119722
 31
0.0
  0
XLINE
  5
24E4
330
1F
100
AcDbEntity
  8
9_構築線
100
AcDbXline
 10
706.7166328697567
 20
849.1732604578146
 30
0.0
 11
1.0
 21
0.0
 31
0.0
  0
LINE
  5
24EB
330
1F
100
AcDbEntity
  8
サ_モ
100
AcDbLine
 10
683.0305414699139
 20
1007.998260411972
 30
0.0
 11
701.0305414699139
 21
1007.998260411972
 31
0.0
  0
LINE
  5
24EC
330
1F
100
AcDbEntity
  8
サ_モ
100
AcDbLine
 10
683.0305414699139
 20
991.9982604119722
 30
0.0
 11
701.0305414699139
 21
991.9982604119722
 31
0.0
  0
LINE
  5
24ED
330
1F
100
AcDbEntity
  8
サ_モ
100
AcDbLine
 10
695.0305414699139
 20
1007.998260411972
 30
0.0
 11
695.0305414699139
 21
991.9982604119722
 31
0.0
  0
LINE
  5
24F0
330
1F
100
AcDbEntity
  8
サ_モ
100
AcDbLine
 10
695.0305414699139
 20
1001.498260411972
 30
0.0
 11
703.2305414699139
 21
1001.498260411972
 31
0.0
  0
LINE
  5
24F1
330
1F
100
AcDbEntity
  8
サ_モ
100
AcDbLine
 10
703.2305414699139
 20
1001.498260411972
 30
0.0
 11
703.2305414699139
 21
998.4982604119723
 31
0.0
  0
LINE
  5
24F2
330
1F
100
AcDbEntity
  8
サ_モ
100
AcDbLine
 10
703.2305414699139
 20
998.4982604119723
 30
0.0
 11
695.0305414699139
 21
998.4982604119723
 31
0.0
  0
LINE
  5
24F5
330
1F
100
AcDbEntity
  8
サ_モ
100
AcDbLine
 10
701.0305414699139
 20
1007.998260411972
 30
0.0
 11
701.0305414699139
 21
1006.998260411972
 31
0.0
  0
LINE
  5
24F6
330
1F
100
AcDbEntity
  8
サ_モ
100
AcDbLine
 10
701.0305414699139
 20
1006.998260411972
 30
0.0
 11
695.0305414699139
 21
1006.998260411972
 31
0.0
  0
LINE
  5
24F7
330
1F
100
AcDbEntity
  8
サ_モ
100
AcDbLine
 10
695.0305414699139
 20
992.9982604119723
 30
0.0
 11
701.0305414699139
 21
992.9982604119723
 31
0.0
  0
LINE
  5
24F8
330
1F
100
AcDbEntity
  8
サ_モ
100
AcDbLine
 10
701.0305414699139
 20
992.9982604119723
 30
0.0
 11
701.0305414699139
 21
991.9982604119722
 31
0.0
  0
XLINE
  5
24F9
330
1F
100
AcDbEntity
  8
9_構築線
100
AcDbXline
 10
672.7166328697567
 20
687.3732604578147
 30
0.0
 11
1.0
 21
0.0
 31
0.0
  0
LINE
  5
24FB
330
1F
100
AcDbEntity
  8
4_破線2中
100
AcDbLine
 10
703.2305414699139
 20
778.9982604119723
 30
0.0
 11
703.2305414699139
 21
808.1982604119723
 31
0.0
  0
LINE
  5
24FC
330
1F
100
AcDbEntity
  8
4_破線2中
100
AcDbLine
 10
703.2305414699139
 20
808.1982604119723
 30
0.0
 11
779.2305414699139
 21
808.1982604119723
 31
0.0
  0
LINE
  5
24FD
330
1F
100
AcDbEntity
  8
4_破線2中
100
AcDbLine
 10
779.2305414699139
 20
808.1982604119723
 30
0.0
 11
779.2305414699139
 21
778.9982604119723
 31
0.0
  0
LINE
  5
2507
330
1F
100
AcDbEntity
  8
サ_モ
100
AcDbLine
 10
723.730541469914
 20
812.1982604119724
 30
0.0
 11
723.730541469914
 21
837.1982604119724
 31
0.0
  0
LINE
  5
2508
330
1F
100
AcDbEntity
  8
サ_モ
100
AcDbLine
 10
723.730541469914
 20
837.1982604119724
 30
0.0
 11
758.7305414699139
 21
837.1982604119724
 31
0.0
  0
LINE
  5
2509
330
1F
100
AcDbEntity
  8
サ_モ
100
AcDbLine
 10
758.7305414699139
 20
837.1982604119724
 30
0.0
 11
758.7305414699139
 21
812.1982604119724
 31
0.0
  0
LINE
  5
250A
330
1F
100
AcDbEntity
  8
サ_モ
100
AcDbLine
 10
758.7305414699139
 20
812.1982604119724
 30
0.0
 11
723.730541469914
 21
812.1982604119724
 31
0.0
  0
LINE
  5
250B
330
1F
100
AcDbEntity
  8
サ_モ
100
AcDbLine
 10
723.730541469914
 20
812.1982604119724
 30
0.0
 11
723.730541469914
 21
808.1982604119723
 31
0.0
  0
LINE
  5
250C
330
1F
100
AcDbEntity
  8
サ_モ
100
AcDbLine
 10
758.7305414699139
 20
812.1982604119724
 30
0.0
 11
758.7305414699139
 21
808.1982604119723
 31
0.0
  0
XLINE
  5
250F
330
1F
100
AcDbEntity
  8
9_構築線
100
AcDbXline
 10
675.7166328697567
 20
1168.149963371753
 30
0.0
 11
0.0
 21
1.0
 31
0.0
  0
XLINE
  5
2510
330
1F
100
AcDbEntity
  8
9_構築線
100
AcDbXline
 10
206.7166328697567
 20
1168.149963371753
 30
0.0
 11
0.0
 21
1.0
 31
0.0
  0
XLINE
  5
2511
330
1F
100
AcDbEntity
  8
9_構築線
100
AcDbXline
 10
646.7166328697567
 20
1168.149963371753
 30
0.0
 11
0.0
 21
1.0
 31
0.0
  0
XLINE
  5
2512
330
1F
100
AcDbEntity
  8
9_構築線
100
AcDbXline
 10
150.0
 20
1247.973260457814
 30
0.0
 11
1.0
 21
0.0
 31
0.0
  0
XLINE
  5
2513
330
1F
100
AcDbEntity
  8
9_構築線
100
AcDbXline
 10
672.7166328697567
 20
728.3732604578147
 30
0.0
 11
1.0
 21
0.0
 31
0.0
  0
CIRCLE
  5
2514
330
1F
100
AcDbEntity
  8
9_構築線
100
AcDbCircle
 10
206.7166328697567
 20
728.3732604578147
 30
0.0
 40
23.0
  0
CIRCLE
  5
2515
330
1F
100
AcDbEntity
  8
9_構築線
100
AcDbCircle
 10
206.7166328697567
 20
728.3732604578147
 30
0.0
 40
26.0
  0
CIRCLE
  5
2516
330
1F
100
AcDbEntity
  8
9_構築線
100
AcDbCircle
 10
646.7166328697567
 20
728.3732604578147
 30
0.0
 40
23.0
  0
CIRCLE
  5
2517
330
1F
100
AcDbEntity
  8
9_構築線
100
AcDbCircle
 10
646.7166328697567
 20
728.3732604578147
 30
0.0
 40
26.0
  0
CIRCLE
  5
2518
330
1F
100
AcDbEntity
  8
9_構築線
100
AcDbCircle
 10
646.7166328697567
 20
1247.973260457814
 30
0.0
 40
23.0
  0
CIRCLE
  5
2519
330
1F
100
AcDbEntity
  8
9_構築線
100
AcDbCircle
 10
646.7166328697567
 20
1247.973260457814
 30
0.0
 40
26.0
  0
CIRCLE
  5
251A
330
1F
100
AcDbEntity
  8
9_構築線
100
AcDbCircle
 10
206.7166328697567
 20
1247.973260457814
 30
0.0
 40
23.0
  0
CIRCLE
  5
251B
330
1F
100
AcDbEntity
  8
9_構築線
100
AcDbCircle
 10
206.7166328697567
 20
1247.973260457814
 30
0.0
 40
26.0
  0
XLINE
  5
251D
330
1F
100
AcDbEntity
  8
9_構築線
100
AcDbXline
 10
177.7166328697567
 20
225.0038933033859
 30
0.0
 11
-1.0
 21
0.0
 31
0.0
  0
LINE
  5
251F
330
1F
100
AcDbEntity
  8
引出
100
AcDbLine
 10
1635.580541469914
 20
496.5288932575435
 30
0.0
 11
1638.730541469914
 21
496.5288932575435
 31
0.0
  0
XLINE
  5
2520
330
1F
100
AcDbEntity
  8
9_構築線
100
AcDbXline
 10
1378.800073942578
 20
247.503893303386
 30
0.0
 11
0.0
 21
-1.0
 31
0.0
  0
XLINE
  5
2521
330
1F
100
AcDbEntity
  8
9_構築線
100
AcDbXline
 10
1347.800073942578
 20
247.503893303386
 30
0.0
 11
0.0
 21
-1.0
 31
0.0
  0
XLINE
  5
2522
330
1F
100
AcDbEntity
  8
9_構築線
100
AcDbXline
 10
177.7166328697567
 20
245.003893303386
 30
0.0
 11
-1.0
 21
0.0
 31
0.0
  0
LINE
  5
2528
330
1F
100
AcDbEntity
  8
ゴム足
100
AcDbLine
 10
315.3805414699139
 20
334.8288932575436
 30
0.0
 11
318.2305414699139
 21
315.8288932575436
 31
0.0
  0
LINE
  5
2529
330
1F
100
AcDbEntity
  8
ゴム足
100
AcDbLine
 10
318.2305414699139
 20
315.8288932575436
 30
0.0
 11
344.230541469914
 21
315.8288932575436
 31
0.0
  0
LINE
  5
252A
330
1F
100
AcDbEntity
  8
ゴム足
100
AcDbLine
 10
344.230541469914
 20
315.8288932575436
 30
0.0
 11
347.0805414699138
 21
334.8288932575436
 31
0.0
  0
LINE
  5
252B
330
1F
100
AcDbEntity
  8
ゴム足
100
AcDbLine
 10
755.3805414699138
 20
334.8288932575436
 30
0.0
 11
758.2305414699139
 21
315.8288932575436
 31
0.0
  0
LINE
  5
252C
330
1F
100
AcDbEntity
  8
ゴム足
100
AcDbLine
 10
758.2305414699139
 20
315.8288932575436
 30
0.0
 11
784.230541469914
 21
315.8288932575436
 31
0.0
  0
LINE
  5
252D
330
1F
100
AcDbEntity
  8
ゴム足
100
AcDbLine
 10
784.230541469914
 20
315.8288932575436
 30
0.0
 11
787.080541469914
 21
334.8288932575436
 31
0.0
  0
LINE
  5
252E
330
1F
100
AcDbEntity
  8
ゴム足
100
AcDbLine
 10
1106.230541469914
 20
335.8288932575437
 30
0.0
 11
1109.230541469914
 21
315.8288932575436
 31
0.0
  0
LINE
  5
252F
330
1F
100
AcDbEntity
  8
ゴム足
100
AcDbLine
 10
1109.230541469914
 20
315.8288932575436
 30
0.0
 11
1135.230541469913
 21
315.8288932575436
 31
0.0
  0
LINE
  5
2530
330
1F
100
AcDbEntity
  8
ゴム足
100
AcDbLine
 10
1135.230541469913
 20
315.8288932575436
 30
0.0
 11
1138.230541469914
 21
335.8288932575436
 31
0.0
  0
LINE
  5
2531
330
1F
100
AcDbEntity
  8
ゴム足
100
AcDbLine
 10
1625.030541469913
 20
335.8288932575437
 30
0.0
 11
1628.030541469914
 21
315.8288932575436
 31
0.0
  0
LINE
  5
2532
330
1F
100
AcDbEntity
  8
ゴム足
100
AcDbLine
 10
1628.030541469914
 20
315.8288932575436
 30
0.0
 11
1654.030541469914
 21
315.8288932575436
 31
0.0
  0
LINE
  5
2533
330
1F
100
AcDbEntity
  8
ゴム足
100
AcDbLine
 10
1654.030541469914
 20
315.8288932575436
 30
0.0
 11
1657.030541469914
 21
335.8288932575436
 31
0.0
  0
CIRCLE
  5
2536
330
1F
100
AcDbEntity
  8
ネジ
100
AcDbCircle
 10
746.2305414699139
 20
788.9982604119722
 30
0.0
 40
4.15
  0
LINE
  5
2537
330
1F
100
AcDbEntity
  8
1_実線
100
AcDbLine
 10
1089.462774516947
 20
530.5611263045773
 30
0.0
 11
1092.99830842288
 21
534.09666021051
 31
0.0
  0
LINE
  5
2538
330
1F
100
AcDbEntity
  8
1_実線
100
AcDbLine
 10
1089.462774516947
 20
534.09666021051
 30
0.0
 11
1092.99830842288
 21
530.5611263045773
 31
0.0
  0
CIRCLE
  5
2539
330
1F
100
AcDbEntity
  8
ネジ
100
AcDbCircle
 10
1091.241307816247
 20
532.3029009982091
 30
0.0
 40
4.15
  0
LINE
  5
253A
330
1F
100
AcDbEntity
  8
1_実線
100
AcDbLine
 10
1089.452008170614
 20
370.5871185639118
 30
0.0
 11
1092.987542076547
 21
374.1226524698446
 31
0.0
  0
LINE
  5
253B
330
1F
100
AcDbEntity
  8
1_実線
100
AcDbLine
 10
1089.452008170614
 20
374.1226524698446
 30
0.0
 11
1092.987542076547
 21
370.5871185639118
 31
0.0
  0
CIRCLE
  5
253C
330
1F
100
AcDbEntity
  8
ネジ
100
AcDbCircle
 10
1091.230541469914
 20
372.3288932575436
 30
0.0
 40
4.15
  0
XLINE
  5
2542
330
1F
100
AcDbEntity
  8
9_構築線
100
AcDbXline
 10
774.7110618173764
 20
157.444902497632
 30
0.0
 11
1.0
 21
0.0
 31
0.0
  0
XLINE
  5
2543
330
1F
100
AcDbEntity
  8
9_構築線
100
AcDbXline
 10
774.7110618173764
 20
158.944902497632
 30
0.0
 11
1.0
 21
0.0
 31
0.0
  0
XLINE
  5
254A
330
1F
100
AcDbEntity
  8
9_構築線
100
AcDbXline
 10
719.7716631753037
 20
167.1017203986375
 30
0.0
 11
-1.0
 21
0.0
 31
0.0
  0
ARC
  5
2550
330
1F
100
AcDbEntity
  8
ネジ
100
AcDbCircle
 10
1091.241307816247
 20
338.4688012474009
 30
0.0
 40
6.139917429259787
100
AcDbArc
 50
229.0861784439992
 51
310.9138215560007
  0
LINE
  5
2551
330
1F
100
AcDbEntity
  8
ネジ
100
AcDbLine
 10
1087.220133872759
 20
333.8288932575436
 30
0.0
 11
1087.091307816247
 21
334.8288932575436
 31
0.0
  0
LINE
  5
2552
330
1F
100
AcDbEntity
  8
ネジ
100
AcDbLine
 10
1095.262481759735
 20
333.8288932575436
 30
0.0
 11
1095.391307816247
 21
334.8288932575436
 31
0.0
  0
LINE
  5
2553
330
1F
100
AcDbEntity
  8
ネジ
100
AcDbLine
 10
1087.220133872759
 20
333.8288932575435
 30
0.0
 11
1095.262481759735
 21
333.8288932575436
 31
0.0
  0
LINE
  5
2554
330
1F
100
AcDbEntity
  8
ネジ
100
AcDbLine
 10
1087.091307816247
 20
334.8288932575436
 30
0.0
 11
1095.391307816247
 21
334.8288932575436
 31
0.0
  0
ARC
  5
2555
330
1F
100
AcDbEntity
  8
ネジ
100
AcDbCircle
 10
1091.241307816247
 20
566.1889852676863
 30
0.0
 40
6.139917429259787
100
AcDbArc
 50
49.08617844399921
 51
130.9138215560007
  0
LINE
  5
2556
330
1F
100
AcDbEntity
  8
ネジ
100
AcDbLine
 10
1087.220133872759
 20
570.8288932575436
 30
0.0
 11
1087.091307816247
 21
569.8288932575436
 31
0.0
  0
LINE
  5
2557
330
1F
100
AcDbEntity
  8
ネジ
100
AcDbLine
 10
1095.262481759735
 20
570.8288932575436
 30
0.0
 11
1095.391307816247
 21
569.8288932575436
 31
0.0
  0
LINE
  5
2558
330
1F
100
AcDbEntity
  8
ネジ
100
AcDbLine
 10
1087.220133872759
 20
570.8288932575437
 30
0.0
 11
1095.262481759735
 21
570.8288932575436
 31
0.0
  0
LINE
  5
2559
330
1F
100
AcDbEntity
  8
ネジ
100
AcDbLine
 10
1087.091307816247
 20
569.8288932575436
 30
0.0
 11
1095.391307816247
 21
569.8288932575436
 31
0.0
  0
LINE
  5
255A
330
1F
100
AcDbEntity
  8
1_実線
100
AcDbLine
 10
614.4367822576129
 20
787.2564857183405
 30
0.0
 11
617.9723161635457
 21
790.7920196242733
 31
0.0
  0
LINE
  5
255B
330
1F
100
AcDbEntity
  8
1_実線
100
AcDbLine
 10
614.4367822576128
 20
790.7920196242733
 30
0.0
 11
617.9723161635457
 21
787.2564857183405
 31
0.0
  0
CIRCLE
  5
255C
330
1F
100
AcDbEntity
  8
ネジ
100
AcDbCircle
 10
616.2153155569125
 20
788.9982604119722
 30
0.0
 40
4.15
  0
LINE
  5
255D
330
1F
100
AcDbEntity
  8
1_実線
100
AcDbLine
 10
354.436782257613
 20
787.2564857183405
 30
0.0
 11
357.9723161635457
 21
790.7920196242733
 31
0.0
  0
LINE
  5
255E
330
1F
100
AcDbEntity
  8
1_実線
100
AcDbLine
 10
354.4367822576128
 20
790.7920196242733
 30
0.0
 11
357.9723161635457
 21
787.2564857183405
 31
0.0
  0
CIRCLE
  5
255F
330
1F
100
AcDbEntity
  8
ネジ
100
AcDbCircle
 10
356.2153155569125
 20
788.9982604119722
 30
0.0
 40
4.15
  0
LINE
  5
2560
330
1F
100
AcDbEntity
  8
1_実線
100
AcDbLine
 10
484.4887667762821
 20
787.2564857183405
 30
0.0
 11
488.024300682215
 21
790.7920196242733
 31
0.0
  0
LINE
  5
2561
330
1F
100
AcDbEntity
  8
1_実線
100
AcDbLine
 10
484.488766776282
 20
790.7920196242733
 30
0.0
 11
488.024300682215
 21
787.2564857183405
 31
0.0
  0
CIRCLE
  5
2562
330
1F
100
AcDbEntity
  8
ネジ
100
AcDbCircle
 10
486.2673000755817
 20
788.9982604119722
 30
0.0
 40
4.15
  0
XLINE
  5
2563
330
1F
100
AcDbEntity
  8
9_構築線
100
AcDbXline
 10
625.8666328697566
 20
698.1732604578146
 30
0.0
 11
-1.0
 21
0.0
 31
0.0
  0
XLINE
  5
2565
330
1F
100
AcDbEntity
  8
9_構築線
100
AcDbXline
 10
788.0000739425788
 20
177.758538299643
 30
0.0
 11
1.0
 21
0.0
 31
0.0
  0
ARC
  5
2566
330
1F
100
AcDbEntity
  8
ネジ
100
AcDbCircle
 10
799.0406334800566
 20
789.0090267583056
 30
0.0
 40
6.139917429259787
100
AcDbArc
 50
319.0861784439992
 51
40.91382155600075
  0
LINE
  5
2567
330
1F
100
AcDbEntity
  8
ネジ
100
AcDbLine
 10
803.680541469914
 20
784.9878528148176
 30
0.0
 11
802.6805414699138
 21
784.8590267583055
 31
0.0
  0
LINE
  5
2568
330
1F
100
AcDbEntity
  8
ネジ
100
AcDbLine
 10
803.680541469914
 20
793.0302007017935
 30
0.0
 11
802.6805414699138
 21
793.1590267583055
 31
0.0
  0
LINE
  5
2569
330
1F
100
AcDbEntity
  8
ネジ
100
AcDbLine
 10
803.680541469914
 20
784.9878528148176
 30
0.0
 11
803.680541469914
 21
793.0302007017935
 31
0.0
  0
LINE
  5
256A
330
1F
100
AcDbEntity
  8
ネジ
100
AcDbLine
 10
802.6805414699138
 20
784.8590267583055
 30
0.0
 11
802.6805414699138
 21
793.1590267583055
 31
0.0
  0
ARC
  5
256B
330
1F
100
AcDbEntity
  8
ネジ
100
AcDbCircle
 10
1668.390633480056
 20
559.839659603877
 30
0.0
 40
6.139917429259787
100
AcDbArc
 50
319.0861784439992
 51
40.91382155600075
  0
LINE
  5
256C
330
1F
100
AcDbEntity
  8
ネジ
100
AcDbLine
 10
1673.030541469914
 20
555.8184856603889
 30
0.0
 11
1672.030541469914
 21
555.6896596038768
 31
0.0
  0
LINE
  5
256D
330
1F
100
AcDbEntity
  8
ネジ
100
AcDbLine
 10
1673.030541469914
 20
563.8608335473649
 30
0.0
 11
1672.030541469914
 21
563.9896596038767
 31
0.0
  0
LINE
  5
256E
330
1F
100
AcDbEntity
  8
ネジ
100
AcDbLine
 10
1673.030541469914
 20
555.8184856603889
 30
0.0
 11
1673.030541469914
 21
563.8608335473649
 31
0.0
  0
LINE
  5
256F
330
1F
100
AcDbEntity
  8
ネジ
100
AcDbLine
 10
1672.030541469914
 20
555.6896596038768
 30
0.0
 11
1672.030541469914
 21
563.9896596038767
 31
0.0
  0
ARC
  5
2570
330
1F
100
AcDbEntity
  8
ネジ
100
AcDbCircle
 10
1668.390633480056
 20
344.839659603877
 30
0.0
 40
6.139917429259787
100
AcDbArc
 50
319.0861784439992
 51
40.91382155600075
  0
LINE
  5
2571
330
1F
100
AcDbEntity
  8
ネジ
100
AcDbLine
 10
1673.030541469914
 20
340.8184856603889
 30
0.0
 11
1672.030541469914
 21
340.6896596038768
 31
0.0
  0
LINE
  5
2572
330
1F
100
AcDbEntity
  8
ネジ
100
AcDbLine
 10
1673.030541469914
 20
348.8608335473649
 30
0.0
 11
1672.030541469914
 21
348.9896596038768
 31
0.0
  0
LINE
  5
2573
330
1F
100
AcDbEntity
  8
ネジ
100
AcDbLine
 10
1673.030541469914
 20
340.8184856603889
 30
0.0
 11
1673.030541469914
 21
348.8608335473649
 31
0.0
  0
LINE
  5
2574
330
1F
100
AcDbEntity
  8
ネジ
100
AcDbLine
 10
1672.030541469914
 20
340.6896596038768
 30
0.0
 11
1672.030541469914
 21
348.9896596038768
 31
0.0
  0
ARC
  5
257B
330
1F
100
AcDbEntity
  8
ネジ
100
AcDbCircle
 10
304.6204494597712
 20
788.9874940656389
 30
0.0
 40
6.139917429259787
100
AcDbArc
 50
139.0861784439991
 51
220.9138215560007
  0
LINE
  5
257C
330
1F
100
AcDbEntity
  8
ネジ
100
AcDbLine
 10
299.9805414699139
 20
793.0086680091269
 30
0.0
 11
300.9805414699139
 21
793.137494065639
 31
0.0
  0
LINE
  5
257D
330
1F
100
AcDbEntity
  8
ネジ
100
AcDbLine
 10
299.9805414699139
 20
784.9663201221511
 30
0.0
 11
300.9805414699139
 21
784.8374940656391
 31
0.0
  0
LINE
  5
257E
330
1F
100
AcDbEntity
  8
ネジ
100
AcDbLine
 10
299.9805414699138
 20
793.0086680091269
 30
0.0
 11
299.9805414699139
 21
784.9663201221511
 31
0.0
  0
LINE
  5
257F
330
1F
100
AcDbEntity
  8
ネジ
100
AcDbLine
 10
300.9805414699139
 20
793.137494065639
 30
0.0
 11
300.9805414699139
 21
784.8374940656391
 31
0.0
  0
DIMENSION
  5
25AB
330
1F
100
AcDbEntity
  8
寸法線1
100
AcDbDimension
  2
*D15
 10
1031.230541469913
 20
354.7288932575436
 30
0.0
 11
1018.730541469913
 21
450.7288932575438
 31
0.0
 70
    32
  3
ISO-25
100
AcDbAlignedDimension
 13
1081.230541469913
 23
546.7288932575436
 33
0.0
 14
1081.230541469913
 24
354.7288932575436
 34
0.0
 50
90.0
100
AcDbRotatedDimension
  0
DIMENSION
  5
25B8
330
1F
100
AcDbEntity
  8
寸法線1
100
AcDbDimension
  2
*D16
 10
881.2305414699139
 20
334.8288932575436
 30
0.0
 11
868.7305414699137
 21
452.3288932575438
 31
0.0
 70
    32
  3
ISO-25
100
AcDbAlignedDimension
 13
801.230541469914
 23
569.8288932575436
 33
0.0
 14
801.230541469914
 24
334.8288932575436
 34
0.0
 50
90.0
100
AcDbRotatedDimension
  0
DIMENSION
  5
25C5
330
1F
100
AcDbEntity
  8
寸法線1
100
AcDbDimension
  2
*D17
 10
931.2305414699139
 20
315.8288932575436
 30
0.0
 11
918.7305414699137
 21
442.8288932575438
 31
0.0
 70
    32
  3
ISO-25
100
AcDbAlignedDimension
 13
801.230541469914
 23
569.8288932575436
 33
0.0
 14
784.230541469914
 24
315.8288932575436
 34
0.0
 50
90.0
100
AcDbRotatedDimension
  0
DIMENSION
  5
25FF
330
1F
100
AcDbEntity
  8
寸法線1
100
AcDbDimension
  2
*D18
 10
1081.230541469913
 20
254.8288932575436
 30
0.0
 11
1376.230541469914
 21
267.3288932575436
 31
0.0
 70
    32
  3
ISO-25
100
AcDbAlignedDimension
 13
1671.230541469914
 23
335.8288932575436
 33
0.0
 14
1081.230541469913
 24
304.8288932575436
 34
0.0
100
AcDbRotatedDimension
  0
DIMENSION
  5
260C
330
1F
100
AcDbEntity
  8
寸法線1
100
AcDbDimension
  2
*D19
 10
679.7305414699139
 20
254.8288932575436
 30
0.0
 11
501.230541469914
 21
267.3288932575436
 31
0.0
 70
    32
  3
ISO-25
100
AcDbAlignedDimension
 13
322.7305414699139
 23
354.8288932575436
 33
0.0
 14
679.7305414699139
 24
354.8288932575436
 34
0.0
100
AcDbRotatedDimension
  0
DIMENSION
  5
2620
330
1F
100
AcDbEntity
  8
寸法線1
100
AcDbDimension
  2
*D20
 10
801.2305414699138
 20
204.8288932575436
 30
0.0
 11
551.2305414699138
 21
217.3288932575436
 31
0.0
 70
    32
  3
ISO-25
100
AcDbAlignedDimension
 13
301.2305414699138
 23
334.8288932575436
 33
0.0
 14
801.2305414699138
 24
334.8288932575436
 34
0.0
100
AcDbRotatedDimension
  0
XLINE
  5
262D
330
1F
100
AcDbEntity
  8
KOUTIKUSEN
100
AcDbXline
 10
96.71663286975675
 20
214.003893303386
 30
0.0
 11
0.0
 21
1.0
 31
0.0
  0
DIMENSION
  5
262E
330
1F
100
AcDbEntity
  8
寸法線1
100
AcDbDimension
  2
*D21
 10
221.230541469914
 20
304.8288932575436
 30
0.0
 11
208.730541469914
 21
452.3288932575438
 31
0.0
 70
    32
  3
ISO-25
100
AcDbAlignedDimension
 13
271.230541469914
 23
599.8288932575436
 33
0.0
 14
271.230541469914
 24
304.8288932575436
 34
0.0
 50
90.0
100
AcDbRotatedDimension
  0
DIMENSION
  5
263B
330
1F
100
AcDbEntity
  8
寸法線1
100
AcDbDimension
  2
*D22
 10
831.2305414699139
 20
649.8288932575436
 30
0.0
 11
551.230541469914
 21
662.3288932575436
 31
0.0
 70
    32
  3
ISO-25
100
AcDbAlignedDimension
 13
271.230541469914
 23
599.8288932575436
 33
0.0
 14
831.2305414699139
 24
599.8288932575435
 34
0.0
100
AcDbRotatedDimension
  0
CIRCLE
  5
264A
330
1F
100
AcDbEntity
  8
4_破線2中
100
AcDbCircle
 10
739.7305414699141
 20
1348.998260411972
 30
0.0
 40
4.5
  0
CIRCLE
  5
2670
330
1F
100
AcDbEntity
  8
3_破線1
100
AcDbCircle
 10
739.7305414699141
 20
1348.998260411972
 30
0.0
 40
4.0
  0
ARC
  5
2679
330
1F
100
AcDbEntity
  8
3_破線1
100
AcDbCircle
 10
739.7305414699141
 20
1348.998260411972
 30
0.0
 40
6.0
100
AcDbArc
 50
54.31466528734737
 51
125.6853347126526
  0
LINE
  5
267A
330
1F
100
AcDbEntity
  8
3_破線1
100
AcDbLine
 10
736.230541469914
 20
1353.871657584376
 30
0.0
 11
736.230541469914
 21
1350.934752085076
 31
0.0
  0
LINE
  5
267B
330
1F
100
AcDbEntity
  8
3_破線1
100
AcDbLine
 10
743.2305414699141
 20
1353.871657584376
 30
0.0
 11
743.2305414699141
 21
1350.934752085076
 31
0.0
  0
LINE
  5
267C
330
1F
100
AcDbEntity
  8
3_破線1
100
AcDbLine
 10
735.7305414699141
 20
1364.998260411972
 30
0.0
 11
743.7305414699141
 21
1364.998260411972
 31
0.0
  0
LINE
  5
267D
330
1F
100
AcDbEntity
  8
3_破線1
100
AcDbLine
 10
743.7305414699141
 20
1364.998260411972
 30
0.0
 11
743.7305414699141
 21
1344.998260411972
 31
0.0
  0
LINE
  5
267E
330
1F
100
AcDbEntity
  8
3_破線1
100
AcDbLine
 10
743.7305414699141
 20
1344.998260411972
 30
0.0
 11
735.7305414699141
 21
1344.998260411972
 31
0.0
  0
LINE
  5
267F
330
1F
100
AcDbEntity
  8
3_破線1
100
AcDbLine
 10
735.7305414699141
 20
1344.998260411972
 30
0.0
 11
735.7305414699141
 21
1364.998260411972
 31
0.0
  0
LINE
  5
2680
330
1F
100
AcDbEntity
  8
3_破線1
100
AcDbLine
 10
737.2305414699141
 20
1364.998260411972
 30
0.0
 11
737.2305414699141
 21
1369.798260411972
 31
0.0
  0
LINE
  5
2681
330
1F
100
AcDbEntity
  8
3_破線1
100
AcDbLine
 10
742.2305414699141
 20
1364.998260411972
 30
0.0
 11
742.2305414699142
 21
1369.798260411972
 31
0.0
  0
LINE
  5
26FC
330
1F
100
AcDbEntity
  8
1_実線
100
AcDbLine
 10
1761.084248324072
 20
317.1983872098317
 30
0.0
 11
1761.084248324072
 21
322.1983872098316
 31
0.0
  0
LINE
  5
26FD
330
1F
100
AcDbEntity
  8
1_実線
100
AcDbLine
 10
1761.084248324072
 20
322.1983872098316
 30
0.0
 11
1763.084248324073
 21
322.1983872098316
 31
0.0
  0
LINE
  5
26FE
330
1F
100
AcDbEntity
  8
1_実線
100
AcDbLine
 10
1763.084248324073
 20
322.1983872098316
 30
0.0
 11
1763.084248324073
 21
317.1983872098317
 31
0.0
  0
LINE
  5
26FF
330
1F
100
AcDbEntity
  8
1_実線
100
AcDbLine
 10
1763.084248324073
 20
317.1983872098317
 30
0.0
 11
1761.084248324072
 21
317.1983872098317
 31
0.0
  0
LINE
  5
2700
330
1F
100
AcDbEntity
  8
1_実線
100
AcDbLine
 10
1763.084248324073
 20
322.1983872098316
 30
0.0
 11
1780.989048415021
 21
324.0415283956646
 31
0.0
  0
ARC
  5
2701
330
1F
100
AcDbEntity
  8
1_実線
100
AcDbCircle
 10
1780.784248324072
 20
326.0310149934449
 30
0.0
 40
2.0
100
AcDbArc
 50
275.8773926066461
 51
0.0
  0
LINE
  5
2702
330
1F
100
AcDbEntity
  8
1_実線
100
AcDbLine
 10
1763.084248324073
 20
317.1983872098317
 30
0.0
 11
1780.084248324072
 21
315.4483872098317
 31
0.0
  0
LINE
  5
2703
330
1F
100
AcDbEntity
  8
1_実線
100
AcDbLine
 10
1782.784248324071
 20
314.6526151510083
 30
0.0
 11
1782.784248324072
 21
330.7263283863022
 31
0.0
  0
LINE
  5
2704
330
1F
100
AcDbEntity
  8
1_実線
100
AcDbLine
 10
1782.784248324072
 20
330.7263283863022
 30
0.0
 11
1803.284248324072
 21
330.7263283863022
 31
0.0
  0
LINE
  5
2705
330
1F
100
AcDbEntity
  8
1_実線
100
AcDbLine
 10
1803.284248324072
 20
330.7263283863022
 30
0.0
 11
1803.284248324073
 21
315.3263283863022
 31
0.0
  0
LINE
  5
2706
330
1F
100
AcDbEntity
  8
1_実線
100
AcDbLine
 10
1801.284248324073
 20
313.3263283863023
 30
0.0
 11
1787.284248324073
 21
313.3263283863023
 31
0.0
  0
ARC
  5
2707
330
1F
100
AcDbEntity
  8
1_実線
100
AcDbCircle
 10
1801.284248324073
 20
315.3263283863022
 30
0.0
 40
2.0
100
AcDbArc
 50
270.0
 51
0.0
  0
ARC
  5
2708
330
1F
100
AcDbEntity
  8
1_実線
100
AcDbCircle
 10
1794.434248324073
 20
342.7263283863022
 30
0.0
 40
5.0
100
AcDbArc
 50
50.94987746383977
 51
129.0501225361602
  0
LINE
  5
2709
330
1F
100
AcDbEntity
  8
1_実線
100
AcDbLine
 10
1791.284248324073
 20
346.609304049373
 30
0.0
 11
1791.284248324073
 21
330.7263283863022
 31
0.0
  0
LINE
  5
270A
330
1F
100
AcDbEntity
  8
1_実線
100
AcDbLine
 10
1797.584248324073
 20
346.609304049373
 30
0.0
 11
1797.584248324073
 21
330.7263283863022
 31
0.0
  0
CIRCLE
  5
270B
330
1F
100
AcDbEntity
  8
1_実線
100
AcDbCircle
 10
1794.434248324073
 20
342.7263283863022
 30
0.0
 40
1.55
  0
LINE
  5
270C
330
1F
100
AcDbEntity
  8
1_実線
100
AcDbLine
 10
1780.084248324072
 20
315.4483872098317
 30
0.0
 11
1787.284248324073
 21
313.3263283863023
 31
0.0
  0
SPLINE
  5
270F
330
1F
100
AcDbEntity
  8
1_実線
100
AcDbSpline
210
0.0
220
0.0
230
1.0
 70
     8
 71
     3
 72
    11
 73
     7
 74
     0
 42
0.0000000001
 43
0.0000000001
 40
0.4997784131883644
 40
0.4997784131883644
 40
0.4997784131883644
 40
0.4997784131883644
 40
18.52892701610222
 40
30.13546120738048
 40
52.8120096998524
 40
59.76789609398739
 40
59.76789609398739
 40
59.76789609398739
 40
59.76789609398739
 10
1642.688497820559
 20
367.1685995129539
 30
0.0
 10
1648.891254089665
 20
367.3671069167215
 30
0.0
 10
1659.058831924703
 20
367.5964751856302
 30
0.0
 10
1673.96258351777
 20
357.5742253358908
 30
0.0
 10
1689.032125612334
 20
358.290840663598
 30
0.0
 10
1698.194495923699
 20
361.8794647735956
 30
0.0
 10
1700.345261030607
 20
362.7218545979863
 30
0.0
  0
SPLINE
  5
2710
330
1F
100
AcDbEntity
  8
1_実線
100
AcDbSpline
210
0.0
220
0.0
230
1.0
 70
     8
 71
     3
 72
    40
 73
    36
 74
     0
 42
0.0000000001
 43
0.0000000001
 40
0.4221199154888751
 40
0.4221199154888751
 40
0.4221199154888751
 40
0.4221199154888751
 40
1.806346045430065
 40
1.806346045430065
 40
5.419038136290196
 40
5.419038136290196
 40
12.64442231801045
 40
12.64442231801045
 40
15.56441962019127
 40
15.56441962019127
 40
18.61933928032966
 40
18.61933928032966
 40
21.67425894046806
 40
21.67425894046806
 40
26.44991572185031
 40
26.44991572185031
 40
28.86212094332198
 40
28.86212094332198
 40
30.3738338455353
 40
30.3738338455353
 40
31.88554674774861
 40
31.88554674774861
 40
34.90897255217524
 40
34.90897255217524
 40
40.95582416102851
 40
40.95582416102851
 40
47.34823663302242
 40
47.34823663302242
 40
51.50893273665595
 40
51.50893273665595
 40
54.2605136107142
 40
54.2605136107142
 40
57.01209448477245
 40
57.01209448477245
 40
59.76789609398739
 40
59.76789609398739
 40
59.76789609398739
 40
59.76789609398739
 10
1642.688497820559
 20
364.6673160477836
 30
0.0
 10
1643.163722291392
 20
364.6825595496792
 30
0.0
 10
1643.63719418262
 20
364.6974568190453
 30
0.0
 10
1645.339007196348
 20
364.7465554709748
 30
0.0
 10
1646.55550714602
 20
364.7731588777411
 30
0.0
 10
1650.146632513519
 20
364.7778083124743
 30
0.0
 10
1652.462086489609
 20
364.6792367755651
 30
0.0
 10
1655.541158413339
 20
364.2374651056509
 30
0.0
 10
1656.407455865034
 20
364.0753084994875
 30
0.0
 10
1658.136101226586
 20
363.658160735115
 30
0.0
 10
1658.994423191042
 20
363.3999939032494
 30
0.0
 10
1660.672048646666
 20
362.7737350249176
 30
0.0
 10
1661.522201813315
 20
362.3945642422693
 30
0.0
 10
1663.747970202041
 20
361.3159436445781
 30
0.0
 10
1665.148074354387
 20
360.5556643736143
 30
0.0
 10
1667.37536346621
 20
359.4359469008244
 30
0.0
 10
1668.143568504635
 20
359.0646852138619
 30
0.0
 10
1669.437582956888
 20
358.4970530811849
 30
0.0
 10
1669.948608954789
 20
358.2866231171551
 30
0.0
 10
1670.987197239664
 20
357.8956083294777
 30
0.0
 10
1671.511328623611
 20
357.715659282436
 30
0.0
 10
1673.095850002906
 20
357.2209053484763
 30
0.0
 10
1674.168328931965
 20
356.9511934354538
 30
0.0
 10
1677.416590091521
 20
356.3094671781581
 30
0.0
 10
1679.622885280441
 20
356.1046148192664
 30
0.0
 10
1684.16084548159
 20
356.0735715928824
 30
0.0
 10
1686.492752169124
 20
356.2696188541036
 30
0.0
 10
1690.268662391588
 20
356.8858673834125
 30
0.0
 10
1691.738478024162
 20
357.204016199332
 30
0.0
 10
1694.128916721414
 20
357.843164159946
 30
0.0
 10
1695.067806110628
 20
358.1286547226507
 30
0.0
 10
1696.895629277214
 20
358.7380224396396
 30
0.0
 10
1697.788082053931
 20
359.0614093034516
 30
0.0
 10
1699.542731751145
 20
359.7225356647945
 30
0.0
 10
1700.40490132788
 20
360.0602962335516
 30
0.0
 10
1701.25699717977
 20
360.3940364791657
 30
0.0
  0
LINE
  5
2711
330
1F
100
AcDbEntity
  8
1_実線
100
AcDbLine
 10
1700.345261030607
 20
362.7218545979863
 30
0.0
 11
1701.25699717977
 21
360.3940364791657
 31
0.0
  0
SPLINE
  5
2727
330
1F
100
AcDbEntity
  8
1_実線
100
AcDbSpline
210
0.0
220
0.0
230
1.0
 70
     8
 71
     3
 72
    24
 73
    20
 74
     0
 42
0.0000000001
 43
0.0000000001
 40
6.854130774955305
 40
6.854130774955305
 40
6.854130774955305
 40
6.854130774955305
 40
11.4371529718392
 40
11.4371529718392
 40
14.09199138881045
 40
14.09199138881045
 40
16.74682980578169
 40
16.74682980578169
 40
22.05650663972419
 40
22.05650663972419
 40
27.36618347366668
 40
27.36618347366668
 40
38.84531779673154
 40
38.84531779673154
 40
50.32445211979641
 40
50.32445211979641
 40
61.80358644286126
 40
61.80358644286126
 40
70.48504974957477
 40
70.48504974957477
 40
70.48504974957477
 40
70.48504974957477
 10
1656.28244103995
 20
330.8415570577275
 30
0.0
 10
1657.176467837415
 20
329.6420134475678
 30
0.0
 10
1658.098506530065
 20
328.5256888594861
 30
0.0
 10
1659.630205164885
 20
326.9654641248882
 30
0.0
 10
1660.206876563941
 20
326.4369138962122
 30
0.0
 10
1661.403300781946
 20
325.4757633790305
 30
0.0
 10
1662.027572985861
 20
325.038298188661
 30
0.0
 10
1663.976806045431
 20
323.8428873555542
 30
0.0
 10
1665.378820464545
 20
323.2015750011412
 30
0.0
 10
1668.368862853938
 20
322.179157923357
 30
0.0
 10
1669.956673407301
 20
321.7985792346662
 30
0.0
 10
1675.215967754098
 20
320.9333502036527
 30
0.0
 10
1679.163817272529
 20
320.8449696578858
 30
0.0
 10
1687.344811688438
 20
321.122084604513
 30
0.0
 10
1691.576537880882
 20
321.485515834263
 30
0.0
 10
1699.933151944093
 20
322.0567609686075
 30
0.0
 10
1704.023080641048
 20
322.259837786873
 30
0.0
 10
1711.076183819292
 20
322.4969583329933
 30
0.0
 10
1714.071169124015
 20
322.5601473692593
 30
0.0
 10
1717.030541469913
 20
322.5907246668621
 30
0.0
  0
SPLINE
  5
2728
330
1F
100
AcDbEntity
  8
1_実線
100
AcDbSpline
210
0.0
220
0.0
230
1.0
 70
     8
 71
     3
 72
    28
 73
    24
 74
     0
 42
0.0000000001
 43
0.0000000001
 40
9.634985732472104
 40
9.634985732472104
 40
9.634985732472104
 40
9.634985732472104
 40
11.40486953222028
 40
11.40486953222028
 40
13.93132151277938
 40
13.93132151277938
 40
18.77044492008324
 40
18.77044492008324
 40
26.59549733223541
 40
26.59549733223541
 40
34.42054974438757
 40
34.42054974438757
 40
42.24560215653974
 40
42.24560215653974
 40
47.92741529040429
 40
47.92741529040429
 40
52.67471905222044
 40
52.67471905222044
 40
57.42202281403658
 40
57.42202281403658
 40
66.91663033766886
 40
66.91663033766886
 40
70.45450000895939
 40
70.45450000895939
 40
70.45450000895939
 40
70.45450000895939
 10
1655.675780733627
 20
326.7971550156362
 30
0.0
 10
1656.073473975885
 20
326.3374670856396
 30
0.0
 10
1656.482365962079
 20
325.8907028303744
 30
0.0
 10
1657.507005444775
 20
324.8443704253395
 30
0.0
 10
1658.136951307809
 20
324.2611137653365
 30
0.0
 10
1660.068532632762
 20
322.6841249831915
 30
0.0
 10
1661.435219474482
 20
321.8206097788094
 30
0.0
 10
1665.203299175724
 20
319.9533118638449
 30
0.0
 10
1667.720459688849
 20
319.1908131311191
 30
0.0
 10
1672.983704422417
 20
318.2121363529034
 30
0.0
 10
1675.73188598702
 20
317.9950079629715
 30
0.0
 10
1681.350524447314
 20
317.8854625213787
 30
0.0
 10
1684.221540908619
 20
317.993481731824
 30
0.0
 10
1689.186882172439
 20
318.2861206278397
 30
0.0
 10
1691.278492374311
 20
318.4418064774273
 30
0.0
 10
1695.080955063075
 20
318.7186102831146
 30
0.0
 10
1696.794321056882
 20
318.8383842357379
 30
0.0
 10
1700.19137174452
 20
319.0453786580162
 30
0.0
 10
1701.875510226956
 20
319.1353872123946
 30
0.0
 10
1706.888132477443
 20
319.3679994823562
 30
0.0
 10
1710.176823931766
 20
319.4731906354405
 30
0.0
 10
1714.630433894351
 20
319.5602635970907
 30
0.0
 10
1715.833316249368
 20
319.5781033477864
 30
0.0
 10
1717.030541469914
 20
319.5905655033348
 30
0.0
  0
LINE
  5
272B
330
1F
100
AcDbEntity
  8
1_実線
100
AcDbLine
 10
1633.262774516947
 20
364.0611263045773
 30
0.0
 11
1636.79830842288
 21
367.5966602105101
 31
0.0
  0
LINE
  5
272C
330
1F
100
AcDbEntity
  8
1_実線
100
AcDbLine
 10
1633.262774516947
 20
367.5966602105101
 30
0.0
 11
1636.79830842288
 21
364.0611263045773
 31
0.0
  0
CIRCLE
  5
272D
330
1F
100
AcDbEntity
  8
ネジ
100
AcDbCircle
 10
1635.041307816247
 20
365.8029009982091
 30
0.0
 40
4.15
  0
LINE
  5
272E
330
1F
100
AcDbEntity
  8
1_実線
100
AcDbLine
 10
1642.688497820558
 20
368.0114272605947
 30
0.0
 11
1642.688497820558
 21
363.5424084462524
 31
0.0
  0
LINE
  5
272F
330
1F
100
AcDbEntity
  8
1_実線
100
AcDbLine
 10
1642.688497820558
 20
363.5424084462524
 30
0.0
 11
1638.561591777272
 21
363.5424084462524
 31
0.0
  0
LINE
  5
2731
330
1F
100
AcDbEntity
  8
1_実線
100
AcDbLine
 10
1642.688497820558
 20
368.0114272605947
 30
0.0
 11
1638.554840475602
 21
368.0114272605946
 31
0.0
  0
LINE
  5
2732
330
1F
100
AcDbEntity
  8
外箱
100
AcDbLine
 10
1671.230541469914
 20
357.8162817747362
 30
0.0
 11
1671.230541469914
 21
338.3288932575436
 31
0.0
  0
LINE
  5
2733
330
1F
100
AcDbEntity
  8
外箱
100
AcDbLine
 10
1672.030541469914
 20
360.184878686229
 30
0.0
 11
1672.030541469914
 21
566.3288932575436
 31
0.0
  0
LINE
  5
2735
330
1F
100
AcDbEntity
  8
1_実線
100
AcDbLine
 10
1717.030541469914
 20
322.5907246668628
 30
0.0
 11
1717.030541469914
 21
319.5905655033349
 31
0.0
  0
LINE
  5
2736
330
1F
100
AcDbEntity
  8
1_実線
100
AcDbLine
 10
1722.030541469914
 20
322.6124344807229
 30
0.0
 11
1722.030541469914
 21
319.612433213235
 31
0.0
  0
SPLINE
  5
2737
330
1F
100
AcDbEntity
  8
1_実線
100
AcDbSpline
210
0.0
220
0.0
230
1.0
 70
     8
 71
     3
 72
    10
 73
     6
 74
     0
 42
0.0000000001
 43
0.0000000001
 40
75.41115706486824
 40
75.41115706486824
 40
75.41115706486824
 40
75.41115706486824
 40
85.90584538493343
 40
85.90584538493343
 40
115.5612285408893
 40
115.5612285408893
 40
115.5612285408893
 40
115.5612285408893
 10
1722.030541469913
 20
319.6124332132302
 30
0.0
 10
1725.537645332558
 20
319.6071476403817
 30
0.0
 10
1729.000672080626
 20
319.5597197161221
 30
0.0
 10
1742.126916331809
 20
319.2589851757673
 30
0.0
 10
1751.566832353619
 20
318.787742605798
 30
0.0
 10
1761.020941430603
 20
318.3156284416311
 30
0.0
  0
SPLINE
  5
2738
330
1F
100
AcDbEntity
  8
1_実線
100
AcDbSpline
210
0.0
220
0.0
230
1.0
 70
     8
 71
     3
 72
    10
 73
     6
 74
     0
 42
0.0000000001
 43
0.0000000001
 40
75.40670277771326
 40
75.40670277771326
 40
75.40670277771326
 40
75.40670277771326
 40
86.30915174619618
 40
86.30915174619618
 40
115.5612285408893
 40
115.5612285408893
 40
115.5612285408893
 40
115.5612285408893
 10
1722.030541469913
 20
322.6124344807083
 30
0.0
 10
1725.69895747599
 20
322.606944161384
 30
0.0
 10
1729.31708777965
 20
322.555660504672
 30
0.0
 10
1742.505695788875
 20
322.2441258861209
 30
0.0
 10
1751.845031975352
 20
321.777588319444
 30
0.0
 10
1761.170567352553
 20
321.311894798863
 30
0.0
  0
LINE
  5
2739
330
1F
100
AcDbEntity
  8
1_実線
100
AcDbLine
 10
737.2305414699141
 20
1409.798260411972
 30
0.0
 11
742.2305414699141
 21
1409.798260411972
 31
0.0
  0
LINE
  5
273A
330
1F
100
AcDbEntity
  8
1_実線
100
AcDbLine
 10
742.2305414699141
 20
1409.798260411972
 30
0.0
 11
742.2305414699141
 21
1369.798260411972
 31
0.0
  0
LINE
  5
273B
330
1F
100
AcDbEntity
  8
1_実線
100
AcDbLine
 10
737.2305414699141
 20
1409.798260411972
 30
0.0
 11
737.2305414699142
 21
1369.798260411972
 31
0.0
  0
INSERT
  5
27AF
330
1F
100
AcDbEntity
  8
文字
100
AcDbBlockReference
  2
Ａ_３_タイトルブロック__株_アンナカ
 10
0.6160139376443113
 20
0.5922007725462209
 30
0.0
 41
5.0
 42
5.0
  0
XLINE
  5
27F9
330
1F
100
AcDbEntity
  8
KOUTIKUSEN
100
AcDbXline
 10
271.230541469914
 20
649.8288932575436
 30
0.0
 11
-1.0
 21
0.0
 31
0.0
  0
XLINE
  5
27FA
330
1F
100
AcDbEntity
  8
KOUTIKUSEN
100
AcDbXline
 10
271.230541469914
 20
699.8288932575436
 30
0.0
 11
-1.0
 21
0.0
 31
0.0
  0
XLINE
  5
27FB
330
1F
100
AcDbEntity
  8
KOUTIKUSEN
100
AcDbXline
 10
271.230541469914
 20
749.8288932575436
 30
0.0
 11
-1.0
 21
0.0
 31
0.0
  0
XLINE
  5
27FC
330
1F
100
AcDbEntity
  8
KOUTIKUSEN
100
AcDbXline
 10
271.230541469914
 20
656.0788932575436
 30
0.0
 11
0.0
 21
-1.0
 31
0.0
  0
LINE
  5
28A2
330
1F
100
AcDbEntity
  8
01実線
100
AcDbLine
 10
1570.616013937643
 20
1435.592200772546
 30
0.0
 11
1570.616013937643
 21
935.5922007725464
 31
0.0
  0
LINE
  5
28A3
330
1F
100
AcDbEntity
  8
01実線
100
AcDbLine
 10
1610.616013937644
 20
1435.592200772546
 30
0.0
 11
1610.616013937644
 21
935.5922007725464
 31
0.0
  0
LINE
  5
28A4
330
1F
100
AcDbEntity
  8
01実線
100
AcDbLine
 10
1810.616013937643
 20
1435.592200772546
 30
0.0
 11
1810.616013937643
 21
935.5922007725464
 31
0.0
  0
LINE
  5
28A5
330
1F
100
AcDbEntity
  8
01実線
100
AcDbLine
 10
1850.616013937644
 20
1435.592200772546
 30
0.0
 11
1850.616013937644
 21
935.5922007725464
 31
0.0
  0
LINE
  5
28A6
330
1F
100
AcDbEntity
  8
01実線
100
AcDbLine
 10
1570.616013937643
 20
1410.592200772546
 30
0.0
 11
2050.616013937644
 21
1410.592200772546
 31
0.0
  0
LINE
  5
28A7
330
1F
100
AcDbEntity
  8
部品表横線
100
AcDbLine
 10
1570.616013937643
 20
1385.592200772546
 30
0.0
 11
2050.616013937644
 21
1385.592200772546
 31
0.0
  0
LINE
  5
28A8
330
1F
100
AcDbEntity
  8
部品表横線
100
AcDbLine
 10
1570.616013937643
 20
1360.592200772546
 30
0.0
 11
2050.616013937644
 21
1360.592200772546
 31
0.0
  0
LINE
  5
28A9
330
1F
100
AcDbEntity
  8
部品表横線
100
AcDbLine
 10
1570.616013937643
 20
1335.592200772546
 30
0.0
 11
2050.616013937644
 21
1335.592200772546
 31
0.0
  0
LINE
  5
28AA
330
1F
100
AcDbEntity
  8
部品表横線
100
AcDbLine
 10
1570.616013937643
 20
1310.592200772546
 30
0.0
 11
2050.616013937644
 21
1310.592200772546
 31
0.0
  0
LINE
  5
28AB
330
1F
100
AcDbEntity
  8
部品表横線
100
AcDbLine
 10
1570.616013937643
 20
1285.592200772546
 30
0.0
 11
2050.616013937644
 21
1285.592200772546
 31
0.0
  0
LINE
  5
28AC
330
1F
100
AcDbEntity
  8
部品表横線
100
AcDbLine
 10
1570.616013937643
 20
1260.592200772546
 30
0.0
 11
2050.616013937644
 21
1260.592200772546
 31
0.0
  0
LINE
  5
28AD
330
1F
100
AcDbEntity
  8
部品表横線
100
AcDbLine
 10
1570.616013937643
 20
1235.592200772546
 30
0.0
 11
2050.616013937644
 21
1235.592200772546
 31
0.0
  0
LINE
  5
28AE
330
1F
100
AcDbEntity
  8
部品表横線
100
AcDbLine
 10
1570.616013937643
 20
1210.592200772546
 30
0.0
 11
2050.616013937644
 21
1210.592200772546
 31
0.0
  0
LINE
  5
28AF
330
1F
100
AcDbEntity
  8
部品表横線
100
AcDbLine
 10
1570.616013937643
 20
1185.592200772546
 30
0.0
 11
2050.616013937644
 21
1185.592200772546
 31
0.0
  0
LINE
  5
28B0
330
1F
100
AcDbEntity
  8
部品表横線
100
AcDbLine
 10
1570.616013937643
 20
1160.592200772546
 30
0.0
 11
2050.616013937644
 21
1160.592200772546
 31
0.0
  0
LINE
  5
28B1
330
1F
100
AcDbEntity
  8
部品表横線
100
AcDbLine
 10
1570.616013937643
 20
1135.592200772546
 30
0.0
 11
2050.616013937644
 21
1135.592200772546
 31
0.0
  0
LINE
  5
28B2
330
1F
100
AcDbEntity
  8
部品表横線
100
AcDbLine
 10
1570.616013937643
 20
1110.592200772546
 30
0.0
 11
2050.616013937644
 21
1110.592200772546
 31
0.0
  0
LINE
  5
28B3
330
1F
100
AcDbEntity
  8
部品表横線
100
AcDbLine
 10
1570.616013937643
 20
1085.592200772546
 30
0.0
 11
2050.616013937644
 21
1085.592200772546
 31
0.0
  0
LINE
  5
28B4
330
1F
100
AcDbEntity
  8
部品表横線
100
AcDbLine
 10
1570.616013937643
 20
1060.592200772546
 30
0.0
 11
2050.616013937644
 21
1060.592200772546
 31
0.0
  0
LINE
  5
28B5
330
1F
100
AcDbEntity
  8
部品表横線
100
AcDbLine
 10
1570.616013937643
 20
1035.592200772546
 30
0.0
 11
2050.616013937644
 21
1035.592200772546
 31
0.0
  0
LINE
  5
28B6
330
1F
100
AcDbEntity
  8
部品表横線
100
AcDbLine
 10
1570.616013937643
 20
1010.592200772546
 30
0.0
 11
2050.616013937644
 21
1010.592200772546
 31
0.0
  0
LINE
  5
28B7
330
1F
100
AcDbEntity
  8
部品表横線
100
AcDbLine
 10
1570.616013937643
 20
985.5922007725462
 30
0.0
 11
2050.616013937644
 21
985.5922007725462
 31
0.0
  0
LINE
  5
28B8
330
1F
100
AcDbEntity
  8
部品表横線
100
AcDbLine
 10
1570.616013937643
 20
960.5922007725462
 30
0.0
 11
2050.616013937644
 21
960.5922007725462
 31
0.0
  0
TEXT
  5
28C1
330
1F
100
AcDbEntity
  8
文字
100
AcDbText
 10
1578.065557782016
 20
1415.293743396223
 30
0.0
 40
15.0
  1
No
100
AcDbText
  0
TEXT
  5
28C2
330
1F
100
AcDbEntity
  8
文字
100
AcDbText
 10
1624.580911112182
 20
1415.450258917585
 30
0.0
 40
15.0
  1
品　名
100
AcDbText
  0
TEXT
  5
28C3
330
1F
100
AcDbEntity
  8
文字
100
AcDbText
 10
1823.70030269695
 20
1415.454346946785
 30
0.0
 40
15.0
  1
数
100
AcDbText
  0
TEXT
  5
28C4
330
1F
100
AcDbEntity
  8
文字
100
AcDbText
 10
1864.936198478868
 20
1415.70629514572
 30
0.0
 40
15.0
  1
材質又は定格
100
AcDbText
  0
TEXT
  5
28C5
330
1F
100
AcDbEntity
  8
文字
100
AcDbText
 10
1588.418591449048
 20
1390.467143642113
 30
0.0
 40
15.0
  1
1
100
AcDbText
  0
TEXT
  5
28C6
330
1F
100
AcDbEntity
  8
文字
100
AcDbText
 10
1584.754033790163
 20
1365.990405424513
 30
0.0
 40
15.0
  1
2
100
AcDbText
  0
TEXT
  5
28C7
330
1F
100
AcDbEntity
  8
文字
100
AcDbText
 10
1585.801012151077
 20
1340.990405424513
 30
0.0
 40
15.0
  1
3
100
AcDbText
  0
TEXT
  5
28C8
330
1F
100
AcDbEntity
  8
文字
100
AcDbText
 10
1585.277508148874
 20
1315.990405424513
 30
0.0
 40
15.0
  1
4
100
AcDbText
  0
TEXT
  5
28C9
330
1F
100
AcDbEntity
  8
文字
100
AcDbText
 10
1586.32454579676
 20
1290.467143642113
 30
0.0
 40
15.0
  1
5
100
AcDbText
  0
TEXT
  5
28CA
330
1F
100
AcDbEntity
  8
文字
100
AcDbText
 10
1586.324545796764
 20
1265.990425047325
 30
0.0
 40
15.0
  1
6
100
AcDbText
  0
TEXT
  5
28CB
330
1F
100
AcDbEntity
  8
文字
100
AcDbText
 10
1586.32454579676
 20
1240.99042504732
 30
0.0
 40
15.0
  1
7
100
AcDbText
  0
TEXT
  5
28CC
330
1F
100
AcDbEntity
  8
文字
100
AcDbText
 10
1586.324545796764
 20
1215.467124019305
 30
0.0
 40
15.0
  1
8
100
AcDbText
  0
TEXT
  5
28CD
330
1F
100
AcDbEntity
  8
文字
100
AcDbText
 10
1586.324545796764
 20
1190.99042504732
 30
0.0
 40
15.0
  1
9
100
AcDbText
  0
TEXT
  5
28CE
330
1F
100
AcDbEntity
  8
文字
100
AcDbText
 10
1581.089446487794
 20
1165.990405424513
 30
0.0
 40
15.0
  1
10
100
AcDbText
  0
TEXT
  5
28CF
330
1F
100
AcDbEntity
  8
文字
100
AcDbText
 10
1583.707025785765
 20
1140.990425047321
 30
0.0
 40
15.0
  1
11
100
AcDbText
  0
TEXT
  5
28D0
330
1F
100
AcDbEntity
  8
文字
100
AcDbText
 10
1581.089446487794
 20
1115.99042504732
 30
0.0
 40
15.0
  1
12
100
AcDbText
  0
TEXT
  5
28D1
330
1F
100
AcDbEntity
  8
文字
100
AcDbText
 10
1580.565942485595
 20
1090.990425047321
 30
0.0
 40
15.0
  1
13
100
AcDbText
  0
TEXT
  5
28D2
330
1F
100
AcDbEntity
  8
文字
100
AcDbText
 10
1581.612980133481
 20
1065.99042504732
 30
0.0
 40
15.0
  1
14
100
AcDbText
  0
TEXT
  5
28D3
330
1F
100
AcDbEntity
  8
文字
100
AcDbText
 10
1581.089446487794
 20
1040.990425047325
 30
0.0
 40
15.0
  1
15
100
AcDbText
  0
TEXT
  5
28D4
330
1F
100
AcDbEntity
  8
文字
100
AcDbText
 10
1581.612950489993
 20
1016.513706452528
 30
0.0
 40
15.0
  1
16
100
AcDbText
  0
TEXT
  5
28D5
330
1F
100
AcDbEntity
  8
文字
100
AcDbText
 10
1581.612980133481
 20
991.5137064525287
 30
0.0
 40
15.0
  1
17
100
AcDbText
  0
TEXT
  5
28D6
330
1F
100
AcDbEntity
  8
文字
100
AcDbText
 10
1581.612980133481
 20
966.5137064525287
 30
0.0
 40
15.0
  1
18
100
AcDbText
  0
TEXT
  5
28DF
330
1F
100
AcDbEntity
  8
文字
100
AcDbText
 10
1624.366013937643
 20
1340.592200772546
 30
0.0
 40
15.0
  1
中　箱
100
AcDbText
  0
TEXT
  5
28E0
330
1F
100
AcDbEntity
  8
文字
100
AcDbText
 10
1624.366013937643
 20
1315.592200772546
 30
0.0
 40
15.0
  1
裏　板
100
AcDbText
  0
TEXT
  5
28E1
330
1F
100
AcDbEntity
  8
文字
100
AcDbText
 10
1828.741554461354
 20
1165.592200772546
 30
0.0
 40
15.0
  1
1
100
AcDbText
  0
TEXT
  5
28E2
330
1F
100
AcDbEntity
  8
文字
100
AcDbText
 10
1828.741554461354
 20
1240.592200772546
 30
0.0
 40
15.0
  1
1
100
AcDbText
  0
TEXT
  5
28E3
330
1F
100
AcDbEntity
  8
文字
100
AcDbText
 10
1828.741554461354
 20
1215.592200772546
 30
0.0
 40
15.0
  1
1
100
AcDbText
  0
TEXT
  5
28E4
330
1F
100
AcDbEntity
  8
文字
100
AcDbText
 10
1828.741554461354
 20
1140.592200772546
 30
0.0
 40
15.0
  1
1
100
AcDbText
  0
TEXT
  5
28E5
330
1F
100
AcDbEntity
  8
文字
100
AcDbText
 10
1828.741554461354
 20
1065.592200772546
 30
0.0
 40
15.0
  1
1
100
AcDbText
  0
TEXT
  5
28E6
330
1F
100
AcDbEntity
  8
文字
100
AcDbText
 10
1828.741554461354
 20
1040.592200772546
 30
0.0
 40
15.0
  1
1
100
AcDbText
  0
TEXT
  5
28E8
330
1F
100
AcDbEntity
  8
文字
100
AcDbText
 10
1828.741554461354
 20
1340.592200772546
 30
0.0
 40
15.0
  1
1
100
AcDbText
  0
TEXT
  5
28E9
330
1F
100
AcDbEntity
  8
文字
100
AcDbText
 10
1828.171582254441
 20
990.5922007725463
 30
0.0
 40
15.0
  1
1
100
AcDbText
  0
TEXT
  5
28EC
330
1F
100
AcDbEntity
  8
文字
100
AcDbText
 10
1624.366013937643
 20
1040.592200772546
 30
0.0
 40
15.0
  1
プラグ付電源コード
100
AcDbText
  0
TEXT
  5
28ED
330
1F
100
AcDbEntity
  8
文字
100
AcDbText
 10
1623.413083009752
 20
1090.909707211967
 30
0.0
 40
15.0
  1
温度センサー
100
AcDbText
  0
TEXT
  5
28EE
330
1F
100
AcDbEntity
  8
文字
100
AcDbText
 10
1624.366013937643
 20
1015.592200772546
 30
0.0
 40
15.0
  1
ゴム足
100
AcDbText
  0
TEXT
  5
28F0
330
1F
100
AcDbEntity
  8
文字
100
AcDbText
 10
1624.366013937643
 20
1265.592200772546
 30
0.0
 40
15.0
  1
スライドレール
100
AcDbText
  0
TEXT
  5
28F1
330
1F
100
AcDbEntity
  8
文字
100
AcDbText
 10
1828.277810889865
 20
1390.714812363411
 30
0.0
 40
15.0
  1
1
100
AcDbText
  0
MTEXT
  5
28F4
330
1F
100
AcDbEntity
  8
文字
100
AcDbMText
 10
1624.366013937643
 20
1254.749391608802
 30
0.0
 40
15.0
 41
186.25
 71
     1
 72
     5
  1
引き手
1001
ACAD
1000
MTEXTBEGIN
1070
    73
1070
     1
1070
    44
1040
1.0
1070
    74
1070
     0
1000
MTEXTEND
  0
MTEXT
  5
28F5
330
1F
100
AcDbEntity
  8
文字
100
AcDbMText
 10
1624.366013937643
 20
1305.592200772546
 30
0.0
 40
15.0
 41
186.25
 71
     1
 72
     5
  1

1001
ACAD
1000
MTEXTBEGIN
1070
    73
1070
     1
1070
    44
1040
1.0
1070
    74
1070
     0
1000
MTEXTEND
  0
LINE
  5
28F6
330
1F
100
AcDbEntity
  8
01実線
100
AcDbLine
 10
1570.616013937643
 20
1435.592200772546
 30
0.0
 11
1570.616013937643
 21
1185.592200772546
 31
0.0
  0
TEXT
  5
28F8
330
1F
100
AcDbEntity
  8
文字
100
AcDbText
 10
1625.327608083487
 20
1391.13733690181
 30
0.0
 40
15.0
  1
本体前枠
100
AcDbText
  0
TEXT
  5
28F9
330
1F
100
AcDbEntity
  8
文字
100
AcDbText
 10
1625.961359605806
 20
1365.503851294647
 30
0.0
 40
15.0
  1
本　体
100
AcDbText
  0
TEXT
  5
28FA
330
1F
100
AcDbEntity
  8
文字
100
AcDbText
 10
1624.61374114502
 20
1290.53785606857
 30
0.0
 40
15.0
  1
引き出し
100
AcDbText
  0
TEXT
  5
28FB
330
1F
100
AcDbEntity
  8
文字
100
AcDbText
 10
1828.277810889865
 20
1365.714812363411
 30
0.0
 40
15.0
  1
1
100
AcDbText
  0
TEXT
  5
28FC
330
1F
100
AcDbEntity
  8
文字
100
AcDbText
 10
1863.541023432964
 20
1390.816337857699
 30
0.0
 40
15.0
  1
ステンレス
100
AcDbText
  0
TEXT
  5
28FD
330
1F
100
AcDbEntity
  8
文字
100
AcDbText
 10
1863.541023432964
 20
1365.816337857699
 30
0.0
 40
15.0
  1
ステンレス
100
AcDbText
  0
TEXT
  5
28FE
330
1F
100
AcDbEntity
  8
文字
100
AcDbText
 10
1863.541023432964
 20
1340.816337857699
 30
0.0
 40
15.0
  1
ステンレス
100
AcDbText
  0
TEXT
  5
28FF
330
1F
100
AcDbEntity
  8
文字
100
AcDbText
 10
1863.541023432964
 20
1290.816337857699
 30
0.0
 40
15.0
  1
ステンレス
100
AcDbText
  0
TEXT
  5
2900
330
1F
100
AcDbEntity
  8
文字
100
AcDbText
 10
1863.541023432964
 20
1240.816337857699
 30
0.0
 40
15.0
  1
ステンレス、ABS
100
AcDbText
  0
TEXT
  5
2901
330
1F
100
AcDbEntity
  8
文字
100
AcDbText
 10
1624.366013937643
 20
1165.592200772546
 30
0.0
 40
15.0
  1
電源ランプ
100
AcDbText
  0
TEXT
  5
2902
330
1F
100
AcDbEntity
  8
文字
100
AcDbText
 10
1624.366013937643
 20
1215.592200772546
 30
0.0
 40
15.0
  1
加温表示灯
100
AcDbText
  0
TEXT
  5
2903
330
1F
100
AcDbEntity
  8
文字
100
AcDbText
 10
1624.366013937643
 20
1190.592200772546
 30
0.0
 40
15.0
  1
温度調節器
100
AcDbText
  0
TEXT
  5
2904
330
1F
100
AcDbEntity
  8
文字
100
AcDbText
 10
1828.741554461354
 20
1190.592200772546
 30
0.0
 40
15.0
  1
1
100
AcDbText
  0
TEXT
  5
2905
330
1F
100
AcDbEntity
  8
文字
100
AcDbText
 10
1863.541023432964
 20
1315.816337857699
 30
0.0
 40
15.0
  1
ステンレス
100
AcDbText
  0
TEXT
  5
2906
330
1F
100
AcDbEntity
  8
文字
100
AcDbText
 10
1864.366013937644
 20
1215.592200772546
 30
0.0
 40
15.0
  1
ネオンランプ
100
AcDbText
  0
TEXT
  5
2907
330
1F
100
AcDbEntity
  8
文字
100
AcDbText
 10
1864.366013937644
 20
1190.592200772546
 30
0.0
 40
15.0
  1
可変サーモスタット
100
AcDbText
  0
TEXT
  5
290A
330
1F
100
AcDbEntity
  8
文字
100
AcDbText
 10
1624.366013937643
 20
1140.592200772546
 30
0.0
 40
15.0
  1
電源スイッチ
100
AcDbText
  0
TEXT
  5
290B
330
1F
100
AcDbEntity
  8
文字
100
AcDbText
 10
1624.366013937643
 20
1115.592200772546
 30
0.0
 40
15.0
  1
ヒータ
100
AcDbText
  0
TEXT
  5
290C
330
1F
100
AcDbEntity
  8
文字
100
AcDbText
 10
1828.741554461354
 20
1115.592200772546
 30
0.0
 40
15.0
  1
1
100
AcDbText
  0
TEXT
  5
290D
330
1F
100
AcDbEntity
  8
文字
100
AcDbText
 10
1864.366013937644
 20
1115.592200772546
 30
0.0
 40
15.0
  1
205Ｗ　シーズヒータ
100
AcDbText
  0
TEXT
  5
290F
330
1F
100
AcDbEntity
  8
文字
100
AcDbText
 10
1828.741554461354
 20
1090.592200772546
 30
0.0
 40
15.0
  1
1
100
AcDbText
  0
TEXT
  5
2910
330
1F
100
AcDbEntity
  8
文字
100
AcDbText
 10
1623.095443019605
 20
1065.592200772546
 30
0.0
 40
15.0
  1
温度過昇防止器
100
AcDbText
  0
TEXT
  5
2911
330
1F
100
AcDbEntity
  8
文字
100
AcDbText
 10
1863.541023432964
 20
1065.816337857699
 30
0.0
 40
15.0
  1
８０℃　リセット付き
100
AcDbText
  0
TEXT
  5
2912
330
1F
100
AcDbEntity
  8
文字
100
AcDbText
 10
1624.366013937643
 20
990.5922007725463
 30
0.0
 40
15.0
  1
フランジ
100
AcDbText
  0
TEXT
  5
2913
330
1F
100
AcDbEntity
  8
文字
100
AcDbText
 10
1864.366013937644
 20
1140.592200772546
 30
0.0
 40
15.0
  1
15A-125V
100
AcDbText
  0
TEXT
  5
2917
330
1F
100
AcDbEntity
  8
文字
100
AcDbText
 10
1624.366013937643
 20
965.5922007725463
 30
0.0
 40
15.0
  1
穴開きホテルパン
100
AcDbText
  0
TEXT
  5
292D
330
1F
100
AcDbEntity
  8
文字
100
AcDbText
 10
1864.366013937644
 20
1015.592200772546
 30
0.0
 40
15.0
  1
合成ゴム
100
AcDbText
  0
TEXT
  5
292F
330
1F
100
AcDbEntity
  8
文字
100
AcDbText
 10
1821.068999891835
 20
1265.592200772546
 30
0.0
 40
15.0
  1
1組
100
AcDbText
  0
TEXT
  5
2930
330
1F
100
AcDbEntity
  8
文字
100
AcDbText
 10
1828.277810889865
 20
1315.714812363411
 30
0.0
 40
15.0
  1
1
100
AcDbText
  0
TEXT
  5
2931
330
1F
100
AcDbEntity
  8
文字
100
AcDbText
 10
1828.277810889865
 20
1290.714812363411
 30
0.0
 40
15.0
  1
1
100
AcDbText
  0
TEXT
  5
2933
330
1F
100
AcDbEntity
  8
文字
100
AcDbText
 10
1863.541023432964
 20
965.8163378576997
 30
0.0
 40
15.0
  1
1/1 深さ 100mm
100
AcDbText
  0
LINE
  5
2961
330
1F
100
AcDbEntity
  8
部品表横線
100
AcDbLine
 10
959.6308310119734
 20
1385.493730345648
 30
0.0
 11
1478.956630260904
 21
1385.493730345648
 31
0.0
  0
LINE
  5
2962
330
1F
100
AcDbEntity
  8
部品表横線
100
AcDbLine
 10
959.6308310119734
 20
1360.493730345648
 30
0.0
 11
1478.956630260904
 21
1360.493730345648
 31
0.0
  0
LINE
  5
2963
330
1F
100
AcDbEntity
  8
部品表横線
100
AcDbLine
 10
959.6308310119734
 20
1335.493730345648
 30
0.0
 11
1478.956630260904
 21
1335.493730345648
 31
0.0
  0
LINE
  5
2964
330
1F
100
AcDbEntity
  8
部品表横線
100
AcDbLine
 10
959.6308310119734
 20
1310.493730345648
 30
0.0
 11
1478.956630260904
 21
1310.493730345648
 31
0.0
  0
LINE
  5
2965
330
1F
100
AcDbEntity
  8
部品表横線
100
AcDbLine
 10
959.6308310119734
 20
1285.493730345648
 30
0.0
 11
1478.956630260904
 21
1285.493730345648
 31
0.0
  0
LINE
  5
2966
330
1F
100
AcDbEntity
  8
部品表横線
100
AcDbLine
 10
959.6308310119734
 20
1260.493730345648
 30
0.0
 11
1478.956630260904
 21
1260.493730345648
 31
0.0
  0
LINE
  5
2967
330
1F
100
AcDbEntity
  8
部品表横線
100
AcDbLine
 10
959.6308310119734
 20
1235.493730345648
 30
0.0
 11
1478.956630260904
 21
1235.493730345648
 31
0.0
  0
LINE
  5
2968
330
1F
100
AcDbEntity
  8
部品表横線
100
AcDbLine
 10
959.6308310119734
 20
1210.493730345648
 30
0.0
 11
1478.956630260904
 21
1210.493730345648
 31
0.0
  0
LINE
  5
296A
330
1F
100
AcDbEntity
  8
部品表横線
100
AcDbLine
 10
959.6308310119734
 20
1385.493730345648
 30
0.0
 11
959.6308310119733
 21
1185.493730345648
 31
0.0
  0
LINE
  5
296B
330
1F
100
AcDbEntity
  8
部品表横線
100
AcDbLine
 10
1094.630831011973
 20
1385.493730345648
 30
0.0
 11
1094.630831011973
 21
1185.493730345648
 31
0.0
  0
TEXT
  5
296C
330
1F
100
AcDbEntity
  8
文字
100
AcDbText
 10
971.3537228242289
 20
1365.361254184004
 30
0.0
 40
15.0
  1
電　　源
100
AcDbText
  0
TEXT
  5
296D
330
1F
100
AcDbEntity
  8
文字
100
AcDbText
 10
971.3537228242289
 20
1340.361254184004
 30
0.0
 40
15.0
  1
消費電力
100
AcDbText
  0
TEXT
  5
296E
330
1F
100
AcDbEntity
  8
文字
100
AcDbText
 10
971.3537228242289
 20
1315.361254184004
 30
0.0
 40
15.0
  1
発熱体
100
AcDbText
  0
TEXT
  5
296F
330
1F
100
AcDbEntity
  8
文字
100
AcDbText
 10
971.3537228242289
 20
1215.361254184004
 30
0.0
 40
15.0
  1
外形寸法
100
AcDbText
  0
TEXT
  5
2970
330
1F
100
AcDbEntity
  8
文字
100
AcDbText
 10
970.8781148269798
 20
1265.063556763419
 30
0.0
 40
15.0
  1
温度過昇防止
100
AcDbText
  0
TEXT
  5
2972
330
1F
100
AcDbEntity
  8
文字
100
AcDbText
 10
971.3537228242289
 20
1190.361254184004
 30
0.0
 40
15.0
  1
質　　量
100
AcDbText
  0
TEXT
  5
2973
330
1F
100
AcDbEntity
  8
文字
100
AcDbText
 10
1099.218752967743
 20
1365.493730345648
 30
0.0
 40
15.0
  1
単相100V 50/60Hz
100
AcDbText
  0
TEXT
  5
2974
330
1F
100
AcDbEntity
  8
文字
100
AcDbText
 10
1099.218752967743
 20
1315.493730345648
 30
0.0
 40
15.0
  1
シーズヒータ
100
AcDbText
  0
LINE
  5
2975
330
1F
100
AcDbEntity
  8
部品表横線
100
AcDbLine
 10
1478.956630260904
 20
1385.493730345648
 30
0.0
 11
1478.956630260904
 21
1185.493730345648
 31
0.0
  0
TEXT
  5
2976
330
1F
100
AcDbEntity
  8
文字
100
AcDbText
 10
1099.487322922509
 20
1340.63638942866
 30
0.0
 40
15.0
  1
205W
100
AcDbText
  0
TEXT
  5
2977
330
1F
100
AcDbEntity
  8
文字
100
AcDbText
 10
1099.984006033262
 20
1266.035258701939
 30
0.0
 40
15.0
  1
80℃ リセットスイッチ付きサーモスタット
100
AcDbText
  0
TEXT
  5
297C
330
1F
100
AcDbEntity
  8
文字
100
AcDbText
 10
1104.978905729185
 20
1190.463871882283
 30
0.0
 40
15.0
  1
18 kg
100
AcDbText
  0
TEXT
  5
297F
330
1F
100
AcDbEntity
  8
文字
100
AcDbText
 10
1099.334957632183
 20
1216.457304698004
 30
0.0
 40
15.0
  1
500W×590D×254H
100
AcDbText
  0
XLINE
  5
2980
330
1F
100
AcDbEntity
  8
KOUTIKUSEN
100
AcDbXline
 10
2218.546601832446
 20
3168.820647233851
 30
0.0
 11
1.0
 21
0.0
 31
0.0
  0
XLINE
  5
2981
330
1F
100
AcDbEntity
  8
KOUTIKUSEN
100
AcDbXline
 10
2698.546601832447
 20
3143.820647233851
 30
0.0
 11
0.0
 21
1.0
 31
0.0
  0
TEXT
  5
2982
330
1F
100
AcDbEntity
  8
文字
100
AcDbText
 10
1100.791489393229
 20
1290.76096978087
 30
0.0
 40
15.0
  1
30～80℃　可変サーモスタット
100
AcDbText
  0
TEXT
  5
2983
330
1F
100
AcDbEntity
  8
文字
100
AcDbText
 10
970.4854405535986
 20
1290.914585368681
 30
0.0
 40
15.0
  1
温度調節
100
AcDbText
  0
TEXT
  5
2984
330
1F
100
AcDbEntity
  8
文字
100
AcDbText
 10
1107.555840507293
 20
1240.717867430801
 30
0.0
 40
15.0
  1
移動距離420mm
100
AcDbText
  0
TEXT
  5
2985
330
1F
100
AcDbEntity
  8
文字
100
AcDbText
 10
1864.366013937643
 20
1165.592200772546
 30
0.0
 40
15.0
  1
ネオンランプ
100
AcDbText
  0
TEXT
  5
2986
330
1F
100
AcDbEntity
  8
文字
100
AcDbText
 10
1824.893832055943
 20
1015.592200772546
 30
0.0
 40
15.0
  1
4
100
AcDbText
  0
TEXT
  5
2987
330
1F
100
AcDbEntity
  8
文字
100
AcDbText
 10
1828.171582254441
 20
965.5922007725463
 30
0.0
 40
15.0
  1
1
100
AcDbText
  0
TEXT
  5
2988
330
1F
100
AcDbEntity
  8
文字
100
AcDbText
 10
1863.541023432964
 20
990.8163378576997
 30
0.0
 40
15.0
  1
ステンレス
100
AcDbText
  0
LINE
  5
2989
330
1F
100
AcDbEntity
  8
部品表横線
100
AcDbLine
 10
959.6308310119734
 20
1185.493730345648
 30
0.0
 11
1478.956630260904
 21
1185.493730345648
 31
0.0
  0
TEXT
  5
298A
330
1F
100
AcDbEntity
  8
文字
100
AcDbText
 10
967.8030855896182
 20
1240.493730345648
 30
0.0
 40
15.0
  1
スライドレール
100
AcDbText
  0
TEXT
  5
298C
330
1F
100
AcDbEntity
  8
文字
100
AcDbText
 10
1556.63111344512
 20
106.8464270103395
 30
0.0
 40
20.0
  1
ドロワーウォーマー
100
AcDbText
  0
TEXT
  5
298D
330
1F
100
AcDbEntity
  8
文字
100
AcDbText
 10
1258.295017453781
 20
121.04026537429
 30
0.0
 40
20.0
  1
G.Y
100
AcDbText
  0
TEXT
  5
298E
330
1F
100
AcDbEntity
  8
文字
100
AcDbText
 10
1590.193923030834
 20
147.3488813935212
 30
0.0
 40
15.0
  1
5
100
AcDbText
  0
TEXT
  5
298F
330
1F
100
AcDbEntity
  8
文字
100
AcDbText
 10
1563.157216657135
 20
163.7470100746086
 30
0.0
 40
15.0
  1
1
100
AcDbText
  0
TEXT
  5
2990
330
1F
100
AcDbEntity
  8
文字
100
AcDbText
 10
1886.665415793384
 20
109.1231823261435
 30
0.0
 40
15.0
  1
NDW-205
100
AcDbText
  0
TEXT
  5
2991
330
1F
100
AcDbEntity
  8
文字
100
AcDbText
 10
1853.10260620767
 20
60.09078465226656
 30
0.0
 40
15.0
  1
NDW-205-A01
100
AcDbText
  0
TEXT
  5
2992
330
1F
100
AcDbEntity
  8
文字
100
AcDbText
 10
1255.498120699348
 20
82.81510327736762
 30
0.0
 40
10.00049999999999
  1
22.7.21
100
AcDbText
  0
TEXT
  5
2993
330
1F
100
AcDbEntity
  8
文字
100
AcDbText
 10
1310.503826972388
 20
167.6807355461678
 30
0.0
 40
12.500625
  1
22
100
AcDbText
  0
TEXT
  5
2994
330
1F
100
AcDbEntity
  8
文字
100
AcDbText
 10
1379.494049372604
 20
166.7122998867115
 30
0.0
 40
12.500625
  1
7
100
AcDbText
  0
TEXT
  5
2995
330
1F
100
AcDbEntity
  8
文字
100
AcDbText
 10
1453.145771756044
 20
166.6757603156345
 30
0.0
 40
12.500625
  1
21
100
AcDbText
  0
XLINE
  5
299A
330
1F
100
AcDbEntity
  8
KOUTIKUSEN
100
AcDbXline
 10
931.2305414699139
 20
569.8288932575436
 30
0.0
 11
0.0
 21
-1.0
 31
0.0
  0
XLINE
  5
299B
330
1F
100
AcDbEntity
  8
KOUTIKUSEN
100
AcDbXline
 10
1031.230541469914
 20
546.7288932575436
 30
0.0
 11
0.0
 21
-1.0
 31
0.0
  0
TEXT
  5
299D
330
1F
100
AcDbEntity
  8
文字
100
AcDbText
 10
490.0498113784688
 20
708.1050829562228
 30
0.0
 40
15.0
  1
1
100
AcDbText
  0
TEXT
  5
299E
330
1F
100
AcDbEntity
  8
文字
100
AcDbText
 10
1220.424283468257
 20
658.7930767589099
 30
0.0
 40
15.0
  1
2
100
AcDbText
  0
TEXT
  5
299F
330
1F
100
AcDbEntity
  8
文字
100
AcDbText
 10
1380.473338554809
 20
657.6823730974483
 30
0.0
 40
15.0
  1
3
100
AcDbText
  0
TEXT
  5
29A0
330
1F
100
AcDbEntity
  8
文字
100
AcDbText
 10
1754.994965800397
 20
582.6102442622883
 30
0.0
 40
15.0
  1
4
100
AcDbText
  0
TEXT
  5
29A1
330
1F
100
AcDbEntity
  8
文字
100
AcDbText
 10
976.547553019723
 20
361.1207367965906
 30
0.0
 40
15.0
  1
5
100
AcDbText
  0
TEXT
  5
29A2
330
1F
100
AcDbEntity
  8
文字
100
AcDbText
 10
1755.229458758007
 20
496.5899356300505
 30
0.0
 40
15.0
  1
6
100
AcDbText
  0
TEXT
  5
29A3
330
1F
100
AcDbEntity
  8
文字
100
AcDbText
 10
415.7363250060316
 20
705.8074361955768
 30
0.0
 40
15.0
  1
7
100
AcDbText
  0
TEXT
  5
29A5
330
1F
100
AcDbEntity
  8
文字
100
AcDbText
 10
651.9265618957597
 20
706.9925980722837
 30
0.0
 40
15.0
  1
9
100
AcDbText
  0
TEXT
  5
29A6
330
1F
100
AcDbEntity
  8
文字
100
AcDbText
 10
669.6076706272888
 20
162.8001873270899
 30
0.0
 40
15.0
  1
10
100
AcDbText
  0
TEXT
  5
29A7
330
1F
100
AcDbEntity
  8
文字
100
AcDbText
 10
857.4889609727069
 20
163.5252889756666
 30
0.0
 40
15.0
  1
11
100
AcDbText
  0
TEXT
  5
29A8
330
1F
100
AcDbEntity
  8
文字
100
AcDbText
 10
359.0334894839413
 20
161.712154469849
 30
0.0
 40
15.0
  1
12
100
AcDbText
  0
TEXT
  5
29A9
330
1F
100
AcDbEntity
  8
文字
100
AcDbText
 10
856.4304020083545
 20
937.0344442444602
 30
0.0
 40
15.0
  1
13
100
AcDbText
  0
TEXT
  5
29AA
330
1F
100
AcDbEntity
  8
文字
100
AcDbText
 10
856.039213722186
 20
1020.694132129223
 30
0.0
 40
15.0
  1
14
100
AcDbText
  0
TEXT
  5
29AB
330
1F
100
AcDbEntity
  8
文字
100
AcDbText
 10
1749.939042029691
 20
355.0509373943805
 30
0.0
 40
15.0
  1
15
100
AcDbText
  0
TEXT
  5
29AC
330
1F
100
AcDbEntity
  8
文字
100
AcDbText
 10
211.7314077176115
 20
197.777178485081
 30
0.0
 40
15.0
  1
16
100
AcDbText
  0
TEXT
  5
29AD
330
1F
100
AcDbEntity
  8
文字
100
AcDbText
 10
855.4589280367371
 20
843.9192724377859
 30
0.0
 40
15.0
  1
17
100
AcDbText
  0
TEXT
  5
29AE
330
1F
100
AcDbEntity
  8
文字
100
AcDbText
 10
1544.240469974427
 20
657.2689694977434
 30
0.0
 40
15.0
  1
18
100
AcDbText
  0
CIRCLE
  5
29B2
330
1F
100
AcDbEntity
  8
文字
100
AcDbCircle
 10
1553.874498682027
 20
664.5996530826869
 30
0.0
 40
15.0
  0
CIRCLE
  5
29B3
330
1F
100
AcDbEntity
  8
文字
100
AcDbCircle
 10
492.7767335114349
 20
714.8288932575436
 30
0.0
 40
15.0
  0
CIRCLE
  5
29B4
330
1F
100
AcDbEntity
  8
文字
100
AcDbCircle
 10
1225.157022284791
 20
666.0904751807414
 30
0.0
 40
15.0
  0
CIRCLE
  5
29B5
330
1F
100
AcDbEntity
  8
文字
100
AcDbCircle
 10
1385.050401225699
 20
665.05953280559
 30
0.0
 40
15.0
  0
CIRCLE
  5
29B6
330
1F
100
AcDbEntity
  8
文字
100
AcDbCircle
 10
1760.172505159842
 20
590.8284629116788
 30
0.0
 40
15.0
  0
XLINE
  5
29B7
330
1F
100
AcDbEntity
  8
KOUTIKUSEN
100
AcDbXline
 10
1760.172505159842
 20
590.8284629116788
 30
0.0
 11
0.0
 21
-1.0
 31
0.0
  0
CIRCLE
  5
29B8
330
1F
100
AcDbEntity
  8
文字
100
AcDbCircle
 10
980.7076359253214
 20
368.7764437387304
 30
0.0
 40
15.0
  0
XLINE
  5
29B9
330
1F
100
AcDbEntity
  8
KOUTIKUSEN
100
AcDbXline
 10
981.2305414699139
 20
569.8288932575436
 30
0.0
 11
0.0
 21
-1.0
 31
0.0
  0
CIRCLE
  5
29BA
330
1F
100
AcDbEntity
  8
文字
100
AcDbCircle
 10
816.7036202327684
 20
714.8288932575436
 30
0.0
 40
15.0
  0
CIRCLE
  5
29BB
330
1F
100
AcDbEntity
  8
文字
100
AcDbCircle
 10
420.1139837310438
 20
714.8288932575436
 30
0.0
 40
15.0
  0
CIRCLE
  5
29BC
330
1F
100
AcDbEntity
  8
文字
100
AcDbCircle
 10
1760.172505159842
 20
503.4846504996043
 30
0.0
 40
15.0
  0
TEXT
  5
29BD
330
1F
100
AcDbEntity
  8
文字
100
AcDbText
 10
812.0432595805917
 20
707.0715381158243
 30
0.0
 40
15.0
  1
8
100
AcDbText
  0
CIRCLE
  5
29BE
330
1F
100
AcDbEntity
  8
文字
100
AcDbCircle
 10
656.295743607332
 20
714.5635533413901
 30
0.0
 40
15.0
  0
CIRCLE
  5
29BF
330
1F
100
AcDbEntity
  8
文字
100
AcDbCircle
 10
678.4616130628982
 20
169.8775541779184
 30
0.0
 40
15.0
  0
CIRCLE
  5
29C0
330
1F
100
AcDbEntity
  8
文字
100
AcDbCircle
 10
864.2500032069275
 20
170.1090674082155
 30
0.0
 40
15.0
  0
CIRCLE
  5
29C1
330
1F
100
AcDbEntity
  8
文字
100
AcDbCircle
 10
368.9897944332758
 20
168.2823832197792
 30
0.0
 40
15.0
  0
CIRCLE
  5
29C2
330
1F
100
AcDbEntity
  8
文字
100
AcDbCircle
 10
866.08769810391
 20
943.5911233117716
 30
0.0
 40
15.0
  0
CIRCLE
  5
29C3
330
1F
100
AcDbEntity
  8
文字
100
AcDbCircle
 10
221.230541469914
 20
204.8288932575435
 30
0.0
 40
15.0
  0
CIRCLE
  5
29C4
330
1F
100
AcDbEntity
  8
文字
100
AcDbCircle
 10
865.5383312969824
 20
1027.575155131757
 30
0.0
 40
15.0
  0
CIRCLE
  5
29C5
330
1F
100
AcDbEntity
  8
文字
100
AcDbCircle
 10
1760.172505159842
 20
362.6233399503602
 30
0.0
 40
15.0
  0
CIRCLE
  5
29C7
330
1F
100
AcDbEntity
  8
文字
100
AcDbCircle
 10
865.4309736999584
 20
852.0293702553189
 30
0.0
 40
15.0
  0
XLINE
  5
29C9
330
1F
100
AcDbEntity
  8
KOUTIKUSEN
100
AcDbXline
 10
301.2305414699138
 20
204.8288932575436
 30
0.0
 11
-1.0
 21
0.0
 31
0.0
  0
XLINE
  5
29CA
330
1F
100
AcDbEntity
  8
KOUTIKUSEN
100
AcDbXline
 10
301.2305414699138
 20
154.8288932575436
 30
0.0
 11
-1.0
 21
0.0
 31
0.0
  0
XLINE
  5
29CB
330
1F
100
AcDbEntity
  8
KOUTIKUSEN
100
AcDbXline
 10
221.230541469914
 20
656.0788932575436
 30
0.0
 11
0.0
 21
-1.0
 31
0.0
  0
XLINE
  5
29CC
330
1F
100
AcDbEntity
  8
KOUTIKUSEN
100
AcDbXline
 10
800.230541469914
 20
1368.998260411972
 30
0.0
 11
0.0
 21
-1.0
 31
0.0
  0
XLINE
  5
29CD
330
1F
100
AcDbEntity
  8
KOUTIKUSEN
100
AcDbXline
 10
850.230541469914
 20
1368.998260411972
 30
0.0
 11
0.0
 21
-1.0
 31
0.0
  0
LEADER
  5
29CE
330
1F
100
AcDbEntity
  8
寸法線1
100
AcDbLeader
  3
ISO-25
 73
     0
 40
15.0
 76
     2
 10
704.0181330243103
 20
1000.397730779206
 30
0.0
 10
850.7462626972378
 20
1025.086238391396
 30
0.0
340
29CF
213
0.0
223
-7.5
233
0.0
1001
ACAD
1000
DSTYLE
1002
{
1070
     5
1000
OPEN
1070
    77
1070
     0
1070
   147
1040
1.0
1002
}
  0
MTEXT
  5
29CF
102
{ACAD_REACTORS
330
29CE
102
}
330
1F
100
AcDbEntity
  8
寸法線1
100
AcDbMText
 10
855.7462626972379
 20
1032.586238391396
 30
0.0
 40
15.0
 41
0.0
 71
     1
 72
     1
  1

1001
ACAD
1000
MTEXTBEGIN
1070
    73
1070
     1
1070
    44
1040
1.0
1070
    74
1070
     0
1000
MTEXTEND
  0
LEADER
  5
29D0
330
1F
100
AcDbEntity
  8
寸法線1
100
AcDbLeader
  3
ISO-25
 76
     2
 10
675.2584574917691
 20
931.4037622784871
 30
0.0
 10
851.1181956368073
 20
942.6350919904185
 30
0.0
1001
ACAD
1000
DSTYLE
1002
{
1070
     5
1000
OPEN
1070
    77
1070
     0
1070
   147
1040
1.0
1002
}
  0
LEADER
  5
29D1
330
1F
100
AcDbEntity
  8
寸法線1
100
AcDbLeader
  3
ISO-25
 76
     2
 10
819.5797083440593
 20
781.3941611976661
 30
0.0
 10
857.2638659423418
 20
839.447703001911
 30
0.0
1001
ACAD
1000
DSTYLE
1002
{
1070
     5
1000
OPEN
1070
    77
1070
     0
1070
   147
1040
1.0
1002
}
  0
LEADER
  5
29D2
330
1F
100
AcDbEntity
  8
寸法線1
100
AcDbLeader
  3
ISO-25
 76
     2
 10
459.4563853839608
 20
768.9982604119721
 30
0.0
 10
428.9287171056386
 20
726.9656339870313
 30
0.0
1001
ACAD
1000
DSTYLE
1002
{
1070
     5
1000
OPEN
1070
    77
1070
     0
1070
   147
1040
1.0
1002
}
  0
LEADER
  5
29D3
330
1F
100
AcDbEntity
  8
寸法線1
100
AcDbLeader
  3
ISO-25
 76
     2
 10
732.6418527917085
 20
484.9917923139801
 30
0.0
 10
661.0292370093698
 20
700.3300000178918
 30
0.0
1001
ACAD
1000
DSTYLE
1002
{
1070
     5
1000
OPEN
1070
    77
1070
     0
1070
   147
1040
1.0
1002
}
  0
LEADER
  5
29D4
330
1F
100
AcDbEntity
  8
寸法線1
100
AcDbLeader
  3
ISO-25
 76
     2
 10
744.5565649078417
 20
530.1511415334778
 30
0.0
 10
811.2453826048662
 20
700.8572204157773
 30
0.0
1001
ACAD
1000
DSTYLE
1002
{
1070
     5
1000
OPEN
1070
    77
1070
     0
1070
   147
1040
1.0
1002
}
  0
LEADER
  5
29DC
330
1F
100
AcDbEntity
  8
寸法線1
100
AcDbLeader
  3
ISO-25
 76
     2
 10
1080.898158803391
 20
407.4548807877526
 30
0.0
 10
994.7010882281192
 20
374.1786000349995
 30
0.0
1001
ACAD
1000
DSTYLE
1002
{
1070
     5
1000
OPEN
1070
    77
1070
     0
1070
   147
1040
1.0
1002
}
  0
LINE
  5
29DE
330
1F
100
AcDbEntity
  8
寸法線1
100
AcDbLine
 10
430.19364493998
 20
560.5847451046047
 30
0.0
 11
487.1371576365813
 21
700.9294262191364
 31
0.0
  0
TEXT
  5
29DF
330
1F
100
AcDbEntity
  8
文字
100
AcDbText
 10
261.2584958066927
 20
706.7187954400106
 30
0.0
 40
15.0
  1
17
100
AcDbText
  0
CIRCLE
  5
29E0
330
1F
100
AcDbEntity
  8
文字
100
AcDbCircle
 10
271.230541469914
 20
714.8288932575436
 30
0.0
 40
15.0
  0
LEADER
  5
29E1
330
1F
100
AcDbEntity
  8
寸法線1
100
AcDbLeader
  3
ISO-25
 76
     2
 10
353.3269019675135
 20
600.0471995335956
 30
0.0
 10
279.9568151293397
 20
702.6283953979966
 30
0.0
1001
ACAD
1000
DSTYLE
1002
{
1070
     5
1000
OPEN
1070
    77
1070
     0
1070
   147
1040
1.0
1002
}
  0
LEADER
  5
29E4
330
1F
100
AcDbEntity
  8
寸法線1
100
AcDbLeader
  3
ISO-25
 76
     2
 10
318.2305414699139
 20
315.8288932575436
 30
0.0
 10
231.1009045893035
 20
216.1238448683914
 30
0.0
1001
ACAD
1000
DSTYLE
1002
{
1070
     5
1000
OPEN
1070
    77
1070
     0
1070
   147
1040
1.0
1002
}
  0
LEADER
  5
29E5
330
1F
100
AcDbEntity
  8
寸法線1
100
AcDbLeader
  3
ISO-25
 76
     2
 10
459.3347051897126
 20
362.0139779249966
 30
0.0
 10
375.3294363509717
 20
181.8768284219709
 30
0.0
1001
ACAD
1000
DSTYLE
1002
{
1070
     5
1000
OPEN
1070
    77
1070
     0
1070
   147
1040
1.0
1002
}
  0
LEADER
  5
29E6
330
1F
100
AcDbEntity
  8
寸法線1
100
AcDbLeader
  3
ISO-25
 76
     2
 10
1313.134645444459
 20
551.6656317995511
 30
0.0
 10
1377.016679032037
 20
652.3922794444598
 30
0.0
1001
ACAD
1000
DSTYLE
1002
{
1070
     5
1000
OPEN
1070
    77
1070
     0
1070
   147
1040
1.0
1002
}
  0
LEADER
  5
29E7
330
1F
100
AcDbEntity
  8
寸法線1
100
AcDbLeader
  3
ISO-25
 76
     2
 10
1431.638375350056
 20
505.0303907087273
 30
0.0
 10
1544.752740773789
 20
652.6919441232142
 30
0.0
1001
ACAD
1000
DSTYLE
1002
{
1070
     5
1000
OPEN
1070
    77
1070
     0
1070
   147
1040
1.0
1002
}
  0
LEADER
  5
29E8
330
1F
100
AcDbEntity
  8
寸法線1
100
AcDbLeader
  3
ISO-25
 76
     2
 10
1172.236506448098
 20
569.3870354079917
 30
0.0
 10
1217.956085265093
 20
652.9319605974633
 30
0.0
1001
ACAD
1000
DSTYLE
1002
{
1070
     5
1000
OPEN
1070
    77
1070
     0
1070
   147
1040
1.0
1002
}
  0
LEADER
  5
29E9
330
1F
100
AcDbEntity
  8
寸法線1
100
AcDbLeader
  3
ISO-25
 76
     2
 10
1671.445126186654
 20
531.1461304314889
 30
0.0
 10
1747.726219075111
 20
582.456488073146
 30
0.0
1001
ACAD
1000
DSTYLE
1002
{
1070
     5
1000
OPEN
1070
    77
1070
     0
1070
   147
1040
1.0
1002
}
  0
LEADER
  5
29EA
330
1F
100
AcDbEntity
  8
寸法線1
100
AcDbLeader
  3
ISO-25
 76
     2
 10
1570.950892218283
 20
426.1778416474498
 30
0.0
 10
1746.286678336231
 20
497.8115725497899
 30
0.0
1001
ACAD
1000
DSTYLE
1002
{
1070
     5
1000
OPEN
1070
    77
1070
     0
1070
   147
1040
1.0
1002
}
  0
TEXT
  5
29EB
330
1F
100
AcDbEntity
  8
文字
100
AcDbText
 10
1749.939042029691
 20
355.0509373943805
 30
0.0
 40
15.0
  1
15
100
AcDbText
  0
CIRCLE
  5
29EC
330
1F
100
AcDbEntity
  8
文字
100
AcDbCircle
 10
1760.172505159842
 20
362.6233399503602
 30
0.0
 40
15.0
  0
CIRCLE
  5
29F7
330
1F
100
AcDbEntity
  8
文字
100
AcDbCircle
 10
1760.172505159842
 20
443.7242579264896
 30
0.0
 40
15.0
  0
TEXT
  5
29F8
330
1F
100
AcDbEntity
  8
文字
100
AcDbText
 10
1749.939042029691
 20
436.15185537051
 30
0.0
 40
15.0
  1
19
100
AcDbText
  0
CIRCLE
  5
29F9
330
1F
100
AcDbEntity
  8
文字
100
AcDbCircle
 10
1760.172505159842
 20
443.7242579264896
 30
0.0
 40
15.0
  0
LEADER
  5
29FA
330
1F
100
AcDbEntity
  8
寸法線1
100
AcDbLeader
  3
ISO-25
 76
     2
 10
1699.052219086703
 20
362.8649899606116
 30
0.0
 10
1751.127501509181
 20
431.7581428944698
 30
0.0
1001
ACAD
1000
DSTYLE
1002
{
1070
     5
1000
OPEN
1070
    77
1070
     0
1070
   147
1040
1.0
1002
}
  0
LEADER
  5
29FB
330
1F
100
AcDbEntity
  8
寸法線1
100
AcDbLeader
  3
ISO-25
 76
     2
 10
1706.872490468636
 20
323.7802157610458
 30
0.0
 10
1748.050068019774
 20
353.7889459255778
 30
0.0
1001
ACAD
1000
DSTYLE
1002
{
1070
     5
1000
OPEN
1070
    77
1070
     0
1070
   147
1040
1.0
1002
}
  0
LINE
  5
29FC
330
1F
100
AcDbEntity
  8
部品表横線
100
AcDbLine
 10
1570.616013937643
 20
960.5922007725464
 30
0.0
 11
2050.616013937644
 21
960.5922007725464
 31
0.0
  0
LINE
  5
29FD
330
1F
100
AcDbEntity
  8
部品表横線
100
AcDbLine
 10
1570.616013937643
 20
935.5922007725464
 30
0.0
 11
2050.616013937644
 21
935.5922007725464
 31
0.0
  0
TEXT
  5
29FE
330
1F
100
AcDbEntity
  8
文字
100
AcDbText
 10
1581.612980133481
 20
941.5137064525289
 30
0.0
 40
15.0
  1
19
100
AcDbText
  0
TEXT
  5
29FF
330
1F
100
AcDbEntity
  8
文字
100
AcDbText
 10
1624.366013937643
 20
940.5922007725463
 30
0.0
 40
15.0
  1
アース線
100
AcDbText
  0
TEXT
  5
2A00
330
1F
100
AcDbEntity
  8
文字
100
AcDbText
 10
1863.541023432964
 20
940.8163378576997
 30
0.0
 40
15.0
  1
2Ｍ（1.25ｓｑ）
100
AcDbText
  0
TEXT
  5
2A01
330
1F
100
AcDbEntity
  8
文字
100
AcDbText
 10
1828.171582254441
 20
940.5922007725465
 30
0.0
 40
15.0
  1
1
100
AcDbText
  0
DIMENSION
  5
2A14
330
1F
100
AcDbEntity
  8
寸法線1
100
AcDbDimension
  2
*D24
 10
881.247376529218
 20
315.8288932575436
 30
0.0
 11
881.247376529218
 21
275.8288932575437
 31
0.0
 70
   160
  3
ISO-25
100
AcDbAlignedDimension
 13
806.2305414699139
 23
334.8288932575436
 33
0.0
 14
789.230541469914
 24
315.8288932575436
 34
0.0
 50
90.0
100
AcDbRotatedDimension
  0
LEADER
  5
2A2F
330
1F
100
AcDbEntity
  8
寸法線1
100
AcDbLeader
  3
ISO-25
 76
     2
 10
764.271911289614
 20
395.4732335795974
 30
0.0
 10
858.1672635675273
 20
183.8203867641079
 30
0.0
1001
ACAD
1000
DSTYLE
1002
{
1070
     5
1000
OPEN
1070
    77
1070
     0
1070
   147
1040
1.0
1002
}
  0
LEADER
  5
2A30
330
1F
100
AcDbEntity
  8
寸法線1
100
AcDbLeader
  3
ISO-25
 76
     2
 10
719.6924366953301
 20
393.969214214518
 30
0.0
 10
681.1759156062817
 20
184.6299289597284
 30
0.0
1001
ACAD
1000
DSTYLE
1002
{
1070
     5
1000
OPEN
1070
    77
1070
     0
1070
   147
1040
1.0
1002
}
  0
ENDSEC
  0
SECTION
  2
OBJECTS
  0
DICTIONARY
  5
C
330
0
100
AcDbDictionary
  3
ACAD_COLOR
350
4AE
  3
ACAD_GROUP
350
D
  3
ACAD_LAYOUT
350
1A
  3
ACAD_MATERIAL
350
4AD
  3
ACAD_MLINESTYLE
350
17
  3
ACAD_PLOTSETTINGS
350
19
  3
ACAD_PLOTSTYLENAME
350
E
  3
ACAD_TABLESTYLE
350
4AF
  3
ACADDIM
350
29DD
  3
ACDBVARIABLEDICTIONARY
350
4B6
  3
ACDBHEADERROUNDTRIPXREC
350
2A44
  0
DICTIONARY
  5
4C8
330
2
100
AcDbDictionary
280
     1
  3
ACAD_LAYERFILTERS
360
4CC
  3
ACLYDICTIONARY
360
4CB
  0
DICTIONARY
  5
2345
330
1F
100
AcDbDictionary
280
     1
  3
ACAD_SORTENTS
360
2346
  3
ACAD_LAYOUTSELFREF
360
2A67
  0
DICTIONARY
  5
2A65
330
1B
100
AcDbDictionary
280
     1
  3
ACAD_LAYOUTSELFREF
360
2A66
  0
DICTIONARY
  5
1303
330
12D1
100
AcDbDictionary
280
     1
  3
ACAD_SORTENTS
360
1304
  0
DICTIONARY
  5
4AE
102
{ACAD_REACTORS
330
C
102
}
330
C
100
AcDbDictionary
  0
DICTIONARY
  5
D
102
{ACAD_REACTORS
330
C
102
}
330
C
100
AcDbDictionary
  0
DICTIONARY
  5
1A
102
{ACAD_REACTORS
330
C
102
}
330
C
100
AcDbDictionary
  0
DICTIONARY
  5
4AD
102
{ACAD_REACTORS
330
C
102
}
330
C
100
AcDbDictionary
  0
DICTIONARY
  5
17
102
{ACAD_REACTORS
330
C
102
}
330
C
100
AcDbDictionary
  3
STANDARD
350
18
  0
DICTIONARY
  5
19
102
{ACAD_REACTORS
330
C
102
}
330
C
100
AcDbDictionary
  0
ACDBDICTIONARYWDFLT
  5
E
102
{ACAD_REACTORS
330
C
102
}
330
C
100
AcDbDictionary
281
     1
  3
Normal
350
F
100
AcDbDictionaryWithDefault
340
F
  0
DICTIONARY
  5
4AF
102
{ACAD_REACTORS
330
C
102
}
330
C
100
AcDbDictionary
  3
STANDARD
350
4B0
  0
XRECORD
  5
29DD
102
{ACAD_REACTORS
330
C
102
}
330
C
100
AcDbXrecord
 90
   990106
  3

 60
     0
 61
     0
 62
     1
 63
     3
 64
     0
 65
     0
 66
     0
 67
     3
 68
     1
 69
     0
 70
     0
 71
     0
 72
     0
 40
0.0
170
     0
340
29CF
  0
DICTIONARY
  5
4B6
102
{ACAD_REACTORS
330
C
102
}
330
C
100
AcDbDictionary
  3
CTABLESTYLE
350
4B7
  3
DIMASSOC
350
4F2
  3
PROJECTNAME
350
4F3
  0
DICTIONARY
  5
2A44
102
{ACAD_REACTORS
330
C
102
}
330
C
100
AcDbDictionary
  3
TSTACKALIGN
350
2A45
  3
TSTACKSIZE
350
2A46
  3
HYPERLINKBASE
350
2A47
  3
STYLESHEET
350
2A48
  3
LAYOUTDICT
350
2A49
  3
PLOTSETDICT
350
2A4A
  3
PLOTSTYLNAMDICT
350
2A4B
  3
LWETCUNION
350
2A4C
  3
INSUNITS
350
2A4D
  3
CEPSNTYPE
350
2A4E
  3
FINGERPRINTGUID
350
2A4F
  3
VERSIONGUID
350
2A50
  3
PSVPSCALE
350
2A51
  3
DIMSTYLEDATA
350
2A52
  3
PUCSORTHOREF
350
2A53
  3
PUCSORTHOVIEW
350
2A54
  3
PUCSBASE
350
2A55
  3
PUCSORGTOP
350
2A56
  3
PUCSORGBOTTOM
350
2A57
  3
PUCSORGLEFT
350
2A58
  3
PUCSORGRIGHT
350
2A59
  3
PUCSORGFRONT
350
2A5A
  3
PUCSORGBACK
350
2A5B
  3
UCSORTHOREF
350
2A5C
  3
UCSORTHOVIEW
350
2A5D
  3
UCSBASE
350
2A5E
  3
UCSORGTOP
350
2A5F
  3
UCSORGBOTTOM
350
2A60
  3
UCSORGLEFT
350
2A61
  3
UCSORGRIGHT
350
2A62
  3
UCSORGFRONT
350
2A63
  3
UCSORGBACK
350
2A64
  0
DICTIONARY
  5
4CC
102
{ACAD_REACTORS
330
4C8
102
}
330
4C8
100
AcDbDictionary
  0
DICTIONARY
  5
4CB
102
{ACAD_REACTORS
330
4C8
102
}
330
4C8
100
AcDbDictionary
1001
ACAD
1000
<All
  0
SORTENTSTABLE
  5
2346
102
{ACAD_REACTORS
330
2345
102
}
330
2345
100
AcDbSortentsTable
330
1F
331
2082
  5
2089
331
1EE4
  5
1EFA
331
2373
  5
2376
331
232D
  5
2339
331
2304
  5
230C
331
19D3
  5
19D3
331
1C82
  5
1C82
331
1B04
  5
1B04
331
1D4A
  5
1D50
331
1852
  5
1852
331
1AA6
  5
1AA6
331
1624
  5
1624
331
2339
  5
2347
331
1972
  5
1972
331
1A8D
  5
1A8D
331
2308
  5
230E
331
2004
  5
2008
331
2358
  5
2362
331
1D4E
  5
1D53
331
1856
  5
1856
331
1AB2
  5
1AB2
331
233D
  5
2350
331
1976
  5
1976
331
1858
  5
1858
331
2061
  5
2077
331
182D
  5
182D
331
1A91
  5
1A91
331
230C
  5
2314
331
195D
  5
195D
331
235C
  5
2367
331
1B14
  5
1B14
331
2008
  5
200D
331
1D52
  5
1D57
331
1C8C
  5
1C8C
331
22EB
  5
22F5
331
185C
  5
185C
331
1961
  5
1961
331
200C
  5
2015
331
2360
  5
236B
331
231A
  5
2324
331
1ABA
  5
1ABA
331
1A14
  5
1A14
331
197E
  5
197E
331
1860
  5
1860
331
2347
  5
2348
331
1D35
  5
1D39
331
19EB
  5
19EB
331
1ABE
  5
1ABE
331
20A8
  5
22A7
331
1982
  5
1982
331
1864
  5
1864
331
2075
  5
207A
331
1ED7
  5
1EE5
331
1D39
  5
1D40
331
22F5
  5
2300
331
1AF5
  5
1AF5
331
2368
  5
2354
331
1843
  5
1843
331
1868
  5
1868
331
234F
  5
2357
331
22F9
  5
2302
331
1D3D
  5
1D45
331
19F3
  5
19F3
331
207B
  5
2080
331
196D
  5
196D
331
1609
  5
1609
331
2326
  5
232C
331
1CD4
  5
1D0F
331
202A
  5
205B
331
1AC8
  5
1AC8
331
2353
  5
235D
331
19F7
  5
19F7
331
207F
  5
2084
331
184B
  5
184B
331
2370
  5
2373
331
232A
  5
2336
331
1ACC
  5
1ACC
331
2357
  5
2361
331
1D45
  5
1D4B
331
2301
  5
2309
331
2083
  5
208A
331
1EE5
  5
1EFB
331
232E
  5
233C
331
1C66
  5
1C66
331
1AD0
  5
1AD0
331
1E8C
  5
1E90
331
19D4
  5
19D4
331
1C83
  5
1C83
331
1D4B
  5
1D51
331
1AA7
  5
1AA7
331
1973
  5
1973
331
1A8E
  5
1A8E
331
2309
  5
2310
331
2005
  5
200A
331
2359
  5
2363
331
1857
  5
1857
331
1AB3
  5
1AB3
331
1A05
  5
1A05
331
1977
  5
1977
331
2062
  5
2078
331
1EC4
  5
1ECF
331
182E
  5
182E
331
230D
  5
2319
331
20A7
  5
22A6
331
1830
  5
1830
331
2009
  5
200E
331
1B15
  5
1B15
331
235D
  5
2368
331
1D53
  5
1D8E
331
1AB7
  5
1AB7
331
1C8D
  5
1C8D
331
22EC
  5
22F6
331
197B
  5
197B
331
185D
  5
185D
331
2344
  5
234D
331
1962
  5
1962
331
231B
  5
2325
331
1A15
  5
1A15
331
197F
  5
197F
331
1861
  5
1861
331
2348
  5
2351
331
1D36
  5
1D3B
331
19EC
  5
19EC
331
2365
  5
2009
331
1ABF
  5
1ABF
331
20A9
  5
22A9
331
1A69
  5
1A69
331
2076
  5
207B
331
1865
  5
1865
331
1ED8
  5
1EF8
331
234C
  5
2352
331
22F6
  5
2301
331
2078
  5
207D
331
1A98
  5
1A98
331
1844
  5
1844
331
2323
  5
2329
331
1987
  5
1987
331
1869
  5
1869
331
2350
  5
2358
331
1D3E
  5
1D46
331
22FA
  5
2303
331
19F4
  5
19F4
331
207C
  5
2081
331
196E
  5
196E
331
236D
  5
235C
331
1A9C
  5
1A9C
331
160A
  5
160A
331
2327
  5
232D
331
22D1
  5
22DC
331
186D
  5
186D
331
1AC9
  5
1AC9
331
2354
  5
235E
331
2080
  5
2085
331
184C
  5
184C
331
232B
  5
2337
331
1ACD
  5
1ACD
331
2302
  5
230A
331
1D46
  5
1D4D
331
2084
  5
208B
331
1D48
  5
1D4E
331
1622
  5
1622
331
22E1
  5
22E9
331
205B
  5
2062
331
1AD1
  5
1AD1
331
19D5
  5
19D5
331
1C84
  5
1C84
331
1AB0
  5
1AB0
331
233B
  5
234E
331
22E5
  5
22EE
331
1974
  5
1974
331
1A8F
  5
1A8F
331
19E1
  5
19E1
331
230A
  5
2312
331
2006
  5
200B
331
235A
  5
2364
331
1D50
  5
1D54
331
1C8A
  5
1C8A
331
22E9
  5
22F4
331
1978
  5
1978
331
185A
  5
185A
331
2063
  5
2079
331
101A
  5
101A
331
182F
  5
182F
331
230E
  5
231A
331
1B16
  5
1B16
331
200A
  5
200F
331
235E
  5
2369
331
1D54
  5
1D8F
331
1C8E
  5
1C8E
331
1B58
  5
1B58
331
197C
  5
197C
331
22ED
  5
22F9
331
1ADD
  5
1ADD
331
1D33
  5
1D37
331
1C6D
  5
1C6D
331
19E9
  5
19E9
331
1963
  5
1963
331
231C
  5
2326
331
1D90
  5
1D95
331
1C92
  5
1C92
331
1862
  5
1862
331
1D37
  5
1D3D
331
22F3
  5
22FB
331
1C71
  5
1C71
331
19ED
  5
19ED
331
2022
  5
202A
331
1841
  5
1841
331
1A6A
  5
1A6A
331
20AA
  5
22D1
331
1984
  5
1984
331
1C58
  5
1C58
331
1866
  5
1866
331
2077
  5
207C
331
234D
  5
2353
331
1ED9
  5
1EF9
331
1D3B
  5
1D43
331
2079
  5
207E
331
1AF7
  5
1AF7
331
1A99
  5
1A99
331
2324
  5
232A
331
1A6E
  5
1A6E
331
1988
  5
1988
331
1AC6
  5
1AC6
331
2351
  5
2359
331
22FB
  5
2304
331
207D
  5
2082
331
1AFB
  5
1AFB
331
236E
  5
235B
331
1A9D
  5
1A9D
331
160B
  5
160B
331
2328
  5
232E
331
1ACA
  5
1ACA
331
186E
  5
186E
331
1A84
  5
1A84
331
2355
  5
235F
331
1D43
  5
1D4A
331
2081
  5
2088
331
184D
  5
184D
331
232C
  5
2338
331
1C64
  5
1C64
331
1ACE
  5
1ACE
331
19D2
  5
19D2
331
2303
  5
230B
331
2085
  5
208C
331
1B03
  5
1B03
331
1851
  5
1851
331
1623
  5
1623
331
2338
  5
2344
331
1971
  5
1971
331
22E2
  5
22EB
331
2380
  5
22E0
331
1A8C
  5
1A8C
331
2307
  5
230D
331
19D6
  5
19D6
331
1C85
  5
1C85
331
1D4D
  5
1D52
331
1AB1
  5
1AB1
331
1627
  5
1627
331
233C
  5
234F
331
22E6
  5
22F3
331
2060
  5
2076
331
230B
  5
2313
331
2007
  5
200C
331
235B
  5
2365
331
1D51
  5
1D56
331
1C8B
  5
1C8B
331
101B
  5
101B
331
1960
  5
1960
331
200B
  5
2010
331
235F
  5
236A
331
2319
  5
2323
331
1AB9
  5
1AB9
331
1C8F
  5
1C8F
331
1A13
  5
1A13
331
22EE
  5
22FA
331
197D
  5
197D
331
185F
  5
185F
331
1ADE
  5
1ADE
331
1D34
  5
1D38
331
1C6E
  5
1C6E
331
19EA
  5
19EA
331
1021
  5
1021
331
1964
  5
1964
331
1ABD
  5
1ABD
331
1C93
  5
1C93
331
1981
  5
1981
331
1ED6
  5
1EE4
331
22F4
  5
22FC
331
1D38
  5
1D3E
331
19EE
  5
19EE
331
1C72
  5
1C72
331
2367
  5
2355
331
2023
  5
202B
331
1842
  5
1842
331
1985
  5
1985
331
1867
  5
1867
331
234E
  5
2356
331
207A
  5
207F
331
1AF8
  5
1AF8
331
2325
  5
232B
331
2352
  5
235A
331
22FC
  5
2307
331
207E
  5
2083
331
184A
  5
184A
331
19F8
  5
19F8
331
160C
  5
160C
331
2329
  5
2335
331
1ACB
  5
1ACB
331
1A85
  5
1A85
331
2356
  5
2360
331
2300
  5
2308
  0
XRECORD
  5
2A67
102
{ACAD_REACTORS
330
2345
102
}
330
2345
100
AcDbXrecord
340
1F
  0
XRECORD
  5
2A66
102
{ACAD_REACTORS
330
2A65
102
}
330
2A65
100
AcDbXrecord
340
1B
  0
SORTENTSTABLE
  5
1304
102
{ACAD_REACTORS
330
1303
102
}
330
1303
100
AcDbSortentsTable
330
12D1
  0
MLINESTYLE
  5
18
102
{ACAD_REACTORS
330
17
102
}
330
17
100
AcDbMlineStyle
  2
STANDARD
 70
     0
  3

 62
   256
 51
90.0
 52
90.0
 71
     2
 49
0.5
 62
   256
  6
BYLAYER
 49
-0.5
 62
   256
  6
BYLAYER
  0
ACDBPLACEHOLDER
  5
F
102
{ACAD_REACTORS
330
E
102
}
330
E
100
AcDbPlaceHolder
280
     0
  0
ACAD_PROXY_OBJECT
  5
4B0
102
{ACAD_REACTORS
330
4AF
102
}
330
4AF
100
AcDbProxyObject
 90
      499
 91
      506
 93
     1841
310
4214DD185B99185C9928000000000000F83F0000000000003E0FC00000000000004901028000000C1008070000C3001FDFF8000000C1003FBFF000000182007F7FE00000030400FEFFC00000060801FDFF8000000C1003FBFF000000182000000000000000C2020B0000001820100E000186003FBFF000000182007F7FE000
310
00030400FEFFC00000060801FDFF8000000C1003FBFF000000182007F7FE0000003040000000000000012404160000003040201C00030C007F7FE00000030400FEFFC00000060801FDFF8000000C1003FBFF000000182007F7FE00000030400FEFFC000000608030
340
11
340
11
340
11
 94
        0
1001
ACAD
1000
AcadProxyRoundTripData
1071
      503
1071
   393239
1070
     0
  0
DICTIONARYVAR
  5
4B7
102
{ACAD_REACTORS
330
4B6
102
}
330
4B6
100
DictionaryVariables
280
     0
  1
STANDARD
  0
DICTIONARYVAR
  5
4F2
102
{ACAD_REACTORS
330
4B6
102
}
330
4B6
100
DictionaryVariables
280
     0
  1
1
  0
DICTIONARYVAR
  5
4F3
102
{ACAD_REACTORS
330
4B6
102
}
330
4B6
100
DictionaryVariables
280
     0
  1

  0
XRECORD
  5
2A45
102
{ACAD_REACTORS
330
2A44
102
}
330
2A44
100
AcDbXrecord
 90
        1
  0
XRECORD
  5
2A46
102
{ACAD_REACTORS
330
2A44
102
}
330
2A44
100
AcDbXrecord
 90
       70
  0
XRECORD
  5
2A47
102
{ACAD_REACTORS
330
2A44
102
}
330
2A44
100
AcDbXrecord
  1

  0
XRECORD
  5
2A48
102
{ACAD_REACTORS
330
2A44
102
}
330
2A44
100
AcDbXrecord
  1
monochrome.ctb
  0
XRECORD
  5
2A49
102
{ACAD_REACTORS
330
2A44
102
}
330
2A44
100
AcDbXrecord
340
1A
  0
XRECORD
  5
2A4A
102
{ACAD_REACTORS
330
2A44
102
}
330
2A44
100
AcDbXrecord
340
19
  0
XRECORD
  5
2A4B
102
{ACAD_REACTORS
330
2A44
102
}
330
2A44
100
AcDbXrecord
340
E
  0
XRECORD
  5
2A4C
102
{ACAD_REACTORS
330
2A44
102
}
330
2A44
100
AcDbXrecord
 90
    10781
  0
XRECORD
  5
2A4D
102
{ACAD_REACTORS
330
2A44
102
}
330
2A44
100
AcDbXrecord
 90
        4
  0
XRECORD
  5
2A4E
102
{ACAD_REACTORS
330
2A44
102
}
330
2A44
100
AcDbXrecord
 90
        0
  0
XRECORD
  5
2A4F
102
{ACAD_REACTORS
330
2A44
102
}
330
2A44
100
AcDbXrecord
  1
{FDEAD578-A652-11D2-9A35-0060089B3A3F}
  0
XRECORD
  5
2A50
102
{ACAD_REACTORS
330
2A44
102
}
330
2A44
100
AcDbXrecord
  1
{65B433D1-4124-4DEF-B776-8481E3EA5999}
  0
XRECORD
  5
2A51
102
{ACAD_REACTORS
330
2A44
102
}
330
2A44
100
AcDbXrecord
 40
0.0
  0
XRECORD
  5
2A52
102
{ACAD_REACTORS
330
2A44
102
}
330
2A44
100
AcDbXrecord
1000
DSTYLE
1002
{
1070
   278
 70
    44
1070
   341
340
1AE
1070
   342
340
1AE
1002
}
  0
XRECORD
  5
2A53
102
{ACAD_REACTORS
330
2A44
102
}
330
2A44
100
AcDbXrecord
340
0
  0
XRECORD
  5
2A54
102
{ACAD_REACTORS
330
2A44
102
}
330
2A44
100
AcDbXrecord
 70
     0
  0
XRECORD
  5
2A55
102
{ACAD_REACTORS
330
2A44
102
}
330
2A44
100
AcDbXrecord
340
0
  0
XRECORD
  5
2A56
102
{ACAD_REACTORS
330
2A44
102
}
330
2A44
100
AcDbXrecord
 10
0.0
 20
0.0
 30
0.0
  0
XRECORD
  5
2A57
102
{ACAD_REACTORS
330
2A44
102
}
330
2A44
100
AcDbXrecord
 10
0.0
 20
0.0
 30
0.0
  0
XRECORD
  5
2A58
102
{ACAD_REACTORS
330
2A44
102
}
330
2A44
100
AcDbXrecord
 10
0.0
 20
0.0
 30
0.0
  0
XRECORD
  5
2A59
102
{ACAD_REACTORS
330
2A44
102
}
330
2A44
100
AcDbXrecord
 10
0.0
 20
0.0
 30
0.0
  0
XRECORD
  5
2A5A
102
{ACAD_REACTORS
330
2A44
102
}
330
2A44
100
AcDbXrecord
 10
0.0
 20
0.0
 30
0.0
  0
XRECORD
  5
2A5B
102
{ACAD_REACTORS
330
2A44
102
}
330
2A44
100
AcDbXrecord
 10
0.0
 20
0.0
 30
0.0
  0
XRECORD
  5
2A5C
102
{ACAD_REACTORS
330
2A44
102
}
330
2A44
100
AcDbXrecord
340
0
  0
XRECORD
  5
2A5D
102
{ACAD_REACTORS
330
2A44
102
}
330
2A44
100
AcDbXrecord
 70
     0
  0
XRECORD
  5
2A5E
102
{ACAD_REACTORS
330
2A44
102
}
330
2A44
100
AcDbXrecord
340
0
  0
XRECORD
  5
2A5F
102
{ACAD_REACTORS
330
2A44
102
}
330
2A44
100
AcDbXrecord
 10
0.0
 20
0.0
 30
0.0
  0
XRECORD
  5
2A60
102
{ACAD_REACTORS
330
2A44
102
}
330
2A44
100
AcDbXrecord
 10
0.0
 20
0.0
 30
0.0
  0
XRECORD
  5
2A61
102
{ACAD_REACTORS
330
2A44
102
}
330
2A44
100
AcDbXrecord
 10
0.0
 20
0.0
 30
0.0
  0
XRECORD
  5
2A62
102
{ACAD_REACTORS
330
2A44
102
}
330
2A44
100
AcDbXrecord
 10
0.0
 20
0.0
 30
0.0
  0
XRECORD
  5
2A63
102
{ACAD_REACTORS
330
2A44
102
}
330
2A44
100
AcDbXrecord
 10
0.0
 20
0.0
 30
0.0
  0
XRECORD
  5
2A64
102
{ACAD_REACTORS
330
2A44
102
}
330
2A44
100
AcDbXrecord
 10
0.0
 20
0.0
 30
0.0
  0
ENDSEC
  0
EOF
