  0
SECTION
  2
HEADER
  9
$ACADVER
  1
AC1015
  9
$ACADMAINTVER
 70
     6
  9
$DWGCODEPAGE
  3
ANSI_932
  9
$INSBASE
 10
0.0
 20
0.0
 30
0.0
  9
$EXTMIN
 10
103.0240188853346
 20
-1739.804105695181
 30
-0.0000000349181948
  9
$EXTMAX
 10
3483.188953006459
 20
3052.729116000385
 30
0.0000000814935747
  9
$LIMMIN
 10
0.0
 20
0.0
  9
$LIMMAX
 10
2100.0
 20
1485.0
  9
$ORTHOMODE
 70
     1
  9
$REGENMODE
 70
     1
  9
$FILLMODE
 70
     1
  9
$QTEXTMODE
 70
     0
  9
$MIRRTEXT
 70
     1
  9
$LTSCALE
 40
1.0
  9
$ATTMODE
 70
     1
  9
$TEXTSIZE
 40
2.5
  9
$TRACEWID
 40
1.0
  9
$TEXTSTYLE
  7
STANDARD
  9
$CLAYER
  8
文字
  9
$CELTYPE
  6
BYLAYER
  9
$CECOLOR
 62
   256
  9
$CELTSCALE
 40
1.0
  9
$DISPSILH
 70
     0
  9
$DIMSCALE
 40
4.5
  9
$DIMASZ
 40
3.0
  9
$DIMEXO
 40
1.0
  9
$DIMDLI
 40
3.75
  9
$DIMRND
 40
0.0
  9
$DIMDLE
 40
0.0
  9
$DIMEXE
 40
1.25
  9
$DIMTP
 40
0.0
  9
$DIMTM
 40
0.0
  9
$DIMTXT
 40
3.0
  9
$DIMCEN
 40
2.5
  9
$DIMTSZ
 40
0.0
  9
$DIMTOL
 70
     0
  9
$DIMLIM
 70
     0
  9
$DIMTIH
 70
     0
  9
$DIMTOH
 70
     0
  9
$DIMSE1
 70
     0
  9
$DIMSE2
 70
     0
  9
$DIMTAD
 70
     1
  9
$DIMZIN
 70
     8
  9
$DIMBLK
  1
OPEN
  9
$DIMASO
 70
     1
  9
$DIMSHO
 70
     1
  9
$DIMPOST
  1

  9
$DIMAPOST
  1

  9
$DIMALT
 70
     0
  9
$DIMALTD
 70
     3
  9
$DIMALTF
 40
0.03937007874016
  9
$DIMLFAC
 40
1.0
  9
$DIMTOFL
 70
     1
  9
$DIMTVP
 40
0.0
  9
$DIMTIX
 70
     0
  9
$DIMSOXD
 70
     0
  9
$DIMSAH
 70
     0
  9
$DIMBLK1
  1

  9
$DIMBLK2
  1

  9
$DIMSTYLE
  2
ISO-25
  9
$DIMCLRD
 70
     0
  9
$DIMCLRE
 70
     0
  9
$DIMCLRT
 70
     0
  9
$DIMTFAC
 40
1.0
  9
$DIMGAP
 40
1.0
  9
$DIMJUST
 70
     0
  9
$DIMSD1
 70
     0
  9
$DIMSD2
 70
     0
  9
$DIMTOLJ
 70
     0
  9
$DIMTZIN
 70
     8
  9
$DIMALTZ
 70
     0
  9
$DIMALTTZ
 70
     0
  9
$DIMUPT
 70
     0
  9
$DIMDEC
 70
     3
  9
$DIMTDEC
 70
     3
  9
$DIMALTU
 70
     2
  9
$DIMALTTD
 70
     3
  9
$DIMTXSTY
  7
STANDARD
  9
$DIMAUNIT
 70
     0
  9
$DIMADEC
 70
     0
  9
$DIMALTRND
 40
0.0
  9
$DIMAZIN
 70
     0
  9
$DIMDSEP
 70
    44
  9
$DIMATFIT
 70
     3
  9
$DIMFRAC
 70
     0
  9
$DIMLDRBLK
  1
OPEN
  9
$DIMLUNIT
 70
     2
  9
$DIMLWD
 70
    -2
  9
$DIMLWE
 70
    -2
  9
$DIMTMOVE
 70
     0
  9
$LUNITS
 70
     2
  9
$LUPREC
 70
     4
  9
$SKETCHINC
 40
1.0
  9
$FILLETRAD
 40
2.0
  9
$AUNITS
 70
     0
  9
$AUPREC
 70
     0
  9
$MENU
  1
.
  9
$ELEVATION
 40
0.0
  9
$PELEVATION
 40
0.0
  9
$THICKNESS
 40
0.0
  9
$LIMCHECK
 70
     0
  9
$CHAMFERA
 40
10.0
  9
$CHAMFERB
 40
10.0
  9
$CHAMFERC
 40
1.0
  9
$CHAMFERD
 40
0.0
  9
$SKPOLY
 70
     0
  9
$TDCREATE
 40
2452597.701531365
  9
$TDUCREATE
 40
2452597.326531365
  9
$TDUPDATE
 40
2459373.478740081
  9
$TDUUPDATE
 40
2459373.103740081
  9
$TDINDWG
 40
1.9715096181
  9
$TDUSRTIMER
 40
1.9715056366
  9
$USRTIMER
 70
     1
  9
$ANGBASE
 50
0.0
  9
$ANGDIR
 70
     0
  9
$PDMODE
 70
     0
  9
$PDSIZE
 40
0.0
  9
$PLINEWID
 40
0.0
  9
$SPLFRAME
 70
     0
  9
$SPLINETYPE
 70
     6
  9
$SPLINESEGS
 70
     8
  9
$HANDSEED
  5
2962
  9
$SURFTAB1
 70
     6
  9
$SURFTAB2
 70
     6
  9
$SURFTYPE
 70
     6
  9
$SURFU
 70
     6
  9
$SURFV
 70
     6
  9
$UCSBASE
  2

  9
$UCSNAME
  2

  9
$UCSORG
 10
0.0
 20
0.0
 30
0.0
  9
$UCSXDIR
 10
1.0
 20
0.0
 30
0.0
  9
$UCSYDIR
 10
0.0
 20
1.0
 30
0.0
  9
$UCSORTHOREF
  2

  9
$UCSORTHOVIEW
 70
     0
  9
$UCSORGTOP
 10
0.0
 20
0.0
 30
0.0
  9
$UCSORGBOTTOM
 10
0.0
 20
0.0
 30
0.0
  9
$UCSORGLEFT
 10
0.0
 20
0.0
 30
0.0
  9
$UCSORGRIGHT
 10
0.0
 20
0.0
 30
0.0
  9
$UCSORGFRONT
 10
0.0
 20
0.0
 30
0.0
  9
$UCSORGBACK
 10
0.0
 20
0.0
 30
0.0
  9
$PUCSBASE
  2

  9
$PUCSNAME
  2

  9
$PUCSORG
 10
0.0
 20
0.0
 30
0.0
  9
$PUCSXDIR
 10
1.0
 20
0.0
 30
0.0
  9
$PUCSYDIR
 10
0.0
 20
1.0
 30
0.0
  9
$PUCSORTHOREF
  2

  9
$PUCSORTHOVIEW
 70
     0
  9
$PUCSORGTOP
 10
0.0
 20
0.0
 30
0.0
  9
$PUCSORGBOTTOM
 10
0.0
 20
0.0
 30
0.0
  9
$PUCSORGLEFT
 10
0.0
 20
0.0
 30
0.0
  9
$PUCSORGRIGHT
 10
0.0
 20
0.0
 30
0.0
  9
$PUCSORGFRONT
 10
0.0
 20
0.0
 30
0.0
  9
$PUCSORGBACK
 10
0.0
 20
0.0
 30
0.0
  9
$USERI1
 70
     0
  9
$USERI2
 70
     0
  9
$USERI3
 70
     0
  9
$USERI4
 70
     0
  9
$USERI5
 70
     0
  9
$USERR1
 40
0.0
  9
$USERR2
 40
0.0
  9
$USERR3
 40
0.0
  9
$USERR4
 40
0.0
  9
$USERR5
 40
0.0
  9
$WORLDVIEW
 70
     1
  9
$SHADEDGE
 70
     3
  9
$SHADEDIF
 70
    70
  9
$TILEMODE
 70
     1
  9
$MAXACTVP
 70
    64
  9
$PINSBASE
 10
0.0
 20
0.0
 30
0.0
  9
$PLIMCHECK
 70
     0
  9
$PEXTMIN
 10
39.04897289276124
 20
28.94541656970977
 30
0.0
  9
$PEXTMAX
 10
351.440756034851
 20
260.5087491273879
 30
0.0
  9
$PLIMMIN
 10
-14.76375007629393
 20
-3.757076978683471
  9
$PLIMMAX
 10
405.2534618377683
 20
293.2112457752227
  9
$UNITMODE
 70
     0
  9
$VISRETAIN
 70
     1
  9
$PLINEGEN
 70
     0
  9
$PSLTSCALE
 70
     1
  9
$TREEDEPTH
 70
  3020
  9
$CMLSTYLE
  2
STANDARD
  9
$CMLJUST
 70
     0
  9
$CMLSCALE
 40
20.0
  9
$PROXYGRAPHICS
 70
     1
  9
$MEASUREMENT
 70
     0
  9
$CELWEIGHT
370
    -1
  9
$ENDCAPS
280
     0
  9
$JOINSTYLE
280
     0
  9
$LWDISPLAY
290
     0
  9
$INSUNITS
 70
     4
  9
$HYPERLINKBASE
  1

  9
$STYLESHEET
  1
monochrome.ctb
  9
$XEDIT
290
     1
  9
$CEPSNTYPE
380
     0
  9
$PSTYLEMODE
290
     1
  9
$FINGERPRINTGUID
  2
{FDEAD578-A652-11D2-9A35-0060089B3A3F}
  9
$VERSIONGUID
  2
{6A79C0CC-C4AF-4E71-B0C6-53656ED00C7F}
  9
$EXTNAMES
290
     1
  9
$PSVPSCALE
 40
0.0
  9
$OLESTARTUP
290
     0
  0
ENDSEC
  0
SECTION
  2
CLASSES
  0
CLASS
  1
ACDBDICTIONARYWDFLT
  2
AcDbDictionaryWithDefault
  3
AutoCAD 2000
 90
        0
280
     0
281
     0
  0
CLASS
  1
ACDBPLACEHOLDER
  2
AcDbPlaceHolder
  3
AutoCAD 2000
 90
        0
280
     0
281
     0
  0
CLASS
  1
LAYOUT
  2
AcDbLayout
  3
AutoCAD 2000
 90
        0
280
     0
281
     0
  0
CLASS
  1
TABLESTYLE
  2
AcDbTableStyle
  3
ObjectDBX Classes
 90
     2047
280
     0
281
     0
  0
CLASS
  1
DICTIONARYVAR
  2
AcDbDictionaryVar
  3
AutoCAD 2000
 90
        0
280
     0
281
     0
  0
CLASS
  1
SORTENTSTABLE
  2
AcDbSortentsTable
  3
AutoCAD 2000
 90
        0
280
     0
281
     0
  0
CLASS
  1
ACAD_PROXY_OBJECT_WRAPPER
  2
AcDbProxyObjectWrapper
  3
AutoCAD 2000
 90
    32768
280
     0
281
     0
  0
CLASS
  1
LONG_TRANSACTION
  2
AcDbLongTransaction
  3
AutoCAD 2000
 90
    32768
280
     0
281
     0
  0
CLASS
  1
LWPOLYLINE
  2
AcDbPolyline
  3
AutoCAD 2000
 90
    32768
280
     0
281
     1
  0
CLASS
  1
HATCH
  2
AcDbHatch
  3
AutoCAD 2000
 90
    32768
280
     0
281
     1
  0
CLASS
  1
XRECORD
  2
AcDbXrecord
  3
AutoCAD 2000
 90
    32768
280
     0
281
     0
  0
ENDSEC
  0
SECTION
  2
TABLES
  0
TABLE
  2
VPORT
  5
8
330
0
100
AcDbSymbolTable
 70
    12
  0
VPORT
  5
2961
330
8
100
AcDbSymbolTableRecord
100
AcDbViewportTableRecord
  2
*Active
 70
     0
 10
0.0
 20
0.0
 11
1.0
 21
1.0
 12
1044.276782954176
 22
733.4266170036981
 13
0.0
 23
0.0
 14
10.0
 24
10.0
 15
10.0
 25
10.0
 16
0.0
 26
0.0
 36
1.0
 17
0.0
 27
0.0
 37
0.0
 40
1628.452521380031
 41
1.46679499518768
 42
50.0
 43
0.0
 44
0.0
 50
0.0
 51
0.0
 71
     0
 72
   100
 73
     1
 74
     3
 75
     0
 76
     0
 77
     0
 78
     0
281
     0
 65
     1
110
0.0
120
0.0
130
0.0
111
1.0
121
0.0
131
0.0
112
0.0
122
1.0
132
0.0
 79
     0
146
0.0
  0
ENDTAB
  0
TABLE
  2
LTYPE
  5
5
330
0
100
AcDbSymbolTable
 70
    10
  0
LTYPE
  5
14
330
5
100
AcDbSymbolTableRecord
100
AcDbLinetypeTableRecord
  2
BYBLOCK
 70
     0
  3

 72
    65
 73
     0
 40
0.0
  0
LTYPE
  5
15
330
5
100
AcDbSymbolTableRecord
100
AcDbLinetypeTableRecord
  2
BYLAYER
 70
     0
  3

 72
    65
 73
     0
 40
0.0
  0
LTYPE
  5
16
330
5
100
AcDbSymbolTableRecord
100
AcDbLinetypeTableRecord
  2
CONTINUOUS
 70
     0
  3
Solid line
 72
    65
 73
     0
 40
0.0
  0
LTYPE
  5
12E
330
5
100
AcDbSymbolTableRecord
100
AcDbLinetypeTableRecord
  2
CENTER
 70
     0
  3
Center ____ _ ____ _ ____ _ ____ _ ____ _ ____
 72
    65
 73
     4
 40
50.8
 49
31.75
 74
     0
 49
-6.349999999999997
 74
     0
 49
6.349999999999997
 74
     0
 49
-6.349999999999997
 74
     0
  0
LTYPE
  5
12F
330
5
100
AcDbSymbolTableRecord
100
AcDbLinetypeTableRecord
  2
CENTER2
 70
     0
  3
Center (.5x) ___ _ ___ _ ___ _ ___ _ ___ _ ___
 72
    65
 73
     4
 40
28.57499999999999
 49
19.05
 74
     0
 49
-3.174999999999998
 74
     0
 49
3.174999999999998
 74
     0
 49
-3.174999999999998
 74
     0
  0
LTYPE
  5
130
330
5
100
AcDbSymbolTableRecord
100
AcDbLinetypeTableRecord
  2
CENTERX2
 70
     0
  3
Center (2x) ________  __  ________  __  _____
 72
    65
 73
     4
 40
101.6
 49
63.5
 74
     0
 49
-12.7
 74
     0
 49
12.7
 74
     0
 49
-12.7
 74
     0
  0
LTYPE
  5
131
330
5
100
AcDbSymbolTableRecord
100
AcDbLinetypeTableRecord
  2
HIDDEN
 70
     0
  3
Hidden __ __ __ __ __ __ __ __ __ __ __ __ __ _
 72
    65
 73
     2
 40
9.524999999999996
 49
6.349999999999997
 74
     0
 49
-3.174999999999998
 74
     0
  0
LTYPE
  5
132
330
5
100
AcDbSymbolTableRecord
100
AcDbLinetypeTableRecord
  2
HIDDEN2
 70
     0
  3
Hidden (.5x) _ _ _ _ _ _ _ _ _ _ _ _ _ _ _ _ _
 72
    65
 73
     2
 40
4.762499999999998
 49
3.174999999999998
 74
     0
 49
-1.587499999999999
 74
     0
  0
LTYPE
  5
133
330
5
100
AcDbSymbolTableRecord
100
AcDbLinetypeTableRecord
  2
HIDDENX2
 70
     0
  3
Hidden (2x) ____ ____ ____ ____ ____ ____ ____
 72
    65
 73
     2
 40
19.04999999999997
 49
12.7
 74
     0
 49
-6.349999999999997
 74
     0
  0
LTYPE
  5
1841
330
5
100
AcDbSymbolTableRecord
100
AcDbLinetypeTableRecord
  2
PHANTOM
 70
     0
  3
Phantom ______  __  __  ______  __  __  ______
 72
    65
 73
     6
 40
2.5
 49
1.25
 74
     0
 49
-0.25
 74
     0
 49
0.25
 74
     0
 49
-0.25
 74
     0
 49
0.25
 74
     0
 49
-0.25
 74
     0
  0
LTYPE
  5
1842
330
5
100
AcDbSymbolTableRecord
100
AcDbLinetypeTableRecord
  2
PHANTOM2
 70
     0
  3
Phantom (.5x) ___ _ _ ___ _ _ ___ _ _ ___ _ _
 72
    65
 73
     6
 40
1.25
 49
0.625
 74
     0
 49
-0.125
 74
     0
 49
0.125
 74
     0
 49
-0.125
 74
     0
 49
0.125
 74
     0
 49
-0.125
 74
     0
  0
LTYPE
  5
1843
330
5
100
AcDbSymbolTableRecord
100
AcDbLinetypeTableRecord
  2
PHANTOMX2
 70
     0
  3
Phantom (2x) ____________    ____    ____   _
 72
    65
 73
     6
 40
5.0
 49
2.5
 74
     0
 49
-0.5
 74
     0
 49
0.5
 74
     0
 49
-0.5
 74
     0
 49
0.5
 74
     0
 49
-0.5
 74
     0
  0
ENDTAB
  0
TABLE
  2
LAYER
  5
2
102
{ACAD_XDICTIONARY
360
854
102
}
330
0
100
AcDbSymbolTable
 70
    21
  0
LAYER
  5
10
330
2
100
AcDbSymbolTableRecord
100
AcDbLayerTableRecord
  2
0
 70
     0
 62
     7
  6
CONTINUOUS
370
    -3
390
F
  0
LAYER
  5
46
330
2
100
AcDbSymbolTableRecord
100
AcDbLayerTableRecord
  2
7_中心線2中
 70
     0
 62
     1
  6
CENTER
370
    -3
390
F
  0
LAYER
  5
47
330
2
100
AcDbSymbolTableRecord
100
AcDbLayerTableRecord
  2
2_細線
 70
     0
 62
     7
  6
CONTINUOUS
370
    -3
390
F
  0
LAYER
  5
4A
330
2
100
AcDbSymbolTableRecord
100
AcDbLayerTableRecord
  2
8_中心線3長
 70
     0
 62
     1
  6
CENTERX2
370
    -3
390
F
  0
LAYER
  5
134
330
2
100
AcDbSymbolTableRecord
100
AcDbLayerTableRecord
  2
1_外形線
 70
     0
 62
     7
  6
CONTINUOUS
370
    -3
390
F
  0
LAYER
  5
135
330
2
100
AcDbSymbolTableRecord
100
AcDbLayerTableRecord
  2
6_中心線1短
 70
     0
 62
     1
  6
HIDDEN2
370
    -3
390
F
  0
LAYER
  5
136
330
2
100
AcDbSymbolTableRecord
100
AcDbLayerTableRecord
  2
3_破線1短
 70
     0
 62
     3
  6
HIDDEN2
370
    -3
390
F
  0
LAYER
  5
137
330
2
100
AcDbSymbolTableRecord
100
AcDbLayerTableRecord
  2
4_破線2中
 70
     0
 62
     3
  6
HIDDEN
370
    -3
390
F
  0
LAYER
  5
138
330
2
100
AcDbSymbolTableRecord
100
AcDbLayerTableRecord
  2
9_構築線
 70
     0
 62
    -4
  6
CONTINUOUS
370
    -3
390
F
  0
LAYER
  5
1A1
330
2
100
AcDbSymbolTableRecord
100
AcDbLayerTableRecord
  2
寸法線
 70
     0
 62
     6
  6
CONTINUOUS
370
    -3
390
F
  0
LAYER
  5
1FC
330
2
100
AcDbSymbolTableRecord
100
AcDbLayerTableRecord
  2
DEFPOINTS
 70
     0
 62
     7
  6
CONTINUOUS
290
     0
370
    -3
390
F
  0
LAYER
  5
F29
330
2
100
AcDbSymbolTableRecord
100
AcDbLayerTableRecord
  2
5_破線3長
 70
     0
 62
     3
  6
HIDDENX2
370
    -3
390
F
1001
ACAECLAYERSTANDARD
1000

1000

  0
LAYER
  5
1335
330
2
100
AcDbSymbolTableRecord
100
AcDbLayerTableRecord
  2
1_実線
 70
     0
 62
     7
  6
CONTINUOUS
370
    -3
390
F
  0
LAYER
  5
17A0
330
2
100
AcDbSymbolTableRecord
100
AcDbLayerTableRecord
  2
文字
 70
     0
 62
     7
  6
CONTINUOUS
370
    -3
390
F
  0
LAYER
  5
1844
330
2
100
AcDbSymbolTableRecord
100
AcDbLayerTableRecord
  2
蓋
 70
     0
 62
     3
  6
CENTER2
370
    -3
390
F
  0
LAYER
  5
184F
330
2
100
AcDbSymbolTableRecord
100
AcDbLayerTableRecord
  2
スイッチBOX
 70
     0
 62
     1
  6
CONTINUOUS
370
    -3
390
F
  0
LAYER
  5
1852
330
2
100
AcDbSymbolTableRecord
100
AcDbLayerTableRecord
  2
上枠
 70
     0
 62
     1
  6
CONTINUOUS
370
    -3
390
F
  0
LAYER
  5
1936
330
2
100
AcDbSymbolTableRecord
100
AcDbLayerTableRecord
  2
構築線2
 70
     0
 62
    -2
  6
CONTINUOUS
370
    -3
390
F
  0
LAYER
  5
1DA6
330
2
100
AcDbSymbolTableRecord
100
AcDbLayerTableRecord
  2
電線
 70
     0
 62
     1
  6
CONTINUOUS
370
    -3
390
F
  0
LAYER
  5
1F16
330
2
100
AcDbSymbolTableRecord
100
AcDbLayerTableRecord
  2
構築線
 70
     0
 62
    -4
  6
CONTINUOUS
370
    -3
390
F
  0
LAYER
  5
27FD
330
2
100
AcDbSymbolTableRecord
100
AcDbLayerTableRecord
  2
寸法線1
 70
     0
 62
     6
  6
CONTINUOUS
370
    13
390
F
  0
ENDTAB
  0
TABLE
  2
STYLE
  5
3
330
0
100
AcDbSymbolTable
 70
     3
  0
STYLE
  5
11
330
3
100
AcDbSymbolTableRecord
100
AcDbTextStyleTableRecord
  2
STANDARD
 70
     0
 40
0.0
 41
1.0
 50
0.0
 71
     0
 42
2.5
  3
txt.shx
  4
bigfont.shx
  0
STYLE
  5
12A
330
3
100
AcDbSymbolTableRecord
100
AcDbTextStyleTableRecord
  2

 70
     1
 40
0.0
 41
1.0
 50
0.0
 71
     0
 42
2.5
  3
ltypeshp.shx
  4

  0
STYLE
  5
27FE
330
3
100
AcDbSymbolTableRecord
100
AcDbTextStyleTableRecord
  2
ED_VECTOR
 70
     0
 40
0.0
 41
1.0
 50
0.0
 71
     0
 42
0.2
  3
MONOTXT.SHX
  4
BIGFONT.SHX
  0
ENDTAB
  0
TABLE
  2
VIEW
  5
6
330
0
100
AcDbSymbolTable
 70
     0
  0
ENDTAB
  0
TABLE
  2
UCS
  5
7
330
0
100
AcDbSymbolTable
 70
     0
  0
ENDTAB
  0
TABLE
  2
APPID
  5
9
330
0
100
AcDbSymbolTable
 70
    14
  0
APPID
  5
12
330
9
100
AcDbSymbolTableRecord
100
AcDbRegAppTableRecord
  2
ACAD
 70
     0
  0
APPID
  5
7E8
330
9
100
AcDbSymbolTableRecord
100
AcDbRegAppTableRecord
  2
ACAD_EXEMPT_FROM_CAD_STAND
 70
     0
  0
APPID
  5
893
330
9
100
AcDbSymbolTableRecord
100
AcDbRegAppTableRecord
  2
ACAD_DSTYLE_DIMTEXT_FILL
 70
     0
  0
APPID
  5
894
330
9
100
AcDbSymbolTableRecord
100
AcDbRegAppTableRecord
  2
ACAD_DSTYLE_DIMEXT_LENGTH
 70
     0
  0
APPID
  5
895
330
9
100
AcDbSymbolTableRecord
100
AcDbRegAppTableRecord
  2
ACAD_DSTYLE_DIMEXT_ENABLED
 70
     0
  0
APPID
  5
896
330
9
100
AcDbSymbolTableRecord
100
AcDbRegAppTableRecord
  2
ACAD_DSTYLE_DIM_LINETYPE
 70
     0
  0
APPID
  5
897
330
9
100
AcDbSymbolTableRecord
100
AcDbRegAppTableRecord
  2
ACAD_DSTYLE_DIM_EXT1_LINET
 70
     0
  0
APPID
  5
898
330
9
100
AcDbSymbolTableRecord
100
AcDbRegAppTableRecord
  2
ACAD_DSTYLE_DIM_EXT2_LINET
 70
     0
  0
APPID
  5
954
330
9
100
AcDbSymbolTableRecord
100
AcDbRegAppTableRecord
  2
ACAD_DSTYLE_DIMJOGGED_JOGA
 70
     0
  0
APPID
  5
BF8
330
9
100
AcDbSymbolTableRecord
100
AcDbRegAppTableRecord
  2
ACAD_DSTYLE_DIMARC_LENGTH_
 70
     0
  0
APPID
  5
F28
330
9
100
AcDbSymbolTableRecord
100
AcDbRegAppTableRecord
  2
ACAECLAYERSTANDARD
 70
     0
  0
APPID
  5
1403
330
9
100
AcDbSymbolTableRecord
100
AcDbRegAppTableRecord
  2
ACAD_PSEXT
 70
     0
  0
APPID
  5
27FF
330
9
100
AcDbSymbolTableRecord
100
AcDbRegAppTableRecord
  2
ACAD_DSTYLE_DIMJOGGED_JOGANGLE_SYMBOL
 70
     0
  0
APPID
  5
2800
330
9
100
AcDbSymbolTableRecord
100
AcDbRegAppTableRecord
  2
ACAD_DSTYLE_DIMARC_LENGTH_SYMBOL
 70
     0
  0
ENDTAB
  0
TABLE
  2
DIMSTYLE
  5
A
330
0
100
AcDbSymbolTable
 70
     1
100
AcDbDimStyleTable
 71
     1
340
27
  0
DIMSTYLE
105
27
102
{ACAD_REACTORS
330
1324
330
1325
330
1326
330
1327
330
1328
330
1329
330
132A
330
132B
330
132C
330
132D
330
1C56
330
1C63
330
1C71
330
1C7E
330
1C8B
330
1C98
330
1CA6
330
1E6B
330
1E8D
330
22B8
330
2307
330
2936
330
2929
330
269C
330
2560
330
2564
330
2563
330
25D0
330
2562
330
255F
330
2565
330
2561
330
25D7
330
269B
102
}
330
A
100
AcDbSymbolTableRecord
100
AcDbDimStyleTableRecord
  2
ISO-25
 70
     0
 40
4.5
 41
3.0
 42
1.0
 43
3.75
 44
1.25
 73
     0
 74
     0
 77
     1
 78
     8
140
3.0
141
2.5
143
0.03937007874016
147
1.0
171
     3
172
     1
271
     3
272
     3
274
     3
283
     0
284
     8
340
11
341
1E6
342
1E6
1001
ACAD_DSTYLE_DIMEXT_LENGTH
1070
   378
1040
1.25
1001
ACAD_DSTYLE_DIMEXT_ENABLED
1070
   383
1070
     0
1001
ACAD_DSTYLE_DIMARC_LENGTH_
1070
   379
1070
     0
1001
ACAD_DSTYLE_DIMJOGGED_JOGA
1070
   384
1040
0.7853981633974483
  0
ENDTAB
  0
TABLE
  2
BLOCK_RECORD
  5
1
330
0
100
AcDbSymbolTable
 70
    40
  0
BLOCK_RECORD
  5
1F
102
{ACAD_XDICTIONARY
360
803
102
}
330
1
100
AcDbSymbolTableRecord
100
AcDbBlockTableRecord
  2
*MODEL_SPACE
340
2376
  0
BLOCK_RECORD
  5
1B
102
{ACAD_XDICTIONARY
360
236A
102
}
330
1
100
AcDbSymbolTableRecord
100
AcDbBlockTableRecord
  2
*PAPER_SPACE
340
2377
  0
BLOCK_RECORD
  5
1E6
330
1
100
AcDbSymbolTableRecord
100
AcDbBlockTableRecord
  2
_OPEN
340
0
102
{BLKREFS
331
2289
331
228A
331
2277
331
2278
331
2280
331
2281
331
226E
331
226F
331
225C
331
225D
331
2253
331
2254
331
2294
331
2295
331
2265
331
2266
331
229D
331
229E
331
22BF
331
22C0
331
230C
331
230D
331
1D00
331
1D01
331
1D6B
331
1D6C
331
1D82
331
1D83
331
1D8B
331
1D8C
331
1E86
331
1E87
331
26A8
331
26A9
331
26B4
331
26B5
331
26C0
331
26C1
331
26CC
331
26CD
331
26D8
331
26D9
331
26E4
331
26E5
331
26F2
331
26F3
331
26FE
331
26FF
331
270A
331
270B
331
2718
331
2719
331
2724
331
2725
331
2575
331
2576
331
257E
331
257F
331
2587
331
2588
331
25D4
331
25D5
331
256B
331
256C
331
272F
331
2730
331
2738
331
2739
331
2741
331
2742
331
274A
331
274B
331
2753
331
2754
331
275C
331
275D
331
2767
331
2768
331
2770
331
2771
331
2779
331
277A
331
2784
331
2785
331
278D
331
278E
331
292E
331
292F
331
293D
331
293E
102
}
  0
BLOCK_RECORD
  5
690
330
1
100
AcDbSymbolTableRecord
100
AcDbBlockTableRecord
  2
Ａ_３_タイトルブロック
340
0
  0
BLOCK_RECORD
  5
127F
330
1
100
AcDbSymbolTableRecord
100
AcDbBlockTableRecord
  2
_OPEN30
340
0
102
{BLKREFS
331
128A
331
128B
331
1297
331
1298
331
12A4
331
12A5
331
12B0
331
12B1
331
12BC
331
12BD
331
12C8
331
12C9
331
12D4
331
12D5
331
12E0
331
12E1
331
12EC
331
12ED
331
12F8
331
12F9
102
}
  0
BLOCK_RECORD
  5
1285
330
1
100
AcDbSymbolTableRecord
100
AcDbBlockTableRecord
  2
*D3
340
0
  0
BLOCK_RECORD
  5
1291
330
1
100
AcDbSymbolTableRecord
100
AcDbBlockTableRecord
  2
*D4
340
0
  0
BLOCK_RECORD
  5
129E
330
1
100
AcDbSymbolTableRecord
100
AcDbBlockTableRecord
  2
*D5
340
0
  0
BLOCK_RECORD
  5
12AB
330
1
100
AcDbSymbolTableRecord
100
AcDbBlockTableRecord
  2
*D6
340
0
  0
BLOCK_RECORD
  5
12B7
330
1
100
AcDbSymbolTableRecord
100
AcDbBlockTableRecord
  2
*D7
340
0
  0
BLOCK_RECORD
  5
12C3
330
1
100
AcDbSymbolTableRecord
100
AcDbBlockTableRecord
  2
*D8
340
0
  0
BLOCK_RECORD
  5
12CF
330
1
100
AcDbSymbolTableRecord
100
AcDbBlockTableRecord
  2
*D9
340
0
  0
BLOCK_RECORD
  5
12DB
330
1
100
AcDbSymbolTableRecord
100
AcDbBlockTableRecord
  2
*D10
340
0
  0
BLOCK_RECORD
  5
12E7
330
1
100
AcDbSymbolTableRecord
100
AcDbBlockTableRecord
  2
*D11
340
0
  0
BLOCK_RECORD
  5
12F3
330
1
100
AcDbSymbolTableRecord
100
AcDbBlockTableRecord
  2
*D12
340
0
  0
BLOCK_RECORD
  5
12FF
102
{ACAD_XDICTIONARY
360
1300
102
}
330
1
100
AcDbSymbolTableRecord
100
AcDbBlockTableRecord
  2
A$C7D1D0C12
340
0
1001
ACAD
1000
DesignCenter Data
1002
{
1070
     1
1070
     4
1002
}
  0
BLOCK_RECORD
  5
1C57
330
1
100
AcDbSymbolTableRecord
100
AcDbBlockTableRecord
  2
*D14
340
0
  0
BLOCK_RECORD
  5
1C64
330
1
100
AcDbSymbolTableRecord
100
AcDbBlockTableRecord
  2
*D15
340
0
  0
BLOCK_RECORD
  5
1C72
330
1
100
AcDbSymbolTableRecord
100
AcDbBlockTableRecord
  2
*D16
340
0
  0
BLOCK_RECORD
  5
1C7F
330
1
100
AcDbSymbolTableRecord
100
AcDbBlockTableRecord
  2
*D17
340
0
  0
BLOCK_RECORD
  5
1C8C
330
1
100
AcDbSymbolTableRecord
100
AcDbBlockTableRecord
  2
*D18
340
0
  0
BLOCK_RECORD
  5
1C99
330
1
100
AcDbSymbolTableRecord
100
AcDbBlockTableRecord
  2
*D19
340
0
  0
BLOCK_RECORD
  5
1CA7
330
1
100
AcDbSymbolTableRecord
100
AcDbBlockTableRecord
  2
*D20
340
0
  0
BLOCK_RECORD
  5
1E6C
330
1
100
AcDbSymbolTableRecord
100
AcDbBlockTableRecord
  2
*D21
340
0
  0
BLOCK_RECORD
  5
1E8E
330
1
100
AcDbSymbolTableRecord
100
AcDbBlockTableRecord
  2
*D22
340
0
  0
BLOCK_RECORD
  5
22B9
330
1
100
AcDbSymbolTableRecord
100
AcDbBlockTableRecord
  2
*D23
340
0
  0
BLOCK_RECORD
  5
2308
330
1
100
AcDbSymbolTableRecord
100
AcDbBlockTableRecord
  2
*D24
340
0
  0
BLOCK_RECORD
  5
26A4
330
1
100
AcDbSymbolTableRecord
100
AcDbBlockTableRecord
  2
*D25
340
0
  0
BLOCK_RECORD
  5
26B0
330
1
100
AcDbSymbolTableRecord
100
AcDbBlockTableRecord
  2
*D26
340
0
  0
BLOCK_RECORD
  5
26BC
330
1
100
AcDbSymbolTableRecord
100
AcDbBlockTableRecord
  2
*D27
340
0
  0
BLOCK_RECORD
  5
26C8
330
1
100
AcDbSymbolTableRecord
100
AcDbBlockTableRecord
  2
*D28
340
0
  0
BLOCK_RECORD
  5
26D4
330
1
100
AcDbSymbolTableRecord
100
AcDbBlockTableRecord
  2
*D29
340
0
  0
BLOCK_RECORD
  5
26E0
330
1
100
AcDbSymbolTableRecord
100
AcDbBlockTableRecord
  2
*D30
340
0
  0
BLOCK_RECORD
  5
26EC
330
1
100
AcDbSymbolTableRecord
100
AcDbBlockTableRecord
  2
*D31
340
0
  0
BLOCK_RECORD
  5
26FA
330
1
100
AcDbSymbolTableRecord
100
AcDbBlockTableRecord
  2
*D32
340
0
  0
BLOCK_RECORD
  5
2706
330
1
100
AcDbSymbolTableRecord
100
AcDbBlockTableRecord
  2
*D33
340
0
  0
BLOCK_RECORD
  5
2712
330
1
100
AcDbSymbolTableRecord
100
AcDbBlockTableRecord
  2
*D34
340
0
  0
BLOCK_RECORD
  5
2720
330
1
100
AcDbSymbolTableRecord
100
AcDbBlockTableRecord
  2
*D35
340
0
  0
BLOCK_RECORD
  5
279A
330
1
100
AcDbSymbolTableRecord
100
AcDbBlockTableRecord
  2
Ａ－３　アンナカ用紙
340
0
102
{BLKREFS
331
2802
331
2820
102
}
1001
ACAD
1000
DesignCenter Data
1002
{
1070
     1
1070
     4
1002
}
  0
BLOCK_RECORD
  5
292A
330
1
100
AcDbSymbolTableRecord
100
AcDbBlockTableRecord
  2
*D38
340
0
  0
BLOCK_RECORD
  5
2937
330
1
100
AcDbSymbolTableRecord
100
AcDbBlockTableRecord
  2
*D39
340
0
  0
ENDTAB
  0
ENDSEC
  0
SECTION
  2
BLOCKS
  0
BLOCK
  5
20
330
1F
100
AcDbEntity
  8
0
100
AcDbBlockBegin
  2
*MODEL_SPACE
 70
     0
 10
0.0
 20
0.0
 30
0.0
  3
*MODEL_SPACE
  1

  0
ENDBLK
  5
21
330
1F
100
AcDbEntity
  8
0
100
AcDbBlockEnd
  0
BLOCK
  5
1C
330
1B
100
AcDbEntity
 67
     1
  8
0
100
AcDbBlockBegin
  2
*PAPER_SPACE
 70
     0
 10
0.0
 20
0.0
 30
0.0
  3
*PAPER_SPACE
  1

  0
ENDBLK
  5
1D
330
1B
100
AcDbEntity
 67
     1
  8
0
100
AcDbBlockEnd
  0
BLOCK
  5
1EA
330
1E6
100
AcDbEntity
  8
0
100
AcDbBlockBegin
  2
_OPEN
 70
     0
 10
0.0
 20
0.0
 30
0.0
  3
_OPEN
  1

  0
LINE
  5
1E7
330
1E6
100
AcDbEntity
  8
7_中心線2中
 62
     0
100
AcDbLine
 10
-1.0
 20
0.1666666666666666
 30
0.0
 11
0.0
 21
0.0
 31
0.0
  0
LINE
  5
1E8
330
1E6
100
AcDbEntity
  8
7_中心線2中
 62
     0
100
AcDbLine
 10
-1.0
 20
-0.1666666666666666
 30
0.0
 11
0.0
 21
0.0
 31
0.0
  0
LINE
  5
1E9
330
1E6
100
AcDbEntity
  8
7_中心線2中
 62
     0
100
AcDbLine
 10
0.0
 20
0.0
 30
0.0
 11
-1.0
 21
0.0
 31
0.0
  0
ENDBLK
  5
1EB
330
1E6
100
AcDbEntity
  8
0
100
AcDbBlockEnd
  0
BLOCK
  5
6F0
330
690
100
AcDbEntity
  8
0
100
AcDbBlockBegin
  2
Ａ_３_タイトルブロック
 70
     0
 10
0.0
 20
0.0
 30
0.0
  3
Ａ_３_タイトルブロック
  1

  0
LINE
  5
1F18
330
690
100
AcDbEntity
  8
0
100
AcDbLine
 10
409.9999999999998
 20
10.0
 30
0.0
 11
409.9999999999998
 21
38.0
 31
0.0
  0
LINE
  5
1F19
330
690
100
AcDbEntity
  8
0
100
AcDbLine
 10
409.9999999999998
 20
287.0
 30
0.0
 11
24.99999999999994
 21
287.0
 31
0.0
  0
LINE
  5
1F1A
330
690
100
AcDbEntity
  8
0
100
AcDbLine
 10
229.9999999999999
 20
10.0
 30
0.0
 11
409.9999999999998
 21
10.0
 31
0.0
  0
LINE
  5
1F1B
330
690
100
AcDbEntity
  8
0
100
AcDbLine
 10
24.99999999999994
 20
287.0
 30
0.0
 11
25.0
 21
10.0
 31
0.0
  0
LINE
  5
1F1C
330
690
100
AcDbEntity
  8
0
100
AcDbLine
 10
304.9999999999998
 20
22.0
 30
0.0
 11
409.9999999999998
 21
22.0
 31
0.0
  0
LINE
  5
1F1D
330
690
100
AcDbEntity
  8
0
100
AcDbLine
 10
304.9999999999998
 20
30.0
 30
0.0
 11
409.9999999999998
 21
30.0
 31
0.0
  0
LINE
  5
1F1E
330
690
100
AcDbEntity
  8
0
100
AcDbLine
 10
229.9999999999999
 20
38.0
 30
0.0
 11
409.9999999999998
 21
38.0
 31
0.0
  0
LINE
  5
1F1F
330
690
100
AcDbEntity
  8
0
100
AcDbLine
 10
304.9999999999998
 20
10.0
 30
0.0
 11
304.9999999999998
 21
38.0
 31
0.0
  0
LINE
  5
1F20
330
690
100
AcDbEntity
  8
0
100
AcDbLine
 10
229.9999999999999
 20
10.0
 30
0.0
 11
229.9999999999999
 21
38.0
 31
0.0
  0
LINE
  5
1F21
330
690
100
AcDbEntity
  8
0
100
AcDbLine
 10
328.9999999999999
 20
30.0
 30
0.0
 11
328.9999999999999
 21
38.0
 31
0.0
  0
LINE
  5
1F22
330
690
100
AcDbEntity
  8
0
100
AcDbLine
 10
336.9999999999998
 20
30.0
 30
0.0
 11
336.9999999999998
 21
38.0
 31
0.0
  0
LINE
  5
1F23
330
690
100
AcDbEntity
  8
0
100
AcDbLine
 10
344.9999999999998
 20
30.0
 30
0.0
 11
344.9999999999998
 21
38.0
 31
0.0
  0
LINE
  5
1F24
330
690
100
AcDbEntity
  8
0
100
AcDbLine
 10
352.9999999999998
 20
30.0
 30
0.0
 11
352.9999999999998
 21
38.0
 31
0.0
  0
LINE
  5
1F25
330
690
100
AcDbEntity
  8
0
100
AcDbLine
 10
367.9999999999998
 20
30.0
 30
0.0
 11
367.9999999999998
 21
38.0
 31
0.0
  0
LINE
  5
1F26
330
690
100
AcDbEntity
  8
0
100
AcDbLine
 10
375.9999999999998
 20
30.0
 30
0.0
 11
375.9999999999998
 21
38.0
 31
0.0
  0
LINE
  5
1F27
330
690
100
AcDbEntity
  8
0
100
AcDbLine
 10
393.9999999999998
 20
30.0
 30
0.0
 11
393.9999999999998
 21
38.0
 31
0.0
  0
LINE
  5
1F28
330
690
100
AcDbEntity
  8
0
100
AcDbLine
 10
401.9999999999998
 20
30.0
 30
0.0
 11
401.9999999999998
 21
38.0
 31
0.0
  0
LINE
  5
1F29
330
690
100
AcDbEntity
  8
0
100
AcDbLine
 10
362.9999999999998
 20
10.0
 30
0.0
 11
362.9999999999998
 21
30.0
 31
0.0
  0
LINE
  5
1F2A
330
690
100
AcDbEntity
  8
0
100
AcDbLine
 10
304.9999999999998
 20
30.0
 30
0.0
 11
230.0
 21
30.00000000000005
 31
0.0
  0
LINE
  5
1F2B
330
690
100
AcDbEntity
  8
0
100
AcDbLine
 10
304.9999999999998
 20
34.0
 30
0.0
 11
230.0
 21
34.00000000000005
 31
0.0
  0
LINE
  5
1F2C
330
690
100
AcDbEntity
  8
0
100
AcDbLine
 10
304.9999999999998
 20
26.0
 30
0.0
 11
229.9999999999999
 21
26.00000000000005
 31
0.0
  0
LINE
  5
1F2D
330
690
100
AcDbEntity
  8
0
100
AcDbLine
 10
229.9999999999999
 20
14.0
 30
0.0
 11
304.9999999999998
 21
14.0
 31
0.0
  0
LINE
  5
1F2E
330
690
100
AcDbEntity
  8
0
100
AcDbLine
 10
304.9999999999998
 20
34.0
 30
0.0
 11
328.9999999999999
 21
34.0
 31
0.0
  0
LINE
  5
1F2F
330
690
100
AcDbEntity
  8
0
100
AcDbLine
 10
281.9999999999998
 20
10.0
 30
0.0
 11
281.9999999999998
 21
38.0
 31
0.0
  0
LINE
  5
1F30
330
690
100
AcDbEntity
  8
0
100
AcDbLine
 10
281.9999999999998
 20
18.0
 30
0.0
 11
304.9999999999998
 21
18.0
 31
0.0
  0
LINE
  5
1F31
330
690
100
AcDbEntity
  8
0
100
AcDbLine
 10
281.9999999999998
 20
22.0
 30
0.0
 11
304.9999999999998
 21
22.0
 31
0.0
  0
LINE
  5
1F32
330
690
100
AcDbEntity
  8
0
100
AcDbLine
 10
268.9999999999999
 20
10.0
 30
0.0
 11
268.9999999999999
 21
26.00000000000003
 31
0.0
  0
LINE
  5
1F33
330
690
100
AcDbEntity
  8
0
100
AcDbLine
 10
255.9999999999999
 20
10.0
 30
0.0
 11
255.9999999999999
 21
26.00000000000004
 31
0.0
  0
LINE
  5
1F34
330
690
100
AcDbEntity
  8
0
100
AcDbLine
 10
242.9999999999999
 20
10.0
 30
0.0
 11
242.9999999999999
 21
26.00000000000004
 31
0.0
  0
LINE
  5
1F35
330
690
100
AcDbEntity
  8
0
100
AcDbLine
 10
293.9999999999999
 20
10.0
 30
0.0
 11
294.0
 21
34.0
 31
0.0
  0
LINE
  5
1F36
330
690
100
AcDbEntity
  8
0
100
AcDbLine
 10
273.9999999999999
 20
26.00000000000001
 30
0.0
 11
273.9999999999999
 21
38.0
 31
0.0
  0
LINE
  5
1F37
330
690
100
AcDbEntity
  8
0
100
AcDbLine
 10
309.9999999999998
 20
22.0
 30
0.0
 11
309.9999999999998
 21
30.0
 31
0.0
  0
LINE
  5
1F38
330
690
100
AcDbEntity
  8
0
100
AcDbLine
 10
367.9999999999998
 20
10.0
 30
0.0
 11
367.9999999999998
 21
30.0
 31
0.0
  0
MTEXT
  5
1F39
330
690
100
AcDbEntity
  8
0
100
AcDbMText
 10
231.3237766005161
 20
29.2480664031666
 30
0.0
 40
2.5
 41
10.9292
 71
     1
 72
     5
  1
記号
 73
     1
 44
1.0
1001
ACAD
1000
MTEXTBEGIN
1070
    73
1070
     1
1070
    44
1040
1.0
1070
    74
1070
     0
1000
MTEXTEND
1000
MTEXTBEGIN
1070
    73
1070
     1
1070
    44
1040
1.0
1070
    74
1070
     0
1000
MTEXTEND
  0
MTEXT
  5
1F3A
330
690
100
AcDbEntity
  8
0
100
AcDbMText
 10
239.9664659250005
 20
29.2480657116174
 30
0.0
 40
2.5
 41
9.8658
 71
     1
 72
     5
  1
日　付
 73
     1
 44
1.0
1001
ACAD
1000
MTEXTBEGIN
1070
    73
1070
     1
1070
    44
1040
1.0
1070
    74
1070
     0
1000
MTEXTEND
1000
MTEXTBEGIN
1070
    73
1070
     1
1070
    44
1040
1.0
1070
    74
1070
     0
1000
MTEXTEND
  0
MTEXT
  5
1F3B
330
690
100
AcDbEntity
  8
0
100
AcDbMText
 10
256.5079356953284
 20
29.24806709471578
 30
0.0
 40
2.5
 41
16.4233
 71
     1
 72
     5
  1
訂　　正
 73
     1
 44
1.0
1001
ACAD
1000
MTEXTBEGIN
1070
    73
1070
     1
1070
    44
1040
1.0
1070
    74
1070
     0
1000
MTEXTEND
1000
MTEXTBEGIN
1070
    73
1070
     1
1070
    44
1040
1.0
1070
    74
1070
     0
1000
MTEXTEND
  0
MTEXT
  5
1F3C
330
690
100
AcDbEntity
  8
0
100
AcDbMText
 10
275.3533972540202
 20
29.3071198655848
 30
0.0
 40
2.5
 41
10.6929
 71
     1
 72
     5
  1
担当
 73
     1
 44
1.0
1001
ACAD
1000
MTEXTBEGIN
1070
    73
1070
     1
1070
    44
1040
1.0
1070
    74
1070
     0
1000
MTEXTEND
1000
MTEXTBEGIN
1070
    73
1070
     1
1070
    44
1040
1.0
1070
    74
1070
     0
1000
MTEXTEND
  0
LINE
  5
1F3D
330
690
100
AcDbEntity
  8
0
100
AcDbLine
 10
238.0
 20
26.00000000000004
 30
0.0
 11
237.9999999999999
 21
38.0
 31
0.0
  0
LINE
  5
1F3E
330
690
100
AcDbEntity
  8
0
100
AcDbLine
 10
250.0
 20
26.00000000000004
 30
0.0
 11
249.9999999999999
 21
38.0
 31
0.0
  0
LINE
  5
1F3F
330
690
100
AcDbEntity
  8
0
100
AcDbLine
 10
231.9999999999999
 20
34.00000000000005
 30
0.0
 11
235.9999999999998
 21
34.00000000000005
 31
0.0
  0
MTEXT
  5
1F40
330
690
100
AcDbEntity
  8
0
100
AcDbMText
 10
232.168344662744
 20
13.36253702110434
 30
0.0
 40
2.5
 41
15.3009
 71
     1
 72
     5
  1
設　計
 73
     1
 44
1.0
1001
ACAD
1000
MTEXTBEGIN
1070
    73
1070
     1
1070
    44
1040
1.0
1070
    74
1070
     0
1000
MTEXTEND
1000
MTEXTBEGIN
1070
    73
1070
     1
1070
    44
1040
1.0
1070
    74
1070
     0
1000
MTEXTEND
  0
MTEXT
  5
1F41
330
690
100
AcDbEntity
  8
0
100
AcDbMText
 10
245.2242900941809
 20
13.2444294047184
 30
0.0
 40
2.5
 41
13.2332
 71
     1
 72
     5
  1
製　図
 73
     1
 44
1.0
1001
ACAD
1000
MTEXTBEGIN
1070
    73
1070
     1
1070
    44
1040
1.0
1070
    74
1070
     0
1000
MTEXTEND
1000
MTEXTBEGIN
1070
    73
1070
     1
1070
    44
1040
1.0
1070
    74
1070
     0
1000
MTEXTEND
  0
MTEXT
  5
1F42
330
690
100
AcDbEntity
  8
0
100
AcDbMText
 10
258.2802355256166
 20
13.24442871316921
 30
0.0
 40
2.5
 41
12.2289
 71
     1
 72
     5
  1
検　図
 73
     1
 44
1.0
1001
ACAD
1000
MTEXTBEGIN
1070
    73
1070
     1
1070
    44
1040
1.0
1070
    74
1070
     0
1000
MTEXTEND
1000
MTEXTBEGIN
1070
    73
1070
     1
1070
    44
1040
1.0
1070
    74
1070
     0
1000
MTEXTEND
  0
MTEXT
  5
1F43
330
690
100
AcDbEntity
  8
0
100
AcDbMText
 10
271.2180283046965
 20
13.24442871316921
 30
0.0
 40
2.5
 41
8.5661
 71
     1
 72
     5
  1
承　認
 73
     1
 44
1.0
1001
ACAD
1000
MTEXTBEGIN
1070
    73
1070
     1
1070
    44
1040
1.0
1070
    74
1070
     0
1000
MTEXTEND
1000
MTEXTBEGIN
1070
    73
1070
     1
1070
    44
1040
1.0
1070
    74
1070
     0
1000
MTEXTEND
  0
LINE
  5
1F44
330
690
100
AcDbEntity
  8
0
100
AcDbLine
 10
409.9999999999998
 20
10.0
 30
0.0
 11
409.9999999999998
 21
287.0
 31
0.0
  0
LINE
  5
1F45
330
690
100
AcDbEntity
  8
0
100
AcDbLine
 10
25.0
 20
10.0
 30
0.0
 11
409.9999999999998
 21
10.0
 31
0.0
  0
MTEXT
  5
1F46
330
690
100
AcDbEntity
  8
0
100
AcDbMText
 10
286.8057466895101
 20
37.28748650804993
 30
0.0
 40
2.5
 41
21.2646
 71
     1
 72
     5
  1
寸 法 差
 73
     1
 44
1.0
1001
ACAD
1000
MTEXTBEGIN
1070
    73
1070
     1
1070
    44
1040
1.0
1070
    74
1070
     0
1000
MTEXTEND
1000
MTEXTBEGIN
1070
    73
1070
     1
1070
    44
1040
1.0
1070
    74
1070
     0
1000
MTEXTEND
  0
TEXT
  5
1F47
330
690
100
AcDbEntity
  8
0
100
AcDbText
 10
294.5342705509705
 20
30.58353183815869
 30
0.0
 40
2.5
  1
±
100
AcDbText
  0
TEXT
  5
1F48
330
690
100
AcDbEntity
  8
0
100
AcDbText
 10
297.0342705509705
 20
30.58353183815869
 30
0.0
 40
2.5
  1
0.05
100
AcDbText
  0
TEXT
  5
1F49
330
690
100
AcDbEntity
  8
0
100
AcDbText
 10
292.5686336695338
 20
26.86342893006537
 30
0.0
 40
2.5
  1
　 0.1
100
AcDbText
  0
TEXT
  5
1F4A
330
690
100
AcDbEntity
  8
0
100
AcDbText
 10
292.3899411426205
 20
22.69676226339871
 30
0.0
 40
2.5
  1
　 0.15
100
AcDbText
  0
TEXT
  5
1F4B
330
690
100
AcDbEntity
  8
0
100
AcDbText
 10
292.4792879083246
 20
18.61940848675656
 30
0.0
 40
2.5
  1
　 0.2
100
AcDbText
  0
TEXT
  5
1F4C
330
690
100
AcDbEntity
  8
0
100
AcDbText
 10
292.5686346740281
 20
14.72068049016351
 30
0.0
 40
2.5
  1
　 0.3
100
AcDbText
  0
TEXT
  5
1F4D
330
690
100
AcDbEntity
  8
0
100
AcDbText
 10
292.4792879083246
 20
10.73263891199659
 30
0.0
 40
2.5
  1
　 0.5
100
AcDbText
  0
TEXT
  5
1F4E
330
690
100
AcDbEntity
  8
0
100
AcDbText
 10
288.9947509874531
 20
30.76215761820765
 30
0.0
 40
2.5
  1
0～
100
AcDbText
  0
TEXT
  5
1F4F
330
690
100
AcDbEntity
  8
0
100
AcDbText
 10
288.6373629201438
 20
26.68480315001632
 30
0.0
 40
2.5
  1
6～
100
AcDbText
  0
TEXT
  5
1F50
330
690
100
AcDbEntity
  8
0
100
AcDbText
 10
286.4930325072998
 20
22.78607515342325
 30
0.0
 40
2.5
  1
30～
100
AcDbText
  0
TEXT
  5
1F51
330
690
100
AcDbEntity
  8
0
100
AcDbText
 10
284.9741314633705
 20
18.79803426680553
 30
0.0
 40
2.5
  1
120～
100
AcDbText
  0
TEXT
  5
1F52
330
690
100
AcDbEntity
  8
0
100
AcDbText
 10
284.2593543242577
 20
14.7206797986142
 30
0.0
 40
2.5
  1
315～
100
AcDbText
  0
TEXT
  5
1F53
330
690
100
AcDbEntity
  8
0
100
AcDbText
 10
283.1871901223301
 20
10.64332602197207
 30
0.0
 40
2.5
  1
1000～
100
AcDbText
  0
LINE
  5
1F54
330
690
100
AcDbEntity
  8
0
100
AcDbLine
 10
310.3995670880193
 20
37.12761554280756
 30
0.0
 11
311.5995670880193
 21
34.62761554280756
 31
0.0
  0
LINE
  5
1F55
330
690
100
AcDbEntity
  8
0
100
AcDbLine
 10
311.5995670880193
 20
34.62761554280756
 30
0.0
 11
312.7995670880191
 21
37.12761554280756
 31
0.0
  0
LINE
  5
1F56
330
690
100
AcDbEntity
  8
0
100
AcDbLine
 10
312.7995670880191
 20
37.12761554280756
 30
0.0
 11
310.3995670880193
 21
37.12761554280756
 31
0.0
  0
LINE
  5
1F57
330
690
100
AcDbEntity
  8
0
100
AcDbLine
 10
315.6201866121018
 20
34.62761554280756
 30
0.0
 11
316.8201866121018
 21
37.12761554280756
 31
0.0
  0
LINE
  5
1F58
330
690
100
AcDbEntity
  8
0
100
AcDbLine
 10
314.420186612102
 20
37.12761554280756
 30
0.0
 11
315.6201866121018
 21
34.62761554280756
 31
0.0
  0
LINE
  5
1F59
330
690
100
AcDbEntity
  8
0
100
AcDbLine
 10
316.8201866121018
 20
37.12761554280756
 30
0.0
 11
314.420186612102
 21
37.12761554280756
 31
0.0
  0
LINE
  5
1F5A
330
690
100
AcDbEntity
  8
0
100
AcDbLine
 10
318.0201866121018
 20
34.62761554280756
 30
0.0
 11
319.2201866121018
 21
37.12761554280756
 31
0.0
  0
LINE
  5
1F5B
330
690
100
AcDbEntity
  8
0
100
AcDbLine
 10
316.8201866121018
 20
37.12761554280756
 30
0.0
 11
318.0201866121018
 21
34.62761554280756
 31
0.0
  0
LINE
  5
1F5C
330
690
100
AcDbEntity
  8
0
100
AcDbLine
 10
319.2201866121018
 20
37.12761554280756
 30
0.0
 11
316.8201866121018
 21
37.12761554280756
 31
0.0
  0
LINE
  5
1F5D
330
690
100
AcDbEntity
  8
0
100
AcDbLine
 10
323.0236245769026
 20
37.12761554280756
 30
0.0
 11
324.2236245769026
 21
34.62761554280756
 31
0.0
  0
LINE
  5
1F5E
330
690
100
AcDbEntity
  8
0
100
AcDbLine
 10
324.2236245769026
 20
34.62761554280756
 30
0.0
 11
325.4236245769026
 21
37.12761554280756
 31
0.0
  0
LINE
  5
1F5F
330
690
100
AcDbEntity
  8
0
100
AcDbLine
 10
320.6236245769026
 20
37.12761554280756
 30
0.0
 11
321.8236245769026
 21
34.62761554280756
 31
0.0
  0
LINE
  5
1F60
330
690
100
AcDbEntity
  8
0
100
AcDbLine
 10
321.8236245769026
 20
34.62761554280756
 30
0.0
 11
323.0236245769026
 21
37.12761554280756
 31
0.0
  0
LINE
  5
1F61
330
690
100
AcDbEntity
  8
0
100
AcDbLine
 10
323.0236245769026
 20
37.12761554280756
 30
0.0
 11
320.6236245769026
 21
37.12761554280756
 31
0.0
  0
LINE
  5
1F62
330
690
100
AcDbEntity
  8
0
100
AcDbLine
 10
325.4236245769026
 20
37.12761554280756
 30
0.0
 11
323.0236245769026
 21
37.12761554280756
 31
0.0
  0
LINE
  5
1F63
330
690
100
AcDbEntity
  8
0
100
AcDbLine
 10
326.6236245769026
 20
34.62761554280756
 30
0.0
 11
327.8236245769026
 21
37.12761554280756
 31
0.0
  0
LINE
  5
1F64
330
690
100
AcDbEntity
  8
0
100
AcDbLine
 10
325.4236245769026
 20
37.12761554280756
 30
0.0
 11
326.6236245769026
 21
34.62761554280756
 31
0.0
  0
LINE
  5
1F65
330
690
100
AcDbEntity
  8
0
100
AcDbLine
 10
327.8236245769026
 20
37.12761554280756
 30
0.0
 11
325.4236245769026
 21
37.12761554280756
 31
0.0
  0
MTEXT
  5
1F66
330
690
100
AcDbEntity
  8
0
100
AcDbMText
 10
306.4174345873165
 20
37.12761623435686
 30
0.0
 40
2.5
 41
5.450199999999997
 71
     1
 72
     5
  1
～
 73
     1
 44
1.0
1001
ACAD
1000
MTEXTBEGIN
1070
    73
1070
     1
1070
    44
1040
1.0
1070
    74
1070
     0
1000
MTEXTEND
1000
MTEXTBEGIN
1070
    73
1070
     1
1070
    44
1040
1.0
1070
    74
1070
     0
1000
MTEXTEND
  0
MTEXT
  5
1F67
330
690
100
AcDbEntity
  8
0
100
AcDbMText
 10
311.6889138537227
 20
33.10853964099931
 30
0.0
 40
2.5
 41
37.4364
 71
     1
 72
     5
  1
仕　　上
 73
     1
 44
1.0
1001
ACAD
1000
MTEXTBEGIN
1070
    73
1070
     1
1070
    44
1040
1.0
1070
    74
1070
     0
1000
MTEXTEND
1000
MTEXTBEGIN
1070
    73
1070
     1
1070
    44
1040
1.0
1070
    74
1070
     0
1000
MTEXTEND
  0
MTEXT
  5
1F68
330
690
100
AcDbEntity
  8
0
100
AcDbMText
 10
306.4174345873165
 20
29.26808813614161
 30
0.0
 40
2.5
 41
6.5223
 71
     1
 72
     5
  1
品\P名
 73
     1
 44
1.0
1001
ACAD
1000
MTEXTBEGIN
1070
    73
1070
     1
1070
    44
1040
1.0
1070
    74
1070
     0
1000
MTEXTEND
1000
MTEXTBEGIN
1070
    73
1070
     1
1070
    44
1040
1.0
1070
    74
1070
     0
1000
MTEXTEND
  0
MTEXT
  5
1F69
330
690
100
AcDbEntity
  8
0
100
AcDbMText
 10
364.2164998961196
 20
29.26808813614161
 30
0.0
 40
2.5
 41
5.628899999999998
 71
     1
 72
     5
  1
機\P名
 73
     1
 44
1.0
1001
ACAD
1000
MTEXTBEGIN
1070
    73
1070
     1
1070
    44
1040
1.0
1070
    74
1070
     0
1000
MTEXTEND
1000
MTEXTBEGIN
1070
    73
1070
     1
1070
    44
1040
1.0
1070
    74
1070
     0
1000
MTEXTEND
  0
MTEXT
  5
1F6A
330
690
100
AcDbEntity
  8
0
100
AcDbMText
 10
364.3058466618231
 20
19.26505206043634
 30
0.0
 40
2.5
 41
4.1993
 71
     1
 72
     5
  1
図\P番
 73
     1
 44
1.0
1001
ACAD
1000
MTEXTBEGIN
1070
    73
1070
     1
1070
    44
1040
1.0
1070
    74
1070
     0
1000
MTEXTEND
1000
MTEXTBEGIN
1070
    73
1070
     1
1070
    44
1040
1.0
1070
    74
1070
     0
1000
MTEXTEND
  0
MTEXT
  5
1F6B
330
690
100
AcDbEntity
  8
0
100
AcDbMText
 10
330.6282434075291
 20
39.36043710187152
 30
0.0
 40
2.5
 41
11.79379999999998
 71
     1
 72
     5
  1
\P尺度
 73
     1
 44
1.0
1001
ACAD
1000
MTEXTBEGIN
1070
    73
1070
     1
1070
    44
1040
1.0
1070
    74
1070
     0
1000
MTEXTEND
1000
MTEXTBEGIN
1070
    73
1070
     1
1070
    44
1040
1.0
1070
    74
1070
     0
1000
MTEXTEND
  0
LINE
  5
1F6C
330
690
100
AcDbEntity
  8
0
100
AcDbLine
 10
343.9999999999998
 20
37.0
 30
0.0
 11
337.9999999999999
 21
31.0
 31
0.0
  0
MTEXT
  5
1F6D
330
690
100
AcDbEntity
  8
0
100
AcDbMText
 10
346.3533324320558
 20
35.34135981696477
 30
0.0
 40
2.5
 41
8.934699999999997
 71
     1
 72
     5
  1
材質
 73
     1
 44
1.0
1001
ACAD
1000
MTEXTBEGIN
1070
    73
1070
     1
1070
    44
1040
1.0
1070
    74
1070
     0
1000
MTEXTEND
1000
MTEXTBEGIN
1070
    73
1070
     1
1070
    44
1040
1.0
1070
    74
1070
     0
1000
MTEXTEND
  0
MTEXT
  5
1F6E
330
690
100
AcDbEntity
  8
0
100
AcDbMText
 10
369.5835789060311
 20
35.16273472846501
 30
0.0
 40
2.5
 41
9.1134
 71
     1
 72
     5
  1
処理
 73
     1
 44
1.0
1001
ACAD
1000
MTEXTBEGIN
1070
    73
1070
     1
1070
    44
1040
1.0
1070
    74
1070
     0
1000
MTEXTEND
1000
MTEXTBEGIN
1070
    73
1070
     1
1070
    44
1040
1.0
1070
    74
1070
     0
1000
MTEXTEND
  0
MTEXT
  5
1F6F
330
690
100
AcDbEntity
  8
0
100
AcDbMText
 10
395.315542855665
 20
35.25204692694021
 30
0.0
 40
2.5
 41
7.9519
 71
     1
 72
     5
  1
個数
 73
     1
 44
1.0
1001
ACAD
1000
MTEXTBEGIN
1070
    73
1070
     1
1070
    44
1040
1.0
1070
    74
1070
     0
1000
MTEXTEND
1000
MTEXTBEGIN
1070
    73
1070
     1
1070
    44
1040
1.0
1070
    74
1070
     0
1000
MTEXTEND
  0
LINE
  5
1F70
330
690
100
AcDbEntity
  8
0
100
AcDbLine
 10
233.9999999999999
 20
38.0
 30
0.0
 11
231.6999999999999
 21
34.00000000000005
 31
0.0
  0
LINE
  5
1F71
330
690
100
AcDbEntity
  8
0
100
AcDbLine
 10
231.6999999999999
 20
34.00000000000005
 30
0.0
 11
236.2999999999999
 21
34.00000000000005
 31
0.0
  0
LINE
  5
1F72
330
690
100
AcDbEntity
  8
0
100
AcDbLine
 10
236.2999999999999
 20
34.00000000000005
 30
0.0
 11
233.9999999999999
 21
38.0
 31
0.0
  0
LINE
  5
1F73
330
690
100
AcDbEntity
  8
0
100
AcDbLine
 10
233.9999999999999
 20
34.00000000000005
 30
0.0
 11
231.6999999999999
 21
30.00000000000005
 31
0.0
  0
LINE
  5
1F74
330
690
100
AcDbEntity
  8
0
100
AcDbLine
 10
231.6999999999999
 20
30.00000000000005
 30
0.0
 11
236.2999999999999
 21
30.00000000000005
 31
0.0
  0
LINE
  5
1F75
330
690
100
AcDbEntity
  8
0
100
AcDbLine
 10
236.2999999999999
 20
30.00000000000005
 30
0.0
 11
233.9999999999999
 21
34.00000000000005
 31
0.0
  0
ENDBLK
  5
6F1
330
690
100
AcDbEntity
  8
0
100
AcDbBlockEnd
  0
BLOCK
  5
1280
330
127F
100
AcDbEntity
  8
0
100
AcDbBlockBegin
  2
_OPEN30
 70
     0
 10
0.0
 20
0.0
 30
0.0
  3
_OPEN30
  1

  0
LINE
  5
1281
330
127F
100
AcDbEntity
  8
0
  6
ByBlock
 62
     0
100
AcDbLine
 10
-1.0
 20
0.26794919
 30
0.0
 11
0.0
 21
0.0
 31
0.0
  0
LINE
  5
1282
330
127F
100
AcDbEntity
  8
0
  6
ByBlock
 62
     0
100
AcDbLine
 10
0.0
 20
0.0
 30
0.0
 11
-1.0
 21
-0.26794919
 31
0.0
  0
LINE
  5
1283
330
127F
100
AcDbEntity
  8
0
  6
ByBlock
 62
     0
100
AcDbLine
 10
0.0
 20
0.0
 30
0.0
 11
-1.0
 21
0.0
 31
0.0
  0
ENDBLK
  5
1284
330
127F
100
AcDbEntity
  8
0
100
AcDbBlockEnd
  0
BLOCK
  5
1286
330
1285
100
AcDbEntity
  8
0
100
AcDbBlockBegin
  2
*D3
 70
     1
 10
0.0
 20
0.0
 30
0.0
  3
*D3
  1

  0
LINE
  5
1287
330
1285
100
AcDbEntity
  8
寸法線
 62
     0
100
AcDbLine
 10
562.6995677391184
 20
483.1511232420789
 30
0.0
 11
601.6995677391187
 21
483.1511232420789
 31
0.0
  0
LINE
  5
1288
330
1285
100
AcDbEntity
  8
寸法線
 62
     0
100
AcDbLine
 10
562.6995677391184
 20
203.1511232420788
 30
0.0
 11
601.6995677391187
 21
203.1511232420788
 31
0.0
  0
LINE
  5
1289
330
1285
100
AcDbEntity
  8
寸法線
 62
     0
100
AcDbLine
 10
599.1995677391187
 20
477.1511232420787
 30
0.0
 11
599.1995677391187
 21
209.1511232420788
 31
0.0
  0
INSERT
  5
128A
330
1285
100
AcDbEntity
  8
寸法線
 62
     0
100
AcDbBlockReference
  2
_OPEN30
 10
599.1995677391187
 20
483.1511232420789
 30
0.0
 41
6.0
 42
6.0
 43
6.0
 50
90.0
  0
INSERT
  5
128B
330
1285
100
AcDbEntity
  8
寸法線
 62
     0
100
AcDbBlockReference
  2
_OPEN30
 10
599.1995677391187
 20
203.1511232420788
 30
0.0
 41
6.0
 42
6.0
 43
6.0
 50
270.0
  0
MTEXT
  5
128C
330
1285
100
AcDbEntity
  8
寸法線
 62
     0
100
AcDbMText
 10
594.7495677391186
 20
343.151123242079
 30
0.0
 40
6.4
 41
0.0
 71
     5
 72
     1
  1
280
 11
0.0000000000000001
 21
1.0
 31
0.0
 73
     1
 44
1.0
1001
ACAD
1000
MTEXTBEGIN
1070
    73
1070
     1
1070
    44
1040
1.0
1070
    74
1070
     0
1000
MTEXTEND
1000
MTEXTBEGIN
1070
    73
1070
     1
1070
    44
1040
1.0
1070
    74
1070
     0
1000
MTEXTEND
  0
POINT
  5
128D
330
1285
100
AcDbEntity
  8
DEFPOINTS
 62
     0
100
AcDbPoint
 10
560.6995677391186
 20
483.1511232420789
 30
0.0
  0
POINT
  5
128E
330
1285
100
AcDbEntity
  8
DEFPOINTS
 62
     0
100
AcDbPoint
 10
560.6995677391186
 20
203.1511232420788
 30
0.0
  0
POINT
  5
128F
330
1285
100
AcDbEntity
  8
DEFPOINTS
 62
     0
100
AcDbPoint
 10
599.1995677391187
 20
203.1511232420788
 30
0.0
  0
ENDBLK
  5
1290
330
1285
100
AcDbEntity
  8
0
100
AcDbBlockEnd
  0
BLOCK
  5
1292
330
1291
100
AcDbEntity
  8
0
100
AcDbBlockBegin
  2
*D4
 70
     1
 10
0.0
 20
0.0
 30
0.0
  3
*D4
  1

  0
LINE
  5
1293
330
1291
100
AcDbEntity
  8
寸法線
 62
     0
100
AcDbLine
 10
562.6995677391184
 20
483.1511232420789
 30
0.0
 11
601.6995677391187
 21
483.1511232420789
 31
0.0
  0
LINE
  5
1294
330
1291
100
AcDbEntity
  8
寸法線
 62
     0
100
AcDbLine
 10
581.1995677391187
 20
500.6511232420788
 30
0.0
 11
601.6995677391187
 21
500.6511232420788
 31
0.0
  0
LINE
  5
1295
330
1291
100
AcDbEntity
  8
寸法線
 62
     0
100
AcDbLine
 10
599.1995677391187
 20
489.1511232420787
 30
0.0
 11
599.1995677391187
 21
494.6511232420787
 31
0.0
  0
LINE
  5
1296
330
1291
100
AcDbEntity
  8
寸法線
 62
     0
100
AcDbLine
 10
599.1995677391187
 20
500.6511232420788
 30
0.0
 11
599.1995677391187
 21
527.2844565754122
 31
0.0
  0
INSERT
  5
1297
330
1291
100
AcDbEntity
  8
寸法線
 62
     0
100
AcDbBlockReference
  2
_OPEN30
 10
599.1995677391187
 20
483.1511232420789
 30
0.0
 41
6.0
 42
6.0
 43
6.0
 50
270.0
  0
INSERT
  5
1298
330
1291
100
AcDbEntity
  8
寸法線
 62
     0
100
AcDbBlockReference
  2
_OPEN30
 10
599.1995677391187
 20
500.6511232420788
 30
0.0
 41
6.0
 42
6.0
 43
6.0
 50
90.0
  0
MTEXT
  5
1299
330
1291
100
AcDbEntity
  8
寸法線
 62
     0
100
AcDbMText
 10
594.2162344057853
 20
516.9677899087457
 30
0.0
 40
6.4
 41
0.0
 71
     5
 72
     1
  1
17,5
 11
0.0000000000000001
 21
1.0
 31
0.0
 73
     1
 44
1.0
1001
ACAD
1000
MTEXTBEGIN
1070
    73
1070
     1
1070
    44
1040
1.0
1070
    74
1070
     0
1000
MTEXTEND
1000
MTEXTBEGIN
1070
    73
1070
     1
1070
    44
1040
1.0
1070
    74
1070
     0
1000
MTEXTEND
  0
POINT
  5
129A
330
1291
100
AcDbEntity
  8
DEFPOINTS
 62
     0
100
AcDbPoint
 10
560.6995677391186
 20
483.1511232420789
 30
0.0
  0
POINT
  5
129B
330
1291
100
AcDbEntity
  8
DEFPOINTS
 62
     0
100
AcDbPoint
 10
579.1995677391187
 20
500.6511232420788
 30
0.0
  0
POINT
  5
129C
330
1291
100
AcDbEntity
  8
DEFPOINTS
 62
     0
100
AcDbPoint
 10
599.1995677391187
 20
500.6511232420788
 30
0.0
  0
ENDBLK
  5
129D
330
1291
100
AcDbEntity
  8
0
100
AcDbBlockEnd
  0
BLOCK
  5
129F
330
129E
100
AcDbEntity
  8
0
100
AcDbBlockBegin
  2
*D5
 70
     1
 10
0.0
 20
0.0
 30
0.0
  3
*D5
  1

  0
LINE
  5
12A0
330
129E
100
AcDbEntity
  8
寸法線
 62
     0
100
AcDbLine
 10
564.6995677391187
 20
203.1511232420788
 30
0.0
 11
601.6995677391187
 21
203.1511232420788
 31
0.0
  0
LINE
  5
12A1
330
129E
100
AcDbEntity
  8
寸法線
 62
     0
100
AcDbLine
 10
581.1995677391187
 20
185.6511232420788
 30
0.0
 11
601.6995677391187
 21
185.6511232420788
 31
0.0
  0
LINE
  5
12A2
330
129E
100
AcDbEntity
  8
寸法線
 62
     0
100
AcDbLine
 10
599.1995677391187
 20
197.1511232420788
 30
0.0
 11
599.1995677391187
 21
191.6511232420788
 31
0.0
  0
LINE
  5
12A3
330
129E
100
AcDbEntity
  8
寸法線
 62
     0
100
AcDbLine
 10
599.1995677391187
 20
185.6511232420788
 30
0.0
 11
599.1995677391187
 21
159.0177899087455
 31
0.0
  0
INSERT
  5
12A4
330
129E
100
AcDbEntity
  8
寸法線
 62
     0
100
AcDbBlockReference
  2
_OPEN30
 10
599.1995677391187
 20
203.1511232420788
 30
0.0
 41
6.0
 42
6.0
 43
6.0
 50
90.0
  0
INSERT
  5
12A5
330
129E
100
AcDbEntity
  8
寸法線
 62
     0
100
AcDbBlockReference
  2
_OPEN30
 10
599.1995677391187
 20
185.6511232420788
 30
0.0
 41
6.0
 42
6.0
 43
6.0
 50
270.0
  0
MTEXT
  5
12A6
330
129E
100
AcDbEntity
  8
寸法線
 62
     0
100
AcDbMText
 10
594.2162344057853
 20
169.3344565754123
 30
0.0
 40
6.4
 41
0.0
 71
     5
 72
     1
  1
17,5
 11
0.0000000000000001
 21
1.0
 31
0.0
 73
     1
 44
1.0
1001
ACAD
1000
MTEXTBEGIN
1070
    73
1070
     1
1070
    44
1040
1.0
1070
    74
1070
     0
1000
MTEXTEND
1000
MTEXTBEGIN
1070
    73
1070
     1
1070
    44
1040
1.0
1070
    74
1070
     0
1000
MTEXTEND
  0
POINT
  5
12A7
330
129E
100
AcDbEntity
  8
DEFPOINTS
 62
     0
100
AcDbPoint
 10
562.6995677391184
 20
203.1511232420788
 30
0.0
  0
POINT
  5
12A8
330
129E
100
AcDbEntity
  8
DEFPOINTS
 62
     0
100
AcDbPoint
 10
579.1995677391187
 20
185.6511232420788
 30
0.0
  0
POINT
  5
12A9
330
129E
100
AcDbEntity
  8
DEFPOINTS
 62
     0
100
AcDbPoint
 10
599.1995677391187
 20
185.6511232420788
 30
0.0
  0
ENDBLK
  5
12AA
330
129E
100
AcDbEntity
  8
0
100
AcDbBlockEnd
  0
BLOCK
  5
12AC
330
12AB
100
AcDbEntity
  8
0
100
AcDbBlockBegin
  2
*D6
 70
     1
 10
0.0
 20
0.0
 30
0.0
  3
*D6
  1

  0
LINE
  5
12AD
330
12AB
100
AcDbEntity
  8
寸法線
 62
     0
100
AcDbLine
 10
276.6995677391185
 20
196.1511232420788
 30
0.0
 11
276.6995677391185
 21
163.1511232420789
 31
0.0
  0
LINE
  5
12AE
330
12AB
100
AcDbEntity
  8
寸法線
 62
     0
100
AcDbLine
 10
506.6995677391187
 20
196.1511232420788
 30
0.0
 11
506.6995677391187
 21
163.1511232420789
 31
0.0
  0
LINE
  5
12AF
330
12AB
100
AcDbEntity
  8
寸法線
 62
     0
100
AcDbLine
 10
282.6995677391185
 20
165.6511232420789
 30
0.0
 11
500.6995677391186
 21
165.6511232420789
 31
0.0
  0
INSERT
  5
12B0
330
12AB
100
AcDbEntity
  8
寸法線
 62
     0
100
AcDbBlockReference
  2
_OPEN30
 10
276.6995677391185
 20
165.6511232420789
 30
0.0
 41
6.0
 42
6.0
 43
6.0
 50
180.0
  0
INSERT
  5
12B1
330
12AB
100
AcDbEntity
  8
寸法線
 62
     0
100
AcDbBlockReference
  2
_OPEN30
 10
506.6995677391187
 20
165.6511232420789
 30
0.0
 41
6.0
 42
6.0
 43
6.0
  0
MTEXT
  5
12B2
330
12AB
100
AcDbEntity
  8
寸法線
 62
     0
100
AcDbMText
 10
391.6995677391186
 20
170.1011232420789
 30
0.0
 40
6.4
 41
0.0
 71
     5
 72
     1
  1
230
 73
     1
 44
1.0
1001
ACAD
1000
MTEXTBEGIN
1070
    73
1070
     1
1070
    44
1040
1.0
1070
    74
1070
     0
1000
MTEXTEND
1000
MTEXTBEGIN
1070
    73
1070
     1
1070
    44
1040
1.0
1070
    74
1070
     0
1000
MTEXTEND
  0
POINT
  5
12B3
330
12AB
100
AcDbEntity
  8
DEFPOINTS
 62
     0
100
AcDbPoint
 10
276.6995677391185
 20
198.1511232420788
 30
0.0
  0
POINT
  5
12B4
330
12AB
100
AcDbEntity
  8
DEFPOINTS
 62
     0
100
AcDbPoint
 10
506.6995677391187
 20
198.1511232420788
 30
0.0
  0
POINT
  5
12B5
330
12AB
100
AcDbEntity
  8
DEFPOINTS
 62
     0
100
AcDbPoint
 10
506.6995677391187
 20
165.6511232420789
 30
0.0
  0
ENDBLK
  5
12B6
330
12AB
100
AcDbEntity
  8
0
100
AcDbBlockEnd
  0
BLOCK
  5
12B8
330
12B7
100
AcDbEntity
  8
0
100
AcDbBlockBegin
  2
*D7
 70
     1
 10
0.0
 20
0.0
 30
0.0
  3
*D7
  1

  0
LINE
  5
12B9
330
12B7
100
AcDbEntity
  8
寸法線
 62
     0
100
AcDbLine
 10
506.6995677391187
 20
196.1511232420788
 30
0.0
 11
506.6995677391187
 21
163.1511232420789
 31
0.0
  0
LINE
  5
12BA
330
12B7
100
AcDbEntity
  8
寸法線
 62
     0
100
AcDbLine
 10
551.6995677391186
 20
192.1511232420788
 30
0.0
 11
551.6995677391186
 21
163.1511232420789
 31
0.0
  0
LINE
  5
12BB
330
12B7
100
AcDbEntity
  8
寸法線
 62
     0
100
AcDbLine
 10
512.6995677391184
 20
165.6511232420789
 30
0.0
 11
545.6995677391184
 21
165.6511232420789
 31
0.0
  0
INSERT
  5
12BC
330
12B7
100
AcDbEntity
  8
寸法線
 62
     0
100
AcDbBlockReference
  2
_OPEN30
 10
506.6995677391187
 20
165.6511232420789
 30
0.0
 41
6.0
 42
6.0
 43
6.0
 50
180.0
  0
INSERT
  5
12BD
330
12B7
100
AcDbEntity
  8
寸法線
 62
     0
100
AcDbBlockReference
  2
_OPEN30
 10
551.6995677391186
 20
165.6511232420789
 30
0.0
 41
6.0
 42
6.0
 43
6.0
  0
MTEXT
  5
12BE
330
12B7
100
AcDbEntity
  8
寸法線
 62
     0
100
AcDbMText
 10
529.1995677391184
 20
170.1011232420789
 30
0.0
 40
6.4
 41
0.0
 71
     5
 72
     1
  1
45
 73
     1
 44
1.0
1001
ACAD
1000
MTEXTBEGIN
1070
    73
1070
     1
1070
    44
1040
1.0
1070
    74
1070
     0
1000
MTEXTEND
1000
MTEXTBEGIN
1070
    73
1070
     1
1070
    44
1040
1.0
1070
    74
1070
     0
1000
MTEXTEND
  0
POINT
  5
12BF
330
12B7
100
AcDbEntity
  8
DEFPOINTS
 62
     0
100
AcDbPoint
 10
506.6995677391187
 20
198.1511232420788
 30
0.0
  0
POINT
  5
12C0
330
12B7
100
AcDbEntity
  8
DEFPOINTS
 62
     0
100
AcDbPoint
 10
551.6995677391186
 20
194.1511232420788
 30
0.0
  0
POINT
  5
12C1
330
12B7
100
AcDbEntity
  8
DEFPOINTS
 62
     0
100
AcDbPoint
 10
551.6995677391186
 20
165.6511232420789
 30
0.0
  0
ENDBLK
  5
12C2
330
12B7
100
AcDbEntity
  8
0
100
AcDbBlockEnd
  0
BLOCK
  5
12C4
330
12C3
100
AcDbEntity
  8
0
100
AcDbBlockBegin
  2
*D8
 70
     1
 10
0.0
 20
0.0
 30
0.0
  3
*D8
  1

  0
LINE
  5
12C5
330
12C3
100
AcDbEntity
  8
寸法線
 62
     0
100
AcDbLine
 10
231.6995677391187
 20
192.1511232420788
 30
0.0
 11
231.6995677391187
 21
163.1511232420789
 31
0.0
  0
LINE
  5
12C6
330
12C3
100
AcDbEntity
  8
寸法線
 62
     0
100
AcDbLine
 10
276.6995677391185
 20
196.1511232420788
 30
0.0
 11
276.6995677391185
 21
163.1511232420789
 31
0.0
  0
LINE
  5
12C7
330
12C3
100
AcDbEntity
  8
寸法線
 62
     0
100
AcDbLine
 10
237.6995677391187
 20
165.6511232420789
 30
0.0
 11
270.6995677391185
 21
165.6511232420789
 31
0.0
  0
INSERT
  5
12C8
330
12C3
100
AcDbEntity
  8
寸法線
 62
     0
100
AcDbBlockReference
  2
_OPEN30
 10
231.6995677391187
 20
165.6511232420789
 30
0.0
 41
6.0
 42
6.0
 43
6.0
 50
180.0
  0
INSERT
  5
12C9
330
12C3
100
AcDbEntity
  8
寸法線
 62
     0
100
AcDbBlockReference
  2
_OPEN30
 10
276.6995677391185
 20
165.6511232420789
 30
0.0
 41
6.0
 42
6.0
 43
6.0
  0
MTEXT
  5
12CA
330
12C3
100
AcDbEntity
  8
寸法線
 62
     0
100
AcDbMText
 10
254.1995677391187
 20
170.1011232420789
 30
0.0
 40
6.4
 41
0.0
 71
     5
 72
     1
  1
45
 73
     1
 44
1.0
1001
ACAD
1000
MTEXTBEGIN
1070
    73
1070
     1
1070
    44
1040
1.0
1070
    74
1070
     0
1000
MTEXTEND
1000
MTEXTBEGIN
1070
    73
1070
     1
1070
    44
1040
1.0
1070
    74
1070
     0
1000
MTEXTEND
  0
POINT
  5
12CB
330
12C3
100
AcDbEntity
  8
DEFPOINTS
 62
     0
100
AcDbPoint
 10
231.6995677391187
 20
194.1511232420788
 30
0.0
  0
POINT
  5
12CC
330
12C3
100
AcDbEntity
  8
DEFPOINTS
 62
     0
100
AcDbPoint
 10
276.6995677391185
 20
198.1511232420788
 30
0.0
  0
POINT
  5
12CD
330
12C3
100
AcDbEntity
  8
DEFPOINTS
 62
     0
100
AcDbPoint
 10
276.6995677391185
 20
165.6511232420789
 30
0.0
  0
ENDBLK
  5
12CE
330
12C3
100
AcDbEntity
  8
0
100
AcDbBlockEnd
  0
BLOCK
  5
12D0
330
12CF
100
AcDbEntity
  8
0
100
AcDbBlockBegin
  2
*D9
 70
     1
 10
0.0
 20
0.0
 30
0.0
  3
*D9
  1

  0
LINE
  5
12D1
330
12CF
100
AcDbEntity
  8
寸法線
 62
     0
100
AcDbLine
 10
231.6995677391187
 20
192.1511232420788
 30
0.0
 11
231.6995677391187
 21
163.1511232420789
 31
0.0
  0
LINE
  5
12D2
330
12CF
100
AcDbEntity
  8
寸法線
 62
     0
100
AcDbLine
 10
204.1995677391187
 20
183.6511232420788
 30
0.0
 11
204.1995677391187
 21
163.1511232420789
 31
0.0
  0
LINE
  5
12D3
330
12CF
100
AcDbEntity
  8
寸法線
 62
     0
100
AcDbLine
 10
225.6995677391187
 20
165.6511232420789
 30
0.0
 11
210.1995677391185
 21
165.6511232420789
 31
0.0
  0
INSERT
  5
12D4
330
12CF
100
AcDbEntity
  8
寸法線
 62
     0
100
AcDbBlockReference
  2
_OPEN30
 10
231.6995677391187
 20
165.6511232420789
 30
0.0
 41
6.0
 42
6.0
 43
6.0
  0
INSERT
  5
12D5
330
12CF
100
AcDbEntity
  8
寸法線
 62
     0
100
AcDbBlockReference
  2
_OPEN30
 10
204.1995677391187
 20
165.6511232420789
 30
0.0
 41
6.0
 42
6.0
 43
6.0
 50
180.0
  0
MTEXT
  5
12D6
330
12CF
100
AcDbEntity
  8
寸法線
 62
     0
100
AcDbMText
 10
217.9495677391185
 20
170.634456575412
 30
0.0
 40
6.4
 41
0.0
 71
     5
 72
     1
  1
27,5
 73
     1
 44
1.0
1001
ACAD
1000
MTEXTBEGIN
1070
    73
1070
     1
1070
    44
1040
1.0
1070
    74
1070
     0
1000
MTEXTEND
1000
MTEXTBEGIN
1070
    73
1070
     1
1070
    44
1040
1.0
1070
    74
1070
     0
1000
MTEXTEND
  0
POINT
  5
12D7
330
12CF
100
AcDbEntity
  8
DEFPOINTS
 62
     0
100
AcDbPoint
 10
231.6995677391187
 20
194.1511232420788
 30
0.0
  0
POINT
  5
12D8
330
12CF
100
AcDbEntity
  8
DEFPOINTS
 62
     0
100
AcDbPoint
 10
204.1995677391187
 20
185.6511232420788
 30
0.0
  0
POINT
  5
12D9
330
12CF
100
AcDbEntity
  8
DEFPOINTS
 62
     0
100
AcDbPoint
 10
204.1995677391187
 20
165.6511232420789
 30
0.0
  0
ENDBLK
  5
12DA
330
12CF
100
AcDbEntity
  8
0
100
AcDbBlockEnd
  0
BLOCK
  5
12DC
330
12DB
100
AcDbEntity
  8
0
100
AcDbBlockBegin
  2
*D10
 70
     1
 10
0.0
 20
0.0
 30
0.0
  3
*D10
  1

  0
LINE
  5
12DD
330
12DB
100
AcDbEntity
  8
寸法線
 62
     0
100
AcDbLine
 10
551.6995677391186
 20
192.1511232420788
 30
0.0
 11
551.6995677391186
 21
163.1511232420789
 31
0.0
  0
LINE
  5
12DE
330
12DB
100
AcDbEntity
  8
寸法線
 62
     0
100
AcDbLine
 10
579.1995677391187
 20
183.6511232420788
 30
0.0
 11
579.1995677391187
 21
163.1511232420789
 31
0.0
  0
LINE
  5
12DF
330
12DB
100
AcDbEntity
  8
寸法線
 62
     0
100
AcDbLine
 10
557.6995677391185
 20
165.6511232420789
 30
0.0
 11
573.1995677391187
 21
165.6511232420789
 31
0.0
  0
INSERT
  5
12E0
330
12DB
100
AcDbEntity
  8
寸法線
 62
     0
100
AcDbBlockReference
  2
_OPEN30
 10
551.6995677391186
 20
165.6511232420789
 30
0.0
 41
6.0
 42
6.0
 43
6.0
 50
180.0
  0
INSERT
  5
12E1
330
12DB
100
AcDbEntity
  8
寸法線
 62
     0
100
AcDbBlockReference
  2
_OPEN30
 10
579.1995677391187
 20
165.6511232420789
 30
0.0
 41
6.0
 42
6.0
 43
6.0
  0
MTEXT
  5
12E2
330
12DB
100
AcDbEntity
  8
寸法線
 62
     0
100
AcDbMText
 10
565.4495677391187
 20
170.634456575412
 30
0.0
 40
6.4
 41
0.0
 71
     5
 72
     1
  1
27,5
 73
     1
 44
1.0
1001
ACAD
1000
MTEXTBEGIN
1070
    73
1070
     1
1070
    44
1040
1.0
1070
    74
1070
     0
1000
MTEXTEND
1000
MTEXTBEGIN
1070
    73
1070
     1
1070
    44
1040
1.0
1070
    74
1070
     0
1000
MTEXTEND
  0
POINT
  5
12E3
330
12DB
100
AcDbEntity
  8
DEFPOINTS
 62
     0
100
AcDbPoint
 10
551.6995677391186
 20
194.1511232420788
 30
0.0
  0
POINT
  5
12E4
330
12DB
100
AcDbEntity
  8
DEFPOINTS
 62
     0
100
AcDbPoint
 10
579.1995677391187
 20
185.6511232420788
 30
0.0
  0
POINT
  5
12E5
330
12DB
100
AcDbEntity
  8
DEFPOINTS
 62
     0
100
AcDbPoint
 10
579.1995677391187
 20
165.6511232420789
 30
0.0
  0
ENDBLK
  5
12E6
330
12DB
100
AcDbEntity
  8
0
100
AcDbBlockEnd
  0
BLOCK
  5
12E8
330
12E7
100
AcDbEntity
  8
0
100
AcDbBlockBegin
  2
*D11
 70
     1
 10
0.0
 20
0.0
 30
0.0
  3
*D11
  1

  0
LINE
  5
12E9
330
12E7
100
AcDbEntity
  8
寸法線
 62
     0
100
AcDbLine
 10
202.1995677391187
 20
185.6511232420788
 30
0.0
 11
181.6995677391185
 21
185.6511232420788
 31
0.0
  0
LINE
  5
12EA
330
12E7
100
AcDbEntity
  8
寸法線
 62
     0
100
AcDbLine
 10
202.1995677391187
 20
500.6511232420788
 30
0.0
 11
181.6995677391187
 21
500.6511232420788
 31
0.0
  0
LINE
  5
12EB
330
12E7
100
AcDbEntity
  8
寸法線
 62
     0
100
AcDbLine
 10
184.1995677391184
 20
191.651123242079
 30
0.0
 11
184.1995677391187
 21
494.6511232420787
 31
0.0
  0
INSERT
  5
12EC
330
12E7
100
AcDbEntity
  8
寸法線
 62
     0
100
AcDbBlockReference
  2
_OPEN30
 10
184.1995677391184
 20
185.6511232420788
 30
0.0
 41
6.0
 42
6.0
 43
6.0
 50
270.0
  0
INSERT
  5
12ED
330
12E7
100
AcDbEntity
  8
寸法線
 62
     0
100
AcDbBlockReference
  2
_OPEN30
 10
184.1995677391187
 20
500.6511232420788
 30
0.0
 41
6.0
 42
6.0
 43
6.0
 50
90.0
  0
MTEXT
  5
12EE
330
12E7
100
AcDbEntity
  8
寸法線
 62
     0
100
AcDbMText
 10
179.7495677391184
 20
343.151123242079
 30
0.0
 40
6.4
 41
0.0
 71
     5
 72
     1
  1
315
 11
0.0000000000000001
 21
1.0
 31
0.0
 73
     1
 44
1.0
1001
ACAD
1000
MTEXTBEGIN
1070
    73
1070
     1
1070
    44
1040
1.0
1070
    74
1070
     0
1000
MTEXTEND
1000
MTEXTBEGIN
1070
    73
1070
     1
1070
    44
1040
1.0
1070
    74
1070
     0
1000
MTEXTEND
  0
POINT
  5
12EF
330
12E7
100
AcDbEntity
  8
DEFPOINTS
 62
     0
100
AcDbPoint
 10
204.1995677391187
 20
185.6511232420788
 30
0.0
  0
POINT
  5
12F0
330
12E7
100
AcDbEntity
  8
DEFPOINTS
 62
     0
100
AcDbPoint
 10
204.1995677391187
 20
500.6511232420788
 30
0.0
  0
POINT
  5
12F1
330
12E7
100
AcDbEntity
  8
DEFPOINTS
 62
     0
100
AcDbPoint
 10
184.1995677391187
 20
500.6511232420788
 30
0.0
  0
ENDBLK
  5
12F2
330
12E7
100
AcDbEntity
  8
0
100
AcDbBlockEnd
  0
BLOCK
  5
12F4
330
12F3
100
AcDbEntity
  8
0
100
AcDbBlockBegin
  2
*D12
 70
     1
 10
0.0
 20
0.0
 30
0.0
  3
*D12
  1

  0
LINE
  5
12F5
330
12F3
100
AcDbEntity
  8
寸法線
 62
     0
100
AcDbLine
 10
579.1995677391187
 20
502.6511232420787
 30
0.0
 11
579.1995677391187
 21
523.1511232420788
 31
0.0
  0
LINE
  5
12F6
330
12F3
100
AcDbEntity
  8
寸法線
 62
     0
100
AcDbLine
 10
204.1995677391187
 20
502.6511232420787
 30
0.0
 11
204.1995677391187
 21
523.1511232420788
 31
0.0
  0
LINE
  5
12F7
330
12F3
100
AcDbEntity
  8
寸法線
 62
     0
100
AcDbLine
 10
573.1995677391187
 20
520.6511232420788
 30
0.0
 11
210.1995677391185
 21
520.6511232420788
 31
0.0
  0
INSERT
  5
12F8
330
12F3
100
AcDbEntity
  8
寸法線
 62
     0
100
AcDbBlockReference
  2
_OPEN30
 10
579.1995677391187
 20
520.6511232420788
 30
0.0
 41
6.0
 42
6.0
 43
6.0
  0
INSERT
  5
12F9
330
12F3
100
AcDbEntity
  8
寸法線
 62
     0
100
AcDbBlockReference
  2
_OPEN30
 10
204.1995677391187
 20
520.6511232420788
 30
0.0
 41
6.0
 42
6.0
 43
6.0
 50
180.0
  0
MTEXT
  5
12FA
330
12F3
100
AcDbEntity
  8
寸法線
 62
     0
100
AcDbMText
 10
391.6995677391186
 20
525.101123242079
 30
0.0
 40
6.4
 41
0.0
 71
     5
 72
     1
  1
375
 73
     1
 44
1.0
1001
ACAD
1000
MTEXTBEGIN
1070
    73
1070
     1
1070
    44
1040
1.0
1070
    74
1070
     0
1000
MTEXTEND
1000
MTEXTBEGIN
1070
    73
1070
     1
1070
    44
1040
1.0
1070
    74
1070
     0
1000
MTEXTEND
  0
POINT
  5
12FB
330
12F3
100
AcDbEntity
  8
DEFPOINTS
 62
     0
100
AcDbPoint
 10
579.1995677391187
 20
500.6511232420788
 30
0.0
  0
POINT
  5
12FC
330
12F3
100
AcDbEntity
  8
DEFPOINTS
 62
     0
100
AcDbPoint
 10
204.1995677391187
 20
500.6511232420788
 30
0.0
  0
POINT
  5
12FD
330
12F3
100
AcDbEntity
  8
DEFPOINTS
 62
     0
100
AcDbPoint
 10
204.1995677391187
 20
520.6511232420788
 30
0.0
  0
ENDBLK
  5
12FE
330
12F3
100
AcDbEntity
  8
0
100
AcDbBlockEnd
  0
BLOCK
  5
1302
330
12FF
100
AcDbEntity
  8
0
100
AcDbBlockBegin
  2
A$C7D1D0C12
 70
     0
 10
0.0
 20
0.0
 30
0.0
  3
A$C7D1D0C12
  1

  0
CIRCLE
  5
1303
330
12FF
100
AcDbEntity
  8
1_実線
100
AcDbCircle
 10
-362.5166666666666
 20
313.8166666666663
 30
0.0
 40
6.5
  0
CIRCLE
  5
1304
330
12FF
100
AcDbEntity
  8
1_実線
100
AcDbCircle
 10
-362.5166666666666
 20
33.81666666666655
 30
0.0
 40
6.5
  0
CIRCLE
  5
1305
330
12FF
100
AcDbEntity
  8
1_実線
100
AcDbCircle
 10
-42.51666666666665
 20
313.8166666666663
 30
0.0
 40
6.5
  0
CIRCLE
  5
1306
330
12FF
100
AcDbEntity
  8
1_実線
100
AcDbCircle
 10
-42.51666666666665
 20
33.81666666666655
 30
0.0
 40
6.5
  0
LINE
  5
1307
330
12FF
100
AcDbEntity
  8
1_実線
100
AcDbLine
 10
-390.0166666666666
 20
331.3166666666663
 30
0.0
 11
-15.01666666666665
 21
331.3166666666663
 31
0.0
  0
LINE
  5
1308
330
12FF
100
AcDbEntity
  8
1_実線
100
AcDbLine
 10
-15.01666666666665
 20
331.3166666666663
 30
0.0
 11
-15.01666666666665
 21
16.31666666666655
 31
0.0
  0
LINE
  5
1309
330
12FF
100
AcDbEntity
  8
1_実線
100
AcDbLine
 10
-15.01666666666665
 20
16.31666666666655
 30
0.0
 11
-390.0166666666666
 21
16.31666666666655
 31
0.0
  0
LINE
  5
130A
330
12FF
100
AcDbEntity
  8
1_実線
100
AcDbLine
 10
-390.0166666666666
 20
16.31666666666655
 30
0.0
 11
-390.0166666666666
 21
331.3166666666663
 31
0.0
  0
CIRCLE
  5
130B
330
12FF
100
AcDbEntity
  8
1_実線
100
AcDbCircle
 10
-317.5166666666666
 20
313.8166666666663
 30
0.0
 40
2.75
  0
CIRCLE
  5
130C
330
12FF
100
AcDbEntity
  8
1_実線
100
AcDbCircle
 10
-87.51666666666666
 20
313.8166666666663
 30
0.0
 40
2.75
  0
CIRCLE
  5
130D
330
12FF
100
AcDbEntity
  8
1_実線
100
AcDbCircle
 10
-87.51666666666666
 20
33.81666666666655
 30
0.0
 40
2.75
  0
CIRCLE
  5
130E
330
12FF
100
AcDbEntity
  8
1_実線
100
AcDbCircle
 10
-317.5166666666666
 20
33.81666666666655
 30
0.0
 40
2.75
  0
LINE
  5
130F
330
12FF
100
AcDbEntity
  8
6_中心線1短
100
AcDbLine
 10
-322.5166666666666
 20
313.8166666666663
 30
0.0
 11
-312.5166666666666
 21
313.8166666666663
 31
0.0
  0
LINE
  5
1310
330
12FF
100
AcDbEntity
  8
6_中心線1短
100
AcDbLine
 10
-317.5166666666666
 20
308.8166666666665
 30
0.0
 11
-317.5166666666666
 21
318.8166666666663
 31
0.0
  0
LINE
  5
1311
330
12FF
100
AcDbEntity
  8
6_中心線1短
100
AcDbLine
 10
-322.5166666666666
 20
33.81666666666655
 30
0.0
 11
-312.5166666666666
 21
33.81666666666655
 31
0.0
  0
LINE
  5
1312
330
12FF
100
AcDbEntity
  8
6_中心線1短
100
AcDbLine
 10
-317.5166666666666
 20
28.81666666666655
 30
0.0
 11
-317.5166666666666
 21
38.81666666666655
 31
0.0
  0
LINE
  5
1313
330
12FF
100
AcDbEntity
  8
6_中心線1短
100
AcDbLine
 10
-92.51666666666663
 20
33.81666666666655
 30
0.0
 11
-82.51666666666666
 21
33.81666666666655
 31
0.0
  0
LINE
  5
1314
330
12FF
100
AcDbEntity
  8
6_中心線1短
100
AcDbLine
 10
-87.51666666666666
 20
28.81666666666655
 30
0.0
 11
-87.51666666666666
 21
38.81666666666655
 31
0.0
  0
LINE
  5
1315
330
12FF
100
AcDbEntity
  8
6_中心線1短
100
AcDbLine
 10
-92.51666666666663
 20
313.8166666666663
 30
0.0
 11
-82.51666666666666
 21
313.8166666666663
 31
0.0
  0
LINE
  5
1316
330
12FF
100
AcDbEntity
  8
6_中心線1短
100
AcDbLine
 10
-87.51666666666666
 20
308.8166666666665
 30
0.0
 11
-87.51666666666666
 21
318.8166666666663
 31
0.0
  0
LINE
  5
1317
330
12FF
100
AcDbEntity
  8
8_中心線3長
100
AcDbLine
 10
-371.5166666666666
 20
313.8166666666663
 30
0.0
 11
-353.5166666666666
 21
313.8166666666663
 31
0.0
  0
LINE
  5
1318
330
12FF
100
AcDbEntity
  8
8_中心線3長
100
AcDbLine
 10
-362.5166666666666
 20
304.8166666666665
 30
0.0
 11
-362.5166666666666
 21
322.8166666666663
 31
0.0
  0
LINE
  5
1319
330
12FF
100
AcDbEntity
  8
8_中心線3長
100
AcDbLine
 10
-371.5166666666666
 20
33.81666666666655
 30
0.0
 11
-353.5166666666666
 21
33.81666666666655
 31
0.0
  0
LINE
  5
131A
330
12FF
100
AcDbEntity
  8
8_中心線3長
100
AcDbLine
 10
-362.5166666666666
 20
24.81666666666654
 30
0.0
 11
-362.5166666666666
 21
42.81666666666654
 31
0.0
  0
LINE
  5
131B
330
12FF
100
AcDbEntity
  8
8_中心線3長
100
AcDbLine
 10
-51.51666666666665
 20
33.81666666666655
 30
0.0
 11
-33.51666666666665
 21
33.81666666666655
 31
0.0
  0
LINE
  5
131C
330
12FF
100
AcDbEntity
  8
8_中心線3長
100
AcDbLine
 10
-42.51666666666665
 20
24.81666666666654
 30
0.0
 11
-42.51666666666665
 21
42.81666666666654
 31
0.0
  0
LINE
  5
131D
330
12FF
100
AcDbEntity
  8
8_中心線3長
100
AcDbLine
 10
-51.51666666666665
 20
313.8166666666663
 30
0.0
 11
-33.51666666666665
 21
313.8166666666663
 31
0.0
  0
LINE
  5
131E
330
12FF
100
AcDbEntity
  8
8_中心線3長
100
AcDbLine
 10
-42.51666666666665
 20
304.8166666666665
 30
0.0
 11
-42.51666666666665
 21
322.8166666666663
 31
0.0
  0
LINE
  5
131F
330
12FF
100
AcDbEntity
  8
8_中心線3長
100
AcDbLine
 10
-356.0166666666666
 20
313.8166666666663
 30
0.0
 11
-51.51666666666665
 21
313.8166666666663
 31
0.0
  0
LINE
  5
1320
330
12FF
100
AcDbEntity
  8
8_中心線3長
100
AcDbLine
 10
-356.0166666666666
 20
33.81666666666655
 30
0.0
 11
-51.51666666666665
 21
33.81666666666655
 31
0.0
  0
LINE
  5
1321
330
12FF
100
AcDbEntity
  8
8_中心線3長
100
AcDbLine
 10
-440.0166666666666
 20
173.8166666666664
 30
0.0
 11
-420.0166666666666
 21
173.8166666666664
 31
0.0
  0
LINE
  5
1322
330
12FF
100
AcDbEntity
  8
8_中心線3長
100
AcDbLine
 10
-410.0166666666666
 20
173.8166666666664
 30
0.0
 11
-5.016666666666651
 21
173.8166666666664
 31
0.0
  0
LINE
  5
1323
330
12FF
100
AcDbEntity
  8
8_中心線3長
100
AcDbLine
 10
4.983333333333346
 20
173.8166666666664
 30
0.0
 11
24.98333333333334
 21
173.8166666666664
 31
0.0
  0
DIMENSION
  5
1324
330
12FF
100
AcDbEntity
  8
寸法線
100
AcDbDimension
  2
*D3
 10
4.983333333333346
 20
33.81666666666652
 30
0.0
 11
0.5333333333333031
 21
173.8166666666666
 31
0.0
 12
-594.2162344057853
 22
-169.3344565754123
 32
0.0
 71
     5
 42
-1.0
  3
ISO-25
100
AcDbAlignedDimension
 13
-33.51666666666665
 23
313.8166666666663
 33
0.0
 14
-33.51666666666665
 24
33.81666666666655
 34
0.0
 50
90.0
100
AcDbRotatedDimension
  0
DIMENSION
  5
1325
330
12FF
100
AcDbEntity
  8
寸法線
100
AcDbDimension
  2
*D4
 10
4.983333333333346
 20
331.3166666666663
 30
0.0
 11
-0.0000000000001137
 21
347.6333333333332
 31
0.0
 12
-594.2162344057853
 22
-169.3344565754123
 32
0.0
 71
     5
 42
-1.0
  3
ISO-25
100
AcDbAlignedDimension
 13
-33.51666666666665
 23
313.8166666666663
 33
0.0
 14
-15.01666666666665
 24
331.3166666666663
 34
0.0
 50
90.0
100
AcDbRotatedDimension
  0
DIMENSION
  5
1326
330
12FF
100
AcDbEntity
  8
寸法線
100
AcDbDimension
  2
*D5
 10
4.983333333333346
 20
16.31666666666655
 30
0.0
 11
0.0
 21
0.0
 31
0.0
 12
-594.2162344057853
 22
-169.3344565754123
 32
0.0
 71
     5
 42
-1.0
  3
ISO-25
100
AcDbAlignedDimension
 13
-31.51666666666665
 23
33.81666666666655
 33
0.0
 14
-15.01666666666665
 24
16.31666666666655
 34
0.0
 50
90.0
100
AcDbRotatedDimension
  0
DIMENSION
  5
1327
330
12FF
100
AcDbEntity
  8
寸法線
100
AcDbDimension
  2
*D6
 10
-87.51666666666666
 20
-3.683333333333448
 30
0.0
 11
-202.5166666666665
 21
0.7666666666665379
 31
0.0
 12
-594.2162344057853
 22
-169.3344565754123
 32
0.0
 71
     5
 42
-1.0
  3
ISO-25
100
AcDbAlignedDimension
 13
-317.5166666666666
 23
28.81666666666655
 33
0.0
 14
-87.51666666666666
 24
28.81666666666655
 34
0.0
100
AcDbRotatedDimension
  0
DIMENSION
  5
1328
330
12FF
100
AcDbEntity
  8
寸法線
100
AcDbDimension
  2
*D7
 10
-42.51666666666665
 20
-3.683333333333448
 30
0.0
 11
-65.01666666666665
 21
0.7666666666665379
 31
0.0
 12
-594.2162344057853
 22
-169.3344565754123
 32
0.0
 71
     5
 42
-1.0
  3
ISO-25
100
AcDbAlignedDimension
 13
-87.51666666666666
 23
28.81666666666655
 33
0.0
 14
-42.51666666666665
 24
24.81666666666654
 34
0.0
100
AcDbRotatedDimension
  0
DIMENSION
  5
1329
330
12FF
100
AcDbEntity
  8
寸法線
100
AcDbDimension
  2
*D8
 10
-317.5166666666666
 20
-3.683333333333448
 30
0.0
 11
-340.0166666666666
 21
0.7666666666665379
 31
0.0
 12
-594.2162344057853
 22
-169.3344565754123
 32
0.0
 71
     5
 42
-1.0
  3
ISO-25
100
AcDbAlignedDimension
 13
-362.5166666666666
 23
24.81666666666654
 33
0.0
 14
-317.5166666666666
 24
28.81666666666655
 34
0.0
100
AcDbRotatedDimension
  0
DIMENSION
  5
132A
330
12FF
100
AcDbEntity
  8
寸法線
100
AcDbDimension
  2
*D9
 10
-390.0166666666666
 20
-3.683333333333448
 30
0.0
 11
-376.2666666666666
 21
1.299999999999869
 31
0.0
 12
-594.2162344057853
 22
-169.3344565754123
 32
0.0
 71
     5
 42
-1.0
  3
ISO-25
100
AcDbAlignedDimension
 13
-362.5166666666666
 23
24.81666666666654
 33
0.0
 14
-390.0166666666666
 24
16.31666666666655
 34
0.0
100
AcDbRotatedDimension
  0
DIMENSION
  5
132B
330
12FF
100
AcDbEntity
  8
寸法線
100
AcDbDimension
  2
*D10
 10
-15.01666666666665
 20
-3.683333333333448
 30
0.0
 11
-28.76666666666665
 21
1.299999999999869
 31
0.0
 12
-594.2162344057853
 22
-169.3344565754123
 32
0.0
 71
     5
 42
-1.0
  3
ISO-25
100
AcDbAlignedDimension
 13
-42.51666666666665
 23
24.81666666666654
 33
0.0
 14
-15.01666666666665
 24
16.31666666666655
 34
0.0
100
AcDbRotatedDimension
  0
DIMENSION
  5
132C
330
12FF
100
AcDbEntity
  8
寸法線
100
AcDbDimension
  2
*D11
 10
-410.0166666666666
 20
331.3166666666663
 30
0.0
 11
-414.4666666666666
 21
173.8166666666666
 31
0.0
 12
-594.2162344057853
 22
-169.3344565754123
 32
0.0
 71
     5
 42
-1.0
  3
ISO-25
100
AcDbAlignedDimension
 13
-390.0166666666666
 23
16.31666666666657
 33
0.0
 14
-390.0166666666666
 24
331.3166666666663
 34
0.0
 50
90.0
100
AcDbRotatedDimension
  0
DIMENSION
  5
132D
330
12FF
100
AcDbEntity
  8
寸法線
100
AcDbDimension
  2
*D12
 10
-390.0166666666666
 20
351.3166666666664
 30
0.0
 11
-202.5166666666665
 21
355.7666666666666
 31
0.0
 12
-594.2162344057853
 22
-169.3344565754123
 32
0.0
 71
     5
 42
-1.0
  3
ISO-25
100
AcDbAlignedDimension
 13
-15.01666666666665
 23
331.3166666666663
 33
0.0
 14
-390.0166666666666
 24
331.3166666666663
 34
0.0
100
AcDbRotatedDimension
  0
LEADER
  5
132E
330
12FF
100
AcDbEntity
  8
寸法線
100
AcDbLeader
  3
ISO-25
 76
     2
 10
-358.0105231399276
 20
309.3233724524021
 30
0.0
 10
-309.4342746309698
 20
246.8087968315546
 30
0.0
1001
ACAD
1000
DSTYLE
1002
{
1070
     5
1000
OPEN
1070
    77
1070
     0
1070
   147
1040
0.625
1002
}
  0
LEADER
  5
132F
330
12FF
100
AcDbEntity
  8
寸法線
100
AcDbLeader
  3
ISO-25
 76
     2
 10
-314.8991027111216
 20
34.98756266286324
 30
0.0
 10
-280.2885248701609
 20
85.36338610920408
 30
0.0
1001
ACAD
1000
DSTYLE
1002
{
1070
     5
1000
OPEN
1070
    77
1070
     0
1070
   147
1040
0.625
1002
}
  0
TEXT
  5
1330
330
12FF
100
AcDbEntity
  8
寸法線
100
AcDbText
 10
-308.5497921943996
 20
249.0086671517782
 30
0.0
 40
6.4
  1
4-\U+220513
100
AcDbText
  0
TEXT
  5
1331
330
12FF
100
AcDbEntity
  8
寸法線
100
AcDbText
 10
-277.2083848835082
 20
88.05802740231865
 30
0.0
 40
6.4
  1
4-\U+22055.5
100
AcDbText
  0
LINE
  5
1332
330
12FF
100
AcDbEntity
  8
寸法線
100
AcDbLine
 10
-309.4342746309698
 20
246.8087968315546
 30
0.0
 11
-280.3311444887033
 21
246.8087968315546
 31
0.0
  0
LINE
  5
1333
330
12FF
100
AcDbEntity
  8
寸法線
100
AcDbLine
 10
-280.2885248701609
 20
85.36338610920408
 30
0.0
 11
-239.2659622414431
 21
85.36338610920408
 31
0.0
  0
ENDBLK
  5
1334
330
12FF
100
AcDbEntity
  8
0
100
AcDbBlockEnd
  0
BLOCK
  5
1C61
330
1C57
100
AcDbEntity
  8
0
100
AcDbBlockBegin
  2
*D14
 70
     1
 10
0.0
 20
0.0
 30
0.0
  3
*D14
  1

  0
LINE
  5
2286
330
1C57
100
AcDbEntity
  8
寸法線
 62
     0
100
AcDbLine
 10
580.4054545346096
 20
855.212289975585
 30
0.0
 11
580.4054545346096
 21
933.337289975585
 31
0.0
  0
LINE
  5
2287
330
1C57
100
AcDbEntity
  8
寸法線
 62
     0
100
AcDbLine
 10
705.4054545346096
 20
855.212289975585
 30
0.0
 11
705.4054545346096
 21
933.337289975585
 31
0.0
  0
LINE
  5
2288
330
1C57
100
AcDbEntity
  8
寸法線
 62
     0
100
AcDbLine
 10
593.9054545346095
 20
927.712289975585
 30
0.0
 11
691.9054545346097
 21
927.712289975585
 31
0.0
  0
INSERT
  5
2289
330
1C57
100
AcDbEntity
  8
寸法線
 62
     0
100
AcDbBlockReference
  2
_OPEN
 10
580.4054545346096
 20
927.712289975585
 30
0.0
 41
13.5
 42
13.5
 43
13.5
 50
180.0
  0
INSERT
  5
228A
330
1C57
100
AcDbEntity
  8
寸法線
 62
     0
100
AcDbBlockReference
  2
_OPEN
 10
705.4054545346096
 20
927.712289975585
 30
0.0
 41
13.5
 42
13.5
 43
13.5
  0
MTEXT
  5
228B
330
1C57
100
AcDbEntity
  8
寸法線
 62
     0
100
AcDbMText
 10
642.9054545346096
 20
938.9622899755851
 30
0.0
 40
13.5
 41
0.0
 71
     5
 72
     1
  1
125
 73
     1
 44
1.0
1001
ACAD
1000
MTEXTBEGIN
1070
    73
1070
     1
1070
    44
1040
1.0
1070
    74
1070
     0
1000
MTEXTEND
  0
POINT
  5
228C
330
1C57
100
AcDbEntity
  8
DEFPOINTS
 62
     0
100
AcDbPoint
 10
580.4054545346096
 20
850.7122899755851
 30
0.0
  0
POINT
  5
228D
330
1C57
100
AcDbEntity
  8
DEFPOINTS
 62
     0
100
AcDbPoint
 10
705.4054545346096
 20
850.7122899755851
 30
0.0
  0
POINT
  5
228E
330
1C57
100
AcDbEntity
  8
DEFPOINTS
 62
     0
100
AcDbPoint
 10
705.4054545346096
 20
927.712289975585
 30
0.0
  0
ENDBLK
  5
1C62
330
1C57
100
AcDbEntity
  8
0
100
AcDbBlockEnd
  0
BLOCK
  5
1C6E
330
1C64
100
AcDbEntity
  8
0
100
AcDbBlockBegin
  2
*D15
 70
     1
 10
0.0
 20
0.0
 30
0.0
  3
*D15
  1

  0
LINE
  5
2274
330
1C64
100
AcDbEntity
  8
寸法線
 62
     0
100
AcDbLine
 10
464.9054545346098
 20
1013.212289975585
 30
0.0
 11
464.9054545346098
 21
967.0872899755847
 31
0.0
  0
LINE
  5
2275
330
1C64
100
AcDbEntity
  8
寸法線
 62
     0
100
AcDbLine
 10
820.9054545346099
 20
1013.212289975585
 30
0.0
 11
820.9054545346099
 21
967.0872899755847
 31
0.0
  0
LINE
  5
2276
330
1C64
100
AcDbEntity
  8
寸法線
 62
     0
100
AcDbLine
 10
478.4054545346098
 20
972.7122899755846
 30
0.0
 11
807.4054545346097
 21
972.7122899755846
 31
0.0
  0
INSERT
  5
2277
330
1C64
100
AcDbEntity
  8
寸法線
 62
     0
100
AcDbBlockReference
  2
_OPEN
 10
464.9054545346098
 20
972.7122899755846
 30
0.0
 41
13.5
 42
13.5
 43
13.5
 50
180.0
  0
INSERT
  5
2278
330
1C64
100
AcDbEntity
  8
寸法線
 62
     0
100
AcDbBlockReference
  2
_OPEN
 10
820.9054545346099
 20
972.7122899755846
 30
0.0
 41
13.5
 42
13.5
 43
13.5
  0
MTEXT
  5
2279
330
1C64
100
AcDbEntity
  8
寸法線
 62
     0
100
AcDbMText
 10
642.9054545346096
 20
983.962289975585
 30
0.0
 40
13.5
 41
0.0
 71
     5
 72
     1
  1
356
 73
     1
 44
1.0
1001
ACAD
1000
MTEXTBEGIN
1070
    73
1070
     1
1070
    44
1040
1.0
1070
    74
1070
     0
1000
MTEXTEND
  0
POINT
  5
227A
330
1C64
100
AcDbEntity
  8
DEFPOINTS
 62
     0
100
AcDbPoint
 10
464.9054545346098
 20
1017.712289975585
 30
0.0
  0
POINT
  5
227B
330
1C64
100
AcDbEntity
  8
DEFPOINTS
 62
     0
100
AcDbPoint
 10
820.9054545346099
 20
1017.712289975585
 30
0.0
  0
POINT
  5
227C
330
1C64
100
AcDbEntity
  8
DEFPOINTS
 62
     0
100
AcDbPoint
 10
820.9054545346099
 20
972.7122899755846
 30
0.0
  0
ENDBLK
  5
1C6F
330
1C64
100
AcDbEntity
  8
0
100
AcDbBlockEnd
  0
BLOCK
  5
1C7C
330
1C72
100
AcDbEntity
  8
0
100
AcDbBlockBegin
  2
*D16
 70
     1
 10
0.0
 20
0.0
 30
0.0
  3
*D16
  1

  0
LINE
  5
227D
330
1C72
100
AcDbEntity
  8
寸法線
 62
     0
100
AcDbLine
 10
825.4054545346097
 20
1017.712289975585
 30
0.0
 11
871.5304545346096
 21
1017.712289975585
 31
0.0
  0
LINE
  5
227E
330
1C72
100
AcDbEntity
  8
寸法線
 62
     0
100
AcDbLine
 10
817.4054545346097
 20
1373.712289975585
 30
0.0
 11
871.5304545346096
 21
1373.712289975585
 31
0.0
  0
LINE
  5
227F
330
1C72
100
AcDbEntity
  8
寸法線
 62
     0
100
AcDbLine
 10
865.9054545346096
 20
1031.212289975585
 30
0.0
 11
865.9054545346096
 21
1360.212289975585
 31
0.0
  0
INSERT
  5
2280
330
1C72
100
AcDbEntity
  8
寸法線
 62
     0
100
AcDbBlockReference
  2
_OPEN
 10
865.9054545346096
 20
1017.712289975585
 30
0.0
 41
13.5
 42
13.5
 43
13.5
 50
270.0
  0
INSERT
  5
2281
330
1C72
100
AcDbEntity
  8
寸法線
 62
     0
100
AcDbBlockReference
  2
_OPEN
 10
865.9054545346096
 20
1373.712289975585
 30
0.0
 41
13.5
 42
13.5
 43
13.5
 50
90.0
  0
MTEXT
  5
2282
330
1C72
100
AcDbEntity
  8
寸法線
 62
     0
100
AcDbMText
 10
854.6554545346095
 20
1195.712289975584
 30
0.0
 40
13.5
 41
0.0
 71
     5
 72
     1
  1
356
 11
0.0000000000000001
 21
1.0
 31
0.0
 73
     1
 44
1.0
1001
ACAD
1000
MTEXTBEGIN
1070
    73
1070
     1
1070
    44
1040
1.0
1070
    74
1070
     0
1000
MTEXTEND
  0
POINT
  5
2283
330
1C72
100
AcDbEntity
  8
DEFPOINTS
 62
     0
100
AcDbPoint
 10
820.9054545346099
 20
1017.712289975585
 30
0.0
  0
POINT
  5
2284
330
1C72
100
AcDbEntity
  8
DEFPOINTS
 62
     0
100
AcDbPoint
 10
812.9054545346097
 20
1373.712289975585
 30
0.0
  0
POINT
  5
2285
330
1C72
100
AcDbEntity
  8
DEFPOINTS
 62
     0
100
AcDbPoint
 10
865.9054545346096
 20
1373.712289975585
 30
0.0
  0
ENDBLK
  5
1C7D
330
1C72
100
AcDbEntity
  8
0
100
AcDbBlockEnd
  0
BLOCK
  5
1C89
330
1C7F
100
AcDbEntity
  8
0
100
AcDbBlockBegin
  2
*D17
 70
     1
 10
0.0
 20
0.0
 30
0.0
  3
*D17
  1

  0
LINE
  5
226B
330
1C7F
100
AcDbEntity
  8
寸法線
 62
     0
100
AcDbLine
 10
774.9054545346097
 20
289.712289975585
 30
0.0
 11
871.5304545346096
 21
289.712289975585
 31
0.0
  0
LINE
  5
226C
330
1C7F
100
AcDbEntity
  8
寸法線
 62
     0
100
AcDbLine
 10
778.4054545346097
 20
389.712289975585
 30
0.0
 11
871.5304545346096
 21
389.712289975585
 31
0.0
  0
LINE
  5
226D
330
1C7F
100
AcDbEntity
  8
寸法線
 62
     0
100
AcDbLine
 10
865.9054545346096
 20
303.212289975585
 30
0.0
 11
865.9054545346096
 21
376.212289975585
 31
0.0
  0
INSERT
  5
226E
330
1C7F
100
AcDbEntity
  8
寸法線
 62
     0
100
AcDbBlockReference
  2
_OPEN
 10
865.9054545346096
 20
289.712289975585
 30
0.0
 41
13.5
 42
13.5
 43
13.5
 50
270.0
  0
INSERT
  5
226F
330
1C7F
100
AcDbEntity
  8
寸法線
 62
     0
100
AcDbBlockReference
  2
_OPEN
 10
865.9054545346096
 20
389.712289975585
 30
0.0
 41
13.5
 42
13.5
 43
13.5
 50
90.0
  0
MTEXT
  5
2270
330
1C7F
100
AcDbEntity
  8
寸法線
 62
     0
100
AcDbMText
 10
854.6554545346097
 20
339.7122899755851
 30
0.0
 40
13.5
 41
0.0
 71
     5
 72
     1
  1
100
 11
0.0000000000000001
 21
1.0
 31
0.0
 73
     1
 44
1.0
1001
ACAD
1000
MTEXTBEGIN
1070
    73
1070
     1
1070
    44
1040
1.0
1070
    74
1070
     0
1000
MTEXTEND
  0
POINT
  5
2271
330
1C7F
100
AcDbEntity
  8
DEFPOINTS
 62
     0
100
AcDbPoint
 10
770.4054545346097
 20
289.712289975585
 30
0.0
  0
POINT
  5
2272
330
1C7F
100
AcDbEntity
  8
DEFPOINTS
 62
     0
100
AcDbPoint
 10
773.9054545346097
 20
389.712289975585
 30
0.0
  0
POINT
  5
2273
330
1C7F
100
AcDbEntity
  8
DEFPOINTS
 62
     0
100
AcDbPoint
 10
865.9054545346096
 20
389.712289975585
 30
0.0
  0
ENDBLK
  5
1C8A
330
1C7F
100
AcDbEntity
  8
0
100
AcDbBlockEnd
  0
BLOCK
  5
1C96
330
1C8C
100
AcDbEntity
  8
0
100
AcDbBlockBegin
  2
*D18
 70
     1
 10
0.0
 20
0.0
 30
0.0
  3
*D18
  1

  0
LINE
  5
2259
330
1C8C
100
AcDbEntity
  8
寸法線
 62
     0
100
AcDbLine
 10
778.4054545346097
 20
389.712289975585
 30
0.0
 11
871.5304545346096
 21
389.712289975585
 31
0.0
  0
LINE
  5
225A
330
1C8C
100
AcDbEntity
  8
寸法線
 62
     0
100
AcDbLine
 10
825.4054545346097
 20
872.7122899755849
 30
0.0
 11
871.5304545346096
 21
872.7122899755849
 31
0.0
  0
LINE
  5
225B
330
1C8C
100
AcDbEntity
  8
寸法線
 62
     0
100
AcDbLine
 10
865.9054545346096
 20
403.212289975585
 30
0.0
 11
865.9054545346096
 21
859.212289975585
 31
0.0
  0
INSERT
  5
225C
330
1C8C
100
AcDbEntity
  8
寸法線
 62
     0
100
AcDbBlockReference
  2
_OPEN
 10
865.9054545346096
 20
389.712289975585
 30
0.0
 41
13.5
 42
13.5
 43
13.5
 50
270.0
  0
INSERT
  5
225D
330
1C8C
100
AcDbEntity
  8
寸法線
 62
     0
100
AcDbBlockReference
  2
_OPEN
 10
865.9054545346096
 20
872.7122899755849
 30
0.0
 41
13.5
 42
13.5
 43
13.5
 50
90.0
  0
MTEXT
  5
225E
330
1C8C
100
AcDbEntity
  8
寸法線
 62
     0
100
AcDbMText
 10
854.6554545346095
 20
631.2122899755852
 30
0.0
 40
13.5
 41
0.0
 71
     5
 72
     1
  1
483
 11
0.0000000000000001
 21
1.0
 31
0.0
 73
     1
 44
1.0
1001
ACAD
1000
MTEXTBEGIN
1070
    73
1070
     1
1070
    44
1040
1.0
1070
    74
1070
     0
1000
MTEXTEND
  0
POINT
  5
225F
330
1C8C
100
AcDbEntity
  8
DEFPOINTS
 62
     0
100
AcDbPoint
 10
773.9054545346097
 20
389.712289975585
 30
0.0
  0
POINT
  5
2260
330
1C8C
100
AcDbEntity
  8
DEFPOINTS
 62
     0
100
AcDbPoint
 10
820.9054545346099
 20
872.7122899755849
 30
0.0
  0
POINT
  5
2261
330
1C8C
100
AcDbEntity
  8
DEFPOINTS
 62
     0
100
AcDbPoint
 10
865.9054545346096
 20
872.7122899755849
 30
0.0
  0
ENDBLK
  5
1C97
330
1C8C
100
AcDbEntity
  8
0
100
AcDbBlockEnd
  0
BLOCK
  5
1CA3
330
1C99
100
AcDbEntity
  8
0
100
AcDbBlockBegin
  2
*D19
 70
     1
 10
0.0
 20
0.0
 30
0.0
  3
*D19
  1

  0
LINE
  5
2250
330
1C99
100
AcDbEntity
  8
寸法線
 62
     0
100
AcDbLine
 10
779.4054545346097
 20
289.712289975585
 30
0.0
 11
916.5304545346097
 21
289.7122899755848
 31
0.0
  0
LINE
  5
2251
330
1C99
100
AcDbEntity
  8
寸法線
 62
     0
100
AcDbLine
 10
825.4054545346097
 20
882.7122899755851
 30
0.0
 11
916.5304545346097
 21
882.7122899755851
 31
0.0
  0
LINE
  5
2252
330
1C99
100
AcDbEntity
  8
寸法線
 62
     0
100
AcDbLine
 10
910.9054545346097
 20
303.2122899755849
 30
0.0
 11
910.9054545346097
 21
869.2122899755851
 31
0.0
  0
INSERT
  5
2253
330
1C99
100
AcDbEntity
  8
寸法線
 62
     0
100
AcDbBlockReference
  2
_OPEN
 10
910.9054545346097
 20
289.7122899755848
 30
0.0
 41
13.5
 42
13.5
 43
13.5
 50
270.0
  0
INSERT
  5
2254
330
1C99
100
AcDbEntity
  8
寸法線
 62
     0
100
AcDbBlockReference
  2
_OPEN
 10
910.9054545346097
 20
882.7122899755851
 30
0.0
 41
13.5
 42
13.5
 43
13.5
 50
90.0
  0
MTEXT
  5
2255
330
1C99
100
AcDbEntity
  8
寸法線
 62
     0
100
AcDbMText
 10
899.6554545346096
 20
586.2122899755852
 30
0.0
 40
13.5
 41
0.0
 71
     5
 72
     1
  1
593
 11
0.0000000000000001
 21
1.0
 31
0.0
 73
     1
 44
1.0
1001
ACAD
1000
MTEXTBEGIN
1070
    73
1070
     1
1070
    44
1040
1.0
1070
    74
1070
     0
1000
MTEXTEND
  0
POINT
  5
2256
330
1C99
100
AcDbEntity
  8
DEFPOINTS
 62
     0
100
AcDbPoint
 10
774.9054545346097
 20
289.712289975585
 30
0.0
  0
POINT
  5
2257
330
1C99
100
AcDbEntity
  8
DEFPOINTS
 62
     0
100
AcDbPoint
 10
820.9054545346099
 20
882.7122899755851
 30
0.0
  0
POINT
  5
2258
330
1C99
100
AcDbEntity
  8
DEFPOINTS
 62
     0
100
AcDbPoint
 10
910.9054545346097
 20
882.7122899755851
 30
0.0
  0
ENDBLK
  5
1CA4
330
1C99
100
AcDbEntity
  8
0
100
AcDbBlockEnd
  0
BLOCK
  5
1CB3
330
1CA7
100
AcDbEntity
  8
0
100
AcDbBlockBegin
  2
*D20
 70
     1
 10
0.0
 20
0.0
 30
0.0
  3
*D20
  1

  0
LINE
  5
228F
330
1CA7
100
AcDbEntity
  8
寸法線
 62
     0
100
AcDbLine
 10
825.4054545346097
 20
872.7122899755849
 30
0.0
 11
871.5304545346096
 21
872.7122899755849
 31
0.0
  0
LINE
  5
2290
330
1CA7
100
AcDbEntity
  8
寸法線
 62
     0
100
AcDbLine
 10
805.7963272725901
 20
882.7122899755851
 30
0.0
 11
871.5304545346096
 21
882.7122899755851
 31
0.0
  0
LINE
  5
2291
330
1CA7
100
AcDbEntity
  8
寸法線
 62
     0
100
AcDbLine
 10
865.9054545346096
 20
859.212289975585
 30
0.0
 11
865.9054545346096
 21
845.712289975585
 31
0.0
  0
LINE
  5
2292
330
1CA7
100
AcDbEntity
  8
寸法線
 62
     0
100
AcDbLine
 10
865.9054545346096
 20
896.2122899755851
 30
0.0
 11
865.9054545346096
 21
934.4622899755851
 31
0.0
  0
LINE
  5
2293
330
1CA7
100
AcDbEntity
  8
寸法線
 62
     0
100
AcDbLine
 10
865.9054545346096
 20
872.7122899755849
 30
0.0
 11
865.9054545346096
 21
882.7122899755851
 31
0.0
  0
INSERT
  5
2294
330
1CA7
100
AcDbEntity
  8
寸法線
 62
     0
100
AcDbBlockReference
  2
_OPEN
 10
865.9054545346096
 20
872.7122899755849
 30
0.0
 41
13.5
 42
13.5
 43
13.5
 50
90.0
  0
INSERT
  5
2295
330
1CA7
100
AcDbEntity
  8
寸法線
 62
     0
100
AcDbBlockReference
  2
_OPEN
 10
865.9054545346096
 20
882.7122899755851
 30
0.0
 41
13.5
 42
13.5
 43
13.5
 50
270.0
  0
MTEXT
  5
2296
330
1CA7
100
AcDbEntity
  8
寸法線
 62
     0
100
AcDbMText
 10
854.6554545346095
 20
922.0872899755855
 30
0.0
 40
13.5
 41
0.0
 71
     5
 72
     1
  1
10
 11
0.0000000000000001
 21
1.0
 31
0.0
 73
     1
 44
1.0
1001
ACAD
1000
MTEXTBEGIN
1070
    73
1070
     1
1070
    44
1040
1.0
1070
    74
1070
     0
1000
MTEXTEND
  0
POINT
  5
2297
330
1CA7
100
AcDbEntity
  8
DEFPOINTS
 62
     0
100
AcDbPoint
 10
820.9054545346099
 20
872.7122899755849
 30
0.0
  0
POINT
  5
2298
330
1CA7
100
AcDbEntity
  8
DEFPOINTS
 62
     0
100
AcDbPoint
 10
801.2963272725901
 20
882.7122899755851
 30
0.0
  0
POINT
  5
2299
330
1CA7
100
AcDbEntity
  8
DEFPOINTS
 62
     0
100
AcDbPoint
 10
865.9054545346096
 20
882.7122899755851
 30
0.0
  0
ENDBLK
  5
1CB4
330
1CA7
100
AcDbEntity
  8
0
100
AcDbBlockEnd
  0
BLOCK
  5
1E76
330
1E6C
100
AcDbEntity
  8
0
100
AcDbBlockBegin
  2
*D21
 70
     1
 10
0.0
 20
0.0
 30
0.0
  3
*D21
  1

  0
LINE
  5
2262
330
1E6C
100
AcDbEntity
  8
寸法線
 62
     0
100
AcDbLine
 10
642.9054545346096
 20
224.2109511260478
 30
0.0
 11
642.9054545346096
 21
189.0872899755849
 31
0.0
  0
LINE
  5
2263
330
1E6C
100
AcDbEntity
  8
寸法線
 62
     0
100
AcDbLine
 10
702.9054545346097
 20
224.2109511260478
 30
0.0
 11
702.9054545346097
 21
189.0872899755849
 31
0.0
  0
LINE
  5
2264
330
1E6C
100
AcDbEntity
  8
寸法線
 62
     0
100
AcDbLine
 10
656.4054545346095
 20
194.7122899755848
 30
0.0
 11
689.4054545346096
 21
194.7122899755848
 31
0.0
  0
INSERT
  5
2265
330
1E6C
100
AcDbEntity
  8
寸法線
 62
     0
100
AcDbBlockReference
  2
_OPEN
 10
642.9054545346096
 20
194.7122899755848
 30
0.0
 41
13.5
 42
13.5
 43
13.5
 50
180.0
  0
INSERT
  5
2266
330
1E6C
100
AcDbEntity
  8
寸法線
 62
     0
100
AcDbBlockReference
  2
_OPEN
 10
702.9054545346097
 20
194.7122899755848
 30
0.0
 41
13.5
 42
13.5
 43
13.5
  0
MTEXT
  5
2267
330
1E6C
100
AcDbEntity
  8
寸法線
 62
     0
100
AcDbMText
 10
672.9054545346095
 20
205.9622899755849
 30
0.0
 40
13.5
 41
0.0
 71
     5
 72
     1
  1
60
 73
     1
 44
1.0
1001
ACAD
1000
MTEXTBEGIN
1070
    73
1070
     1
1070
    44
1040
1.0
1070
    74
1070
     0
1000
MTEXTEND
  0
POINT
  5
2268
330
1E6C
100
AcDbEntity
  8
DEFPOINTS
 62
     0
100
AcDbPoint
 10
642.9054545346096
 20
228.7109511260478
 30
0.0
  0
POINT
  5
2269
330
1E6C
100
AcDbEntity
  8
DEFPOINTS
 62
     0
100
AcDbPoint
 10
702.9054545346097
 20
228.7109511260478
 30
0.0
  0
POINT
  5
226A
330
1E6C
100
AcDbEntity
  8
DEFPOINTS
 62
     0
100
AcDbPoint
 10
702.9054545346097
 20
194.7122899755848
 30
0.0
  0
ENDBLK
  5
1E77
330
1E6C
100
AcDbEntity
  8
0
100
AcDbBlockEnd
  0
BLOCK
  5
1E98
330
1E8E
100
AcDbEntity
  8
0
100
AcDbBlockBegin
  2
*D22
 70
     1
 10
0.0
 20
0.0
 30
0.0
  3
*D22
  1

  0
LINE
  5
229A
330
1E8E
100
AcDbEntity
  8
寸法線
 62
     0
100
AcDbLine
 10
1083.905454534609
 20
285.212289975585
 30
0.0
 11
1083.905454534609
 21
239.0872899755848
 31
0.0
  0
LINE
  5
229B
330
1E8E
100
AcDbEntity
  8
寸法線
 62
     0
100
AcDbLine
 10
1313.90545453461
 20
285.212289975585
 30
0.0
 11
1313.90545453461
 21
239.0872899755848
 31
0.0
  0
LINE
  5
229C
330
1E8E
100
AcDbEntity
  8
寸法線
 62
     0
100
AcDbLine
 10
1097.405454534609
 20
244.712289975585
 30
0.0
 11
1300.405454534609
 21
244.712289975585
 31
0.0
  0
INSERT
  5
229D
330
1E8E
100
AcDbEntity
  8
寸法線
 62
     0
100
AcDbBlockReference
  2
_OPEN
 10
1083.905454534609
 20
244.712289975585
 30
0.0
 41
13.5
 42
13.5
 43
13.5
 50
180.0
  0
INSERT
  5
229E
330
1E8E
100
AcDbEntity
  8
寸法線
 62
     0
100
AcDbBlockReference
  2
_OPEN
 10
1313.90545453461
 20
244.712289975585
 30
0.0
 41
13.5
 42
13.5
 43
13.5
  0
MTEXT
  5
229F
330
1E8E
100
AcDbEntity
  8
寸法線
 62
     0
100
AcDbMText
 10
1198.905454534609
 20
255.9622899755849
 30
0.0
 40
13.5
 41
0.0
 71
     5
 72
     1
  1
230
 73
     1
 44
1.0
1001
ACAD
1000
MTEXTBEGIN
1070
    73
1070
     1
1070
    44
1040
1.0
1070
    74
1070
     0
1000
MTEXTEND
  0
POINT
  5
22A0
330
1E8E
100
AcDbEntity
  8
DEFPOINTS
 62
     0
100
AcDbPoint
 10
1083.905454534609
 20
289.712289975585
 30
0.0
  0
POINT
  5
22A1
330
1E8E
100
AcDbEntity
  8
DEFPOINTS
 62
     0
100
AcDbPoint
 10
1313.90545453461
 20
289.712289975585
 30
0.0
  0
POINT
  5
22A2
330
1E8E
100
AcDbEntity
  8
DEFPOINTS
 62
     0
100
AcDbPoint
 10
1313.90545453461
 20
244.712289975585
 30
0.0
  0
ENDBLK
  5
1E99
330
1E8E
100
AcDbEntity
  8
0
100
AcDbBlockEnd
  0
BLOCK
  5
22C5
330
22B9
100
AcDbEntity
  8
0
100
AcDbBlockBegin
  2
*D23
 70
     1
 10
0.0
 20
0.0
 30
0.0
  3
*D23
  1

  0
LINE
  5
22BA
330
22B9
100
AcDbEntity
  8
寸法線
 62
     0
100
AcDbLine
 10
1217.905454534609
 20
394.7122899755849
 30
0.0
 11
1270.326020126512
 21
394.7122899755849
 31
0.0
  0
LINE
  5
22BB
330
22B9
100
AcDbEntity
  8
寸法線
 62
     0
100
AcDbLine
 10
1217.905454534609
 20
374.712289975585
 30
0.0
 11
1270.326020126512
 21
374.712289975585
 31
0.0
  0
LINE
  5
22BC
330
22B9
100
AcDbEntity
  8
寸法線
 62
     0
100
AcDbLine
 10
1264.701020126514
 20
408.2122899755849
 30
0.0
 11
1264.701020126514
 21
421.7122899755849
 31
0.0
  0
LINE
  5
22BD
330
22B9
100
AcDbEntity
  8
寸法線
 62
     0
100
AcDbLine
 10
1264.701020126514
 20
361.212289975585
 30
0.0
 11
1264.701020126514
 21
318.462289975585
 31
0.0
  0
LINE
  5
22BE
330
22B9
100
AcDbEntity
  8
寸法線
 62
     0
100
AcDbLine
 10
1264.701020126514
 20
394.7122899755849
 30
0.0
 11
1264.701020126514
 21
374.712289975585
 31
0.0
  0
INSERT
  5
22BF
330
22B9
100
AcDbEntity
  8
寸法線
 62
     0
100
AcDbBlockReference
  2
_OPEN
 10
1264.701020126514
 20
394.7122899755849
 30
0.0
 41
13.5
 42
13.5
 43
13.5
 50
270.0
  0
INSERT
  5
22C0
330
22B9
100
AcDbEntity
  8
寸法線
 62
     0
100
AcDbBlockReference
  2
_OPEN
 10
1264.701020126514
 20
374.712289975585
 30
0.0
 41
13.5
 42
13.5
 43
13.5
 50
90.0
  0
MTEXT
  5
22C1
330
22B9
100
AcDbEntity
  8
寸法線
 62
     0
100
AcDbMText
 10
1253.451020126512
 20
333.0872899755851
 30
0.0
 40
13.5
 41
0.0
 71
     5
 72
     1
  1
20
 11
0.0000000000000001
 21
1.0
 31
0.0
 73
     1
 44
1.0
1001
ACAD
1000
MTEXTBEGIN
1070
    73
1070
     1
1070
    44
1040
1.0
1070
    74
1070
     0
1000
MTEXTEND
  0
POINT
  5
22C2
330
22B9
100
AcDbEntity
  8
DEFPOINTS
 62
     0
100
AcDbPoint
 10
1213.405454534609
 20
394.7122899755849
 30
0.0
  0
POINT
  5
22C3
330
22B9
100
AcDbEntity
  8
DEFPOINTS
 62
     0
100
AcDbPoint
 10
1213.405454534609
 20
374.712289975585
 30
0.0
  0
POINT
  5
22C4
330
22B9
100
AcDbEntity
  8
DEFPOINTS
 62
     0
100
AcDbPoint
 10
1264.701020126514
 20
374.712289975585
 30
0.0
  0
ENDBLK
  5
22C6
330
22B9
100
AcDbEntity
  8
0
100
AcDbBlockEnd
  0
BLOCK
  5
2312
330
2308
100
AcDbEntity
  8
0
100
AcDbBlockBegin
  2
*D24
 70
     1
 10
0.0
 20
0.0
 30
0.0
  3
*D24
  1

  0
LINE
  5
2309
330
2308
100
AcDbEntity
  8
寸法線
 62
     0
100
AcDbLine
 10
1049.593835100879
 20
394.712289975585
 30
0.0
 11
1017.993843697111
 21
394.712289975585
 31
0.0
  0
LINE
  5
230A
330
2308
100
AcDbEntity
  8
寸法線
 62
     0
100
AcDbLine
 10
1148.405454534609
 20
354.7122899755851
 30
0.0
 11
1017.993843697111
 21
354.7122899755851
 31
0.0
  0
LINE
  5
230B
330
2308
100
AcDbEntity
  8
寸法線
 62
     0
100
AcDbLine
 10
1023.61884369711
 20
381.212289975585
 30
0.0
 11
1023.61884369711
 21
368.2122899755851
 31
0.0
  0
INSERT
  5
230C
330
2308
100
AcDbEntity
  8
寸法線
 62
     0
100
AcDbBlockReference
  2
_OPEN
 10
1023.61884369711
 20
394.712289975585
 30
0.0
 41
13.5
 42
13.5
 43
13.5
 50
90.0
  0
INSERT
  5
230D
330
2308
100
AcDbEntity
  8
寸法線
 62
     0
100
AcDbBlockReference
  2
_OPEN
 10
1023.61884369711
 20
354.7122899755851
 30
0.0
 41
13.5
 42
13.5
 43
13.5
 50
270.0
  0
MTEXT
  5
230E
330
2308
100
AcDbEntity
  8
寸法線
 62
     0
100
AcDbMText
 10
1012.368843697111
 20
374.7122899755851
 30
0.0
 40
13.5
 41
0.0
 71
     5
 72
     1
  1
40
 11
0.0000000000000001
 21
1.0
 31
0.0
 73
     1
 44
1.0
1001
ACAD
1000
MTEXTBEGIN
1070
    73
1070
     1
1070
    44
1040
1.0
1070
    74
1070
     0
1000
MTEXTEND
  0
POINT
  5
230F
330
2308
100
AcDbEntity
  8
DEFPOINTS
 62
     0
100
AcDbPoint
 10
1054.093835100879
 20
394.712289975585
 30
0.0
  0
POINT
  5
2310
330
2308
100
AcDbEntity
  8
DEFPOINTS
 62
     0
100
AcDbPoint
 10
1152.905454534609
 20
354.712289975585
 30
0.0
  0
POINT
  5
2311
330
2308
100
AcDbEntity
  8
DEFPOINTS
 62
     0
100
AcDbPoint
 10
1023.61884369711
 20
354.7122899755851
 30
0.0
  0
ENDBLK
  5
2313
330
2308
100
AcDbEntity
  8
0
100
AcDbBlockEnd
  0
BLOCK
  5
26AE
330
26A4
100
AcDbEntity
  8
0
100
AcDbBlockBegin
  2
*D25
 70
     1
 10
0.0
 20
0.0
 30
0.0
  3
*D25
  1

  0
LINE
  5
272C
330
26A4
100
AcDbEntity
  8
寸法線
 62
     0
370
    -2
100
AcDbLine
 10
580.4054545346096
 20
2477.85906595837
 30
0.0
 11
580.4054545346096
 21
2555.98406595837
 31
0.0
  0
LINE
  5
272D
330
26A4
100
AcDbEntity
  8
寸法線
 62
     0
370
    -2
100
AcDbLine
 10
705.4054545346096
 20
2477.85906595837
 30
0.0
 11
705.4054545346096
 21
2555.98406595837
 31
0.0
  0
LINE
  5
272E
330
26A4
100
AcDbEntity
  8
寸法線
 62
     0
370
    -2
100
AcDbLine
 10
593.9054545346095
 20
2550.359065958371
 30
0.0
 11
691.9054545346097
 21
2550.359065958371
 31
0.0
  0
INSERT
  5
272F
330
26A4
100
AcDbEntity
  8
寸法線
 62
     0
370
    -2
100
AcDbBlockReference
  2
_OPEN
 10
580.4054545346096
 20
2550.359065958371
 30
0.0
 41
13.5
 42
13.5
 43
13.5
 50
180.0
  0
INSERT
  5
2730
330
26A4
100
AcDbEntity
  8
寸法線
 62
     0
370
    -2
100
AcDbBlockReference
  2
_OPEN
 10
705.4054545346096
 20
2550.359065958371
 30
0.0
 41
13.5
 42
13.5
 43
13.5
  0
MTEXT
  5
2731
330
26A4
100
AcDbEntity
  8
寸法線
 62
     0
100
AcDbMText
 10
642.9054545346096
 20
2561.60906595837
 30
0.0
 40
13.5
 41
0.0
 71
     5
 72
     1
  1
125
 73
     1
 44
1.0
  0
POINT
  5
2732
330
26A4
100
AcDbEntity
  8
DEFPOINTS
 62
     0
100
AcDbPoint
 10
580.4054545346096
 20
2473.359065958371
 30
0.0
  0
POINT
  5
2733
330
26A4
100
AcDbEntity
  8
DEFPOINTS
 62
     0
100
AcDbPoint
 10
705.4054545346096
 20
2473.359065958371
 30
0.0
  0
POINT
  5
2734
330
26A4
100
AcDbEntity
  8
DEFPOINTS
 62
     0
100
AcDbPoint
 10
705.4054545346096
 20
2550.359065958371
 30
0.0
  0
ENDBLK
  5
26AF
330
26A4
100
AcDbEntity
  8
0
100
AcDbBlockEnd
  0
BLOCK
  5
26BA
330
26B0
100
AcDbEntity
  8
0
100
AcDbBlockBegin
  2
*D26
 70
     1
 10
0.0
 20
0.0
 30
0.0
  3
*D26
  1

  0
LINE
  5
2735
330
26B0
100
AcDbEntity
  8
寸法線
 62
     0
370
    -2
100
AcDbLine
 10
464.9054545346098
 20
2635.859065958371
 30
0.0
 11
464.9054545346098
 21
2589.73406595837
 31
0.0
  0
LINE
  5
2736
330
26B0
100
AcDbEntity
  8
寸法線
 62
     0
370
    -2
100
AcDbLine
 10
820.9054545346099
 20
2635.859065958371
 30
0.0
 11
820.9054545346099
 21
2589.73406595837
 31
0.0
  0
LINE
  5
2737
330
26B0
100
AcDbEntity
  8
寸法線
 62
     0
370
    -2
100
AcDbLine
 10
478.4054545346098
 20
2595.35906595837
 30
0.0
 11
807.4054545346097
 21
2595.35906595837
 31
0.0
  0
INSERT
  5
2738
330
26B0
100
AcDbEntity
  8
寸法線
 62
     0
370
    -2
100
AcDbBlockReference
  2
_OPEN
 10
464.9054545346098
 20
2595.35906595837
 30
0.0
 41
13.5
 42
13.5
 43
13.5
 50
180.0
  0
INSERT
  5
2739
330
26B0
100
AcDbEntity
  8
寸法線
 62
     0
370
    -2
100
AcDbBlockReference
  2
_OPEN
 10
820.9054545346099
 20
2595.35906595837
 30
0.0
 41
13.5
 42
13.5
 43
13.5
  0
MTEXT
  5
273A
330
26B0
100
AcDbEntity
  8
寸法線
 62
     0
100
AcDbMText
 10
642.9054545346097
 20
2606.60906595837
 30
0.0
 40
13.5
 41
0.0
 71
     5
 72
     1
  1
356
 73
     1
 44
1.0
  0
POINT
  5
273B
330
26B0
100
AcDbEntity
  8
DEFPOINTS
 62
     0
100
AcDbPoint
 10
464.9054545346098
 20
2640.35906595837
 30
0.0
  0
POINT
  5
273C
330
26B0
100
AcDbEntity
  8
DEFPOINTS
 62
     0
100
AcDbPoint
 10
820.9054545346099
 20
2640.35906595837
 30
0.0
  0
POINT
  5
273D
330
26B0
100
AcDbEntity
  8
DEFPOINTS
 62
     0
100
AcDbPoint
 10
820.9054545346099
 20
2595.35906595837
 30
0.0
  0
ENDBLK
  5
26BB
330
26B0
100
AcDbEntity
  8
0
100
AcDbBlockEnd
  0
BLOCK
  5
26C6
330
26BC
100
AcDbEntity
  8
0
100
AcDbBlockBegin
  2
*D27
 70
     1
 10
0.0
 20
0.0
 30
0.0
  3
*D27
  1

  0
LINE
  5
273E
330
26BC
100
AcDbEntity
  8
寸法線
 62
     0
370
    -2
100
AcDbLine
 10
825.4054545346098
 20
2640.35906595837
 30
0.0
 11
871.5304545346096
 21
2640.35906595837
 31
0.0
  0
LINE
  5
273F
330
26BC
100
AcDbEntity
  8
寸法線
 62
     0
370
    -2
100
AcDbLine
 10
817.4054545346097
 20
2996.35906595837
 30
0.0
 11
871.5304545346096
 21
2996.35906595837
 31
0.0
  0
LINE
  5
2740
330
26BC
100
AcDbEntity
  8
寸法線
 62
     0
370
    -2
100
AcDbLine
 10
865.9054545346096
 20
2653.85906595837
 30
0.0
 11
865.9054545346096
 21
2982.85906595837
 31
0.0
  0
INSERT
  5
2741
330
26BC
100
AcDbEntity
  8
寸法線
 62
     0
370
    -2
100
AcDbBlockReference
  2
_OPEN
 10
865.9054545346096
 20
2640.35906595837
 30
0.0
 41
13.5
 42
13.5
 43
13.5
 50
270.0
  0
INSERT
  5
2742
330
26BC
100
AcDbEntity
  8
寸法線
 62
     0
370
    -2
100
AcDbBlockReference
  2
_OPEN
 10
865.9054545346096
 20
2996.35906595837
 30
0.0
 41
13.5
 42
13.5
 43
13.5
 50
90.0
  0
MTEXT
  5
2743
330
26BC
100
AcDbEntity
  8
寸法線
 62
     0
100
AcDbMText
 10
854.6554545346092
 20
2818.35906595837
 30
0.0
 40
13.5
 41
0.0
 71
     5
 72
     1
  1
356
 11
0.0000000000000001
 21
1.0
 31
0.0
 73
     1
 44
1.0
  0
POINT
  5
2744
330
26BC
100
AcDbEntity
  8
DEFPOINTS
 62
     0
100
AcDbPoint
 10
820.9054545346099
 20
2640.35906595837
 30
0.0
  0
POINT
  5
2745
330
26BC
100
AcDbEntity
  8
DEFPOINTS
 62
     0
100
AcDbPoint
 10
812.9054545346097
 20
2996.35906595837
 30
0.0
  0
POINT
  5
2746
330
26BC
100
AcDbEntity
  8
DEFPOINTS
 62
     0
100
AcDbPoint
 10
865.9054545346096
 20
2996.35906595837
 30
0.0
  0
ENDBLK
  5
26C7
330
26BC
100
AcDbEntity
  8
0
100
AcDbBlockEnd
  0
BLOCK
  5
26D2
330
26C8
100
AcDbEntity
  8
0
100
AcDbBlockBegin
  2
*D28
 70
     1
 10
0.0
 20
0.0
 30
0.0
  3
*D28
  1

  0
LINE
  5
2747
330
26C8
100
AcDbEntity
  8
寸法線
 62
     0
370
    -2
100
AcDbLine
 10
774.9054545346097
 20
1912.35906595837
 30
0.0
 11
871.5304545346096
 21
1912.35906595837
 31
0.0
  0
LINE
  5
2748
330
26C8
100
AcDbEntity
  8
寸法線
 62
     0
370
    -2
100
AcDbLine
 10
778.4054545346097
 20
2012.35906595837
 30
0.0
 11
871.5304545346096
 21
2012.35906595837
 31
0.0
  0
LINE
  5
2749
330
26C8
100
AcDbEntity
  8
寸法線
 62
     0
370
    -2
100
AcDbLine
 10
865.9054545346096
 20
1925.85906595837
 30
0.0
 11
865.9054545346096
 21
1998.85906595837
 31
0.0
  0
INSERT
  5
274A
330
26C8
100
AcDbEntity
  8
寸法線
 62
     0
370
    -2
100
AcDbBlockReference
  2
_OPEN
 10
865.9054545346096
 20
1912.35906595837
 30
0.0
 41
13.5
 42
13.5
 43
13.5
 50
270.0
  0
INSERT
  5
274B
330
26C8
100
AcDbEntity
  8
寸法線
 62
     0
370
    -2
100
AcDbBlockReference
  2
_OPEN
 10
865.9054545346096
 20
2012.35906595837
 30
0.0
 41
13.5
 42
13.5
 43
13.5
 50
90.0
  0
MTEXT
  5
274C
330
26C8
100
AcDbEntity
  8
寸法線
 62
     0
100
AcDbMText
 10
854.6554545346094
 20
1962.35906595837
 30
0.0
 40
13.5
 41
0.0
 71
     5
 72
     1
  1
100
 11
0.0000000000000001
 21
1.0
 31
0.0
 73
     1
 44
1.0
  0
POINT
  5
274D
330
26C8
100
AcDbEntity
  8
DEFPOINTS
 62
     0
100
AcDbPoint
 10
770.4054545346097
 20
1912.35906595837
 30
0.0
  0
POINT
  5
274E
330
26C8
100
AcDbEntity
  8
DEFPOINTS
 62
     0
100
AcDbPoint
 10
773.9054545346097
 20
2012.35906595837
 30
0.0
  0
POINT
  5
274F
330
26C8
100
AcDbEntity
  8
DEFPOINTS
 62
     0
100
AcDbPoint
 10
865.9054545346096
 20
2012.35906595837
 30
0.0
  0
ENDBLK
  5
26D3
330
26C8
100
AcDbEntity
  8
0
100
AcDbBlockEnd
  0
BLOCK
  5
26DE
330
26D4
100
AcDbEntity
  8
0
100
AcDbBlockBegin
  2
*D29
 70
     1
 10
0.0
 20
0.0
 30
0.0
  3
*D29
  1

  0
LINE
  5
2750
330
26D4
100
AcDbEntity
  8
寸法線
 62
     0
370
    -2
100
AcDbLine
 10
778.4054545346097
 20
2012.35906595837
 30
0.0
 11
871.5304545346096
 21
2012.35906595837
 31
0.0
  0
LINE
  5
2751
330
26D4
100
AcDbEntity
  8
寸法線
 62
     0
370
    -2
100
AcDbLine
 10
825.4054545346098
 20
2495.35906595837
 30
0.0
 11
871.5304545346096
 21
2495.35906595837
 31
0.0
  0
LINE
  5
2752
330
26D4
100
AcDbEntity
  8
寸法線
 62
     0
370
    -2
100
AcDbLine
 10
865.9054545346096
 20
2025.85906595837
 30
0.0
 11
865.9054545346096
 21
2481.85906595837
 31
0.0
  0
INSERT
  5
2753
330
26D4
100
AcDbEntity
  8
寸法線
 62
     0
370
    -2
100
AcDbBlockReference
  2
_OPEN
 10
865.9054545346096
 20
2012.35906595837
 30
0.0
 41
13.5
 42
13.5
 43
13.5
 50
270.0
  0
INSERT
  5
2754
330
26D4
100
AcDbEntity
  8
寸法線
 62
     0
370
    -2
100
AcDbBlockReference
  2
_OPEN
 10
865.9054545346096
 20
2495.35906595837
 30
0.0
 41
13.5
 42
13.5
 43
13.5
 50
90.0
  0
MTEXT
  5
2755
330
26D4
100
AcDbEntity
  8
寸法線
 62
     0
100
AcDbMText
 10
854.6554545346092
 20
2253.859065958371
 30
0.0
 40
13.5
 41
0.0
 71
     5
 72
     1
  1
483
 11
0.0000000000000001
 21
1.0
 31
0.0
 73
     1
 44
1.0
  0
POINT
  5
2756
330
26D4
100
AcDbEntity
  8
DEFPOINTS
 62
     0
100
AcDbPoint
 10
773.9054545346097
 20
2012.35906595837
 30
0.0
  0
POINT
  5
2757
330
26D4
100
AcDbEntity
  8
DEFPOINTS
 62
     0
100
AcDbPoint
 10
820.9054545346099
 20
2495.35906595837
 30
0.0
  0
POINT
  5
2758
330
26D4
100
AcDbEntity
  8
DEFPOINTS
 62
     0
100
AcDbPoint
 10
865.9054545346096
 20
2495.35906595837
 30
0.0
  0
ENDBLK
  5
26DF
330
26D4
100
AcDbEntity
  8
0
100
AcDbBlockEnd
  0
BLOCK
  5
26EA
330
26E0
100
AcDbEntity
  8
0
100
AcDbBlockBegin
  2
*D30
 70
     1
 10
0.0
 20
0.0
 30
0.0
  3
*D30
  1

  0
LINE
  5
2759
330
26E0
100
AcDbEntity
  8
寸法線
 62
     0
370
    -2
100
AcDbLine
 10
779.4054545346097
 20
1912.35906595837
 30
0.0
 11
916.5304545346096
 21
1912.35906595837
 31
0.0
  0
LINE
  5
275A
330
26E0
100
AcDbEntity
  8
寸法線
 62
     0
370
    -2
100
AcDbLine
 10
825.4054545346098
 20
2505.35906595837
 30
0.0
 11
916.5304545346097
 21
2505.35906595837
 31
0.0
  0
LINE
  5
275B
330
26E0
100
AcDbEntity
  8
寸法線
 62
     0
370
    -2
100
AcDbLine
 10
910.9054545346095
 20
1925.85906595837
 30
0.0
 11
910.9054545346097
 21
2491.859065958371
 31
0.0
  0
INSERT
  5
275C
330
26E0
100
AcDbEntity
  8
寸法線
 62
     0
370
    -2
100
AcDbBlockReference
  2
_OPEN
 10
910.9054545346095
 20
1912.35906595837
 30
0.0
 41
13.5
 42
13.5
 43
13.5
 50
270.0
  0
INSERT
  5
275D
330
26E0
100
AcDbEntity
  8
寸法線
 62
     0
370
    -2
100
AcDbBlockReference
  2
_OPEN
 10
910.9054545346097
 20
2505.35906595837
 30
0.0
 41
13.5
 42
13.5
 43
13.5
 50
90.0
  0
MTEXT
  5
275E
330
26E0
100
AcDbEntity
  8
寸法線
 62
     0
100
AcDbMText
 10
899.6554545346093
 20
2208.85906595837
 30
0.0
 40
13.5
 41
0.0
 71
     5
 72
     1
  1
593
 11
0.0000000000000001
 21
1.0
 31
0.0
 73
     1
 44
1.0
  0
POINT
  5
275F
330
26E0
100
AcDbEntity
  8
DEFPOINTS
 62
     0
100
AcDbPoint
 10
774.9054545346097
 20
1912.35906595837
 30
0.0
  0
POINT
  5
2760
330
26E0
100
AcDbEntity
  8
DEFPOINTS
 62
     0
100
AcDbPoint
 10
820.9054545346099
 20
2505.35906595837
 30
0.0
  0
POINT
  5
2761
330
26E0
100
AcDbEntity
  8
DEFPOINTS
 62
     0
100
AcDbPoint
 10
910.9054545346097
 20
2505.35906595837
 30
0.0
  0
ENDBLK
  5
26EB
330
26E0
100
AcDbEntity
  8
0
100
AcDbBlockEnd
  0
BLOCK
  5
26F8
330
26EC
100
AcDbEntity
  8
0
100
AcDbBlockBegin
  2
*D31
 70
     1
 10
0.0
 20
0.0
 30
0.0
  3
*D31
  1

  0
LINE
  5
2762
330
26EC
100
AcDbEntity
  8
寸法線
 62
     0
370
    -2
100
AcDbLine
 10
825.4054545346098
 20
2495.35906595837
 30
0.0
 11
871.5304545346096
 21
2495.35906595837
 31
0.0
  0
LINE
  5
2763
330
26EC
100
AcDbEntity
  8
寸法線
 62
     0
370
    -2
100
AcDbLine
 10
805.7963272725901
 20
2505.35906595837
 30
0.0
 11
871.5304545346096
 21
2505.35906595837
 31
0.0
  0
LINE
  5
2764
330
26EC
100
AcDbEntity
  8
寸法線
 62
     0
370
    -2
100
AcDbLine
 10
865.9054545346096
 20
2481.85906595837
 30
0.0
 11
865.9054545346096
 21
2468.35906595837
 31
0.0
  0
LINE
  5
2765
330
26EC
100
AcDbEntity
  8
寸法線
 62
     0
370
    -2
100
AcDbLine
 10
865.9054545346096
 20
2518.85906595837
 30
0.0
 11
865.9054545346096
 21
2557.10906595837
 31
0.0
  0
LINE
  5
2766
330
26EC
100
AcDbEntity
  8
寸法線
 62
     0
370
    -2
100
AcDbLine
 10
865.9054545346096
 20
2495.35906595837
 30
0.0
 11
865.9054545346096
 21
2505.35906595837
 31
0.0
  0
INSERT
  5
2767
330
26EC
100
AcDbEntity
  8
寸法線
 62
     0
370
    -2
100
AcDbBlockReference
  2
_OPEN
 10
865.9054545346096
 20
2495.35906595837
 30
0.0
 41
13.5
 42
13.5
 43
13.5
 50
90.0
  0
INSERT
  5
2768
330
26EC
100
AcDbEntity
  8
寸法線
 62
     0
370
    -2
100
AcDbBlockReference
  2
_OPEN
 10
865.9054545346096
 20
2505.35906595837
 30
0.0
 41
13.5
 42
13.5
 43
13.5
 50
270.0
  0
MTEXT
  5
2769
330
26EC
100
AcDbEntity
  8
寸法線
 62
     0
100
AcDbMText
 10
854.6554545346092
 20
2544.73406595837
 30
0.0
 40
13.5
 41
0.0
 71
     5
 72
     1
  1
10
 11
0.0000000000000001
 21
1.0
 31
0.0
 73
     1
 44
1.0
  0
POINT
  5
276A
330
26EC
100
AcDbEntity
  8
DEFPOINTS
 62
     0
100
AcDbPoint
 10
820.9054545346099
 20
2495.35906595837
 30
0.0
  0
POINT
  5
276B
330
26EC
100
AcDbEntity
  8
DEFPOINTS
 62
     0
100
AcDbPoint
 10
801.2963272725901
 20
2505.35906595837
 30
0.0
  0
POINT
  5
276C
330
26EC
100
AcDbEntity
  8
DEFPOINTS
 62
     0
100
AcDbPoint
 10
865.9054545346096
 20
2505.35906595837
 30
0.0
  0
ENDBLK
  5
26F9
330
26EC
100
AcDbEntity
  8
0
100
AcDbBlockEnd
  0
BLOCK
  5
2704
330
26FA
100
AcDbEntity
  8
0
100
AcDbBlockBegin
  2
*D32
 70
     1
 10
0.0
 20
0.0
 30
0.0
  3
*D32
  1

  0
LINE
  5
276D
330
26FA
100
AcDbEntity
  8
寸法線
 62
     0
370
    -2
100
AcDbLine
 10
642.9054545346096
 20
1846.857727108833
 30
0.0
 11
642.9054545346096
 21
1811.73406595837
 31
0.0
  0
LINE
  5
276E
330
26FA
100
AcDbEntity
  8
寸法線
 62
     0
370
    -2
100
AcDbLine
 10
702.9054545346097
 20
1846.857727108833
 30
0.0
 11
702.9054545346097
 21
1811.73406595837
 31
0.0
  0
LINE
  5
276F
330
26FA
100
AcDbEntity
  8
寸法線
 62
     0
370
    -2
100
AcDbLine
 10
656.4054545346095
 20
1817.35906595837
 30
0.0
 11
689.4054545346096
 21
1817.35906595837
 31
0.0
  0
INSERT
  5
2770
330
26FA
100
AcDbEntity
  8
寸法線
 62
     0
370
    -2
100
AcDbBlockReference
  2
_OPEN
 10
642.9054545346096
 20
1817.35906595837
 30
0.0
 41
13.5
 42
13.5
 43
13.5
 50
180.0
  0
INSERT
  5
2771
330
26FA
100
AcDbEntity
  8
寸法線
 62
     0
370
    -2
100
AcDbBlockReference
  2
_OPEN
 10
702.9054545346097
 20
1817.35906595837
 30
0.0
 41
13.5
 42
13.5
 43
13.5
  0
MTEXT
  5
2772
330
26FA
100
AcDbEntity
  8
寸法線
 62
     0
100
AcDbMText
 10
672.9054545346095
 20
1828.60906595837
 30
0.0
 40
13.5
 41
0.0
 71
     5
 72
     1
  1
60
 73
     1
 44
1.0
  0
POINT
  5
2773
330
26FA
100
AcDbEntity
  8
DEFPOINTS
 62
     0
100
AcDbPoint
 10
642.9054545346096
 20
1851.357727108833
 30
0.0
  0
POINT
  5
2774
330
26FA
100
AcDbEntity
  8
DEFPOINTS
 62
     0
100
AcDbPoint
 10
702.9054545346097
 20
1851.357727108833
 30
0.0
  0
POINT
  5
2775
330
26FA
100
AcDbEntity
  8
DEFPOINTS
 62
     0
100
AcDbPoint
 10
702.9054545346097
 20
1817.35906595837
 30
0.0
  0
ENDBLK
  5
2705
330
26FA
100
AcDbEntity
  8
0
100
AcDbBlockEnd
  0
BLOCK
  5
2710
330
2706
100
AcDbEntity
  8
0
100
AcDbBlockBegin
  2
*D33
 70
     1
 10
0.0
 20
0.0
 30
0.0
  3
*D33
  1

  0
LINE
  5
2776
330
2706
100
AcDbEntity
  8
寸法線
 62
     0
370
    -2
100
AcDbLine
 10
1083.905454534609
 20
1907.85906595837
 30
0.0
 11
1083.905454534609
 21
1861.73406595837
 31
0.0
  0
LINE
  5
2777
330
2706
100
AcDbEntity
  8
寸法線
 62
     0
370
    -2
100
AcDbLine
 10
1313.90545453461
 20
1907.85906595837
 30
0.0
 11
1313.90545453461
 21
1861.73406595837
 31
0.0
  0
LINE
  5
2778
330
2706
100
AcDbEntity
  8
寸法線
 62
     0
370
    -2
100
AcDbLine
 10
1097.405454534609
 20
1867.35906595837
 30
0.0
 11
1300.40545453461
 21
1867.35906595837
 31
0.0
  0
INSERT
  5
2779
330
2706
100
AcDbEntity
  8
寸法線
 62
     0
370
    -2
100
AcDbBlockReference
  2
_OPEN
 10
1083.905454534609
 20
1867.35906595837
 30
0.0
 41
13.5
 42
13.5
 43
13.5
 50
180.0
  0
INSERT
  5
277A
330
2706
100
AcDbEntity
  8
寸法線
 62
     0
370
    -2
100
AcDbBlockReference
  2
_OPEN
 10
1313.90545453461
 20
1867.35906595837
 30
0.0
 41
13.5
 42
13.5
 43
13.5
  0
MTEXT
  5
277B
330
2706
100
AcDbEntity
  8
寸法線
 62
     0
100
AcDbMText
 10
1198.905454534609
 20
1878.60906595837
 30
0.0
 40
13.5
 41
0.0
 71
     5
 72
     1
  1
230
 73
     1
 44
1.0
  0
POINT
  5
277C
330
2706
100
AcDbEntity
  8
DEFPOINTS
 62
     0
100
AcDbPoint
 10
1083.905454534609
 20
1912.35906595837
 30
0.0
  0
POINT
  5
277D
330
2706
100
AcDbEntity
  8
DEFPOINTS
 62
     0
100
AcDbPoint
 10
1313.90545453461
 20
1912.35906595837
 30
0.0
  0
POINT
  5
277E
330
2706
100
AcDbEntity
  8
DEFPOINTS
 62
     0
100
AcDbPoint
 10
1313.90545453461
 20
1867.35906595837
 30
0.0
  0
ENDBLK
  5
2711
330
2706
100
AcDbEntity
  8
0
100
AcDbBlockEnd
  0
BLOCK
  5
271E
330
2712
100
AcDbEntity
  8
0
100
AcDbBlockBegin
  2
*D34
 70
     1
 10
0.0
 20
0.0
 30
0.0
  3
*D34
  1

  0
LINE
  5
277F
330
2712
100
AcDbEntity
  8
寸法線
 62
     0
370
    -2
100
AcDbLine
 10
1217.905454534609
 20
2017.35906595837
 30
0.0
 11
1270.326020126513
 21
2017.35906595837
 31
0.0
  0
LINE
  5
2780
330
2712
100
AcDbEntity
  8
寸法線
 62
     0
370
    -2
100
AcDbLine
 10
1217.905454534609
 20
1997.35906595837
 30
0.0
 11
1270.326020126513
 21
1997.35906595837
 31
0.0
  0
LINE
  5
2781
330
2712
100
AcDbEntity
  8
寸法線
 62
     0
370
    -2
100
AcDbLine
 10
1264.701020126514
 20
2030.85906595837
 30
0.0
 11
1264.701020126514
 21
2044.35906595837
 31
0.0
  0
LINE
  5
2782
330
2712
100
AcDbEntity
  8
寸法線
 62
     0
370
    -2
100
AcDbLine
 10
1264.701020126514
 20
1983.85906595837
 30
0.0
 11
1264.701020126514
 21
1941.10906595837
 31
0.0
  0
LINE
  5
2783
330
2712
100
AcDbEntity
  8
寸法線
 62
     0
370
    -2
100
AcDbLine
 10
1264.701020126514
 20
2017.35906595837
 30
0.0
 11
1264.701020126514
 21
1997.35906595837
 31
0.0
  0
INSERT
  5
2784
330
2712
100
AcDbEntity
  8
寸法線
 62
     0
370
    -2
100
AcDbBlockReference
  2
_OPEN
 10
1264.701020126514
 20
2017.35906595837
 30
0.0
 41
13.5
 42
13.5
 43
13.5
 50
270.0
  0
INSERT
  5
2785
330
2712
100
AcDbEntity
  8
寸法線
 62
     0
370
    -2
100
AcDbBlockReference
  2
_OPEN
 10
1264.701020126514
 20
1997.35906595837
 30
0.0
 41
13.5
 42
13.5
 43
13.5
 50
90.0
  0
MTEXT
  5
2786
330
2712
100
AcDbEntity
  8
寸法線
 62
     0
100
AcDbMText
 10
1253.451020126513
 20
1955.73406595837
 30
0.0
 40
13.5
 41
0.0
 71
     5
 72
     1
  1
20
 11
0.0000000000000001
 21
1.0
 31
0.0
 73
     1
 44
1.0
  0
POINT
  5
2787
330
2712
100
AcDbEntity
  8
DEFPOINTS
 62
     0
100
AcDbPoint
 10
1213.405454534609
 20
2017.35906595837
 30
0.0
  0
POINT
  5
2788
330
2712
100
AcDbEntity
  8
DEFPOINTS
 62
     0
100
AcDbPoint
 10
1213.405454534609
 20
1997.35906595837
 30
0.0
  0
POINT
  5
2789
330
2712
100
AcDbEntity
  8
DEFPOINTS
 62
     0
100
AcDbPoint
 10
1264.701020126514
 20
1997.35906595837
 30
0.0
  0
ENDBLK
  5
271F
330
2712
100
AcDbEntity
  8
0
100
AcDbBlockEnd
  0
BLOCK
  5
272A
330
2720
100
AcDbEntity
  8
0
100
AcDbBlockBegin
  2
*D35
 70
     1
 10
0.0
 20
0.0
 30
0.0
  3
*D35
  1

  0
LINE
  5
278A
330
2720
100
AcDbEntity
  8
寸法線
 62
     0
370
    -2
100
AcDbLine
 10
1049.593835100879
 20
2017.35906595837
 30
0.0
 11
1017.99384369711
 21
2017.35906595837
 31
0.0
  0
LINE
  5
278B
330
2720
100
AcDbEntity
  8
寸法線
 62
     0
370
    -2
100
AcDbLine
 10
1148.405454534609
 20
1977.35906595837
 30
0.0
 11
1017.99384369711
 21
1977.35906595837
 31
0.0
  0
LINE
  5
278C
330
2720
100
AcDbEntity
  8
寸法線
 62
     0
370
    -2
100
AcDbLine
 10
1023.61884369711
 20
2003.859065958371
 30
0.0
 11
1023.61884369711
 21
1990.85906595837
 31
0.0
  0
INSERT
  5
278D
330
2720
100
AcDbEntity
  8
寸法線
 62
     0
370
    -2
100
AcDbBlockReference
  2
_OPEN
 10
1023.61884369711
 20
2017.35906595837
 30
0.0
 41
13.5
 42
13.5
 43
13.5
 50
90.0
  0
INSERT
  5
278E
330
2720
100
AcDbEntity
  8
寸法線
 62
     0
370
    -2
100
AcDbBlockReference
  2
_OPEN
 10
1023.61884369711
 20
1977.35906595837
 30
0.0
 41
13.5
 42
13.5
 43
13.5
 50
270.0
  0
MTEXT
  5
278F
330
2720
100
AcDbEntity
  8
寸法線
 62
     0
100
AcDbMText
 10
1012.368843697109
 20
1997.359065958371
 30
0.0
 40
13.5
 41
0.0
 71
     5
 72
     1
  1
40
 11
0.0000000000000001
 21
1.0
 31
0.0
 73
     1
 44
1.0
  0
POINT
  5
2790
330
2720
100
AcDbEntity
  8
DEFPOINTS
 62
     0
100
AcDbPoint
 10
1054.093835100879
 20
2017.35906595837
 30
0.0
  0
POINT
  5
2791
330
2720
100
AcDbEntity
  8
DEFPOINTS
 62
     0
100
AcDbPoint
 10
1152.905454534609
 20
1977.35906595837
 30
0.0
  0
POINT
  5
2792
330
2720
100
AcDbEntity
  8
DEFPOINTS
 62
     0
100
AcDbPoint
 10
1023.61884369711
 20
1977.35906595837
 30
0.0
  0
ENDBLK
  5
272B
330
2720
100
AcDbEntity
  8
0
100
AcDbBlockEnd
  0
BLOCK
  5
27FB
330
279A
100
AcDbEntity
  8
0
100
AcDbBlockBegin
  2
Ａ－３　アンナカ用紙
 70
     0
 10
0.0
 20
0.0
 30
0.0
  3
Ａ－３　アンナカ用紙
  1

  0
LINE
  5
279B
330
279A
100
AcDbEntity
  8
0
370
    40
100
AcDbLine
 10
409.9999999999999
 20
10.0
 30
0.0
 11
409.9999999999999
 21
38.0
 31
0.0
  0
LINE
  5
279C
330
279A
100
AcDbEntity
  8
0
370
    60
100
AcDbLine
 10
409.9999999999999
 20
287.0
 30
0.0
 11
24.99999999999994
 21
287.0
 31
0.0
  0
LINE
  5
279D
330
279A
100
AcDbEntity
  8
0
370
    40
100
AcDbLine
 10
229.9999999999999
 20
10.0
 30
0.0
 11
409.9999999999999
 21
10.0
 31
0.0
  0
LINE
  5
279E
330
279A
100
AcDbEntity
  8
0
370
    60
100
AcDbLine
 10
24.99999999999994
 20
287.0
 30
0.0
 11
25.0
 21
10.0
 31
0.0
  0
LINE
  5
279F
330
279A
100
AcDbEntity
  8
0
370
    40
100
AcDbLine
 10
304.9999999999999
 20
22.0
 30
0.0
 11
409.9999999999999
 21
22.0
 31
0.0
  0
LINE
  5
27A0
330
279A
100
AcDbEntity
  8
0
370
    40
100
AcDbLine
 10
304.9999999999999
 20
30.0
 30
0.0
 11
409.9999999999999
 21
30.0
 31
0.0
  0
LINE
  5
27A1
330
279A
100
AcDbEntity
  8
0
370
    40
100
AcDbLine
 10
229.9999999999999
 20
38.0
 30
0.0
 11
409.9999999999999
 21
38.0
 31
0.0
  0
LINE
  5
27A2
330
279A
100
AcDbEntity
  8
0
370
    40
100
AcDbLine
 10
304.9999999999999
 20
10.0
 30
0.0
 11
304.9999999999999
 21
38.0
 31
0.0
  0
LINE
  5
27A3
330
279A
100
AcDbEntity
  8
0
370
    40
100
AcDbLine
 10
229.9999999999999
 20
10.0
 30
0.0
 11
229.9999999999999
 21
38.0
 31
0.0
  0
LINE
  5
27A4
330
279A
100
AcDbEntity
  8
0
370
    40
100
AcDbLine
 10
328.9999999999999
 20
30.0
 30
0.0
 11
328.9999999999999
 21
38.0
 31
0.0
  0
LINE
  5
27A5
330
279A
100
AcDbEntity
  8
0
370
    15
100
AcDbLine
 10
336.9999999999999
 20
30.0
 30
0.0
 11
336.9999999999999
 21
38.0
 31
0.0
  0
LINE
  5
27A6
330
279A
100
AcDbEntity
  8
0
370
    40
100
AcDbLine
 10
344.9999999999999
 20
30.0
 30
0.0
 11
344.9999999999999
 21
38.0
 31
0.0
  0
LINE
  5
27A7
330
279A
100
AcDbEntity
  8
0
370
    15
100
AcDbLine
 10
352.9999999999999
 20
30.0
 30
0.0
 11
352.9999999999999
 21
38.0
 31
0.0
  0
LINE
  5
27A8
330
279A
100
AcDbEntity
  8
0
370
    40
100
AcDbLine
 10
367.9999999999999
 20
30.0
 30
0.0
 11
367.9999999999999
 21
38.0
 31
0.0
  0
LINE
  5
27A9
330
279A
100
AcDbEntity
  8
0
370
    15
100
AcDbLine
 10
375.9999999999999
 20
30.0
 30
0.0
 11
375.9999999999999
 21
38.0
 31
0.0
  0
LINE
  5
27AA
330
279A
100
AcDbEntity
  8
0
370
    40
100
AcDbLine
 10
393.9999999999999
 20
30.0
 30
0.0
 11
393.9999999999999
 21
38.0
 31
0.0
  0
LINE
  5
27AB
330
279A
100
AcDbEntity
  8
0
370
    15
100
AcDbLine
 10
401.9999999999999
 20
30.0
 30
0.0
 11
401.9999999999999
 21
38.0
 31
0.0
  0
LINE
  5
27AC
330
279A
100
AcDbEntity
  8
0
370
    40
100
AcDbLine
 10
362.9999999999999
 20
10.0
 30
0.0
 11
362.9999999999999
 21
30.0
 31
0.0
  0
LINE
  5
27AD
330
279A
100
AcDbEntity
  8
0
100
AcDbLine
 10
304.9999999999999
 20
30.0
 30
0.0
 11
230.0
 21
30.00000000000005
 31
0.0
  0
LINE
  5
27AE
330
279A
100
AcDbEntity
  8
0
100
AcDbLine
 10
304.9999999999999
 20
34.0
 30
0.0
 11
230.0
 21
34.00000000000005
 31
0.0
  0
LINE
  5
27AF
330
279A
100
AcDbEntity
  8
0
100
AcDbLine
 10
304.9999999999999
 20
26.0
 30
0.0
 11
229.9999999999999
 21
26.00000000000005
 31
0.0
  0
LINE
  5
27B0
330
279A
100
AcDbEntity
  8
0
100
AcDbLine
 10
229.9999999999999
 20
14.0
 30
0.0
 11
304.9999999999999
 21
14.0
 31
0.0
  0
LINE
  5
27B1
330
279A
100
AcDbEntity
  8
0
100
AcDbLine
 10
304.9999999999999
 20
34.0
 30
0.0
 11
328.9999999999999
 21
34.0
 31
0.0
  0
LINE
  5
27B2
330
279A
100
AcDbEntity
  8
0
370
    40
100
AcDbLine
 10
281.9999999999999
 20
10.0
 30
0.0
 11
281.9999999999999
 21
38.0
 31
0.0
  0
LINE
  5
27B3
330
279A
100
AcDbEntity
  8
0
100
AcDbLine
 10
281.9999999999999
 20
18.0
 30
0.0
 11
304.9999999999999
 21
18.0
 31
0.0
  0
LINE
  5
27B4
330
279A
100
AcDbEntity
  8
0
100
AcDbLine
 10
281.9999999999999
 20
22.0
 30
0.0
 11
304.9999999999999
 21
22.0
 31
0.0
  0
LINE
  5
27B5
330
279A
100
AcDbEntity
  8
0
100
AcDbLine
 10
268.9999999999999
 20
10.0
 30
0.0
 11
268.9999999999999
 21
26.00000000000003
 31
0.0
  0
LINE
  5
27B6
330
279A
100
AcDbEntity
  8
0
100
AcDbLine
 10
255.9999999999999
 20
10.0
 30
0.0
 11
255.9999999999999
 21
26.00000000000004
 31
0.0
  0
LINE
  5
27B7
330
279A
100
AcDbEntity
  8
0
100
AcDbLine
 10
242.9999999999999
 20
10.0
 30
0.0
 11
242.9999999999999
 21
26.00000000000004
 31
0.0
  0
LINE
  5
27B8
330
279A
100
AcDbEntity
  8
0
100
AcDbLine
 10
293.9999999999999
 20
10.0
 30
0.0
 11
294.0
 21
34.00000000000001
 31
0.0
  0
LINE
  5
27B9
330
279A
100
AcDbEntity
  8
0
100
AcDbLine
 10
273.9999999999999
 20
26.00000000000002
 30
0.0
 11
273.9999999999999
 21
38.0
 31
0.0
  0
LINE
  5
27BA
330
279A
100
AcDbEntity
  8
0
100
AcDbLine
 10
309.9999999999999
 20
22.0
 30
0.0
 11
309.9999999999999
 21
30.0
 31
0.0
  0
LINE
  5
27BB
330
279A
100
AcDbEntity
  8
0
100
AcDbLine
 10
367.9999999999999
 20
10.0
 30
0.0
 11
367.9999999999999
 21
30.0
 31
0.0
  0
MTEXT
  5
27BC
330
279A
100
AcDbEntity
  8
0
100
AcDbMText
 10
231.3237766005161
 20
29.2480664031666
 30
0.0
 40
2.5
 41
10.9292
 71
     1
 72
     5
  1
記号
 73
     1
 44
1.0
1001
ACAD
1000
MTEXTBEGIN
1070
    73
1070
     1
1070
    44
1040
1.0
1070
    74
1070
     0
1000
MTEXTEND
  0
MTEXT
  5
27BD
330
279A
100
AcDbEntity
  8
0
100
AcDbMText
 10
239.9664659250005
 20
29.24806571161741
 30
0.0
 40
2.5
 41
9.8658
 71
     1
 72
     5
  1
日　付
 73
     1
 44
1.0
1001
ACAD
1000
MTEXTBEGIN
1070
    73
1070
     1
1070
    44
1040
1.0
1070
    74
1070
     0
1000
MTEXTEND
  0
MTEXT
  5
27BE
330
279A
100
AcDbEntity
  8
0
100
AcDbMText
 10
256.5079356953286
 20
29.24806709471579
 30
0.0
 40
2.5
 41
16.4233
 71
     1
 72
     5
  1
訂　　正
 73
     1
 44
1.0
1001
ACAD
1000
MTEXTBEGIN
1070
    73
1070
     1
1070
    44
1040
1.0
1070
    74
1070
     0
1000
MTEXTEND
  0
MTEXT
  5
27BF
330
279A
100
AcDbEntity
  8
0
100
AcDbMText
 10
275.3533972540202
 20
29.30711986558481
 30
0.0
 40
2.5
 41
10.6929
 71
     1
 72
     5
  1
担当
 73
     1
 44
1.0
1001
ACAD
1000
MTEXTBEGIN
1070
    73
1070
     1
1070
    44
1040
1.0
1070
    74
1070
     0
1000
MTEXTEND
  0
LINE
  5
27C0
330
279A
100
AcDbEntity
  8
0
100
AcDbLine
 10
238.0
 20
26.00000000000004
 30
0.0
 11
237.9999999999999
 21
38.0
 31
0.0
  0
LINE
  5
27C1
330
279A
100
AcDbEntity
  8
0
100
AcDbLine
 10
250.0
 20
26.00000000000004
 30
0.0
 11
249.9999999999999
 21
38.0
 31
0.0
  0
LINE
  5
27C2
330
279A
100
AcDbEntity
  8
0
100
AcDbLine
 10
231.9999999999999
 20
34.00000000000005
 30
0.0
 11
235.9999999999999
 21
34.00000000000005
 31
0.0
  0
MTEXT
  5
27C3
330
279A
100
AcDbEntity
  8
0
100
AcDbMText
 10
232.1683446627442
 20
13.36253702110434
 30
0.0
 40
2.5
 41
15.3009
 71
     1
 72
     5
  1
設　計
 73
     1
 44
1.0
1001
ACAD
1000
MTEXTBEGIN
1070
    73
1070
     1
1070
    44
1040
1.0
1070
    74
1070
     0
1000
MTEXTEND
  0
MTEXT
  5
27C4
330
279A
100
AcDbEntity
  8
0
100
AcDbMText
 10
245.2242900941809
 20
13.2444294047184
 30
0.0
 40
2.5
 41
13.2332
 71
     1
 72
     5
  1
製　図
 73
     1
 44
1.0
1001
ACAD
1000
MTEXTBEGIN
1070
    73
1070
     1
1070
    44
1040
1.0
1070
    74
1070
     0
1000
MTEXTEND
  0
MTEXT
  5
27C5
330
279A
100
AcDbEntity
  8
0
100
AcDbMText
 10
258.2802355256168
 20
13.24442871316921
 30
0.0
 40
2.5
 41
12.2289
 71
     1
 72
     5
  1
検　図
 73
     1
 44
1.0
1001
ACAD
1000
MTEXTBEGIN
1070
    73
1070
     1
1070
    44
1040
1.0
1070
    74
1070
     0
1000
MTEXTEND
  0
MTEXT
  5
27C6
330
279A
100
AcDbEntity
  8
0
100
AcDbMText
 10
271.2180283046965
 20
13.24442871316921
 30
0.0
 40
2.5
 41
8.5661
 71
     1
 72
     5
  1
承　認
 73
     1
 44
1.0
1001
ACAD
1000
MTEXTBEGIN
1070
    73
1070
     1
1070
    44
1040
1.0
1070
    74
1070
     0
1000
MTEXTEND
  0
LINE
  5
27C7
330
279A
100
AcDbEntity
  8
0
370
    60
100
AcDbLine
 10
409.9999999999999
 20
10.0
 30
0.0
 11
409.9999999999999
 21
287.0
 31
0.0
  0
LINE
  5
27C8
330
279A
100
AcDbEntity
  8
0
370
    60
100
AcDbLine
 10
25.0
 20
10.0
 30
0.0
 11
409.9999999999999
 21
10.0
 31
0.0
  0
MTEXT
  5
27C9
330
279A
100
AcDbEntity
  8
0
100
AcDbMText
 10
286.8057466895101
 20
37.28748650804993
 30
0.0
 40
2.5
 41
21.2646
 71
     1
 72
     5
  1
寸 法 差
 73
     1
 44
1.0
1001
ACAD
1000
MTEXTBEGIN
1070
    73
1070
     1
1070
    44
1040
1.0
1070
    74
1070
     0
1000
MTEXTEND
  0
TEXT
  5
27CA
330
279A
100
AcDbEntity
  8
0
100
AcDbText
 10
294.5342705509705
 20
30.5835318381587
 30
0.0
 40
2.5
  1
±
100
AcDbText
  0
TEXT
  5
27CB
330
279A
100
AcDbEntity
  8
0
100
AcDbText
 10
297.0342705509705
 20
30.5835318381587
 30
0.0
 40
2.5
  1
0.05
100
AcDbText
  0
TEXT
  5
27CC
330
279A
100
AcDbEntity
  8
0
100
AcDbText
 10
292.5686336695338
 20
26.86342893006538
 30
0.0
 40
2.5
  1
　 0.1
100
AcDbText
  0
TEXT
  5
27CD
330
279A
100
AcDbEntity
  8
0
100
AcDbText
 10
292.3899411426205
 20
22.69676226339872
 30
0.0
 40
2.5
  1
　 0.15
100
AcDbText
  0
TEXT
  5
27CE
330
279A
100
AcDbEntity
  8
0
100
AcDbText
 10
292.4792879083246
 20
18.61940848675658
 30
0.0
 40
2.5
  1
　 0.2
100
AcDbText
  0
TEXT
  5
27CF
330
279A
100
AcDbEntity
  8
0
100
AcDbText
 10
292.5686346740281
 20
14.72068049016351
 30
0.0
 40
2.5
  1
　 0.3
100
AcDbText
  0
TEXT
  5
27D0
330
279A
100
AcDbEntity
  8
0
100
AcDbText
 10
292.4792879083246
 20
10.7326389119966
 30
0.0
 40
2.5
  1
　 0.5
100
AcDbText
  0
TEXT
  5
27D1
330
279A
100
AcDbEntity
  8
0
100
AcDbText
 10
288.9947509874531
 20
30.76215761820765
 30
0.0
 40
2.5
  1
0～
100
AcDbText
  0
TEXT
  5
27D2
330
279A
100
AcDbEntity
  8
0
100
AcDbText
 10
288.6373629201438
 20
26.68480315001632
 30
0.0
 40
2.5
  1
6～
100
AcDbText
  0
TEXT
  5
27D3
330
279A
100
AcDbEntity
  8
0
100
AcDbText
 10
286.4930325072999
 20
22.78607515342325
 30
0.0
 40
2.5
  1
30～
100
AcDbText
  0
TEXT
  5
27D4
330
279A
100
AcDbEntity
  8
0
100
AcDbText
 10
284.9741314633705
 20
18.79803426680553
 30
0.0
 40
2.5
  1
120～
100
AcDbText
  0
TEXT
  5
27D5
330
279A
100
AcDbEntity
  8
0
100
AcDbText
 10
284.2593543242577
 20
14.7206797986142
 30
0.0
 40
2.5
  1
315～
100
AcDbText
  0
TEXT
  5
27D6
330
279A
100
AcDbEntity
  8
0
100
AcDbText
 10
283.1871901223302
 20
10.64332602197207
 30
0.0
 40
2.5
  1
1000～
100
AcDbText
  0
LINE
  5
27D7
330
279A
100
AcDbEntity
  8
0
100
AcDbLine
 10
310.3995670880194
 20
37.12761554280757
 30
0.0
 11
311.5995670880193
 21
34.62761554280757
 31
0.0
  0
LINE
  5
27D8
330
279A
100
AcDbEntity
  8
0
100
AcDbLine
 10
311.5995670880193
 20
34.62761554280757
 30
0.0
 11
312.7995670880193
 21
37.12761554280757
 31
0.0
  0
LINE
  5
27D9
330
279A
100
AcDbEntity
  8
0
100
AcDbLine
 10
312.7995670880193
 20
37.12761554280757
 30
0.0
 11
310.3995670880194
 21
37.12761554280757
 31
0.0
  0
LINE
  5
27DA
330
279A
100
AcDbEntity
  8
0
100
AcDbLine
 10
315.6201866121019
 20
34.62761554280757
 30
0.0
 11
316.8201866121019
 21
37.12761554280757
 31
0.0
  0
LINE
  5
27DB
330
279A
100
AcDbEntity
  8
0
100
AcDbLine
 10
314.420186612102
 20
37.12761554280757
 30
0.0
 11
315.6201866121019
 21
34.62761554280757
 31
0.0
  0
LINE
  5
27DC
330
279A
100
AcDbEntity
  8
0
100
AcDbLine
 10
316.8201866121019
 20
37.12761554280757
 30
0.0
 11
314.420186612102
 21
37.12761554280757
 31
0.0
  0
LINE
  5
27DD
330
279A
100
AcDbEntity
  8
0
100
AcDbLine
 10
318.0201866121019
 20
34.62761554280757
 30
0.0
 11
319.2201866121019
 21
37.12761554280757
 31
0.0
  0
LINE
  5
27DE
330
279A
100
AcDbEntity
  8
0
100
AcDbLine
 10
316.8201866121019
 20
37.12761554280757
 30
0.0
 11
318.0201866121019
 21
34.62761554280757
 31
0.0
  0
LINE
  5
27DF
330
279A
100
AcDbEntity
  8
0
100
AcDbLine
 10
319.2201866121019
 20
37.12761554280757
 30
0.0
 11
316.8201866121019
 21
37.12761554280757
 31
0.0
  0
LINE
  5
27E0
330
279A
100
AcDbEntity
  8
0
100
AcDbLine
 10
323.0236245769026
 20
37.12761554280757
 30
0.0
 11
324.2236245769026
 21
34.62761554280757
 31
0.0
  0
LINE
  5
27E1
330
279A
100
AcDbEntity
  8
0
100
AcDbLine
 10
324.2236245769026
 20
34.62761554280757
 30
0.0
 11
325.4236245769026
 21
37.12761554280757
 31
0.0
  0
LINE
  5
27E2
330
279A
100
AcDbEntity
  8
0
100
AcDbLine
 10
320.6236245769026
 20
37.12761554280757
 30
0.0
 11
321.8236245769026
 21
34.62761554280757
 31
0.0
  0
LINE
  5
27E3
330
279A
100
AcDbEntity
  8
0
100
AcDbLine
 10
321.8236245769026
 20
34.62761554280757
 30
0.0
 11
323.0236245769026
 21
37.12761554280757
 31
0.0
  0
LINE
  5
27E4
330
279A
100
AcDbEntity
  8
0
100
AcDbLine
 10
323.0236245769026
 20
37.12761554280757
 30
0.0
 11
320.6236245769026
 21
37.12761554280757
 31
0.0
  0
LINE
  5
27E5
330
279A
100
AcDbEntity
  8
0
100
AcDbLine
 10
325.4236245769026
 20
37.12761554280757
 30
0.0
 11
323.0236245769026
 21
37.12761554280757
 31
0.0
  0
LINE
  5
27E6
330
279A
100
AcDbEntity
  8
0
100
AcDbLine
 10
326.6236245769026
 20
34.62761554280757
 30
0.0
 11
327.8236245769026
 21
37.12761554280757
 31
0.0
  0
LINE
  5
27E7
330
279A
100
AcDbEntity
  8
0
100
AcDbLine
 10
325.4236245769026
 20
37.12761554280757
 30
0.0
 11
326.6236245769026
 21
34.62761554280757
 31
0.0
  0
LINE
  5
27E8
330
279A
100
AcDbEntity
  8
0
100
AcDbLine
 10
327.8236245769026
 20
37.12761554280757
 30
0.0
 11
325.4236245769026
 21
37.12761554280757
 31
0.0
  0
MTEXT
  5
27E9
330
279A
100
AcDbEntity
  8
0
100
AcDbMText
 10
306.4174345873165
 20
37.12761623435687
 30
0.0
 40
2.5
 41
5.450199999999999
 71
     1
 72
     5
  1
～
 73
     1
 44
1.0
1001
ACAD
1000
MTEXTBEGIN
1070
    73
1070
     1
1070
    44
1040
1.0
1070
    74
1070
     0
1000
MTEXTEND
  0
MTEXT
  5
27EA
330
279A
100
AcDbEntity
  8
0
100
AcDbMText
 10
311.6889138537229
 20
33.10853964099931
 30
0.0
 40
2.5
 41
37.4364
 71
     1
 72
     5
  1
仕　　上
 73
     1
 44
1.0
1001
ACAD
1000
MTEXTBEGIN
1070
    73
1070
     1
1070
    44
1040
1.0
1070
    74
1070
     0
1000
MTEXTEND
  0
MTEXT
  5
27EB
330
279A
100
AcDbEntity
  8
0
100
AcDbMText
 10
306.4174345873165
 20
29.26808813614161
 30
0.0
 40
2.5
 41
6.5223
 71
     1
 72
     5
  1
品\P名
 73
     1
 44
1.0
1001
ACAD
1000
MTEXTBEGIN
1070
    73
1070
     1
1070
    44
1040
1.0
1070
    74
1070
     0
1000
MTEXTEND
  0
MTEXT
  5
27EC
330
279A
100
AcDbEntity
  8
0
100
AcDbMText
 10
364.3058466618232
 20
19.26505206043634
 30
0.0
 40
2.5
 41
4.1993
 71
     1
 72
     5
  1
図\P番
 73
     1
 44
1.0
1001
ACAD
1000
MTEXTBEGIN
1070
    73
1070
     1
1070
    44
1040
1.0
1070
    74
1070
     0
1000
MTEXTEND
  0
MTEXT
  5
27ED
330
279A
100
AcDbEntity
  8
0
100
AcDbMText
 10
330.4673263719777
 20
39.36043710187152
 30
0.0
 40
2.5
 41
11.79379999999999
 71
     1
 72
     5
  1
\P尺度
 73
     1
 44
1.0
1001
ACAD
1000
MTEXTBEGIN
1070
    73
1070
     1
1070
    44
1040
1.0
1070
    74
1070
     0
1000
MTEXTEND
  0
LINE
  5
27EE
330
279A
100
AcDbEntity
  8
0
100
AcDbLine
 10
343.9999999999999
 20
37.0
 30
0.0
 11
337.9999999999999
 21
31.0
 31
0.0
  0
MTEXT
  5
27EF
330
279A
100
AcDbEntity
  8
0
100
AcDbMText
 10
346.3533324320559
 20
35.34135981696477
 30
0.0
 40
2.5
 41
8.934699999999999
 71
     1
 72
     5
  1
材質
 73
     1
 44
1.0
1001
ACAD
1000
MTEXTBEGIN
1070
    73
1070
     1
1070
    44
1040
1.0
1070
    74
1070
     0
1000
MTEXTEND
  0
MTEXT
  5
27F0
330
279A
100
AcDbEntity
  8
0
100
AcDbMText
 10
369.3153826917365
 20
35.16273472846501
 30
0.0
 40
2.5
 41
9.1134
 71
     1
 72
     5
  1
処理
 73
     1
 44
1.0
1001
ACAD
1000
MTEXTBEGIN
1070
    73
1070
     1
1070
    44
1040
1.0
1070
    74
1070
     0
1000
MTEXTEND
  0
MTEXT
  5
27F1
330
279A
100
AcDbEntity
  8
0
100
AcDbMText
 10
395.315542855665
 20
35.25204692694023
 30
0.0
 40
2.5
 41
7.9519
 71
     1
 72
     5
  1
個数
 73
     1
 44
1.0
1001
ACAD
1000
MTEXTBEGIN
1070
    73
1070
     1
1070
    44
1040
1.0
1070
    74
1070
     0
1000
MTEXTEND
  0
LINE
  5
27F2
330
279A
100
AcDbEntity
  8
0
100
AcDbLine
 10
233.9999999999999
 20
38.0
 30
0.0
 11
231.6999999999999
 21
34.00000000000005
 31
0.0
  0
LINE
  5
27F3
330
279A
100
AcDbEntity
  8
0
100
AcDbLine
 10
231.6999999999999
 20
34.00000000000005
 30
0.0
 11
236.2999999999999
 21
34.00000000000005
 31
0.0
  0
LINE
  5
27F4
330
279A
100
AcDbEntity
  8
0
100
AcDbLine
 10
236.2999999999999
 20
34.00000000000005
 30
0.0
 11
233.9999999999999
 21
38.0
 31
0.0
  0
LINE
  5
27F5
330
279A
100
AcDbEntity
  8
0
100
AcDbLine
 10
233.9999999999999
 20
34.00000000000005
 30
0.0
 11
231.6999999999999
 21
30.00000000000005
 31
0.0
  0
LINE
  5
27F6
330
279A
100
AcDbEntity
  8
0
100
AcDbLine
 10
231.6999999999999
 20
30.00000000000005
 30
0.0
 11
236.2999999999999
 21
30.00000000000005
 31
0.0
  0
LINE
  5
27F7
330
279A
100
AcDbEntity
  8
0
100
AcDbLine
 10
236.2999999999999
 20
30.00000000000005
 30
0.0
 11
233.9999999999999
 21
34.00000000000005
 31
0.0
  0
TEXT
  5
27F8
330
279A
100
AcDbEntity
  8
文字
100
AcDbText
 10
306.9310155476451
 20
13.22386510844346
 30
0.0
 40
5.5
  1
株式会社 アンナカ
100
AcDbText
  0
TEXT
  5
27F9
330
279A
100
AcDbEntity
  8
文字
100
AcDbText
 10
364.2164998961196
 20
26.76808813614161
 30
0.0
 40
2.5
  1
機
100
AcDbText
1001
ACAD
1000
MTEXTBEGIN
1070
    73
1070
     1
1070
    44
1040
1.0
1070
    74
1070
     0
1000
MTEXTEND
  0
TEXT
  5
27FA
330
279A
100
AcDbEntity
  8
文字
100
AcDbText
 10
364.3522785898913
 20
22.68285433934473
 30
0.0
 40
2.5
  1
名
100
AcDbText
1001
ACAD
1000
MTEXTBEGIN
1070
    73
1070
     1
1070
    44
1040
1.0
1070
    74
1070
     0
1000
MTEXTEND
  0
ENDBLK
  5
27FC
330
279A
100
AcDbEntity
  8
0
100
AcDbBlockEnd
  0
BLOCK
  5
2934
330
292A
100
AcDbEntity
  8
0
100
AcDbBlockBegin
  2
*D38
 70
     1
 10
0.0
 20
0.0
 30
0.0
  3
*D38
  1

  0
LINE
  5
292B
330
292A
100
AcDbEntity
  8
文字
 62
     0
370
    -2
100
AcDbLine
 10
1217.9999889
 20
154.9999988999998
 30
0.0
 11
1172.633888492324
 21
154.9999988999998
 31
0.0
  0
LINE
  5
292C
330
292A
100
AcDbEntity
  8
文字
 62
     0
370
    -2
100
AcDbLine
 10
1217.9999889
 20
69.99999975
 30
0.0
 11
1172.633888492324
 21
69.99999975000001
 31
0.0
  0
LINE
  5
292D
330
292A
100
AcDbEntity
  8
文字
 62
     0
370
    -2
100
AcDbLine
 10
1178.258888492324
 20
141.4999988999998
 30
0.0
 11
1178.258888492324
 21
83.49999975000001
 31
0.0
  0
INSERT
  5
292E
330
292A
100
AcDbEntity
  8
文字
 62
     0
370
    -2
100
AcDbBlockReference
  2
_OPEN
 10
1178.258888492324
 20
154.9999988999998
 30
0.0
 41
13.5
 42
13.5
 43
13.5
 50
90.0
  0
INSERT
  5
292F
330
292A
100
AcDbEntity
  8
文字
 62
     0
370
    -2
100
AcDbBlockReference
  2
_OPEN
 10
1178.258888492324
 20
69.99999975000001
 30
0.0
 41
13.5
 42
13.5
 43
13.5
 50
270.0
  0
MTEXT
  5
2930
330
292A
100
AcDbEntity
  8
文字
 62
     0
100
AcDbMText
 10
1167.008888492324
 20
112.499999325
 30
0.0
 40
13.5
 41
0.0
 71
     5
 72
     1
  1
85
 11
0.0000000000000001
 21
1.0
 31
0.0
 73
     1
 44
1.0
  0
POINT
  5
2931
330
292A
100
AcDbEntity
  8
DEFPOINTS
 62
     0
100
AcDbPoint
 10
1222.4999889
 20
154.9999988999998
 30
0.0
  0
POINT
  5
2932
330
292A
100
AcDbEntity
  8
DEFPOINTS
 62
     0
100
AcDbPoint
 10
1222.4999889
 20
69.99999975
 30
0.0
  0
POINT
  5
2933
330
292A
100
AcDbEntity
  8
DEFPOINTS
 62
     0
100
AcDbPoint
 10
1178.258888492324
 20
69.99999975000001
 30
0.0
  0
ENDBLK
  5
2935
330
292A
100
AcDbEntity
  8
0
100
AcDbBlockEnd
  0
BLOCK
  5
2943
330
2937
100
AcDbEntity
  8
0
100
AcDbBlockBegin
  2
*D39
 70
     1
 10
0.0
 20
0.0
 30
0.0
  3
*D39
  1

  0
LINE
  5
2938
330
2937
100
AcDbEntity
  8
文字
 62
     0
370
    -2
100
AcDbLine
 10
1132.999989749998
 20
179.99999865
 30
0.0
 11
1104.461498523718
 21
179.99999865
 31
0.0
  0
LINE
  5
2939
330
2937
100
AcDbEntity
  8
文字
 62
     0
370
    -2
100
AcDbLine
 10
1132.999989749998
 20
154.9999988999998
 30
0.0
 11
1104.461498523718
 21
154.9999988999998
 31
0.0
  0
LINE
  5
293A
330
2937
100
AcDbEntity
  8
文字
 62
     0
370
    -2
100
AcDbLine
 10
1110.086498523718
 20
193.49999865
 30
0.0
 11
1110.086498523718
 21
206.99999865
 31
0.0
  0
LINE
  5
293B
330
2937
100
AcDbEntity
  8
文字
 62
     0
370
    -2
100
AcDbLine
 10
1110.086498523718
 20
141.4999988999998
 30
0.0
 11
1110.086498523718
 21
96.49999889999982
 31
0.0
  0
LINE
  5
293C
330
2937
100
AcDbEntity
  8
文字
 62
     0
370
    -2
100
AcDbLine
 10
1110.086498523718
 20
179.99999865
 30
0.0
 11
1110.086498523718
 21
154.9999988999998
 31
0.0
  0
INSERT
  5
293D
330
2937
100
AcDbEntity
  8
文字
 62
     0
370
    -2
100
AcDbBlockReference
  2
_OPEN
 10
1110.086498523718
 20
179.99999865
 30
0.0
 41
13.5
 42
13.5
 43
13.5
 50
270.0
  0
INSERT
  5
293E
330
2937
100
AcDbEntity
  8
文字
 62
     0
370
    -2
100
AcDbBlockReference
  2
_OPEN
 10
1110.086498523718
 20
154.9999988999998
 30
0.0
 41
13.5
 42
13.5
 43
13.5
 50
90.0
  0
MTEXT
  5
293F
330
2937
100
AcDbEntity
  8
文字
 62
     0
100
AcDbMText
 10
1098.836498523718
 20
112.2499989
 30
0.0
 40
13.5
 41
0.0
 71
     5
 72
     1
  1
25
 11
0.0000000000000001
 21
1.0
 31
0.0
 73
     1
 44
1.0
  0
POINT
  5
2940
330
2937
100
AcDbEntity
  8
DEFPOINTS
 62
     0
100
AcDbPoint
 10
1137.499989749999
 20
179.99999865
 30
0.0
  0
POINT
  5
2941
330
2937
100
AcDbEntity
  8
DEFPOINTS
 62
     0
100
AcDbPoint
 10
1137.499989749999
 20
154.9999988999998
 30
0.0
  0
POINT
  5
2942
330
2937
100
AcDbEntity
  8
DEFPOINTS
 62
     0
100
AcDbPoint
 10
1110.086498523718
 20
154.9999988999998
 30
0.0
  0
ENDBLK
  5
2944
330
2937
100
AcDbEntity
  8
0
100
AcDbBlockEnd
  0
ENDSEC
  0
SECTION
  2
ENTITIES
  0
MTEXT
  5
8B
330
1F
100
AcDbEntity
  8
7_中心線2中
100
AcDbMText
 10
230.2878857996272
 20
37.06829096390571
 30
0.0
 40
2.5
 41
6.756499999999999
 71
     1
 72
     5
  1

 73
     1
 44
1.0
1001
ACAD
1000
MTEXTBEGIN
1070
    73
1070
     1
1070
    44
1040
1.0
1070
    74
1070
     0
1000
MTEXTEND
1000
MTEXTBEGIN
1070
    73
1070
     1
1070
    44
1040
1.0
1070
    74
1070
     0
1000
MTEXTEND
  0
MTEXT
  5
95
330
1F
100
AcDbEntity
  8
8_中心線3長
100
AcDbMText
 10
240.980281441055
 20
24.7528244167172
 30
0.0
 40
2.5
 41
1.736499999999999
 71
     1
 72
     5
  1

 73
     1
 44
1.0
1001
ACAD
1000
MTEXTBEGIN
1070
    73
1070
     1
1070
    44
1040
1.0
1070
    74
1070
     0
1000
MTEXTEND
1000
MTEXTBEGIN
1070
    73
1070
     1
1070
    44
1040
1.0
1070
    74
1070
     0
1000
MTEXTEND
  0
MTEXT
  5
96
330
1F
100
AcDbEntity
  8
8_中心線3長
100
AcDbMText
 10
241.5813719615086
 20
24.15211929211205
 30
0.0
 40
2.5
 41
1.135399999999997
 71
     1
 72
     5
  1

 73
     1
 44
1.0
1001
ACAD
1000
MTEXTBEGIN
1070
    73
1070
     1
1070
    44
1040
1.0
1070
    74
1070
     0
1000
MTEXTEND
1000
MTEXTBEGIN
1070
    73
1070
     1
1070
    44
1040
1.0
1070
    74
1070
     0
1000
MTEXTEND
  0
MTEXT
  5
97
330
1F
100
AcDbEntity
  8
8_中心線3長
100
AcDbMText
 10
241.5813719615086
 20
24.21886453888566
 30
0.0
 40
2.5
 41
0.8015
 71
     1
 72
     5
  1

 73
     1
 44
1.0
1001
ACAD
1000
MTEXTBEGIN
1070
    73
1070
     1
1070
    44
1040
1.0
1070
    74
1070
     0
1000
MTEXTEND
1000
MTEXTBEGIN
1070
    73
1070
     1
1070
    44
1040
1.0
1070
    74
1070
     0
1000
MTEXTEND
  0
MTEXT
  5
98
330
1F
100
AcDbEntity
  8
8_中心線3長
100
AcDbMText
 10
241.1806445814915
 20
24.55258937518214
 30
0.0
 40
2.5
 41
1.602899999999999
 71
     1
 72
     5
  1

 73
     1
 44
1.0
1001
ACAD
1000
MTEXTBEGIN
1070
    73
1070
     1
1070
    44
1040
1.0
1070
    74
1070
     0
1000
MTEXTEND
1000
MTEXTBEGIN
1070
    73
1070
     1
1070
    44
1040
1.0
1070
    74
1070
     0
1000
MTEXTEND
  0
MTEXT
  5
9A
330
1F
100
AcDbEntity
  8
8_中心線3長
100
AcDbMText
 10
241.3142203748305
 20
37.16740397975013
 30
0.0
 40
2.5
 41
1.4693
 71
     1
 72
     5
  1

 73
     1
 44
1.0
1001
ACAD
1000
MTEXTBEGIN
1070
    73
1070
     1
1070
    44
1040
1.0
1070
    74
1070
     0
1000
MTEXTEND
1000
MTEXTBEGIN
1070
    73
1070
     1
1070
    44
1040
1.0
1070
    74
1070
     0
1000
MTEXTEND
  0
MTEXT
  5
9B
330
1F
100
AcDbEntity
  8
8_中心線3長
100
AcDbMText
 10
239.7781025984375
 20
25.22003974656092
 30
0.0
 40
2.5
 41
8.348499999999999
 71
     1
 72
     5
  1

 73
     1
 44
1.0
1001
ACAD
1000
MTEXTBEGIN
1070
    73
1070
     1
1070
    44
1040
1.0
1070
    74
1070
     0
1000
MTEXTEND
1000
MTEXTBEGIN
1070
    73
1070
     1
1070
    44
1040
1.0
1070
    74
1070
     0
1000
MTEXTEND
  0
MTEXT
  5
9C
330
1F
100
AcDbEntity
  8
8_中心線3長
100
AcDbMText
 10
239.7781025984375
 20
24.7528244167172
 30
0.0
 40
2.5
 41
8.6156
 71
     1
 72
     5
  1

 73
     1
 44
1.0
1001
ACAD
1000
MTEXTBEGIN
1070
    73
1070
     1
1070
    44
1040
1.0
1070
    74
1070
     0
1000
MTEXTEND
1000
MTEXTBEGIN
1070
    73
1070
     1
1070
    44
1040
1.0
1070
    74
1070
     0
1000
MTEXTEND
  0
MTEXT
  5
AA
330
1F
100
AcDbEntity
  8
8_中心線3長
100
AcDbMText
 10
306.1342111497008
 20
36.97805812097476
 30
0.0
 40
2.5
 41
4.310999999999999
 71
     1
 72
     5
  1

 73
     1
 44
1.0
1001
ACAD
1000
MTEXTBEGIN
1070
    73
1070
     1
1070
    44
1040
1.0
1070
    74
1070
     0
1000
MTEXTEND
1000
MTEXTBEGIN
1070
    73
1070
     1
1070
    44
1040
1.0
1070
    74
1070
     0
1000
MTEXTEND
  0
XLINE
  5
17A1
330
1F
100
AcDbEntity
  8
9_構築線
100
AcDbXline
 10
0.0
 20
660.0
 30
0.0
 11
0.0
 21
-1.0
 31
0.0
  0
XLINE
  5
17A2
330
1F
100
AcDbEntity
  8
9_構築線
100
AcDbXline
 10
510.0
 20
0.0
 30
0.0
 11
1.0
 21
0.0
 31
0.0
  0
XLINE
  5
17A3
330
1F
100
AcDbEntity
  8
9_構築線
100
AcDbXline
 10
510.0
 20
45.0
 30
0.0
 11
1.0
 21
0.0
 31
0.0
  0
XLINE
  5
17A4
330
1F
100
AcDbEntity
  8
9_構築線
100
AcDbXline
 10
112.5
 20
660.0
 30
0.0
 11
0.0
 21
-1.0
 31
0.0
  0
XLINE
  5
17A5
330
1F
100
AcDbEntity
  8
9_構築線
100
AcDbXline
 10
562.5
 20
660.0
 30
0.0
 11
0.0
 21
-1.0
 31
0.0
  0
XLINE
  5
17A9
330
1F
100
AcDbEntity
  8
9_構築線
100
AcDbXline
 10
510.0
 20
834.0
 30
0.0
 11
1.0
 21
0.0
 31
0.0
  0
LINE
  5
17AD
330
1F
100
AcDbEntity
  8
上枠
100
AcDbLine
 10
464.9054545346098
 20
845.712289975585
 30
0.0
 11
464.9054545346098
 21
865.7122899755849
 31
0.0
  0
LINE
  5
17AE
330
1F
100
AcDbEntity
  8
上枠
100
AcDbLine
 10
471.9054545346097
 20
872.7122899755849
 30
0.0
 11
498.1979685883335
 21
872.7122899755849
 31
0.0
  0
LINE
  5
17AF
330
1F
100
AcDbEntity
  8
上枠
100
AcDbLine
 10
820.9054545346099
 20
865.7122899755849
 30
0.0
 11
820.9054545346099
 21
845.712289975585
 31
0.0
  0
LINE
  5
17B5
330
1F
100
AcDbEntity
  8
1_外形線
100
AcDbLine
 10
467.9054545346096
 20
845.712289975585
 30
0.0
 11
472.6793299857267
 21
638.4808704873347
 31
0.0
  0
LINE
  5
17B6
330
1F
100
AcDbEntity
  8
1_外形線
100
AcDbLine
 10
482.6766518781362
 20
628.712289975585
 30
0.0
 11
487.9054545346098
 21
628.7122899755849
 31
0.0
  0
LINE
  5
17B7
330
1F
100
AcDbEntity
  8
1_外形線
100
AcDbLine
 10
813.1315790834927
 20
638.4808704873347
 30
0.0
 11
817.9286026827579
 21
845.712289975585
 31
0.0
  0
LINE
  5
17BE
330
1F
100
AcDbEntity
  8
1_外形線
100
AcDbLine
 10
487.8426930283334
 20
631.712289975585
 30
0.0
 11
492.596022719857
 21
404.5031307207517
 31
0.0
  0
LINE
  5
17BF
330
1F
100
AcDbEntity
  8
1_外形線
100
AcDbLine
 10
549.7415417487318
 20
394.7122899755851
 30
0.0
 11
783.2170739683403
 21
394.7122899755849
 31
0.0
  0
LINE
  5
17C0
330
1F
100
AcDbEntity
  8
1_外形線
100
AcDbLine
 10
793.2148863493621
 20
404.5031307207517
 30
0.0
 11
797.9054545346096
 21
628.712289975585
 31
0.0
  0
ARC
  5
17C3
330
1F
100
AcDbEntity
  8
1_外形線
100
AcDbCircle
 10
803.134257191083
 20
638.712289975585
 30
0.0
 40
10.0
100
AcDbArc
 50
270.0
 51
358.6739456232951
  0
ARC
  5
17C4
330
1F
100
AcDbEntity
  8
1_外形線
100
AcDbCircle
 10
482.6766518781362
 20
638.712289975585
 30
0.0
 40
10.0
100
AcDbArc
 50
181.3260543767048
 51
270.0
  0
ARC
  5
17C8
330
1F
100
AcDbEntity
  8
1_外形線
100
AcDbCircle
 10
502.5938351008792
 20
404.712289975585
 30
0.0
 40
10.0
100
AcDbArc
 50
181.1984816501182
 51
270.0
  0
ARC
  5
17C9
330
1F
100
AcDbEntity
  8
1_外形線
100
AcDbCircle
 10
783.2170739683403
 20
404.7122899755849
 30
0.0
 40
10.0
100
AcDbArc
 50
270.0
 51
358.8015183498815
  0
LINE
  5
17D8
330
1F
100
AcDbEntity
  8
1_外形線
100
AcDbLine
 10
742.9054545346096
 20
389.712289975585
 30
0.0
 11
772.9054545346096
 21
389.712289975585
 31
0.0
  0
LINE
  5
17D9
330
1F
100
AcDbEntity
  8
1_外形線
100
AcDbLine
 10
772.9054545346096
 20
389.712289975585
 30
0.0
 11
770.4054545346097
 21
304.712289975585
 31
0.0
  0
LINE
  5
17DA
330
1F
100
AcDbEntity
  8
1_外形線
100
AcDbLine
 10
770.4054545346097
 20
304.712289975585
 30
0.0
 11
745.4054545346097
 21
304.712289975585
 31
0.0
  0
LINE
  5
17DB
330
1F
100
AcDbEntity
  8
1_外形線
100
AcDbLine
 10
745.4054545346097
 20
304.712289975585
 30
0.0
 11
742.9054545346096
 21
389.712289975585
 31
0.0
  0
LINE
  5
17DC
330
1F
100
AcDbEntity
  8
1_外形線
100
AcDbLine
 10
745.4054545346097
 20
304.712289975585
 30
0.0
 11
745.4054545346097
 21
289.712289975585
 31
0.0
  0
LINE
  5
17DD
330
1F
100
AcDbEntity
  8
1_外形線
100
AcDbLine
 10
745.4054545346097
 20
289.712289975585
 30
0.0
 11
770.4054545346097
 21
289.712289975585
 31
0.0
  0
LINE
  5
17DE
330
1F
100
AcDbEntity
  8
1_外形線
100
AcDbLine
 10
770.4054545346097
 20
289.712289975585
 30
0.0
 11
770.4054545346097
 21
304.712289975585
 31
0.0
  0
LINE
  5
17DF
330
1F
100
AcDbEntity
  8
1_外形線
100
AcDbLine
 10
742.9054545346096
 20
389.712289975585
 30
0.0
 11
741.9054545346097
 21
389.712289975585
 31
0.0
  0
LINE
  5
17E0
330
1F
100
AcDbEntity
  8
1_外形線
100
AcDbLine
 10
772.9054545346096
 20
389.712289975585
 30
0.0
 11
773.9054545346097
 21
389.712289975585
 31
0.0
  0
LINE
  5
17E3
330
1F
100
AcDbEntity
  8
1_外形線
100
AcDbLine
 10
773.9054545346097
 20
389.712289975585
 30
0.0
 11
778.4054545346097
 21
394.7122899755849
 31
0.0
  0
LINE
  5
17E4
330
1F
100
AcDbEntity
  8
1_外形線
100
AcDbLine
 10
737.4054545346097
 20
394.712289975585
 30
0.0
 11
741.9054545346097
 21
389.712289975585
 31
0.0
  0
LINE
  5
17E5
330
1F
100
AcDbEntity
  8
1_外形線
100
AcDbLine
 10
512.9054545346098
 20
389.712289975585
 30
0.0
 11
542.9054545346096
 21
389.712289975585
 31
0.0
  0
LINE
  5
17E6
330
1F
100
AcDbEntity
  8
1_外形線
100
AcDbLine
 10
542.9054545346096
 20
389.712289975585
 30
0.0
 11
540.4054545346098
 21
304.712289975585
 31
0.0
  0
LINE
  5
17E7
330
1F
100
AcDbEntity
  8
1_外形線
100
AcDbLine
 10
540.4054545346098
 20
304.712289975585
 30
0.0
 11
515.4054545346098
 21
304.712289975585
 31
0.0
  0
LINE
  5
17E8
330
1F
100
AcDbEntity
  8
1_外形線
100
AcDbLine
 10
515.4054545346098
 20
304.712289975585
 30
0.0
 11
512.9054545346098
 21
389.712289975585
 31
0.0
  0
LINE
  5
17E9
330
1F
100
AcDbEntity
  8
1_外形線
100
AcDbLine
 10
515.4054545346098
 20
304.712289975585
 30
0.0
 11
515.4054545346098
 21
289.712289975585
 31
0.0
  0
LINE
  5
17EA
330
1F
100
AcDbEntity
  8
1_外形線
100
AcDbLine
 10
515.4054545346098
 20
289.712289975585
 30
0.0
 11
540.4054545346098
 21
289.712289975585
 31
0.0
  0
LINE
  5
17EB
330
1F
100
AcDbEntity
  8
1_外形線
100
AcDbLine
 10
540.4054545346098
 20
289.712289975585
 30
0.0
 11
540.4054545346098
 21
304.712289975585
 31
0.0
  0
LINE
  5
17EC
330
1F
100
AcDbEntity
  8
1_外形線
100
AcDbLine
 10
512.9054545346098
 20
389.712289975585
 30
0.0
 11
511.9054545346098
 21
389.712289975585
 31
0.0
  0
LINE
  5
17ED
330
1F
100
AcDbEntity
  8
1_外形線
100
AcDbLine
 10
542.9054545346096
 20
389.712289975585
 30
0.0
 11
543.9054545346098
 21
389.712289975585
 31
0.0
  0
LINE
  5
17EE
330
1F
100
AcDbEntity
  8
1_外形線
100
AcDbLine
 10
543.9054545346098
 20
389.712289975585
 30
0.0
 11
547.5116593099905
 21
393.7191841704523
 31
0.0
  0
LINE
  5
17EF
330
1F
100
AcDbEntity
  8
1_外形線
100
AcDbLine
 10
508.2992497592289
 20
393.7191841704523
 30
0.0
 11
511.9054545346098
 21
389.712289975585
 31
0.0
  0
ARC
  5
17F1
330
1F
100
AcDbEntity
  8
1_外形線
100
AcDbCircle
 10
502.5938351008792
 20
404.712289975585
 30
0.0
 40
7.0
100
AcDbArc
 50
181.1984816501182
 51
270.0
  0
LINE
  5
17F3
330
1F
100
AcDbEntity
  8
1_外形線
100
AcDbLine
 10
510.3654885143778
 20
395.9079046804227
 30
0.0
 11
513.2415417487318
 21
392.712289975585
 31
0.0
  0
LINE
  5
17F4
330
1F
100
AcDbEntity
  8
1_外形線
100
AcDbLine
 10
502.5938351008792
 20
397.712289975585
 30
0.0
 11
508.554568003344
 21
396.8716115868699
 31
0.0
  0
LINE
  5
17F5
330
1F
100
AcDbEntity
  8
1_外形線
100
AcDbLine
 10
542.5693673204878
 20
392.712289975585
 30
0.0
 11
546.1755720958684
 21
396.7191841704523
 31
0.0
  0
LINE
  5
17F7
330
1F
100
AcDbEntity
  8
1_外形線
100
AcDbLine
 10
513.2415417487318
 20
392.712289975585
 30
0.0
 11
542.5693673204878
 21
392.712289975585
 31
0.0
  0
ARC
  5
17FA
330
1F
100
AcDbEntity
  8
1_外形線
100
AcDbCircle
 10
563.5069858678944
 20
404.712289975585
 30
0.0
 40
10.0
100
AcDbArc
 50
270.0
 51
354.2608295227331
  0
LINE
  5
17FB
330
1F
100
AcDbEntity
  8
1_外形線
100
AcDbLine
 10
542.9054545346096
 20
389.712289975585
 30
0.0
 11
543.9054545346098
 21
389.712289975585
 31
0.0
  0
LINE
  5
17FC
330
1F
100
AcDbEntity
  8
1_外形線
100
AcDbLine
 10
547.5116593099905
 20
393.7191841704523
 30
0.0
 11
543.9054545346098
 21
389.712289975585
 31
0.0
  0
ARC
  5
17FD
330
1F
100
AcDbEntity
  8
1_外形線
100
AcDbCircle
 10
563.5069858678944
 20
404.712289975585
 30
0.0
 40
7.0
100
AcDbArc
 50
270.0
 51
354.2608295227338
  0
LINE
  5
17FE
330
1F
100
AcDbEntity
  8
1_外形線
100
AcDbLine
 10
546.1755720958681
 20
396.7191841704522
 30
0.0
 11
542.5693673204878
 21
392.712289975585
 31
0.0
  0
LINE
  5
1805
330
1F
100
AcDbEntity
  8
1_外形線
100
AcDbLine
 10
573.4568602389606
 20
406.7122899755847
 30
0.0
 11
605.8115299178538
 21
406.7122899755847
 31
0.0
  0
LINE
  5
1806
330
1F
100
AcDbEntity
  8
1_外形線
100
AcDbLine
 10
563.5069858678944
 20
397.712289975585
 30
0.0
 11
548.4054545346098
 21
397.7122899755848
 31
0.0
  0
LINE
  5
1807
330
1F
100
AcDbEntity
  8
1_外形線
100
AcDbLine
 10
502.5938351008792
 20
394.712289975585
 30
0.0
 11
506.0693673204875
 21
394.712289975585
 31
0.0
  0
ARC
  5
1808
330
1F
100
AcDbEntity
  8
1_外形線
100
AcDbCircle
 10
508.1356060756363
 20
393.9010104855553
 30
0.0
 40
3.0
100
AcDbArc
 50
41.98721249581667
 51
81.97217617444323
  0
ARC
  5
1809
330
1F
100
AcDbEntity
  8
1_外形線
100
AcDbCircle
 10
506.0693673204875
 20
391.712289975585
 30
0.0
 40
3.0
100
AcDbArc
 50
41.98721249581667
 51
90.0
  0
ARC
  5
180A
330
1F
100
AcDbEntity
  8
1_外形線
100
AcDbCircle
 10
548.4054545346098
 20
394.7122899755849
 30
0.0
 40
3.0
100
AcDbArc
 50
90.0
 51
138.0127875041831
  0
ARC
  5
180B
330
1F
100
AcDbEntity
  8
1_外形線
100
AcDbCircle
 10
549.7415417487318
 20
391.7122899755851
 30
0.0
 40
3.0
100
AcDbArc
 50
89.99999999999998
 51
138.0127875041831
  0
ARC
  5
180C
330
1F
100
AcDbEntity
  8
1_外形線
100
AcDbCircle
 10
573.4568602389606
 20
403.7122899755851
 30
0.0
 40
3.0
100
AcDbArc
 50
90.0
 51
174.2608295227339
  0
LINE
  5
180D
330
1F
100
AcDbEntity
  8
1_外形線
100
AcDbLine
 10
573.4568602389606
 20
403.712289975585
 30
0.0
 11
605.8115299178541
 21
403.712289975585
 31
0.0
  0
LINE
  5
180E
330
1F
100
AcDbEntity
  8
1_外形線
100
AcDbLine
 10
490.8420367426401
 20
631.7750377520349
 30
0.0
 11
495.5953664341639
 21
404.5658784972017
 31
0.0
  0
LINE
  5
180F
330
1F
100
AcDbEntity
  8
1_外形線
100
AcDbLine
 10
607.7426153644609
 20
406.0081360065511
 30
0.0
 11
617.6054545346097
 21
397.712289975585
 31
0.0
  0
LINE
  5
1810
330
1F
100
AcDbEntity
  8
1_外形線
100
AcDbLine
 10
605.8115299178544
 20
403.712289975585
 30
0.0
 11
616.5115299178542
 21
394.7122899755849
 31
0.0
  0
ARC
  5
1812
330
1F
100
AcDbEntity
  8
1_外形線
100
AcDbCircle
 10
605.8115299178538
 20
403.712289975585
 30
0.0
 40
3.0
100
AcDbArc
 50
49.93208742826498
 51
90.0
  0
LINE
  5
1824
330
1F
100
AcDbEntity
  8
1_外形線
100
AcDbLine
 10
623.1054545346097
 20
394.712289975585
 30
0.0
 11
629.6054545346097
 21
354.712289975585
 31
0.0
  0
LINE
  5
1825
330
1F
100
AcDbEntity
  8
1_外形線
100
AcDbLine
 10
629.6054545346097
 20
354.712289975585
 30
0.0
 11
651.6054545346097
 21
354.712289975585
 31
0.0
  0
LINE
  5
1826
330
1F
100
AcDbEntity
  8
1_外形線
100
AcDbLine
 10
651.6054545346097
 20
354.712289975585
 30
0.0
 11
658.1054545346098
 21
394.712289975585
 31
0.0
  0
LINE
  5
1827
330
1F
100
AcDbEntity
  8
1_実線
100
AcDbLine
 10
625.0795600038578
 20
395.0330821143378
 30
0.0
 11
631.5795600038577
 21
355.0330821143378
 31
0.0
  0
XLINE
  5
1838
330
1F
100
AcDbEntity
  8
9_構築線
100
AcDbXline
 10
510.0
 20
1534.0
 30
0.0
 11
1.0
 21
0.0
 31
0.0
  0
CIRCLE
  5
183A
330
1F
100
AcDbEntity
  8
1_外形線
100
AcDbCircle
 10
642.9054545346096
 20
1195.712289975584
 30
0.0
 40
62.5
  0
LINE
  5
183B
330
1F
100
AcDbEntity
  8
上枠
100
AcDbLine
 10
484.9054545346098
 20
1373.712289975585
 30
0.0
 11
800.9054545346097
 21
1373.712289975585
 31
0.0
  0
LINE
  5
183C
330
1F
100
AcDbEntity
  8
上枠
100
AcDbLine
 10
820.9054545346099
 20
1353.712289975585
 30
0.0
 11
820.9054545346099
 21
1037.712289975585
 31
0.0
  0
LINE
  5
183D
330
1F
100
AcDbEntity
  8
上枠
100
AcDbLine
 10
800.9054545346097
 20
1017.712289975585
 30
0.0
 11
484.9054545346098
 21
1017.712289975585
 31
0.0
  0
LINE
  5
183E
330
1F
100
AcDbEntity
  8
上枠
100
AcDbLine
 10
464.9054545346098
 20
1037.712289975585
 30
0.0
 11
464.9054545346098
 21
1353.712289975585
 31
0.0
  0
CIRCLE
  5
1840
330
1F
100
AcDbEntity
  8
蓋
100
AcDbCircle
 10
642.9054545346096
 20
1195.712289975584
 30
0.0
 40
160.0
  0
XLINE
  5
1847
330
1F
100
AcDbEntity
  8
構築線2
100
AcDbXline
 10
510.0
 20
1326.0
 30
0.0
 11
1.0
 21
0.0
 31
0.0
  0
LINE
  5
184C
330
1F
100
AcDbEntity
  8
1_外形線
100
AcDbLine
 10
688.4054545346097
 20
394.712289975585
 30
0.0
 11
688.4054545346097
 21
374.712289975585
 31
0.0
  0
LINE
  5
184D
330
1F
100
AcDbEntity
  8
1_外形線
100
AcDbLine
 10
688.4054545346097
 20
374.712289975585
 30
0.0
 11
717.4054545346097
 21
374.712289975585
 31
0.0
  0
LINE
  5
184E
330
1F
100
AcDbEntity
  8
1_外形線
100
AcDbLine
 10
717.4054545346097
 20
374.712289975585
 30
0.0
 11
717.4054545346097
 21
394.712289975585
 31
0.0
  0
LINE
  5
1850
330
1F
100
AcDbEntity
  8
1_外形線
100
AcDbLine
 10
688.4054545346097
 20
394.712289975585
 30
0.0
 11
688.4054545346097
 21
394.712289975585
 31
0.0
  0
LINE
  5
1855
330
1F
100
AcDbEntity
  8
6_中心線1短
100
AcDbLine
 10
642.9054545346096
 20
1193.212289975585
 30
0.0
 11
642.9054545346096
 21
1198.212289975585
 31
0.0
  0
CIRCLE
  5
185A
330
1F
100
AcDbEntity
  8
1_外形線
100
AcDbCircle
 10
642.9054545346096
 20
1195.712289975584
 30
0.0
 40
7.0
  0
LINE
  5
185E
330
1F
100
AcDbEntity
  8
上枠
100
AcDbLine
 10
1020.905454534609
 20
845.712289975585
 30
0.0
 11
1020.905454534609
 21
865.7122899755849
 31
0.0
  0
LINE
  5
185F
330
1F
100
AcDbEntity
  8
上枠
100
AcDbLine
 10
1027.905454534609
 20
872.7122899755849
 30
0.0
 11
1369.90545453461
 21
872.7122899755849
 31
0.0
  0
LINE
  5
1860
330
1F
100
AcDbEntity
  8
上枠
100
AcDbLine
 10
1376.905454534609
 20
865.7122899755849
 30
0.0
 11
1376.905454534609
 21
845.712289975585
 31
0.0
  0
LINE
  5
1861
330
1F
100
AcDbEntity
  8
上枠
100
AcDbLine
 10
1376.905454534609
 20
845.712289975585
 30
0.0
 11
1020.905454534609
 21
845.712289975585
 31
0.0
  0
LINE
  5
1862
330
1F
100
AcDbEntity
  8
1_外形線
100
AcDbLine
 10
1023.905454534609
 20
845.712289975585
 30
0.0
 11
1028.679329985726
 21
638.4808704873347
 31
0.0
  0
LINE
  5
1863
330
1F
100
AcDbEntity
  8
1_外形線
100
AcDbLine
 10
1038.676651878136
 20
628.712289975585
 30
0.0
 11
1359.134257191083
 21
628.712289975585
 31
0.0
  0
LINE
  5
1864
330
1F
100
AcDbEntity
  8
1_外形線
100
AcDbLine
 10
1369.131579083493
 20
638.4808704873347
 30
0.0
 11
1373.928602682758
 21
845.712289975585
 31
0.0
  0
LINE
  5
1865
330
1F
100
AcDbEntity
  8
1_外形線
100
AcDbLine
 10
1043.905454534609
 20
628.712289975585
 30
0.0
 11
1048.596022719857
 21
404.5031307207517
 31
0.0
  0
LINE
  5
1866
330
1F
100
AcDbEntity
  8
1_外形線
100
AcDbLine
 10
1062.069367320487
 20
394.7122899755849
 30
0.0
 11
1339.217073968339
 21
394.7122899755849
 31
0.0
  0
LINE
  5
1867
330
1F
100
AcDbEntity
  8
1_外形線
100
AcDbLine
 10
1349.214886349362
 20
404.5031307207517
 30
0.0
 11
1353.90545453461
 21
628.712289975585
 31
0.0
  0
ARC
  5
186A
330
1F
100
AcDbEntity
  8
1_外形線
100
AcDbCircle
 10
1359.134257191083
 20
638.712289975585
 30
0.0
 40
10.0
100
AcDbArc
 50
270.0
 51
358.6739456232951
  0
ARC
  5
186B
330
1F
100
AcDbEntity
  8
1_外形線
100
AcDbCircle
 10
1038.676651878136
 20
638.712289975585
 30
0.0
 40
10.0
100
AcDbArc
 50
181.3260543767048
 51
270.0
  0
ARC
  5
186C
330
1F
100
AcDbEntity
  8
1_外形線
100
AcDbCircle
 10
1058.593835100879
 20
404.712289975585
 30
0.0
 40
10.0
100
AcDbArc
 50
181.1984816501182
 51
270.0
  0
ARC
  5
186D
330
1F
100
AcDbEntity
  8
1_外形線
100
AcDbCircle
 10
1339.217073968339
 20
404.7122899755849
 30
0.0
 40
10.0
100
AcDbArc
 50
270.0
 51
358.8015183498815
  0
LINE
  5
186F
330
1F
100
AcDbEntity
  8
1_外形線
100
AcDbLine
 10
1328.905454534609
 20
389.712289975585
 30
0.0
 11
1326.40545453461
 21
304.712289975585
 31
0.0
  0
LINE
  5
1870
330
1F
100
AcDbEntity
  8
1_外形線
100
AcDbLine
 10
1326.40545453461
 20
304.712289975585
 30
0.0
 11
1301.405454534609
 21
304.712289975585
 31
0.0
  0
LINE
  5
1871
330
1F
100
AcDbEntity
  8
1_外形線
100
AcDbLine
 10
1301.405454534609
 20
304.712289975585
 30
0.0
 11
1298.905454534609
 21
389.712289975585
 31
0.0
  0
LINE
  5
1872
330
1F
100
AcDbEntity
  8
1_外形線
100
AcDbLine
 10
1301.405454534609
 20
304.712289975585
 30
0.0
 11
1301.405454534609
 21
289.712289975585
 31
0.0
  0
LINE
  5
1873
330
1F
100
AcDbEntity
  8
1_外形線
100
AcDbLine
 10
1301.405454534609
 20
289.712289975585
 30
0.0
 11
1326.40545453461
 21
289.712289975585
 31
0.0
  0
LINE
  5
1874
330
1F
100
AcDbEntity
  8
1_外形線
100
AcDbLine
 10
1326.40545453461
 20
289.712289975585
 30
0.0
 11
1326.40545453461
 21
304.712289975585
 31
0.0
  0
LINE
  5
1877
330
1F
100
AcDbEntity
  8
1_外形線
100
AcDbLine
 10
1329.90545453461
 20
389.712289975585
 30
0.0
 11
1334.40545453461
 21
394.7122899755849
 31
0.0
  0
LINE
  5
1879
330
1F
100
AcDbEntity
  8
1_外形線
100
AcDbLine
 10
1068.905454534609
 20
389.712289975585
 30
0.0
 11
1329.90545453461
 21
389.712289975585
 31
0.0
  0
LINE
  5
187A
330
1F
100
AcDbEntity
  8
1_外形線
100
AcDbLine
 10
1098.905454534609
 20
389.712289975585
 30
0.0
 11
1096.405454534609
 21
304.712289975585
 31
0.0
  0
LINE
  5
187B
330
1F
100
AcDbEntity
  8
1_外形線
100
AcDbLine
 10
1096.405454534609
 20
304.712289975585
 30
0.0
 11
1071.405454534609
 21
304.712289975585
 31
0.0
  0
LINE
  5
187C
330
1F
100
AcDbEntity
  8
1_外形線
100
AcDbLine
 10
1071.405454534609
 20
304.712289975585
 30
0.0
 11
1068.905454534609
 21
389.712289975585
 31
0.0
  0
LINE
  5
187D
330
1F
100
AcDbEntity
  8
1_外形線
100
AcDbLine
 10
1071.405454534609
 20
304.712289975585
 30
0.0
 11
1071.405454534609
 21
289.712289975585
 31
0.0
  0
LINE
  5
187E
330
1F
100
AcDbEntity
  8
1_外形線
100
AcDbLine
 10
1071.405454534609
 20
289.712289975585
 30
0.0
 11
1096.405454534609
 21
289.712289975585
 31
0.0
  0
LINE
  5
187F
330
1F
100
AcDbEntity
  8
1_外形線
100
AcDbLine
 10
1096.405454534609
 20
289.712289975585
 30
0.0
 11
1096.405454534609
 21
304.712289975585
 31
0.0
  0
LINE
  5
1880
330
1F
100
AcDbEntity
  8
1_外形線
100
AcDbLine
 10
1068.905454534609
 20
389.712289975585
 30
0.0
 11
1067.905454534609
 21
389.712289975585
 31
0.0
  0
LINE
  5
1883
330
1F
100
AcDbEntity
  8
1_外形線
100
AcDbLine
 10
1064.299249759229
 20
393.7191841704523
 30
0.0
 11
1067.905454534609
 21
389.712289975585
 31
0.0
  0
LINE
  5
1890
330
1F
100
AcDbEntity
  8
1_外形線
100
AcDbLine
 10
1058.593835100879
 20
394.712289975585
 30
0.0
 11
1062.069367320487
 21
394.712289975585
 31
0.0
  0
ARC
  5
1892
330
1F
100
AcDbEntity
  8
1_外形線
100
AcDbCircle
 10
1062.069367320487
 20
391.712289975585
 30
0.0
 40
3.0
100
AcDbArc
 50
41.98721249581667
 51
90.0
  0
LINE
  5
18A5
330
1F
100
AcDbEntity
  8
1_外形線
100
AcDbLine
 10
1184.405454534609
 20
389.712289975585
 30
0.0
 11
1184.405454534609
 21
374.712289975585
 31
0.0
  0
LINE
  5
18A6
330
1F
100
AcDbEntity
  8
1_外形線
100
AcDbLine
 10
1184.405454534609
 20
374.712289975585
 30
0.0
 11
1213.405454534609
 21
374.712289975585
 31
0.0
  0
LINE
  5
18A7
330
1F
100
AcDbEntity
  8
1_外形線
100
AcDbLine
 10
1213.405454534609
 20
374.712289975585
 30
0.0
 11
1213.405454534609
 21
389.712289975585
 31
0.0
  0
LINE
  5
18A8
330
1F
100
AcDbEntity
  8
1_外形線
100
AcDbLine
 10
1184.405454534609
 20
394.712289975585
 30
0.0
 11
1184.405454534609
 21
394.712289975585
 31
0.0
  0
XLINE
  5
18AA
330
1F
100
AcDbEntity
  8
構築線2
100
AcDbXline
 10
1296.499999999999
 20
660.0
 30
0.0
 11
0.0
 21
-1.0
 31
0.0
  0
LINE
  5
18AC
330
1F
100
AcDbEntity
  8
1_外形線
100
AcDbLine
 10
1198.905454534609
 20
394.712289975585
 30
0.0
 11
1198.905454534609
 21
389.712289975585
 31
0.0
  0
LINE
  5
18B8
330
1F
100
AcDbEntity
  8
4_破線2中
100
AcDbLine
 10
1111.933580120272
 20
837.5872665490655
 30
0.0
 11
1116.316189099405
 21
662.2829073837595
 31
0.0
  0
LINE
  5
18B9
330
1F
100
AcDbEntity
  8
4_破線2中
100
AcDbLine
 10
1119.963364443852
 20
658.3983567482987
 30
0.0
 11
1184.405454534609
 21
652.712289975585
 31
0.0
  0
LINE
  5
18BA
330
1F
100
AcDbEntity
  8
4_破線2中
100
AcDbLine
 10
1213.405454534609
 20
652.712289975585
 30
0.0
 11
1277.847544625366
 21
658.3983567482991
 31
0.0
  0
LINE
  5
18BB
330
1F
100
AcDbEntity
  8
4_破線2中
100
AcDbLine
 10
1281.494719969814
 20
662.2829073837597
 30
0.0
 11
1285.877328948946
 21
837.5872665490655
 31
0.0
  0
LINE
  5
18BC
330
1F
100
AcDbEntity
  8
4_破線2中
100
AcDbLine
 10
1184.405454534609
 20
652.712289975585
 30
0.0
 11
1184.405454534609
 21
389.712289975585
 31
0.0
  0
LINE
  5
18BD
330
1F
100
AcDbEntity
  8
4_破線2中
100
AcDbLine
 10
1213.405454534609
 20
652.712289975585
 30
0.0
 11
1213.405454534609
 21
389.712289975585
 31
0.0
  0
ARC
  5
18CF
330
1F
100
AcDbEntity
  8
4_破線2中
100
AcDbCircle
 10
1198.905454534609
 20
805.7122899755849
 30
0.0
 40
61.0
100
AcDbArc
 50
184.8074436943909
 51
355.1925563056089
  0
LINE
  5
18D2
330
1F
100
AcDbEntity
  8
4_破線2中
100
AcDbLine
 10
1134.290728133798
 20
846.1313264954064
 30
0.0
 11
1138.120053774887
 21
800.600044433763
 31
0.0
  0
LINE
  5
18D3
330
1F
100
AcDbEntity
  8
4_破線2中
100
AcDbLine
 10
1263.520180935421
 20
846.1313264954064
 30
0.0
 11
1259.690855294332
 21
800.600044433763
 31
0.0
  0
LINE
  5
18DB
330
1F
100
AcDbEntity
  8
4_破線2中
100
AcDbLine
 10
1189.905454534609
 20
670.712289975585
 30
0.0
 11
1207.905454534609
 21
670.712289975585
 31
0.0
  0
LINE
  5
18DF
330
1F
100
AcDbEntity
  8
4_破線2中
100
AcDbLine
 10
1189.905454534609
 20
670.712289975585
 30
0.0
 11
1187.405454534609
 21
734.912289975585
 31
0.0
  0
LINE
  5
18E0
330
1F
100
AcDbEntity
  8
4_破線2中
100
AcDbLine
 10
1207.905454534609
 20
670.712289975585
 30
0.0
 11
1210.405454534609
 21
734.912289975585
 31
0.0
  0
LINE
  5
18E1
330
1F
100
AcDbEntity
  8
4_破線2中
100
AcDbLine
 10
1185.40545453461
 20
734.912289975585
 30
0.0
 11
1185.40545453461
 21
746.2248963530702
 31
0.0
  0
LINE
  5
18E2
330
1F
100
AcDbEntity
  8
4_破線2中
100
AcDbLine
 10
1185.40545453461
 20
734.912289975585
 30
0.0
 11
1212.405454534609
 21
734.912289975585
 31
0.0
  0
LINE
  5
18E3
330
1F
100
AcDbEntity
  8
4_破線2中
100
AcDbLine
 10
1212.405454534609
 20
734.912289975585
 30
0.0
 11
1212.405454534609
 21
746.2248963530702
 31
0.0
  0
ARC
  5
18EB
330
1F
100
AcDbEntity
  8
4_破線2中
100
AcDbCircle
 10
1108.905454534609
 20
847.5178455311406
 30
0.0
 40
7.694444444444402
100
AcDbArc
 50
24.52954745578411
 51
155.4704525442158
  0
ARC
  5
18ED
330
1F
100
AcDbEntity
  8
4_破線2中
100
AcDbCircle
 10
1288.905454534609
 20
847.5178455311406
 30
0.0
 40
7.694444444444402
100
AcDbArc
 50
24.52954745578411
 51
155.4704525442158
  0
LINE
  5
18EF
330
1F
100
AcDbEntity
  8
4_破線2中
100
AcDbLine
 10
1268.502590833759
 20
850.7122899755851
 30
0.0
 11
1281.90545453461
 21
850.7122899755851
 31
0.0
  0
LINE
  5
18F0
330
1F
100
AcDbEntity
  8
4_破線2中
100
AcDbLine
 10
1115.905454534609
 20
850.7122899755851
 30
0.0
 11
1129.308318235459
 21
850.7122899755851
 31
0.0
  0
LINE
  5
18FC
330
1F
100
AcDbEntity
  8
4_破線2中
100
AcDbLine
 10
1313.90545453461
 20
845.712289975585
 30
0.0
 11
1313.90545453461
 21
845.712289975585
 31
0.0
  0
LINE
  5
18FD
330
1F
100
AcDbEntity
  8
4_破線2中
100
AcDbLine
 10
1308.905454534609
 20
850.7122899755851
 30
0.0
 11
1295.90545453461
 21
850.7122899755851
 31
0.0
  0
LINE
  5
18FE
330
1F
100
AcDbEntity
  8
4_破線2中
100
AcDbLine
 10
1083.905454534609
 20
845.712289975585
 30
0.0
 11
1083.905454534609
 21
845.712289975585
 31
0.0
  0
LINE
  5
18FF
330
1F
100
AcDbEntity
  8
4_破線2中
100
AcDbLine
 10
1088.905454534609
 20
850.7122899755851
 30
0.0
 11
1101.905454534609
 21
850.7122899755851
 31
0.0
  0
CIRCLE
  5
1921
330
1F
100
AcDbEntity
  8
9_構築線
100
AcDbCircle
 10
1155.625368095176
 20
859.212289975585
 30
0.0
 40
0.0
  0
LINE
  5
1923
330
1F
100
AcDbEntity
  8
上枠
100
AcDbLine
 10
1314.565542405974
 20
857.3723778469499
 30
0.0
 11
1318.245366663244
 21
861.0522021042203
 31
0.0
  0
LINE
  5
1924
330
1F
100
AcDbEntity
  8
上枠
100
AcDbLine
 10
1314.565542405974
 20
861.0522021042203
 30
0.0
 11
1318.245366663244
 21
857.3723778469499
 31
0.0
  0
CIRCLE
  5
1926
330
1F
100
AcDbEntity
  8
9_構築線
100
AcDbCircle
 10
920.6253680951775
 20
859.212289975585
 30
0.0
 40
0.0
  0
LINE
  5
1927
330
1F
100
AcDbEntity
  8
上枠
100
AcDbLine
 10
1079.565542405974
 20
857.3723778469499
 30
0.0
 11
1083.245366663244
 21
861.0522021042203
 31
0.0
  0
LINE
  5
1928
330
1F
100
AcDbEntity
  8
上枠
100
AcDbLine
 10
1079.565542405974
 20
861.0522021042203
 30
0.0
 11
1083.245366663244
 21
857.3723778469499
 31
0.0
  0
CIRCLE
  5
192A
330
1F
100
AcDbEntity
  8
9_構築線
100
AcDbCircle
 10
599.6253680951772
 20
859.212289975585
 30
0.0
 40
0.0
  0
LINE
  5
192B
330
1F
100
AcDbEntity
  8
上枠
100
AcDbLine
 10
752.9544689082872
 20
855.3928945296304
 30
0.0
 11
756.6342931655571
 21
859.0727187869006
 31
0.0
  0
LINE
  5
192C
330
1F
100
AcDbEntity
  8
上枠
100
AcDbLine
 10
752.9544689082872
 20
859.0727187869006
 30
0.0
 11
756.6342931655571
 21
855.3928945296304
 31
0.0
  0
CIRCLE
  5
192E
330
1F
100
AcDbEntity
  8
9_構築線
100
AcDbCircle
 10
364.6253680951774
 20
859.212289975585
 30
0.0
 40
0.0
  0
CIRCLE
  5
1935
330
1F
100
AcDbEntity
  8
5_破線3長
100
AcDbCircle
 10
640.6054545346099
 20
1165.712289975582
 30
0.0
 40
17.5
  0
CIRCLE
  5
193A
330
1F
100
AcDbEntity
  8
5_破線3長
100
AcDbCircle
 10
766.6054545346096
 20
1165.712289975582
 30
0.0
 40
17.5
  0
LINE
  5
193B
330
1F
100
AcDbEntity
  8
5_破線3長
100
AcDbLine
 10
640.6054545346099
 20
1183.212289975585
 30
0.0
 11
766.6054545346096
 21
1183.212289975585
 31
0.0
  0
LINE
  5
193C
330
1F
100
AcDbEntity
  8
5_破線3長
100
AcDbLine
 10
640.6054545346099
 20
1148.212289975585
 30
0.0
 11
766.6054545346096
 21
1148.212289975585
 31
0.0
  0
ARC
  5
1979
330
1F
100
AcDbEntity
  8
1_実線
100
AcDbCircle
 10
667.1054545346097
 20
502.0313935685974
 30
0.0
 40
44.0
100
AcDbArc
 50
123.3670129692314
 51
180.0
  0
ARC
  5
197B
330
1F
100
AcDbEntity
  8
5_破線3長
100
AcDbCircle
 10
667.1054545346097
 20
502.0313935685974
 30
0.0
 40
9.0
100
AcDbArc
 50
91.81830296445179
 51
180.0
  0
ARC
  5
1981
330
1F
100
AcDbEntity
  8
5_破線3長
100
AcDbCircle
 10
740.1054545346099
 20
557.3755546719731
 30
0.0
 40
44.0
100
AcDbArc
 50
271.8183032698036
 51
0.0
  0
ARC
  5
1983
330
1F
100
AcDbEntity
  8
5_破線3長
100
AcDbCircle
 10
740.1054545346099
 20
557.3755546719731
 30
0.0
 40
9.0
100
AcDbArc
 50
271.8183032698036
 51
0.0
  0
LINE
  5
1984
330
1F
100
AcDbEntity
  8
5_破線3長
100
AcDbLine
 10
666.819884113097
 20
511.0268618462558
 30
0.0
 11
741.5015768297153
 21
513.3977097664175
 31
0.0
  0
LINE
  5
1985
330
1F
100
AcDbEntity
  8
5_破線3長
100
AcDbLine
 10
665.7093324738797
 20
546.0092384815935
 30
0.0
 11
740.391025020178
 21
548.3800863963483
 31
0.0
  0
LINE
  5
1987
330
1F
100
AcDbEntity
  8
1_実線
100
AcDbLine
 10
623.1054545346097
 20
502.0313935685974
 30
0.0
 11
623.1054545346096
 21
394.712289975585
 31
0.0
  0
LINE
  5
1988
330
1F
100
AcDbEntity
  8
5_破線3長
100
AcDbLine
 10
658.1054545346098
 20
502.0313935685974
 30
0.0
 11
658.1054545346098
 21
394.712289975585
 31
0.0
  0
ARC
  5
1991
330
1F
100
AcDbEntity
  8
5_破線3長
100
AcDbCircle
 10
740.1054545346099
 20
765.212289975585
 30
0.0
 40
44.0
100
AcDbArc
 50
0.0
 51
90.0
  0
ARC
  5
1992
330
1F
100
AcDbEntity
  8
5_破線3長
100
AcDbCircle
 10
740.1054545346099
 20
765.212289975585
 30
0.0
 40
9.0
100
AcDbArc
 50
358.1403786002784
 51
90.0
  0
LINE
  5
199A
330
1F
100
AcDbEntity
  8
5_破線3長
100
AcDbLine
 10
1113.932955413089
 20
837.637250931386
 30
0.0
 11
1115.806079436983
 21
762.712289975585
 31
0.0
  0
LINE
  5
199B
330
1F
100
AcDbEntity
  8
5_破線3長
100
AcDbLine
 10
1282.004829632235
 20
762.712289975585
 30
0.0
 11
1283.87795365613
 21
837.637250931386
 31
0.0
  0
LINE
  5
19A0
330
1F
100
AcDbEntity
  8
5_破線3長
100
AcDbLine
 10
1108.934517181048
 20
842.512289975585
 30
0.0
 11
1101.905454534609
 21
842.512289975585
 31
0.0
  0
LINE
  5
19A1
330
1F
100
AcDbEntity
  8
5_破線3長
100
AcDbLine
 10
1288.87639188817
 20
842.512289975585
 30
0.0
 11
1295.90545453461
 21
842.512289975585
 31
0.0
  0
LINE
  5
19A2
330
1F
100
AcDbEntity
  8
5_破線3長
100
AcDbLine
 10
1115.806079436983
 20
762.712289975585
 30
0.0
 11
1282.004829632235
 21
762.712289975585
 31
0.0
  0
LINE
  5
19A3
330
1F
100
AcDbEntity
  8
上枠
100
AcDbLine
 10
553.5848297298307
 20
839.5372821667452
 30
0.0
 11
557.7448464299768
 21
673.1366141609079
 31
0.0
  0
LINE
  5
19A6
330
1F
100
AcDbEntity
  8
4_破線2中
100
AcDbLine
 10
723.1054545346096
 20
658.712289975585
 30
0.0
 11
727.5773289489467
 21
837.5872665490655
 31
0.0
  0
ARC
  5
19A7
330
1F
100
AcDbEntity
  8
1_実線
100
AcDbCircle
 10
642.7550217787508
 20
808.2317089848361
 30
0.0
 40
63.39599751930304
100
AcDbArc
 50
186.914083456285
 51
255.4599402022847
  0
LINE
  5
19A8
330
1F
100
AcDbEntity
  8
1_実線
100
AcDbLine
 10
576.0048250554505
 20
845.9637118874779
 30
0.0
 11
579.8200537748869
 21
800.600044433763
 31
0.0
  0
LINE
  5
19A9
330
1F
100
AcDbEntity
  8
4_破線2中
100
AcDbLine
 10
707.5780048183823
 20
846.1173529108949
 30
0.0
 11
703.7486791772932
 21
800.5860708492516
 31
0.0
  0
LINE
  5
19AA
330
1F
100
AcDbEntity
  8
4_破線2中
100
AcDbLine
 10
633.9054545346097
 20
670.712289975585
 30
0.0
 11
651.9054545346095
 21
670.712289975585
 31
0.0
  0
LINE
  5
19AB
330
1F
100
AcDbEntity
  8
1_実線
100
AcDbLine
 10
633.9054545346097
 20
670.712289975585
 30
0.0
 11
631.0450834226141
 21
744.1666201316211
 31
0.0
  0
LINE
  5
19AC
330
1F
100
AcDbEntity
  8
4_破線2中
100
AcDbLine
 10
651.9054545346095
 20
670.712289975585
 30
0.0
 11
654.4054545346097
 21
734.912289975585
 31
0.0
  0
LINE
  5
19AE
330
1F
100
AcDbEntity
  8
1_実線
100
AcDbLine
 10
629.4054545346097
 20
734.912289975585
 30
0.0
 11
631.4054545346095
 21
734.912289975585
 31
0.0
  0
LINE
  5
19AF
330
1F
100
AcDbEntity
  8
4_破線2中
100
AcDbLine
 10
656.4054545346095
 20
734.912289975585
 30
0.0
 11
656.4054545346095
 21
743.8758120681232
 31
0.0
  0
ARC
  5
19B0
330
1F
100
AcDbEntity
  8
1_実線
100
AcDbCircle
 10
550.6054545346098
 20
847.5178455311406
 30
0.0
 40
7.694444444444402
100
AcDbArc
 50
24.52954745578411
 51
155.4704525442158
  0
ARC
  5
19B1
330
1F
100
AcDbEntity
  8
4_破線2中
100
AcDbCircle
 10
730.6054545346096
 20
847.5178455311406
 30
0.0
 40
7.694444444444402
100
AcDbArc
 50
24.52954745578411
 51
155.4704525442158
  0
LINE
  5
19B2
330
1F
100
AcDbEntity
  8
4_破線2中
100
AcDbLine
 10
712.5604147167202
 20
850.6983163910735
 30
0.0
 11
723.6054545346099
 21
850.7122899755851
 31
0.0
  0
LINE
  5
19B3
330
1F
100
AcDbEntity
  8
1_実線
100
AcDbLine
 10
557.6054545346099
 20
850.7122899755851
 30
0.0
 11
573.0153791164477
 21
850.7122899755851
 31
0.0
  0
LINE
  5
19B4
330
1F
100
AcDbEntity
  8
4_破線2中
100
AcDbLine
 10
755.6054545346096
 20
845.712289975585
 30
0.0
 11
755.6054545346096
 21
845.712289975585
 31
0.0
  0
LINE
  5
19B5
330
1F
100
AcDbEntity
  8
4_破線2中
100
AcDbLine
 10
750.6054545346096
 20
850.7122899755851
 30
0.0
 11
737.6054545346096
 21
850.7122899755851
 31
0.0
  0
LINE
  5
19B7
330
1F
100
AcDbEntity
  8
1_実線
100
AcDbLine
 10
530.6054545346098
 20
850.7122899755851
 30
0.0
 11
543.6054545346098
 21
850.7122899755851
 31
0.0
  0
LINE
  5
19B8
330
1F
100
AcDbEntity
  8
上枠
100
AcDbLine
 10
502.3294343871298
 20
871.0632657688268
 30
0.0
 11
522.0615677644464
 21
852.189051234002
 31
0.0
  0
LINE
  5
19B9
330
1F
100
AcDbEntity
  8
上枠
100
AcDbLine
 10
523.6054545346099
 20
848.5758419482637
 30
0.0
 11
523.6054545346099
 21
845.5122899755847
 31
0.0
  0
CIRCLE
  5
19BC
330
1F
100
AcDbEntity
  8
1_実線
100
AcDbCircle
 10
535.0054545346097
 20
844.9303146598206
 30
0.0
 40
4.0
  0
LINE
  5
19BE
330
1F
100
AcDbEntity
  8
上枠
100
AcDbLine
 10
539.065141454741
 20
840.5122899755847
 30
0.0
 11
552.5851420834227
 21
840.5122899755847
 31
0.0
  0
LINE
  5
19BF
330
1F
100
AcDbEntity
  8
上枠
100
AcDbLine
 10
530.9457676144786
 20
840.5122899755847
 30
0.0
 11
526.6054545346098
 21
840.5122899755847
 31
0.0
  0
LINE
  5
19C5
330
1F
100
AcDbEntity
  8
5_破線3長
100
AcDbLine
 10
723.8267056083407
 20
767.5873290197841
 30
0.0
 11
725.5779536561306
 21
837.637250931386
 31
0.0
  0
LINE
  5
19C7
330
1F
100
AcDbEntity
  8
5_破線3長
100
AcDbLine
 10
730.576391888171
 20
842.512289975585
 30
0.0
 11
737.6054545346096
 21
842.512289975585
 31
0.0
  0
LINE
  5
19C8
330
1F
100
AcDbEntity
  8
1_実線
100
AcDbLine
 10
562.3826416929196
 20
762.712289975585
 30
0.0
 11
597.3388392290419
 21
762.7122899755851
 31
0.0
  0
LINE
  5
19CE
330
1F
100
AcDbEntity
  8
上枠
100
AcDbLine
 10
561.2271818228164
 20
669.2700585844343
 30
0.0
 11
640.6054545346099
 21
658.9355333223206
 31
0.0
  0
LINE
  5
19CF
330
1F
100
AcDbEntity
  8
4_破線2中
100
AcDbLine
 10
688.4054545346097
 20
652.712289975585
 30
0.0
 11
688.4054545346095
 21
394.712289975585
 31
0.0
  0
LINE
  5
19D0
330
1F
100
AcDbEntity
  8
4_破線2中
100
AcDbLine
 10
717.4054545346097
 20
394.712289975585
 30
0.0
 11
717.4054545346097
 21
652.712289975585
 31
0.0
  0
LINE
  5
19D6
330
1F
100
AcDbEntity
  8
4_破線2中
100
AcDbLine
 10
717.4054545346097
 20
652.712289975585
 30
0.0
 11
723.1054545346096
 21
658.712289975585
 31
0.0
  0
LINE
  5
19D7
330
1F
100
AcDbEntity
  8
5_破線3長
100
AcDbLine
 10
749.1054545346099
 20
557.3755546719731
 30
0.0
 11
749.1007145362182
 21
764.9202326122729
 31
0.0
  0
LINE
  5
19D8
330
1F
100
AcDbEntity
  8
5_破線3長
100
AcDbLine
 10
784.1054545346096
 20
557.3755546719731
 30
0.0
 11
784.1054545346096
 21
762.712289975585
 31
0.0
  0
LINE
  5
19DC
330
1F
100
AcDbEntity
  8
5_破線3長
100
AcDbLine
 10
740.1054545346099
 20
809.212289975585
 30
0.0
 11
724.8768475116251
 21
809.5930051511595
 31
0.0
  0
LINE
  5
19DD
330
1F
100
AcDbEntity
  8
5_破線3長
100
AcDbLine
 10
740.1054545346099
 20
774.212289975585
 30
0.0
 11
724.0023940450416
 21
774.6148664878242
 31
0.0
  0
ARC
  5
19DE
330
1F
100
AcDbEntity
  8
5_破線3長
100
AcDbCircle
 10
732.7729857581032
 20
791.8956016949976
 30
0.0
 40
19.37903734187212
100
AcDbArc
 50
114.0452320810859
 51
243.0905755505849
  0
LINE
  5
19E6
330
1F
100
AcDbEntity
  8
1_外形線
100
AcDbLine
 10
514.9054545346098
 20
395.0122899755847
 30
0.0
 11
540.9054545346098
 21
395.0122899755847
 31
0.0
  0
LINE
  5
19E9
330
1F
100
AcDbEntity
  8
1_外形線
100
AcDbLine
 10
514.9054545346098
 20
395.0122899755847
 30
0.0
 11
514.9054545346098
 21
392.712289975585
 31
0.0
  0
LINE
  5
19EA
330
1F
100
AcDbEntity
  8
1_外形線
100
AcDbLine
 10
540.9054545346098
 20
395.0122899755847
 30
0.0
 11
540.9054545346098
 21
392.712289975585
 31
0.0
  0
LINE
  5
19F0
330
1F
100
AcDbEntity
  8
1_外形線
100
AcDbLine
 10
518.3791750929808
 20
405.0122899755847
 30
0.0
 11
537.4317339762386
 21
405.0122899755847
 31
0.0
  0
LINE
  5
19F1
330
1F
100
AcDbEntity
  8
1_外形線
100
AcDbLine
 10
516.9054545346098
 20
395.0122899755847
 30
0.0
 11
516.9054545346098
 21
404.160442157767
 31
0.0
  0
LINE
  5
19F2
330
1F
100
AcDbEntity
  8
1_外形線
100
AcDbLine
 10
538.9054545346096
 20
404.160442157767
 30
0.0
 11
538.9054545346096
 21
395.0122899755847
 31
0.0
  0
LINE
  5
19F3
330
1F
100
AcDbEntity
  8
1_外形線
100
AcDbLine
 10
521.9054545346097
 20
404.160442157767
 30
0.0
 11
521.9054545346097
 21
395.0122899755847
 31
0.0
  0
LINE
  5
19F4
330
1F
100
AcDbEntity
  8
1_外形線
100
AcDbLine
 10
533.9054545346098
 20
404.160442157767
 30
0.0
 11
533.9054545346098
 21
395.0122899755847
 31
0.0
  0
ARC
  5
19FF
330
1F
100
AcDbEntity
  8
1_外形線
100
AcDbCircle
 10
527.9054545346098
 20
383.4558312181957
 30
0.0
 40
21.55645875738911
100
AcDbArc
 50
73.83891275888323
 51
106.1610872411166
  0
LINE
  5
1A01
330
1F
100
AcDbEntity
  8
1_外形線
100
AcDbLine
 10
518.3791750929808
 20
405.0122899755847
 30
0.0
 11
521.9054545346097
 21
405.0122899755847
 31
0.0
  0
LINE
  5
1A02
330
1F
100
AcDbEntity
  8
1_外形線
100
AcDbLine
 10
521.9054545346097
 20
405.0122899755847
 30
0.0
 11
519.4054545346098
 21
405.0122899755847
 31
0.0
  0
LINE
  5
1A05
330
1F
100
AcDbEntity
  8
1_外形線
100
AcDbLine
 10
533.9054545346098
 20
405.0122899755847
 30
0.0
 11
537.4317339762386
 21
405.0122899755847
 31
0.0
  0
LINE
  5
1A06
330
1F
100
AcDbEntity
  8
1_外形線
100
AcDbLine
 10
537.4317339762386
 20
405.0122899755847
 30
0.0
 11
536.4054545346098
 21
405.0122899755847
 31
0.0
  0
ARC
  5
1A08
330
1F
100
AcDbEntity
  8
1_外形線
100
AcDbCircle
 10
519.4054545346098
 20
400.9178704332592
 30
0.0
 40
4.094419542325562
100
AcDbArc
 50
52.36802942954875
 51
127.6319705704512
  0
ARC
  5
1A09
330
1F
100
AcDbEntity
  8
1_外形線
100
AcDbCircle
 10
536.4061001894695
 20
400.9159755676327
 30
0.0
 40
4.096314458835839
100
AcDbArc
 50
52.37706030327803
 51
127.6229396967217
  0
LINE
  5
1A0A
330
1F
100
AcDbEntity
  8
1_外形線
100
AcDbLine
 10
516.9054545346162
 20
404.1604421577718
 30
0.0
 11
518.3791750929808
 21
405.0122899755847
 31
0.0
  0
LINE
  5
1A0B
330
1F
100
AcDbEntity
  8
1_外形線
100
AcDbLine
 10
538.9054545346096
 20
404.160442157767
 30
0.0
 11
537.4317339762386
 21
405.0122899755847
 31
0.0
  0
LINE
  5
1A0C
330
1F
100
AcDbEntity
  8
1_外形線
100
AcDbLine
 10
523.4054545346098
 20
415.0122899755848
 30
0.0
 11
532.4054545346098
 21
415.0122899755848
 31
0.0
  0
LINE
  5
1A0D
330
1F
100
AcDbEntity
  8
1_外形線
100
AcDbLine
 10
521.9054545346097
 20
405.0122899755847
 30
0.0
 11
521.9054545346097
 21
413.5122899755847
 31
0.0
  0
LINE
  5
1A0E
330
1F
100
AcDbEntity
  8
1_外形線
100
AcDbLine
 10
533.9054545346098
 20
405.0122899755847
 30
0.0
 11
533.9054545346098
 21
413.5122899755847
 31
0.0
  0
LINE
  5
1A10
330
1F
100
AcDbEntity
  8
1_外形線
100
AcDbLine
 10
521.9054545346097
 20
413.5122899755847
 30
0.0
 11
533.9054545346098
 21
413.5122899755847
 31
0.0
  0
LINE
  5
1A13
330
1F
100
AcDbEntity
  8
1_外形線
100
AcDbLine
 10
521.9054545346097
 20
413.5122899755847
 30
0.0
 11
523.4054545346098
 21
415.0122899755848
 31
0.0
  0
LINE
  5
1A14
330
1F
100
AcDbEntity
  8
1_外形線
100
AcDbLine
 10
532.4054545346098
 20
415.0122899755848
 30
0.0
 11
533.9054545346098
 21
413.5122899755847
 31
0.0
  0
ARC
  5
1A19
330
1F
100
AcDbEntity
  8
1_外形線
100
AcDbCircle
 10
482.6766518781362
 20
638.712289975585
 30
0.0
 40
7.0
100
AcDbArc
 50
181.3260543767048
 51
270.0
  0
LINE
  5
1A1A
330
1F
100
AcDbEntity
  8
1_外形線
100
AcDbLine
 10
470.9062504458129
 20
845.712289975585
 30
0.0
 11
475.6785342856258
 21
638.5499614959062
 31
0.0
  0
LINE
  5
1A20
330
1F
100
AcDbEntity
  8
1_外形線
100
AcDbLine
 10
478.3530804783898
 20
652.712289975585
 30
0.0
 11
478.6777385855252
 21
638.619052504478
 31
0.0
  0
ARC
  5
1A21
330
1F
100
AcDbEntity
  8
1_外形線
100
AcDbCircle
 10
482.6766518781362
 20
638.712289975585
 30
0.0
 40
4.0
100
AcDbArc
 50
181.3260543767048
 51
270.0
  0
LINE
  5
1A22
330
1F
100
AcDbEntity
  8
1_外形線
100
AcDbLine
 10
478.3530804783898
 20
652.712289975585
 30
0.0
 11
475.3522845671866
 21
652.712289975585
 31
0.0
  0
LINE
  5
1A23
330
1F
100
AcDbEntity
  8
1_外形線
100
AcDbLine
 10
487.8426930283334
 20
634.7122899755849
 30
0.0
 11
482.6766518781362
 21
634.7122899755849
 31
0.0
  0
LINE
  5
1A24
330
1F
100
AcDbEntity
  8
1_外形線
100
AcDbLine
 10
487.8426930283334
 20
631.712289975585
 30
0.0
 11
482.6766518781362
 21
631.712289975585
 31
0.0
  0
ARC
  5
1A26
330
1F
100
AcDbEntity
  8
1_外形線
100
AcDbCircle
 10
487.8426930283334
 20
631.712289975585
 30
0.0
 40
3.0
100
AcDbArc
 50
1.198481650118455
 51
90.0
  0
LINE
  5
1A27
330
1F
100
AcDbEntity
  8
1_外形線
100
AcDbLine
 10
642.9054545346096
 20
628.712289975585
 30
0.0
 11
803.134257191083
 21
628.712289975585
 31
0.0
  0
LINE
  5
1A28
330
1F
100
AcDbEntity
  8
1_外形線
100
AcDbLine
 10
487.8426930283334
 20
634.7122899755849
 30
0.0
 11
642.9054545346096
 21
634.7122899755851
 31
0.0
  0
ARC
  5
1A29
330
1F
100
AcDbEntity
  8
5_破線3長
100
AcDbCircle
 10
667.1054545346097
 20
502.0313935685974
 30
0.0
 40
44.0
100
AcDbArc
 50
91.81830296445179
 51
123.3670129692314
  0
LINE
  5
1A2B
330
1F
100
AcDbEntity
  8
1_外形線
100
AcDbLine
 10
617.6054545346097
 20
397.712289975585
 30
0.0
 11
623.1054545346096
 21
397.712289975585
 31
0.0
  0
LINE
  5
1A2C
330
1F
100
AcDbEntity
  8
1_実線
100
AcDbLine
 10
625.1054545346097
 20
502.0313935685974
 30
0.0
 11
625.1054545346096
 21
394.712289975585
 31
0.0
  0
ARC
  5
1A2D
330
1F
100
AcDbEntity
  8
1_実線
100
AcDbCircle
 10
667.1054545346097
 20
502.0313935685974
 30
0.0
 40
42.0
100
AcDbArc
 50
125.1830446665829
 51
180.0
  0
LINE
  5
1A2E
330
1F
100
AcDbEntity
  8
1_外形線
100
AcDbLine
 10
478.3530804783898
 20
652.712289975585
 30
0.0
 11
631.1158419846662
 21
652.712289975585
 31
0.0
  0
LINE
  5
1A2F
330
1F
100
AcDbEntity
  8
上枠
100
AcDbLine
 10
555.584205022647
 20
839.5872665490655
 30
0.0
 11
559.7442217227929
 21
673.1865985432282
 31
0.0
  0
LINE
  5
1A30
330
1F
100
AcDbEntity
  8
上枠
100
AcDbLine
 10
561.4853894192129
 20
671.2533207549912
 30
0.0
 11
640.6054545346099
 21
660.9524124114206
 31
0.0
  0
LINE
  5
1A31
330
1F
100
AcDbEntity
  8
1_実線
100
AcDbLine
 10
552.5851420834227
 20
844.5122899755848
 30
0.0
 11
543.6054545346098
 21
844.5122899755848
 31
0.0
  0
LINE
  5
1A32
330
1F
100
AcDbEntity
  8
1_実線
100
AcDbLine
 10
557.5835803154632
 20
839.6372509313858
 30
0.0
 11
559.3835787536952
 21
767.6373134021041
 31
0.0
  0
LINE
  5
1A33
330
1F
100
AcDbEntity
  8
上枠
100
AcDbLine
 10
538.1918563652686
 20
842.512289975585
 30
0.0
 11
552.5851420834227
 21
842.512289975585
 31
0.0
  0
LINE
  5
1A34
330
1F
100
AcDbEntity
  8
上枠
100
AcDbLine
 10
501.7182904439485
 20
868.8802155470277
 30
0.0
 11
520.6791224725122
 21
850.7437675197067
 31
0.0
  0
LINE
  5
1A35
330
1F
100
AcDbEntity
  8
上枠
100
AcDbLine
 10
521.6054545346098
 20
848.5758419482637
 30
0.0
 11
521.6054545346098
 21
845.5122899755847
 31
0.0
  0
ARC
  5
1A37
330
1F
100
AcDbEntity
  8
上枠
100
AcDbCircle
 10
552.5851420834227
 20
839.5122899755849
 30
0.0
 40
3.0
100
AcDbArc
 50
1.432096184164653
 51
90.0
  0
ARC
  5
1A39
330
1F
100
AcDbEntity
  8
上枠
100
AcDbCircle
 10
552.5851420834227
 20
839.5122899755849
 30
0.0
 40
1.0
100
AcDbArc
 50
1.432096184164653
 51
90.0
  0
ARC
  5
1A3A
330
1F
100
AcDbEntity
  8
1_実線
100
AcDbCircle
 10
552.5851420834227
 20
839.5122899755849
 30
0.0
 40
5.0
100
AcDbArc
 50
1.432096184164653
 51
90.0
  0
LINE
  5
1A3B
330
1F
100
AcDbEntity
  8
1_実線
100
AcDbLine
 10
530.6054545346098
 20
848.7122899755849
 30
0.0
 11
543.6054545346173
 21
848.7122899755849
 31
0.0
  0
ARC
  5
1A3C
330
1F
100
AcDbEntity
  8
1_実線
100
AcDbCircle
 10
550.6054545346098
 20
847.5178455311406
 30
0.0
 40
5.694444444444402
100
AcDbArc
 50
24.52954745580823
 51
155.4704525441916
  0
LINE
  5
1A3D
330
1F
100
AcDbEntity
  8
1_実線
100
AcDbLine
 10
557.6054545346022
 20
848.7122899755849
 30
0.0
 11
573.0153791164477
 21
848.7122899755849
 31
0.0
  0
LINE
  5
1A3F
330
1F
100
AcDbEntity
  8
1_実線
100
AcDbLine
 10
577.9977890147856
 20
846.1313264954064
 30
0.0
 11
581.813017734222
 21
800.7676590416917
 31
0.0
  0
ARC
  5
1A40
330
1F
100
AcDbEntity
  8
1_実線
100
AcDbCircle
 10
573.0153791164477
 20
845.712289975585
 30
0.0
 40
3.0
100
AcDbArc
 50
4.807443694391061
 51
90.0
  0
ARC
  5
1A41
330
1F
100
AcDbEntity
  8
1_実線
100
AcDbCircle
 10
573.0153791164477
 20
845.712289975585
 30
0.0
 40
5.0
100
AcDbArc
 50
4.807443694391061
 51
90.0
  0
ARC
  5
1A48
330
1F
100
AcDbEntity
  8
上枠
100
AcDbCircle
 10
535.0054545346097
 20
844.9303146598206
 30
0.0
 40
6.0
100
AcDbArc
 50
227.4203497968449
 51
312.5796502031572
  0
LINE
  5
1A49
330
1F
100
AcDbEntity
  8
上枠
100
AcDbLine
 10
530.9457676144786
 20
842.512289975585
 30
0.0
 11
526.6054545346098
 21
842.512289975585
 31
0.0
  0
ARC
  5
1A4A
330
1F
100
AcDbEntity
  8
上枠
100
AcDbCircle
 10
526.6054545346098
 20
845.5122899755847
 30
0.0
 40
3.0
100
AcDbArc
 50
180.0
 51
270.0
  0
ARC
  5
1A4B
330
1F
100
AcDbEntity
  8
上枠
100
AcDbCircle
 10
526.6054545346098
 20
845.5122899755847
 30
0.0
 40
5.0
100
AcDbArc
 50
180.0
 51
270.0
  0
ARC
  5
1A4C
330
1F
100
AcDbEntity
  8
上枠
100
AcDbCircle
 10
518.6054545346098
 20
848.5758419482637
 30
0.0
 40
3.0
100
AcDbArc
 50
0.0
 51
46.27303002005671
  0
ARC
  5
1A4D
330
1F
100
AcDbEntity
  8
上枠
100
AcDbCircle
 10
518.6054545346098
 20
848.5758419482637
 30
0.0
 40
5.0
100
AcDbArc
 50
0.0
 51
46.27303002005671
  0
LINE
  5
1A51
330
1F
100
AcDbEntity
  8
上枠
100
AcDbLine
 10
467.9054545346096
 20
845.712289975585
 30
0.0
 11
467.9054545346096
 21
865.7122899755849
 31
0.0
  0
LINE
  5
1A54
330
1F
100
AcDbEntity
  8
上枠
100
AcDbLine
 10
471.9054545346097
 20
869.712289975585
 30
0.0
 11
499.6446225060463
 21
869.7122899755845
 31
0.0
  0
ARC
  5
1A56
330
1F
100
AcDbEntity
  8
上枠
100
AcDbCircle
 10
499.6446225060463
 20
866.7122899755847
 30
0.0
 40
3.0
100
AcDbArc
 50
46.27303002005688
 51
90.0
  0
LINE
  5
1A58
330
1F
100
AcDbEntity
  8
1_実線
100
AcDbLine
 10
543.6054545346098
 20
844.5122899755848
 30
0.0
 11
543.6054545346096
 21
842.512289975585
 31
0.0
  0
LINE
  5
1A5A
330
1F
100
AcDbEntity
  8
1_実線
100
AcDbLine
 10
525.6054545346098
 20
845.712289975585
 30
0.0
 11
527.6054545346098
 21
845.712289975585
 31
0.0
  0
ARC
  5
1A5B
330
1F
100
AcDbEntity
  8
1_実線
100
AcDbCircle
 10
530.6054545346098
 20
845.712289975585
 30
0.0
 40
3.0
100
AcDbArc
 50
90.0
 51
180.0
  0
ARC
  5
1A5C
330
1F
100
AcDbEntity
  8
1_実線
100
AcDbCircle
 10
530.6054545346098
 20
845.712289975585
 30
0.0
 40
5.0
100
AcDbArc
 50
90.0
 51
180.0
  0
ARC
  5
1A5D
330
1F
100
AcDbEntity
  8
4_破線2中
100
AcDbCircle
 10
712.5604147167202
 20
845.6983163910736
 30
0.0
 40
5.0
100
AcDbArc
 50
90.0
 51
175.1925563056088
  0
ARC
  5
1A5E
330
1F
100
AcDbEntity
  8
4_破線2中
100
AcDbCircle
 10
750.6054545346096
 20
845.712289975585
 30
0.0
 40
5.0
100
AcDbArc
 50
0.0
 51
90.0
  0
LINE
  5
1A5F
330
1F
100
AcDbEntity
  8
1_実線
100
AcDbLine
 10
562.3826416929196
 20
764.7122899755847
 30
0.0
 11
595.4390953720649
 21
764.7122899755847
 31
0.0
  0
ARC
  5
1A60
330
1F
100
AcDbEntity
  8
1_実線
100
AcDbCircle
 10
562.3826416929196
 20
767.712289975585
 30
0.0
 40
5.0
100
AcDbArc
 50
181.4320961841643
 51
270.0
  0
ARC
  5
1A61
330
1F
100
AcDbEntity
  8
1_実線
100
AcDbCircle
 10
562.3826416929196
 20
767.712289975585
 30
0.0
 40
3.0
100
AcDbArc
 50
181.4320961841643
 51
270.0
  0
LINE
  5
1A66
330
1F
100
AcDbEntity
  8
5_破線3長
100
AcDbLine
 10
642.9054545346096
 20
762.7122899755849
 30
0.0
 11
718.8282673763002
 21
762.7122899755851
 31
0.0
  0
ARC
  5
1A67
330
1F
100
AcDbEntity
  8
5_破線3長
100
AcDbCircle
 10
718.8282673763002
 20
767.712289975585
 30
0.0
 40
5.0
100
AcDbArc
 50
270.0
 51
358.5679038158353
  0
ARC
  5
1A68
330
1F
100
AcDbEntity
  8
1_実線
100
AcDbCircle
 10
642.5855161395252
 20
807.8893830096307
 30
0.0
 40
61.18836094142481
100
AcDbArc
 50
186.6838146412914
 51
270.2995864407818
  0
LINE
  5
1A69
330
1F
100
AcDbEntity
  8
1_実線
100
AcDbLine
 10
635.9039398703237
 20
670.7901126132685
 30
0.0
 11
633.0953632006157
 21
742.9143614913713
 31
0.0
  0
ARC
  5
1A6A
330
1F
100
AcDbEntity
  8
1_実線
100
AcDbCircle
 10
626.0488700833292
 20
743.9720635374119
 30
0.0
 40
5.0
100
AcDbArc
 50
2.230017327951224
 51
74.72904025379644
  0
ARC
  5
1A6B
330
1F
100
AcDbEntity
  8
1_実線
100
AcDbCircle
 10
626.0488700833292
 20
743.9720635374119
 30
0.0
 40
3.0
100
AcDbArc
 50
2.230017327951224
 51
74.72904025379644
  0
ARC
  5
1A6C
330
1F
100
AcDbEntity
  8
4_破線2中
100
AcDbCircle
 10
642.9266969646082
 20
805.7611579255802
 30
0.0
 40
61.04174839016145
100
AcDbArc
 50
284.909212707975
 51
355.1366563434477
  0
LINE
  5
1A6D
330
1F
100
AcDbEntity
  8
1_実線
100
AcDbLine
 10
629.4039387223504
 20
734.912289975585
 30
0.0
 11
629.0465980869005
 21
744.0887974939377
 31
0.0
  0
ARC
  5
1A6F
330
1F
100
AcDbEntity
  8
4_破線2中
100
AcDbCircle
 10
659.4054545346097
 20
743.8758120681232
 30
0.0
 40
3.0
100
AcDbArc
 50
104.9403031309034
 51
180.0
  0
LINE
  5
1A71
330
1F
100
AcDbEntity
  8
4_破線2中
100
AcDbLine
 10
642.9054545346096
 20
734.912289975585
 30
0.0
 11
656.4054545346095
 21
734.912289975585
 31
0.0
  0
LINE
  5
1A73
330
1F
100
AcDbEntity
  8
1_実線
100
AcDbLine
 10
574.6054545346097
 20
764.7122899755847
 30
0.0
 11
574.6054545346097
 21
762.712289975585
 31
0.0
  0
CIRCLE
  5
1A77
330
1F
100
AcDbEntity
  8
4_破線2中
100
AcDbCircle
 10
746.2054545346099
 20
844.9303146598206
 30
0.0
 40
4.0
  0
LINE
  5
1A78
330
1F
100
AcDbEntity
  8
4_破線2中
100
AcDbLine
 10
742.1457676144783
 20
840.5122899755847
 30
0.0
 11
730.576391888171
 21
840.5122899755847
 31
0.0
  0
LINE
  5
1A79
330
1F
100
AcDbEntity
  8
4_破線2中
100
AcDbLine
 10
750.265141454741
 20
840.5122899755847
 30
0.0
 11
754.6054545346096
 21
840.5122899755847
 31
0.0
  0
ARC
  5
1A7A
330
1F
100
AcDbEntity
  8
4_破線2中
100
AcDbCircle
 10
746.2054545346099
 20
844.9303146598206
 30
0.0
 40
6.0
100
AcDbArc
 50
227.4203497968425
 51
312.5796502031551
  0
ARC
  5
1A7B
330
1F
100
AcDbEntity
  8
4_破線2中
100
AcDbCircle
 10
754.6054545346096
 20
845.5122899755847
 30
0.0
 40
5.0
100
AcDbArc
 50
270.0
 51
0.000000000000007
  0
LINE
  5
1A7D
330
1F
100
AcDbEntity
  8
4_破線2中
100
AcDbLine
 10
737.6054545346096
 20
842.512289975585
 30
0.0
 11
737.6054545346096
 21
840.5122899755847
 31
0.0
  0
ARC
  5
1A7E
330
1F
100
AcDbEntity
  8
4_破線2中
100
AcDbCircle
 10
730.576391888171
 20
837.5122899755847
 30
0.0
 40
3.0
100
AcDbArc
 50
90.0
 51
178.5679038158353
  0
ARC
  5
1A7F
330
1F
100
AcDbEntity
  8
5_破線3長
100
AcDbCircle
 10
730.576391888171
 20
837.5122899755847
 30
0.0
 40
5.0
100
AcDbArc
 50
90.0
 51
178.5679038158353
  0
LINE
  5
1A80
330
1F
100
AcDbEntity
  8
4_破線2中
100
AcDbLine
 10
782.6434441684799
 20
871.8940486753149
 30
0.0
 11
759.6054545346096
 21
849.8577107646564
 31
0.0
  0
LINE
  5
1A81
330
1F
100
AcDbEntity
  8
4_破線2中
100
AcDbLine
 10
759.6054545346096
 20
849.8577107646564
 30
0.0
 11
759.6054545346096
 21
845.5122899755847
 31
0.0
  0
ARC
  5
1A84
330
1F
100
AcDbEntity
  8
4_破線2中
100
AcDbCircle
 10
784.7026501995366
 20
869.7122899755857
 30
0.0
 40
3.0
100
AcDbArc
 50
89.99999999999785
 51
133.726969979952
  0
ARC
  5
1A88
330
1F
100
AcDbEntity
  8
3_破線1短
100
AcDbCircle
 10
784.7171121063825
 20
869.7261231038721
 30
0.0
 40
3.0
100
AcDbArc
 50
90.00000000000433
 51
133.7269699799537
  0
LINE
  5
1A89
330
1F
100
AcDbEntity
  8
4_破線2中
100
AcDbLine
 10
1056.881926807583
 20
871.880215547028
 30
0.0
 11
1078.979122472512
 21
850.7437675197062
 31
0.0
  0
LINE
  5
1A8A
330
1F
100
AcDbEntity
  8
4_破線2中
100
AcDbLine
 10
1079.905454534609
 20
848.5758419482634
 30
0.0
 11
1079.90545453461
 21
845.5122899755847
 31
0.0
  0
LINE
  5
1A8B
330
1F
100
AcDbEntity
  8
4_破線2中
100
AcDbLine
 10
1340.928982261634
 20
871.880215547028
 30
0.0
 11
1318.831786596707
 21
850.7437675197065
 31
0.0
  0
LINE
  5
1A8C
330
1F
100
AcDbEntity
  8
4_破線2中
100
AcDbLine
 10
1317.905454534609
 20
848.5758419482635
 30
0.0
 11
1317.905454534609
 21
845.5122899755847
 31
0.0
  0
XLINE
  5
1A8D
330
1F
100
AcDbEntity
  8
構築線2
100
AcDbXline
 10
1402.099999999999
 20
660.0
 30
0.0
 11
0.0
 21
-1.0
 31
0.0
  0
XLINE
  5
1A8E
330
1F
100
AcDbEntity
  8
構築線2
100
AcDbXline
 10
1190.9
 20
660.0
 30
0.0
 11
0.0
 21
-1.0
 31
0.0
  0
CIRCLE
  5
1A8F
330
1F
100
AcDbEntity
  8
4_破線2中
100
AcDbCircle
 10
1093.305454534609
 20
844.9303146598206
 30
0.0
 40
4.0
  0
LINE
  5
1A90
330
1F
100
AcDbEntity
  8
4_破線2中
100
AcDbLine
 10
1097.36514145474
 20
840.5122899755847
 30
0.0
 11
1108.934517181048
 21
840.5122899755847
 31
0.0
  0
LINE
  5
1A91
330
1F
100
AcDbEntity
  8
4_破線2中
100
AcDbLine
 10
1089.245767614477
 20
840.5122899755847
 30
0.0
 11
1084.905454534609
 21
840.5122899755847
 31
0.0
  0
ARC
  5
1A92
330
1F
100
AcDbEntity
  8
4_破線2中
100
AcDbCircle
 10
1093.305454534609
 20
844.9303146598206
 30
0.0
 40
6.0
100
AcDbArc
 50
227.4203497968449
 51
312.5796502031572
  0
ARC
  5
1A93
330
1F
100
AcDbEntity
  8
4_破線2中
100
AcDbCircle
 10
1084.905454534609
 20
845.5122899755847
 30
0.0
 40
5.0
100
AcDbArc
 50
180.0
 51
270.0
  0
CIRCLE
  5
1A94
330
1F
100
AcDbEntity
  8
4_破線2中
100
AcDbCircle
 10
1304.505454534609
 20
844.9303146598206
 30
0.0
 40
4.0
  0
LINE
  5
1A95
330
1F
100
AcDbEntity
  8
4_破線2中
100
AcDbLine
 10
1300.445767614478
 20
840.5122899755847
 30
0.0
 11
1288.87639188817
 21
840.5122899755847
 31
0.0
  0
LINE
  5
1A96
330
1F
100
AcDbEntity
  8
4_破線2中
100
AcDbLine
 10
1308.565141454741
 20
840.5122899755847
 30
0.0
 11
1312.905454534609
 21
840.5122899755847
 31
0.0
  0
ARC
  5
1A97
330
1F
100
AcDbEntity
  8
4_破線2中
100
AcDbCircle
 10
1304.505454534609
 20
844.9303146598206
 30
0.0
 40
6.0
100
AcDbArc
 50
227.4203497968425
 51
312.5796502031551
  0
ARC
  5
1A98
330
1F
100
AcDbEntity
  8
4_破線2中
100
AcDbCircle
 10
1312.905454534609
 20
845.5122899755847
 30
0.0
 40
5.0
100
AcDbArc
 50
270.0
 51
0.000000000000007
  0
LINE
  5
1A99
330
1F
100
AcDbEntity
  8
4_破線2中
100
AcDbLine
 10
1317.905454534609
 20
848.5758419482635
 30
0.0
 11
1317.905454534609
 21
845.5122899755847
 31
0.0
  0
ARC
  5
1A9B
330
1F
100
AcDbEntity
  8
4_破線2中
100
AcDbCircle
 10
1076.905454534609
 20
848.5758419482634
 30
0.0
 40
3.0
100
AcDbArc
 50
0.0
 51
46.27303002005671
  0
ARC
  5
1A9C
330
1F
100
AcDbEntity
  8
4_破線2中
100
AcDbCircle
 10
1288.87639188817
 20
837.5122899755847
 30
0.0
 40
3.0
100
AcDbArc
 50
90.0
 51
178.5679038158353
  0
ARC
  5
1A9D
330
1F
100
AcDbEntity
  8
4_破線2中
100
AcDbCircle
 10
1320.905454534609
 20
848.5758419482635
 30
0.0
 40
3.0
100
AcDbArc
 50
133.7269699799433
 51
180.0
  0
ARC
  5
1AA0
330
1F
100
AcDbEntity
  8
4_破線2中
100
AcDbCircle
 10
1343.002650199536
 20
869.712289975585
 30
0.0
 40
3.0
100
AcDbArc
 50
89.99999999999131
 51
133.7269699799398
  0
ARC
  5
1AA1
330
1F
100
AcDbEntity
  8
4_破線2中
100
AcDbCircle
 10
1054.808258869682
 20
869.7122899755852
 30
0.0
 40
3.0
100
AcDbArc
 50
46.27303002005397
 51
90.00000000000433
  0
ARC
  5
1AA2
330
1F
100
AcDbEntity
  8
4_破線2中
100
AcDbCircle
 10
1108.934517181048
 20
837.5122899755847
 30
0.0
 40
3.0
100
AcDbArc
 50
1.432096184164653
 51
90.0
  0
ARC
  5
1AA3
330
1F
100
AcDbEntity
  8
4_破線2中
100
AcDbCircle
 10
1088.905454534609
 20
845.712289975585
 30
0.0
 40
5.0
100
AcDbArc
 50
90.0
 51
180.0
  0
ARC
  5
1AA4
330
1F
100
AcDbEntity
  8
4_破線2中
100
AcDbCircle
 10
1129.308318235459
 20
845.712289975585
 30
0.0
 40
5.0
100
AcDbArc
 50
4.807443694391061
 51
90.0
  0
ARC
  5
1AA5
330
1F
100
AcDbEntity
  8
5_破線3長
100
AcDbCircle
 10
1108.934517181048
 20
837.5122899755847
 30
0.0
 40
5.0
100
AcDbArc
 50
1.432096184164553
 51
90.0
  0
ARC
  5
1AA6
330
1F
100
AcDbEntity
  8
5_破線3長
100
AcDbCircle
 10
1288.87639188817
 20
837.5122899755847
 30
0.0
 40
5.0
100
AcDbArc
 50
90.0
 51
178.5679038158354
  0
ARC
  5
1AA7
330
1F
100
AcDbEntity
  8
4_破線2中
100
AcDbCircle
 10
1268.502590833759
 20
845.712289975585
 30
0.0
 40
5.0
100
AcDbArc
 50
90.0
 51
175.1925563056088
  0
ARC
  5
1AA8
330
1F
100
AcDbEntity
  8
4_破線2中
100
AcDbCircle
 10
1308.905454534609
 20
845.712289975585
 30
0.0
 40
5.0
100
AcDbArc
 50
0.0
 51
90.0
  0
LINE
  5
1AAC
330
1F
100
AcDbEntity
  8
5_破線3長
100
AcDbLine
 10
1146.405454534609
 20
791.712289975585
 30
0.0
 11
1146.405454534609
 21
389.712289975585
 31
0.0
  0
XLINE
  5
1ABC
330
1F
100
AcDbEntity
  8
構築線2
100
AcDbXline
 10
1261.5
 20
660.0
 30
0.0
 11
0.0
 21
-1.0
 31
0.0
  0
LINE
  5
1ABD
330
1F
100
AcDbEntity
  8
5_破線3長
100
AcDbLine
 10
1181.405454534609
 20
769.3074326329449
 30
0.0
 11
1181.405454534609
 21
389.712289975585
 31
0.0
  0
LINE
  5
1ABE
330
1F
100
AcDbEntity
  8
1_外形線
100
AcDbLine
 10
1146.405454534609
 20
389.712289975585
 30
0.0
 11
1152.905454534609
 21
354.712289975585
 31
0.0
  0
LINE
  5
1ABF
330
1F
100
AcDbEntity
  8
1_外形線
100
AcDbLine
 10
1152.905454534609
 20
354.712289975585
 30
0.0
 11
1174.905454534609
 21
354.712289975585
 31
0.0
  0
LINE
  5
1AC0
330
1F
100
AcDbEntity
  8
1_外形線
100
AcDbLine
 10
1174.905454534609
 20
354.712289975585
 30
0.0
 11
1181.405454534609
 21
389.712289975585
 31
0.0
  0
ARC
  5
1AC2
330
1F
100
AcDbEntity
  8
上枠
100
AcDbCircle
 10
498.1979685883335
 20
866.7122899755847
 30
0.0
 40
6.0
100
AcDbArc
 50
46.27303002005688
 51
90.0
  0
ARC
  5
1AC4
330
1F
100
AcDbEntity
  8
上枠
100
AcDbCircle
 10
471.9054545346097
 20
865.7122899755849
 30
0.0
 40
7.0
100
AcDbArc
 50
90.0
 51
180.0
  0
ARC
  5
1AC5
330
1F
100
AcDbEntity
  8
上枠
100
AcDbCircle
 10
813.9054545346096
 20
865.7122899755849
 30
0.0
 40
7.0
100
AcDbArc
 50
0.0
 51
90.0
  0
ARC
  5
1AC6
330
1F
100
AcDbEntity
  8
上枠
100
AcDbCircle
 10
1027.905454534609
 20
865.7122899755849
 30
0.0
 40
7.0
100
AcDbArc
 50
90.0
 51
180.0
  0
ARC
  5
1AC7
330
1F
100
AcDbEntity
  8
上枠
100
AcDbCircle
 10
1369.90545453461
 20
865.7122899755849
 30
0.0
 40
7.0
100
AcDbArc
 50
0.0
 51
90.0
  0
LINE
  5
1AC9
330
1F
100
AcDbEntity
  8
上枠
100
AcDbLine
 10
642.9054545346096
 20
845.712289975585
 30
0.0
 11
820.9054545346099
 21
845.712289975585
 31
0.0
  0
LINE
  5
1ACA
330
1F
100
AcDbEntity
  8
上枠
100
AcDbLine
 10
464.9054545346098
 20
845.712289975585
 30
0.0
 11
467.9054545346096
 21
845.712289975585
 31
0.0
  0
ARC
  5
1ACB
330
1F
100
AcDbEntity
  8
上枠
100
AcDbCircle
 10
471.9054545346097
 20
865.7122899755849
 30
0.0
 40
4.0
100
AcDbArc
 50
89.99999999999948
 51
180.0
  0
LINE
  5
1ACC
330
1F
100
AcDbEntity
  8
1_外形線
100
AcDbLine
 10
467.9054545346096
 20
845.7122899755841
 30
0.0
 11
467.9054545346096
 21
865.1622899755848
 31
0.0
  0
LINE
  5
1ACD
330
1F
100
AcDbEntity
  8
1_外形線
100
AcDbLine
 10
470.9062504458129
 20
845.712289975585
 30
0.0
 11
470.9062504458129
 21
865.1622899755857
 31
0.0
  0
LINE
  5
1ACE
330
1F
100
AcDbEntity
  8
1_外形線
100
AcDbLine
 10
470.9062504458129
 20
865.1622899755857
 30
0.0
 11
467.9054545346096
 21
865.1622899755857
 31
0.0
  0
LINE
  5
1AE3
330
1F
100
AcDbEntity
  8
2_細線
100
AcDbLine
 10
464.9054545346098
 20
862.7328066582654
 30
0.0
 11
465.1054545346095
 21
862.7328066582654
 31
0.0
  0
LINE
  5
1AE4
330
1F
100
AcDbEntity
  8
2_細線
100
AcDbLine
 10
465.1054545346095
 20
862.7328066582654
 30
0.0
 11
465.10545453461
 21
851.7328066582654
 31
0.0
  0
LINE
  5
1AE5
330
1F
100
AcDbEntity
  8
2_細線
100
AcDbLine
 10
465.10545453461
 20
851.7328066582654
 30
0.0
 11
464.9054545346098
 21
851.7328066582654
 31
0.0
  0
LINE
  5
1AE6
330
1F
100
AcDbEntity
  8
2_細線
100
AcDbLine
 10
464.9054545346098
 20
851.7328066582654
 30
0.0
 11
464.9054545346098
 21
862.7328066582654
 31
0.0
  0
LINE
  5
1AE7
330
1F
100
AcDbEntity
  8
2_細線
100
AcDbLine
 10
465.1054545346098
 20
862.7328066582654
 30
0.0
 11
467.6054545346095
 21
860.2328066582654
 31
0.0
  0
LINE
  5
1AE8
330
1F
100
AcDbEntity
  8
2_細線
100
AcDbLine
 10
467.6054545346095
 20
860.2328066582654
 30
0.0
 11
474.3054545346097
 21
860.2328066582654
 31
0.0
  0
LINE
  5
1AE9
330
1F
100
AcDbEntity
  8
2_細線
100
AcDbLine
 10
474.9054545346098
 20
859.6328066582655
 30
0.0
 11
474.9054545346098
 21
854.8328066582651
 31
0.0
  0
LINE
  5
1AEA
330
1F
100
AcDbEntity
  8
2_細線
100
AcDbLine
 10
474.3054545346098
 20
854.2328066582657
 30
0.0
 11
467.6054545346095
 21
854.2328066582651
 31
0.0
  0
LINE
  5
1AEB
330
1F
100
AcDbEntity
  8
2_細線
100
AcDbLine
 10
467.6054545346095
 20
854.2328066582651
 30
0.0
 11
465.10545453461
 21
851.7328066582654
 31
0.0
  0
LINE
  5
1AEE
330
1F
100
AcDbEntity
  8
2_細線
100
AcDbLine
 10
474.3054545346098
 20
860.2328066582654
 30
0.0
 11
474.3054545346098
 21
854.2328066582651
 31
0.0
  0
LINE
  5
1AEF
330
1F
100
AcDbEntity
  8
2_細線
100
AcDbLine
 10
467.9054545346096
 20
859.6328066582655
 30
0.0
 11
474.9054545346098
 21
859.6328066582655
 31
0.0
  0
LINE
  5
1AF0
330
1F
100
AcDbEntity
  8
2_細線
100
AcDbLine
 10
467.9054545346096
 20
854.8328066582651
 30
0.0
 11
474.9054545346099
 21
854.8328066582651
 31
0.0
  0
LINE
  5
1AF1
330
1F
100
AcDbEntity
  8
2_細線
100
AcDbLine
 10
474.3054545346098
 20
860.2328066582654
 30
0.0
 11
474.9054545346098
 21
859.6328066582655
 31
0.0
  0
LINE
  5
1AF2
330
1F
100
AcDbEntity
  8
2_細線
100
AcDbLine
 10
474.3054545346098
 20
854.2328066582651
 30
0.0
 11
474.9054545346099
 21
854.8328066582651
 31
0.0
  0
CIRCLE
  5
1AF3
330
1F
100
AcDbEntity
  8
上枠
100
AcDbCircle
 10
754.7943810369223
 20
857.2328066582654
 30
0.0
 40
5.5
  0
CIRCLE
  5
1AF4
330
1F
100
AcDbEntity
  8
上枠
100
AcDbCircle
 10
1081.405454534609
 20
859.212289975585
 30
0.0
 40
5.5
  0
CIRCLE
  5
1AF5
330
1F
100
AcDbEntity
  8
上枠
100
AcDbCircle
 10
1316.405454534609
 20
859.212289975585
 30
0.0
 40
5.5
  0
LINE
  5
1AF6
330
1F
100
AcDbEntity
  8
上枠
100
AcDbLine
 10
642.9054545346096
 20
872.7122899755849
 30
0.0
 11
813.9054545346096
 21
872.7122899755849
 31
0.0
  0
ARC
  5
1AF8
330
1F
100
AcDbEntity
  8
上枠
100
AcDbCircle
 10
561.7435970156093
 20
673.2365829255487
 30
0.0
 40
4.0
100
AcDbArc
 50
181.4320961841644
 51
262.5821926769023
  0
ARC
  5
1AF9
330
1F
100
AcDbEntity
  8
上枠
100
AcDbCircle
 10
561.7435970156093
 20
673.2365829255487
 30
0.0
 40
2.0
100
AcDbArc
 50
181.4320961841644
 51
262.5821926769023
  0
LINE
  5
1AFA
330
1F
100
AcDbEntity
  8
4_破線2中
100
AcDbLine
 10
688.4054545346097
 20
652.712289975585
 30
0.0
 11
640.6054545346099
 21
658.9355333223206
 31
0.0
  0
ARC
  5
1AFC
330
1F
100
AcDbEntity
  8
1_実線
100
AcDbCircle
 10
543.6054545346173
 20
850.7122899755851
 30
0.0
 40
2.0
100
AcDbArc
 50
270.0
 51
335.4704525441939
  0
ARC
  5
1AFD
330
1F
100
AcDbEntity
  8
1_実線
100
AcDbCircle
 10
557.6054545346022
 20
850.7122899755851
 30
0.0
 40
2.0
100
AcDbArc
 50
204.529547455806
 51
270.0
  0
LINE
  5
1AFE
330
1F
100
AcDbEntity
  8
1_実線
100
AcDbLine
 10
633.9054545346097
 20
670.712289975585
 30
0.0
 11
642.9054545346096
 21
670.712289975585
 31
0.0
  0
XLINE
  5
1B02
330
1F
100
AcDbEntity
  8
構築線2
100
AcDbXline
 10
1290.038159550075
 20
1656.51579904906
 30
0.0
 11
1.0
 21
0.0
 31
0.0
  0
LINE
  5
1B06
330
1F
100
AcDbEntity
  8
8_中心線3長
100
AcDbLine
 10
642.9054545346096
 20
1418.712289975585
 30
0.0
 11
642.9054545346096
 21
995.2122899755847
 31
0.0
  0
LINE
  5
1B07
330
1F
100
AcDbEntity
  8
8_中心線3長
100
AcDbLine
 10
1198.905454534609
 20
972.7122899755846
 30
0.0
 11
1198.905454534609
 21
270.8911918387339
 31
0.0
  0
ARC
  5
1B08
330
1F
100
AcDbEntity
  8
4_破線2中
100
AcDbCircle
 10
1120.314939685036
 20
662.3828761484002
 30
0.0
 40
4.0
100
AcDbArc
 50
181.4320961841644
 51
264.957548930829
  0
ARC
  5
1B0A
330
1F
100
AcDbEntity
  8
4_破線2中
100
AcDbCircle
 10
1277.495969384181
 20
662.3828761484007
 30
0.0
 40
4.0
100
AcDbArc
 50
275.0424510691709
 51
358.5679038158353
  0
ARC
  5
1B0F
330
1F
100
AcDbEntity
  8
上枠
100
AcDbCircle
 10
484.9054545346098
 20
1353.712289975585
 30
0.0
 40
20.0
100
AcDbArc
 50
90.0
 51
180.0
  0
ARC
  5
1B10
330
1F
100
AcDbEntity
  8
上枠
100
AcDbCircle
 10
800.9054545346097
 20
1353.712289975585
 30
0.0
 40
20.0
100
AcDbArc
 50
0.0
 51
90.0
  0
ARC
  5
1B11
330
1F
100
AcDbEntity
  8
上枠
100
AcDbCircle
 10
800.9054545346097
 20
1037.712289975585
 30
0.0
 40
20.0
100
AcDbArc
 50
270.0
 51
0.0
  0
ARC
  5
1B12
330
1F
100
AcDbEntity
  8
上枠
100
AcDbCircle
 10
484.9054545346098
 20
1037.712289975585
 30
0.0
 40
20.0
100
AcDbArc
 50
180.0
 51
270.0
  0
LINE
  5
1B13
330
1F
100
AcDbEntity
  8
1_実線
100
AcDbLine
 10
633.0953632006157
 20
742.9143614913713
 30
0.0
 11
631.0968778649018
 21
742.8365388536875
 31
0.0
  0
LINE
  5
1B14
330
1F
100
AcDbEntity
  8
1_実線
100
AcDbLine
 10
633.0953632006157
 20
742.9143614913713
 30
0.0
 11
642.9054545346096
 21
742.9143614913713
 31
0.0
  0
XLINE
  5
1B3E
330
1F
100
AcDbEntity
  8
構築線2
100
AcDbXline
 10
582.1
 20
1356.0
 30
0.0
 11
0.0
 21
1.0
 31
0.0
  0
XLINE
  5
1B49
330
1F
100
AcDbEntity
  8
構築線2
100
AcDbXline
 10
1469.1
 20
1078.0
 30
0.0
 11
1.0
 21
0.0
 31
0.0
  0
LINE
  5
1B4C
330
1F
100
AcDbEntity
  8
蓋
100
AcDbLine
 10
484.5054545346096
 20
872.7122899755849
 30
0.0
 11
484.5054545346096
 21
878.712289975585
 31
0.0
  0
LINE
  5
1B4D
330
1F
100
AcDbEntity
  8
蓋
100
AcDbLine
 10
488.5054545346096
 20
882.7122899755849
 30
0.0
 11
583.7759666289362
 21
882.7122899755849
 31
0.0
  0
LINE
  5
1B4E
330
1F
100
AcDbEntity
  8
蓋
100
AcDbLine
 10
801.3054545346097
 20
878.7122899755852
 30
0.0
 11
801.3054545346097
 21
872.7122899755849
 31
0.0
  0
LINE
  5
1B52
330
1F
100
AcDbEntity
  8
蓋
100
AcDbLine
 10
486.5054545346096
 20
872.7122899755849
 30
0.0
 11
486.5054545346098
 21
878.712289975585
 31
0.0
  0
LINE
  5
1B53
330
1F
100
AcDbEntity
  8
蓋
100
AcDbLine
 10
488.5054545346096
 20
880.7122899755849
 30
0.0
 11
491.4393035413661
 21
880.7122899755849
 31
0.0
  0
LINE
  5
1B55
330
1F
100
AcDbEntity
  8
蓋
100
AcDbLine
 10
513.5377803144251
 20
860.3422392296746
 30
0.0
 11
492.8217488333007
 21
880.1575736898803
 31
0.0
  0
LINE
  5
1B56
330
1F
100
AcDbEntity
  8
蓋
100
AcDbLine
 10
516.3026708982946
 20
859.2328066582654
 30
0.0
 11
561.1644303459565
 21
859.232806658265
 31
0.0
  0
LINE
  5
1B57
330
1F
100
AcDbEntity
  8
蓋
100
AcDbLine
 10
564.0918797888485
 20
860.5069967310482
 30
0.0
 11
582.3122419074906
 21
880.0751949391932
 31
0.0
  0
LINE
  5
1B58
330
1F
100
AcDbEntity
  8
蓋
100
AcDbLine
 10
514.9202256063597
 20
861.7875229439697
 30
0.0
 11
494.2041941252353
 21
881.6028574041757
 31
0.0
  0
LINE
  5
1B59
330
1F
100
AcDbEntity
  8
蓋
100
AcDbLine
 10
516.3026708982946
 20
861.2328066582657
 30
0.0
 11
561.1644303459565
 21
861.2328066582652
 31
0.0
  0
LINE
  5
1B5A
330
1F
100
AcDbEntity
  8
蓋
100
AcDbLine
 10
562.6281550674025
 20
861.8699016946568
 30
0.0
 11
580.8485171860444
 21
881.4380999028017
 31
0.0
  0
LINE
  5
1B5D
330
1F
100
AcDbEntity
  8
蓋
100
AcDbLine
 10
583.7759666289362
 20
880.7122899755849
 30
0.0
 11
642.9054545346096
 21
880.7122899755849
 31
0.0
  0
RAY
  5
1B5E
330
1F
100
AcDbEntity
  8
構築線2
100
AcDbRay
 10
665.9365610088857
 20
1088.0
 30
0.0
 11
1.0
 21
0.0
 31
0.0
  0
LINE
  5
1B5F
330
1F
100
AcDbEntity
  8
蓋
100
AcDbLine
 10
583.7759666289362
 20
882.7122899755851
 30
0.0
 11
797.3054545346096
 21
882.7122899755851
 31
0.0
  0
ARC
  5
1B6B
330
1F
100
AcDbEntity
  8
蓋
100
AcDbCircle
 10
488.5054545346096
 20
878.712289975585
 30
0.0
 40
4.0
100
AcDbArc
 50
90.0
 51
180.0
  0
ARC
  5
1B6C
330
1F
100
AcDbEntity
  8
蓋
100
AcDbCircle
 10
488.5054545346096
 20
878.712289975585
 30
0.0
 40
2.0
100
AcDbArc
 50
90.0
 51
180.0
  0
ARC
  5
1B6D
330
1F
100
AcDbEntity
  8
蓋
100
AcDbCircle
 10
491.4393035413663
 20
878.712289975585
 30
0.0
 40
4.0
100
AcDbArc
 50
46.27303002005615
 51
90.0
  0
ARC
  5
1B6E
330
1F
100
AcDbEntity
  8
蓋
100
AcDbCircle
 10
491.4393035413661
 20
878.712289975585
 30
0.0
 40
4.0
100
AcDbArc
 50
46.27303002005615
 51
90.0
  0
ARC
  5
1B6F
330
1F
100
AcDbEntity
  8
蓋
100
AcDbCircle
 10
491.4393035413661
 20
878.712289975585
 30
0.0
 40
2.0
100
AcDbArc
 50
46.27303002005615
 51
90.0
  0
ARC
  5
1B70
330
1F
100
AcDbEntity
  8
蓋
100
AcDbCircle
 10
516.3026708982946
 20
863.2328066582655
 30
0.0
 40
4.0
100
AcDbArc
 50
226.2730300200566
 51
269.9999999999997
  0
ARC
  5
1B7B
330
1F
100
AcDbEntity
  8
蓋
100
AcDbCircle
 10
516.3026708982946
 20
863.2328066582655
 30
0.0
 40
2.0
100
AcDbArc
 50
226.2730300200566
 51
269.9999999999997
  0
ARC
  5
1B7C
330
1F
100
AcDbEntity
  8
蓋
100
AcDbCircle
 10
561.1644303459565
 20
863.2328066582649
 30
0.0
 40
4.0
100
AcDbArc
 50
269.9999999999997
 51
317.0427503766318
  0
ARC
  5
1B7D
330
1F
100
AcDbEntity
  8
蓋
100
AcDbCircle
 10
561.1644303459565
 20
863.2328066582649
 30
0.0
 40
2.0
100
AcDbArc
 50
269.9999999999997
 51
317.0427503766318
  0
ARC
  5
1B7E
330
1F
100
AcDbEntity
  8
蓋
100
AcDbCircle
 10
583.7759666289362
 20
878.7122899755852
 30
0.0
 40
4.0
100
AcDbArc
 50
90.0
 51
137.0427503766319
  0
ARC
  5
1B7F
330
1F
100
AcDbEntity
  8
蓋
100
AcDbCircle
 10
583.7759666289362
 20
878.7122899755852
 30
0.0
 40
2.0
100
AcDbArc
 50
90.0
 51
137.0427503766319
  0
ARC
  5
1B80
330
1F
100
AcDbEntity
  8
蓋
100
AcDbCircle
 10
797.3054545346096
 20
878.7122899755852
 30
0.0
 40
4.0
100
AcDbArc
 50
0.0
 51
89.99999999999994
  0
CIRCLE
  5
1B82
330
1F
100
AcDbEntity
  8
1_外形線
100
AcDbCircle
 10
642.9054545346096
 20
1195.712289975584
 30
0.0
 40
117.0
  0
CIRCLE
  5
1B83
330
1F
100
AcDbEntity
  8
1_外形線
100
AcDbCircle
 10
642.9054545346096
 20
1195.712289975584
 30
0.0
 40
144.0
  0
LINE
  5
1B9A
330
1F
100
AcDbEntity
  8
2_細線
100
AcDbLine
 10
498.1979685883335
 20
872.7122899755846
 30
0.0
 11
642.9054545346096
 21
872.7122899755846
 31
0.0
  0
XLINE
  5
1BA2
330
1F
100
AcDbEntity
  8
構築線2
100
AcDbXline
 10
918.5
 20
1071.0
 30
0.0
 11
0.0
 21
1.0
 31
0.0
  0
LINE
  5
1BB8
330
1F
100
AcDbEntity
  8
4_破線2中
100
AcDbLine
 10
1024.665657260025
 20
812.712289975585
 30
0.0
 11
1050.923921392977
 21
792.712289975585
 31
0.0
  0
LINE
  5
1BB9
330
1F
100
AcDbEntity
  8
4_破線2中
100
AcDbLine
 10
1050.923921392977
 20
792.712289975585
 30
0.0
 11
1050.923921392977
 21
742.712289975585
 31
0.0
  0
LINE
  5
1BBA
330
1F
100
AcDbEntity
  8
4_破線2中
100
AcDbLine
 10
1050.923921392977
 20
742.712289975585
 30
0.0
 11
1026.738937420252
 21
722.7122899755847
 31
0.0
  0
LINE
  5
1BBB
330
1F
100
AcDbEntity
  8
4_破線2中
100
AcDbLine
 10
1048.923921392979
 20
791.7215526729425
 30
0.0
 11
1048.923921392979
 21
743.6536452210988
 31
0.0
  0
LINE
  5
1BBC
330
1F
100
AcDbEntity
  8
4_破線2中
100
AcDbLine
 10
1023.453812234347
 20
811.1212426369618
 30
0.0
 11
1048.923921392979
 21
791.7215526729425
 31
0.0
  0
LINE
  5
1BBD
330
1F
100
AcDbEntity
  8
4_破線2中
100
AcDbLine
 10
1048.923921392979
 20
743.6536452210989
 30
0.0
 11
1025.464375446494
 21
724.2535530209639
 31
0.0
  0
LINE
  5
1BC0
330
1F
100
AcDbEntity
  8
スイッチBOX
100
AcDbLine
 10
1024.5504750289
 20
817.712289975585
 30
0.0
 11
1022.549944421432
 21
817.712289975585
 31
0.0
  0
LINE
  5
1BC1
330
1F
100
AcDbEntity
  8
スイッチBOX
100
AcDbLine
 10
1022.549944421432
 20
817.712289975585
 30
0.0
 11
1024.853589043906
 21
717.712289975585
 31
0.0
  0
LINE
  5
1BC2
330
1F
100
AcDbEntity
  8
スイッチBOX
100
AcDbLine
 10
1024.853589043906
 20
717.712289975585
 30
0.0
 11
1026.854119651376
 21
717.712289975585
 31
0.0
  0
LINE
  5
1BC3
330
1F
100
AcDbEntity
  8
スイッチBOX
100
AcDbLine
 10
1026.854119651376
 20
717.712289975585
 30
0.0
 11
1024.5504750289
 21
817.712289975585
 31
0.0
  0
LINE
  5
1BC4
330
1F
100
AcDbEntity
  8
スイッチBOX
100
AcDbLine
 10
715.9054545346097
 20
817.712289975585
 30
0.0
 11
775.9054545346097
 21
817.712289975585
 31
0.0
  0
LINE
  5
1BC5
330
1F
100
AcDbEntity
  8
スイッチBOX
100
AcDbLine
 10
780.9054545346096
 20
812.712289975585
 30
0.0
 11
780.9054545346096
 21
722.7122899755847
 31
0.0
  0
LINE
  5
1BC6
330
1F
100
AcDbEntity
  8
スイッチBOX
100
AcDbLine
 10
775.9054545346097
 20
717.712289975585
 30
0.0
 11
715.9054545346097
 21
717.712289975585
 31
0.0
  0
LINE
  5
1BC7
330
1F
100
AcDbEntity
  8
スイッチBOX
100
AcDbLine
 10
710.9054545346097
 20
722.7122899755847
 30
0.0
 11
710.9054545346097
 21
812.712289975585
 31
0.0
  0
LINE
  5
1BC8
330
1F
100
AcDbEntity
  8
スイッチBOX
100
AcDbLine
 10
725.9054545346097
 20
812.712289975585
 30
0.0
 11
765.9054545346097
 21
812.712289975585
 31
0.0
  0
LINE
  5
1BC9
330
1F
100
AcDbEntity
  8
スイッチBOX
100
AcDbLine
 10
775.9054545346097
 20
802.712289975585
 30
0.0
 11
775.9054545346097
 21
732.712289975585
 31
0.0
  0
LINE
  5
1BCA
330
1F
100
AcDbEntity
  8
スイッチBOX
100
AcDbLine
 10
765.9054545346097
 20
722.7122899755847
 30
0.0
 11
725.9054545346097
 21
722.7122899755847
 31
0.0
  0
LINE
  5
1BCB
330
1F
100
AcDbEntity
  8
スイッチBOX
100
AcDbLine
 10
715.9054545346097
 20
732.712289975585
 30
0.0
 11
715.9054545346097
 21
802.712289975585
 31
0.0
  0
ARC
  5
1BCC
330
1F
100
AcDbEntity
  8
スイッチBOX
100
AcDbCircle
 10
715.9054545346097
 20
812.712289975585
 30
0.0
 40
5.0
100
AcDbArc
 50
90.0
 51
180.0
  0
ARC
  5
1BCD
330
1F
100
AcDbEntity
  8
スイッチBOX
100
AcDbCircle
 10
775.9054545346097
 20
812.712289975585
 30
0.0
 40
5.0
100
AcDbArc
 50
0.0
 51
90.0
  0
ARC
  5
1BCE
330
1F
100
AcDbEntity
  8
スイッチBOX
100
AcDbCircle
 10
775.9054545346097
 20
722.7122899755847
 30
0.0
 40
5.0
100
AcDbArc
 50
270.0
 51
0.0
  0
ARC
  5
1BCF
330
1F
100
AcDbEntity
  8
スイッチBOX
100
AcDbCircle
 10
715.9054545346097
 20
722.7122899755847
 30
0.0
 40
5.0
100
AcDbArc
 50
180.0
 51
270.0
  0
ARC
  5
1BD0
330
1F
100
AcDbEntity
  8
スイッチBOX
100
AcDbCircle
 10
725.9054545346097
 20
802.712289975585
 30
0.0
 40
10.0
100
AcDbArc
 50
90.0
 51
180.0
  0
ARC
  5
1BD1
330
1F
100
AcDbEntity
  8
スイッチBOX
100
AcDbCircle
 10
765.9054545346097
 20
802.712289975585
 30
0.0
 40
10.0
100
AcDbArc
 50
0.0
 51
90.0
  0
ARC
  5
1BD2
330
1F
100
AcDbEntity
  8
スイッチBOX
100
AcDbCircle
 10
765.9054545346097
 20
732.712289975585
 30
0.0
 40
10.0
100
AcDbArc
 50
270.0
 51
0.0
  0
ARC
  5
1BD3
330
1F
100
AcDbEntity
  8
スイッチBOX
100
AcDbCircle
 10
725.9054545346097
 20
732.712289975585
 30
0.0
 40
10.0
100
AcDbArc
 50
180.0
 51
270.0
  0
LINE
  5
1BDD
330
1F
100
AcDbEntity
  8
4_破線2中
100
AcDbLine
 10
1048.923921392977
 20
786.712289975585
 30
0.0
 11
1045.923921392976
 21
786.712289975585
 31
0.0
  0
LINE
  5
1BDE
330
1F
100
AcDbEntity
  8
4_破線2中
100
AcDbLine
 10
1045.923921392976
 20
786.712289975585
 30
0.0
 11
1045.923921392976
 21
774.712289975585
 31
0.0
  0
LINE
  5
1BDF
330
1F
100
AcDbEntity
  8
4_破線2中
100
AcDbLine
 10
1045.923921392976
 20
774.712289975585
 30
0.0
 11
1048.923921392977
 21
774.712289975585
 31
0.0
  0
LINE
  5
1BE2
330
1F
100
AcDbEntity
  8
4_破線2中
100
AcDbLine
 10
1048.923921392977
 20
785.2122899755847
 30
0.0
 11
1083.923921392979
 21
785.2122899755847
 31
0.0
  0
LINE
  5
1BE3
330
1F
100
AcDbEntity
  8
4_破線2中
100
AcDbLine
 10
1083.923921392979
 20
785.2122899755847
 30
0.0
 11
1083.923921392979
 21
776.212289975585
 31
0.0
  0
LINE
  5
1BE4
330
1F
100
AcDbEntity
  8
4_破線2中
100
AcDbLine
 10
1083.923921392979
 20
776.212289975585
 30
0.0
 11
1048.923921392977
 21
776.212289975585
 31
0.0
  0
LINE
  5
1BEF
330
1F
100
AcDbEntity
  8
4_破線2中
100
AcDbLine
 10
1050.923921392977
 20
763.212289975585
 30
0.0
 11
1055.923921392978
 21
763.212289975585
 31
0.0
  0
LINE
  5
1BF0
330
1F
100
AcDbEntity
  8
4_破線2中
100
AcDbLine
 10
1050.923921392977
 20
748.212289975585
 30
0.0
 11
1055.923921392978
 21
748.212289975585
 31
0.0
  0
LINE
  5
1BF1
330
1F
100
AcDbEntity
  8
4_破線2中
100
AcDbLine
 10
1055.923921392978
 20
770.712289975585
 30
0.0
 11
1055.923921392978
 21
740.712289975585
 31
0.0
  0
LINE
  5
1BF2
330
1F
100
AcDbEntity
  8
4_破線2中
100
AcDbLine
 10
1055.923921392978
 20
740.712289975585
 30
0.0
 11
1072.923921392977
 21
740.712289975585
 31
0.0
  0
LINE
  5
1BF3
330
1F
100
AcDbEntity
  8
4_破線2中
100
AcDbLine
 10
1072.923921392977
 20
740.712289975585
 30
0.0
 11
1072.923921392977
 21
770.712289975585
 31
0.0
  0
LINE
  5
1BF4
330
1F
100
AcDbEntity
  8
4_破線2中
100
AcDbLine
 10
1072.923921392977
 20
770.712289975585
 30
0.0
 11
1055.923921392978
 21
770.712289975585
 31
0.0
  0
LINE
  5
1BF9
330
1F
100
AcDbEntity
  8
4_破線2中
100
AcDbLine
 10
1048.789520901546
 20
748.212289975585
 30
0.0
 11
1046.289520901547
 21
748.212289975585
 31
0.0
  0
LINE
  5
1BFA
330
1F
100
AcDbEntity
  8
4_破線2中
100
AcDbLine
 10
1046.289520901547
 20
748.212289975585
 30
0.0
 11
1046.289520901547
 21
763.212289975585
 31
0.0
  0
LINE
  5
1BFB
330
1F
100
AcDbEntity
  8
4_破線2中
100
AcDbLine
 10
1046.289520901547
 20
763.212289975585
 30
0.0
 11
1048.789520901546
 21
763.212289975585
 31
0.0
  0
LINE
  5
1C02
330
1F
100
AcDbEntity
  8
4_破線2中
100
AcDbLine
 10
1038.289520901547
 20
749.212289975585
 30
0.0
 11
1038.289520901547
 21
762.212289975585
 31
0.0
  0
LINE
  5
1C03
330
1F
100
AcDbEntity
  8
4_破線2中
100
AcDbLine
 10
1038.289520901547
 20
762.212289975585
 30
0.0
 11
1042.289520901545
 21
762.212289975585
 31
0.0
  0
LINE
  5
1C04
330
1F
100
AcDbEntity
  8
4_破線2中
100
AcDbLine
 10
1038.289520901547
 20
749.212289975585
 30
0.0
 11
1042.289520901545
 21
749.212289975585
 31
0.0
  0
LINE
  5
1C05
330
1F
100
AcDbEntity
  8
4_破線2中
100
AcDbLine
 10
1046.289520901547
 20
746.712289975585
 30
0.0
 11
1042.289520901545
 21
746.712289975585
 31
0.0
  0
LINE
  5
1C06
330
1F
100
AcDbEntity
  8
4_破線2中
100
AcDbLine
 10
1042.289520901545
 20
746.712289975585
 30
0.0
 11
1042.289520901545
 21
764.7122899755847
 31
0.0
  0
LINE
  5
1C07
330
1F
100
AcDbEntity
  8
4_破線2中
100
AcDbLine
 10
1042.289520901545
 20
764.7122899755847
 30
0.0
 11
1046.289520901547
 21
764.7122899755847
 31
0.0
  0
ARC
  5
1C0E
330
1F
100
AcDbEntity
  8
4_破線2中
100
AcDbCircle
 10
1028.220411562871
 20
752.712289975585
 30
0.0
 40
4.0
100
AcDbArc
 50
90.0
 51
290.4879162905081
  0
LINE
  5
1C11
330
1F
100
AcDbEntity
  8
4_破線2中
100
AcDbLine
 10
1028.220411562871
 20
756.712289975585
 30
0.0
 11
1038.289520901546
 21
758.6160911159993
 31
0.0
  0
LINE
  5
1C12
330
1F
100
AcDbEntity
  8
4_破線2中
100
AcDbLine
 10
1028.220411562871
 20
748.712289975585
 30
0.0
 11
1038.289520901547
 21
750.5319850653384
 31
0.0
  0
CIRCLE
  5
1C17
330
1F
100
AcDbEntity
  8
スイッチBOX
100
AcDbCircle
 10
745.9054545346097
 20
752.712289975585
 30
0.0
 40
4.0
  0
CIRCLE
  5
1C18
330
1F
100
AcDbEntity
  8
スイッチBOX
100
AcDbCircle
 10
745.9054545346097
 20
755.7122899755849
 30
0.0
 40
9.0
  0
ARC
  5
1C19
330
1F
100
AcDbEntity
  8
スイッチBOX
100
AcDbCircle
 10
745.9054545346097
 20
755.7122899755849
 30
0.0
 40
6.0
100
AcDbArc
 50
306.3360575146135
 51
233.6639424853864
  0
ARC
  5
1C1B
330
1F
100
AcDbEntity
  8
スイッチBOX
100
AcDbCircle
 10
745.9054545346097
 20
755.7122899755849
 30
0.0
 40
4.0
100
AcDbArc
 50
0.0
 51
180.0
  0
LINE
  5
1C1C
330
1F
100
AcDbEntity
  8
スイッチBOX
100
AcDbLine
 10
741.9054545346097
 20
755.7122899755849
 30
0.0
 11
741.9054545346097
 21
752.712289975585
 31
0.0
  0
LINE
  5
1C1D
330
1F
100
AcDbEntity
  8
スイッチBOX
100
AcDbLine
 10
749.9054545346097
 20
755.7122899755849
 30
0.0
 11
749.9054545346097
 21
752.712289975585
 31
0.0
  0
CIRCLE
  5
1C1E
330
1F
100
AcDbEntity
  8
スイッチBOX
100
AcDbCircle
 10
745.9054545346097
 20
780.7122899755849
 30
0.0
 40
6.5
  0
XLINE
  5
1C23
330
1F
100
AcDbEntity
  8
9_構築線
100
AcDbXline
 10
517.4999999999998
 20
660.0
 30
0.0
 11
0.0
 21
-1.0
 31
0.0
  0
XLINE
  5
1C24
330
1F
100
AcDbEntity
  8
9_構築線
100
AcDbXline
 10
472.5
 20
660.0
 30
0.0
 11
0.0
 21
-1.0
 31
0.0
  0
XLINE
  5
1C25
330
1F
100
AcDbEntity
  8
9_構築線
100
AcDbXline
 10
427.5
 20
660.0
 30
0.0
 11
0.0
 21
-1.0
 31
0.0
  0
LINE
  5
1C28
330
1F
100
AcDbEntity
  8
8_中心線3長
100
AcDbLine
 10
374.9054545346098
 20
1195.712289975584
 30
0.0
 11
843.4054545346096
 21
1195.712289975584
 31
0.0
  0
DIMENSION
  5
1C56
330
1F
100
AcDbEntity
  8
寸法線
100
AcDbDimension
  2
*D14
 10
705.4054545346096
 20
927.712289975585
 30
0.0
 11
642.9054545346096
 21
938.9622899755851
 31
0.0
 70
    32
 71
     5
 42
-1.0
  3
ISO-25
100
AcDbAlignedDimension
 13
580.4054545346096
 23
850.7122899755851
 33
0.0
 14
705.4054545346096
 24
850.7122899755851
 34
0.0
100
AcDbRotatedDimension
  0
DIMENSION
  5
1C63
330
1F
100
AcDbEntity
  8
寸法線
100
AcDbDimension
  2
*D15
 10
820.9054545346099
 20
972.7122899755846
 30
0.0
 11
642.9054545346096
 21
983.962289975585
 31
0.0
 70
    32
 71
     5
 42
-1.0
  3
ISO-25
100
AcDbAlignedDimension
 13
464.9054545346098
 23
1017.712289975585
 33
0.0
 14
820.9054545346099
 24
1017.712289975585
 34
0.0
100
AcDbRotatedDimension
  0
XLINE
  5
1C70
330
1F
100
AcDbEntity
  8
9_構築線
100
AcDbXline
 10
349.5
 20
1579.0
 30
0.0
 11
1.0
 21
0.0
 31
0.0
  0
DIMENSION
  5
1C71
330
1F
100
AcDbEntity
  8
寸法線
100
AcDbDimension
  2
*D16
 10
865.9054545346096
 20
1373.712289975585
 30
0.0
 11
854.6554545346095
 21
1195.712289975584
 31
0.0
 70
    32
 71
     5
 42
-1.0
  3
ISO-25
100
AcDbAlignedDimension
 13
820.9054545346099
 23
1017.712289975585
 33
0.0
 14
812.9054545346097
 24
1373.712289975585
 34
0.0
 50
90.0
100
AcDbRotatedDimension
  0
DIMENSION
  5
1C7E
330
1F
100
AcDbEntity
  8
寸法線
100
AcDbDimension
  2
*D17
 10
865.9054545346096
 20
389.712289975585
 30
0.0
 11
854.6554545346097
 21
339.7122899755851
 31
0.0
 70
    32
 71
     5
 42
-1.0
  3
ISO-25
100
AcDbAlignedDimension
 13
770.4054545346097
 23
289.712289975585
 33
0.0
 14
773.9054545346097
 24
389.712289975585
 34
0.0
 50
90.0
100
AcDbRotatedDimension
  0
DIMENSION
  5
1C8B
330
1F
100
AcDbEntity
  8
寸法線
100
AcDbDimension
  2
*D18
 10
865.9054545346096
 20
872.7122899755849
 30
0.0
 11
854.6554545346095
 21
631.2122899755852
 31
0.0
 70
    32
 71
     5
 42
-1.0
  3
ISO-25
100
AcDbAlignedDimension
 13
773.9054545346097
 23
389.712289975585
 33
0.0
 14
820.9054545346099
 24
872.7122899755849
 34
0.0
 50
90.0
100
AcDbRotatedDimension
  0
DIMENSION
  5
1C98
330
1F
100
AcDbEntity
  8
寸法線
100
AcDbDimension
  2
*D19
 10
910.9054545346097
 20
882.7122899755851
 30
0.0
 11
899.6554545346096
 21
586.2122899755852
 31
0.0
 70
    32
 71
     5
 42
-1.0
  3
ISO-25
100
AcDbAlignedDimension
 13
774.9054545346097
 23
289.712289975585
 33
0.0
 14
820.9054545346099
 24
882.7122899755851
 34
0.0
 50
90.0
100
AcDbRotatedDimension
  0
DIMENSION
  5
1CA6
330
1F
100
AcDbEntity
  8
寸法線
100
AcDbDimension
  2
*D20
 10
865.9054545346096
 20
882.7122899755851
 30
0.0
 11
854.6554545346095
 21
922.0872899755855
 31
0.0
 70
    32
 71
     5
 42
-1.0
  3
ISO-25
100
AcDbAlignedDimension
 13
820.9054545346099
 23
872.7122899755849
 33
0.0
 14
801.2963272725901
 24
882.7122899755851
 34
0.0
 50
90.0
100
AcDbRotatedDimension
  0
LINE
  5
1CFB
330
1F
100
AcDbEntity
  8
寸法線
100
AcDbLine
 10
1163.905454534609
 20
350.212289975585
 30
0.0
 11
1163.905454534609
 21
284.087289975585
 31
0.0
  0
LINE
  5
1CFC
330
1F
100
AcDbEntity
  8
寸法線
100
AcDbLine
 10
1198.905454534609
 20
345.2122899755849
 30
0.0
 11
1198.905454534609
 21
284.087289975585
 31
0.0
  0
LINE
  5
1CFD
330
1F
100
AcDbEntity
  8
寸法線
100
AcDbLine
 10
1150.405454534609
 20
289.712289975585
 30
0.0
 11
1136.90545453461
 21
289.712289975585
 31
0.0
  0
LINE
  5
1CFE
330
1F
100
AcDbEntity
  8
寸法線
100
AcDbLine
 10
1212.405454534609
 20
289.712289975585
 30
0.0
 11
1225.905454534609
 21
289.712289975585
 31
0.0
  0
LINE
  5
1CFF
330
1F
100
AcDbEntity
  8
寸法線
100
AcDbLine
 10
1163.905454534609
 20
289.712289975585
 30
0.0
 11
1198.905454534609
 21
289.712289975585
 31
0.0
  0
INSERT
  5
1D00
330
1F
100
AcDbEntity
  8
寸法線
100
AcDbBlockReference
  2
_OPEN
 10
1163.905454534609
 20
289.712289975585
 30
0.0
 41
13.5
 42
13.5
 43
13.5
  0
INSERT
  5
1D01
330
1F
100
AcDbEntity
  8
寸法線
100
AcDbBlockReference
  2
_OPEN
 10
1198.905454534609
 20
289.712289975585
 30
0.0
 41
13.5
 42
13.5
 43
13.5
 50
180.0
  0
MTEXT
  5
1D02
330
1F
100
AcDbEntity
  8
寸法線
100
AcDbMText
 10
1181.405454534609
 20
300.962289975585
 30
0.0
 40
13.5
 41
0.0
 71
     5
 72
     1
  1
30
 73
     1
 44
1.0
1001
ACAD
1000
MTEXTBEGIN
1070
    73
1070
     1
1070
    44
1040
1.0
1070
    74
1070
     0
1000
MTEXTEND
  0
LINE
  5
1D07
330
1F
100
AcDbEntity
  8
2_細線
100
AcDbLine
 10
523.1054545346098
 20
414.7122899755848
 30
0.0
 11
523.1054545346098
 21
405.0122899755847
 31
0.0
  0
LINE
  5
1D08
330
1F
100
AcDbEntity
  8
2_細線
100
AcDbLine
 10
532.7054545346096
 20
414.7122899755848
 30
0.0
 11
532.7054545346096
 21
405.0122899755847
 31
0.0
  0
LINE
  5
1D66
330
1F
100
AcDbEntity
  8
寸法線
100
AcDbLine
 10
623.1054545346096
 20
390.2122899755863
 30
0.0
 11
623.1054545346096
 21
234.0872899755849
 31
0.0
  0
LINE
  5
1D67
330
1F
100
AcDbEntity
  8
寸法線
100
AcDbLine
 10
658.1054545346098
 20
390.212289975585
 30
0.0
 11
658.1054545346098
 21
234.0872899755849
 31
0.0
  0
LINE
  5
1D68
330
1F
100
AcDbEntity
  8
寸法線
100
AcDbLine
 10
609.6054545346096
 20
239.7122899755848
 30
0.0
 11
596.1054545346096
 21
239.7122899755848
 31
0.0
  0
LINE
  5
1D69
330
1F
100
AcDbEntity
  8
寸法線
100
AcDbLine
 10
671.6054545346097
 20
239.7122899755848
 30
0.0
 11
716.6427826940747
 21
239.7122899755848
 31
0.0
  0
LINE
  5
1D6A
330
1F
100
AcDbEntity
  8
寸法線
100
AcDbLine
 10
623.1054545346096
 20
239.7122899755848
 30
0.0
 11
658.1054545346098
 21
239.7122899755848
 31
0.0
  0
INSERT
  5
1D6B
330
1F
100
AcDbEntity
  8
寸法線
100
AcDbBlockReference
  2
_OPEN
 10
623.1054545346096
 20
239.7122899755848
 30
0.0
 41
13.5
 42
13.5
 43
13.5
  0
INSERT
  5
1D6C
330
1F
100
AcDbEntity
  8
寸法線
100
AcDbBlockReference
  2
_OPEN
 10
658.1054545346098
 20
239.7122899755848
 30
0.0
 41
13.5
 42
13.5
 43
13.5
 50
180.0
  0
TEXT
  5
1D6F
330
1F
100
AcDbEntity
  8
寸法線
100
AcDbText
 10
674.7239919779331
 20
243.8693047468408
 30
0.0
 40
13.5
  1
\U+2205
100
AcDbText
  0
TEXT
  5
1D70
330
1F
100
AcDbEntity
  8
寸法線
100
AcDbText
 10
688.3214013826756
 20
244.2122899755848
 30
0.0
 40
13.5
  1
35
100
AcDbText
  0
LINE
  5
1D7D
330
1F
100
AcDbEntity
  8
寸法線
100
AcDbLine
 10
629.6054545346097
 20
350.212289975585
 30
0.0
 11
629.6054545346097
 21
279.087289975585
 31
0.0
  0
LINE
  5
1D7E
330
1F
100
AcDbEntity
  8
寸法線
100
AcDbLine
 10
651.6054545346097
 20
350.212289975585
 30
0.0
 11
651.6054545346097
 21
279.087289975585
 31
0.0
  0
LINE
  5
1D7F
330
1F
100
AcDbEntity
  8
寸法線
100
AcDbLine
 10
616.1054545346097
 20
284.7122899755849
 30
0.0
 11
565.6597797526481
 21
284.7122899755849
 31
0.0
  0
LINE
  5
1D80
330
1F
100
AcDbEntity
  8
寸法線
100
AcDbLine
 10
665.1054545346099
 20
284.7122899755849
 30
0.0
 11
678.6054545346097
 21
284.7122899755849
 31
0.0
  0
LINE
  5
1D81
330
1F
100
AcDbEntity
  8
寸法線
100
AcDbLine
 10
629.6054545346097
 20
284.7122899755849
 30
0.0
 11
651.6054545346097
 21
284.7122899755849
 31
0.0
  0
INSERT
  5
1D82
330
1F
100
AcDbEntity
  8
寸法線
100
AcDbBlockReference
  2
_OPEN
 10
629.6054545346097
 20
284.7122899755849
 30
0.0
 41
13.5
 42
13.5
 43
13.5
  0
INSERT
  5
1D83
330
1F
100
AcDbEntity
  8
寸法線
100
AcDbBlockReference
  2
_OPEN
 10
651.6054545346097
 20
284.7122899755849
 30
0.0
 41
13.5
 42
13.5
 43
13.5
 50
180.0
  0
MTEXT
  5
1D84
330
1F
100
AcDbEntity
  8
寸法線
100
AcDbMText
 10
597.8343809428507
 20
295.962289975585
 30
0.0
 40
13.5
 41
0.0
 71
     5
 72
     1
  1
22
 73
     1
 44
1.0
1001
ACAD
1000
MTEXTBEGIN
1070
    73
1070
     1
1070
    44
1040
1.0
1070
    74
1070
     0
1000
MTEXTEND
  0
TEXT
  5
1D85
330
1F
100
AcDbEntity
  8
寸法線
100
AcDbText
 10
571.2916595152778
 20
289.1127205403297
 30
0.0
 40
13.5
  1
\U+2205
100
AcDbText
  0
LINE
  5
1D86
330
1F
100
AcDbEntity
  8
寸法線
100
AcDbLine
 10
688.4054545346097
 20
370.2122899755849
 30
0.0
 11
688.4054545346097
 21
324.087289975585
 31
0.0
  0
LINE
  5
1D87
330
1F
100
AcDbEntity
  8
寸法線
100
AcDbLine
 10
717.4054545346097
 20
370.2122899755849
 30
0.0
 11
717.4054545346097
 21
324.087289975585
 31
0.0
  0
LINE
  5
1D88
330
1F
100
AcDbEntity
  8
寸法線
100
AcDbLine
 10
674.9054545346097
 20
329.712289975585
 30
0.0
 11
661.4054545346097
 21
329.712289975585
 31
0.0
  0
LINE
  5
1D89
330
1F
100
AcDbEntity
  8
寸法線
100
AcDbLine
 10
730.9054545346096
 20
329.712289975585
 30
0.0
 11
744.6701604169627
 21
329.712289975585
 31
0.0
  0
LINE
  5
1D8A
330
1F
100
AcDbEntity
  8
寸法線
100
AcDbLine
 10
688.4054545346097
 20
329.712289975585
 30
0.0
 11
717.4054545346097
 21
329.712289975585
 31
0.0
  0
INSERT
  5
1D8B
330
1F
100
AcDbEntity
  8
寸法線
100
AcDbBlockReference
  2
_OPEN
 10
688.4054545346097
 20
329.712289975585
 30
0.0
 41
13.5
 42
13.5
 43
13.5
  0
INSERT
  5
1D8C
330
1F
100
AcDbEntity
  8
寸法線
100
AcDbBlockReference
  2
_OPEN
 10
717.4054545346097
 20
329.712289975585
 30
0.0
 41
13.5
 42
13.5
 43
13.5
 50
180.0
  0
MTEXT
  5
1D8D
330
1F
100
AcDbEntity
  8
寸法線
100
AcDbMText
 10
713.286786044402
 20
311.9068840998215
 30
0.0
 40
13.5
 41
0.0
 71
     5
 72
     1
  1
29
 73
     1
 44
1.0
1001
ACAD
1000
MTEXTBEGIN
1070
    73
1070
     1
1070
    44
1040
1.0
1070
    74
1070
     0
1000
MTEXTEND
  0
TEXT
  5
1D8E
330
1F
100
AcDbEntity
  8
寸法線
100
AcDbText
 10
688.0120943609828
 20
304.4705813675022
 30
0.0
 40
13.5
  1
\U+2205
100
AcDbText
  0
LINE
  5
1DA2
330
1F
100
AcDbEntity
  8
9_構築線
100
AcDbLine
 10
705.1253680951774
 20
1195.712289975584
 30
0.0
 11
750.1253680951776
 21
1195.712289975584
 31
0.0
  0
LINE
  5
1DA3
330
1F
100
AcDbEntity
  8
8_中心線3長
100
AcDbLine
 10
865.9054545346096
 20
1195.712289975584
 30
0.0
 11
910.9054545346097
 21
1195.712289975584
 31
0.0
  0
ARC
  5
1DF6
330
1F
100
AcDbEntity
  8
電線
100
AcDbCircle
 10
1451.178020831788
 20
429.5678855892055
 30
0.0
 40
4.0
100
AcDbArc
 50
272.1897342518754
 51
316.8319415297413
  0
ARC
  5
1DF7
330
1F
100
AcDbEntity
  8
電線
100
AcDbCircle
 10
1451.178020831788
 20
409.5678855892055
 30
0.0
 40
4.0
100
AcDbArc
 50
43.16805847025868
 51
87.81026574812463
  0
LINE
  5
1DF8
330
1F
100
AcDbEntity
  8
電線
100
AcDbLine
 10
1439.176560921726
 20
425.1060664577663
 30
0.0
 11
1451.330855909513
 21
425.5708064757755
 31
0.0
  0
LINE
  5
1DF9
330
1F
100
AcDbEntity
  8
電線
100
AcDbLine
 10
1439.176560921726
 20
414.0297047206443
 30
0.0
 11
1451.330855909513
 21
413.5649647026353
 31
0.0
  0
LINE
  5
1DFA
330
1F
100
AcDbEntity
  8
電線
100
AcDbLine
 10
1438.178020831788
 20
425.0678855892052
 30
0.0
 11
1438.178020831788
 21
414.0678855892055
 31
0.0
  0
LINE
  5
1DFB
330
1F
100
AcDbEntity
  8
電線
100
AcDbLine
 10
1438.178020831788
 20
415.5678855892054
 30
0.0
 11
1397.391729217117
 21
415.5678855892054
 31
0.0
  0
LINE
  5
1DFC
330
1F
100
AcDbEntity
  8
電線
100
AcDbLine
 10
1354.014693356438
 20
423.5678855892055
 30
0.0
 11
1388.558643154004
 21
423.5678855892055
 31
0.0
  0
LINE
  5
1DFD
330
1F
100
AcDbEntity
  8
電線
100
AcDbLine
 10
1439.178020831788
 20
425.0678855892052
 30
0.0
 11
1439.178020831788
 21
414.0678855892055
 31
0.0
  0
ARC
  5
1DFE
330
1F
100
AcDbEntity
  8
電線
100
AcDbCircle
 10
1438.678020831788
 20
425.0678855892052
 30
0.0
 40
0.5
100
AcDbArc
 50
0.0
 51
180.0
  0
ARC
  5
1DFF
330
1F
100
AcDbEntity
  8
電線
100
AcDbCircle
 10
1438.678020831788
 20
414.0678855892055
 30
0.0
 40
0.500000000000057
100
AcDbArc
 50
180.0
 51
0.0
  0
ARC
  5
1E00
330
1F
100
AcDbEntity
  8
電線
100
AcDbCircle
 10
1462.178020831788
 20
432.0678855892055
 30
0.0
 40
5.5
100
AcDbArc
 50
237.0637777959215
 51
306.4937665998284
  0
ARC
  5
1E01
330
1F
100
AcDbEntity
  8
電線
100
AcDbCircle
 10
1462.178020831788
 20
407.0678855892055
 30
0.0
 40
5.5
100
AcDbArc
 50
53.50623340017161
 51
122.9362222040784
  0
ARC
  5
1E02
330
1F
100
AcDbEntity
  8
電線
100
AcDbCircle
 10
1477.343771719891
 20
411.5678855892054
 30
0.0
 40
20.0
100
AcDbArc
 50
90.0
 51
126.4937665998283
  0
LINE
  5
1E03
330
1F
100
AcDbEntity
  8
電線
100
AcDbLine
 10
1477.343771719891
 20
431.5678855892055
 30
0.0
 11
1485.178020831788
 21
431.5678855892055
 31
0.0
  0
LINE
  5
1E04
330
1F
100
AcDbEntity
  8
電線
100
AcDbLine
 10
1485.178020831788
 20
431.5678855892055
 30
0.0
 11
1485.178020831788
 21
407.5678855892054
 31
0.0
  0
LINE
  5
1E05
330
1F
100
AcDbEntity
  8
電線
100
AcDbLine
 10
1485.178020831788
 20
407.5678855892054
 30
0.0
 11
1477.343771719891
 21
407.5678855892054
 31
0.0
  0
ARC
  5
1E06
330
1F
100
AcDbEntity
  8
電線
100
AcDbCircle
 10
1477.343771719891
 20
427.5678855892055
 30
0.0
 40
20.0
100
AcDbArc
 50
233.5062334001742
 51
270.0
  0
ARC
  5
1E07
330
1F
100
AcDbEntity
  8
電線
100
AcDbCircle
 10
1457.01282194197
 20
424.0947607044051
 30
0.0
 40
4.0
100
AcDbArc
 50
57.06377779592155
 51
136.8319415297412
  0
ARC
  5
1E08
330
1F
100
AcDbEntity
  8
電線
100
AcDbCircle
 10
1457.01282194197
 20
415.0410104740058
 30
0.0
 40
4.0
100
AcDbArc
 50
223.1680584702585
 51
302.9362222040783
  0
LINE
  5
1E09
330
1F
100
AcDbEntity
  8
電線
100
AcDbLine
 10
1456.678020831787
 20
427.8178855892055
 30
0.0
 11
1456.678020831787
 21
411.055046573439
 31
0.0
  0
LINE
  5
1E0A
330
1F
100
AcDbEntity
  8
電線
100
AcDbLine
 10
1455.178020831787
 20
427.6491249071951
 30
0.0
 11
1455.178020831787
 21
411.4866462712158
 31
0.0
  0
LINE
  5
1E0B
330
1F
100
AcDbEntity
  8
電線
100
AcDbLine
 10
1485.178020831788
 20
426.5678855892055
 30
0.0
 11
1501.178020831788
 21
426.5678855892055
 31
0.0
  0
LINE
  5
1E0C
330
1F
100
AcDbEntity
  8
電線
100
AcDbLine
 10
1485.178020831788
 20
425.0678855892052
 30
0.0
 11
1501.178020831788
 21
425.0678855892052
 31
0.0
  0
LINE
  5
1E0D
330
1F
100
AcDbEntity
  8
電線
100
AcDbLine
 10
1485.178020831788
 20
414.0678855892055
 30
0.0
 11
1501.178020831788
 21
414.0678855892055
 31
0.0
  0
LINE
  5
1E0E
330
1F
100
AcDbEntity
  8
電線
100
AcDbLine
 10
1485.178020831788
 20
412.5678855892052
 30
0.0
 11
1501.178020831788
 21
412.5678855892052
 31
0.0
  0
LINE
  5
1E0F
330
1F
100
AcDbEntity
  8
電線
100
AcDbLine
 10
1501.178020831788
 20
426.5678855892055
 30
0.0
 11
1502.178020831788
 21
426.3178855892054
 31
0.0
  0
LINE
  5
1E10
330
1F
100
AcDbEntity
  8
電線
100
AcDbLine
 10
1502.178020831788
 20
426.3178855892054
 30
0.0
 11
1502.178020831788
 21
425.3178855892055
 31
0.0
  0
LINE
  5
1E11
330
1F
100
AcDbEntity
  8
電線
100
AcDbLine
 10
1502.178020831788
 20
425.3178855892055
 30
0.0
 11
1501.178020831788
 21
425.0678855892052
 31
0.0
  0
LINE
  5
1E12
330
1F
100
AcDbEntity
  8
電線
100
AcDbLine
 10
1501.178020831788
 20
414.0678855892055
 30
0.0
 11
1502.178020831788
 21
413.8178855892054
 31
0.0
  0
LINE
  5
1E13
330
1F
100
AcDbEntity
  8
電線
100
AcDbLine
 10
1502.178020831788
 20
413.8178855892054
 30
0.0
 11
1502.178020831788
 21
412.8178855892055
 31
0.0
  0
LINE
  5
1E14
330
1F
100
AcDbEntity
  8
電線
100
AcDbLine
 10
1502.178020831788
 20
412.8178855892055
 30
0.0
 11
1501.178020831788
 21
412.5678855892052
 31
0.0
  0
ARC
  5
1E15
330
1F
100
AcDbEntity
  8
電線
100
AcDbCircle
 10
1442.178020831788
 20
419.5678855892055
 30
0.0
 40
1.0
100
AcDbArc
 50
0.0
 51
180.0
  0
ARC
  5
1E16
330
1F
100
AcDbEntity
  8
電線
100
AcDbCircle
 10
1445.678020831788
 20
419.5678855892055
 30
0.0
 40
1.0
100
AcDbArc
 50
180.0
 51
0.0
  0
ARC
  5
1E17
330
1F
100
AcDbEntity
  8
電線
100
AcDbCircle
 10
1449.178020831788
 20
419.5678855892055
 30
0.0
 40
1.0
100
AcDbArc
 50
0.0
 51
180.0
  0
ARC
  5
1E18
330
1F
100
AcDbEntity
  8
電線
100
AcDbCircle
 10
1452.678020831788
 20
419.5678855892055
 30
0.0
 40
1.0
100
AcDbArc
 50
180.0
 51
0.0
  0
LINE
  5
1E19
330
1F
100
AcDbEntity
  8
電線
100
AcDbLine
 10
1441.178020831788
 20
419.5678855892055
 30
0.0
 11
1441.178020831788
 21
413.9531755171337
 31
0.0
  0
LINE
  5
1E1A
330
1F
100
AcDbEntity
  8
電線
100
AcDbLine
 10
1443.178020831788
 20
419.5678855892055
 30
0.0
 11
1443.178020831788
 21
413.8767021357527
 31
0.0
  0
LINE
  5
1E1B
330
1F
100
AcDbEntity
  8
電線
100
AcDbLine
 10
1444.678020831788
 20
419.5678855892055
 30
0.0
 11
1444.678020831788
 21
419.5678855892055
 31
0.0
  0
LINE
  5
1E1C
330
1F
100
AcDbEntity
  8
電線
100
AcDbLine
 10
1444.678020831788
 20
419.5678855892055
 30
0.0
 11
1444.678020831788
 21
425.3164240786937
 31
0.0
  0
LINE
  5
1E1D
330
1F
100
AcDbEntity
  8
電線
100
AcDbLine
 10
1446.678020831788
 20
419.5678855892055
 30
0.0
 11
1446.678020831788
 21
425.3928974600746
 31
0.0
  0
LINE
  5
1E1E
330
1F
100
AcDbEntity
  8
電線
100
AcDbLine
 10
1448.178020831788
 20
419.5678855892055
 30
0.0
 11
1448.178020831788
 21
413.6855186823003
 31
0.0
  0
LINE
  5
1E1F
330
1F
100
AcDbEntity
  8
電線
100
AcDbLine
 10
1450.178020831788
 20
419.5678855892055
 30
0.0
 11
1450.178020831788
 21
413.6090453009193
 31
0.0
  0
LINE
  5
1E20
330
1F
100
AcDbEntity
  8
電線
100
AcDbLine
 10
1451.678020831788
 20
419.5678855892055
 30
0.0
 11
1451.678020831788
 21
425.5992586226083
 31
0.0
  0
LINE
  5
1E21
330
1F
100
AcDbEntity
  8
電線
100
AcDbLine
 10
1453.678020831788
 20
419.5678855892055
 30
0.0
 11
1453.678020831788
 21
426.5678855892055
 31
0.0
  0
LINE
  5
1E22
330
1F
100
AcDbEntity
  8
電線
100
AcDbLine
 10
1444.678020831788
 20
423.5678855892055
 30
0.0
 11
1446.678020831788
 21
423.5678855892055
 31
0.0
  0
LINE
  5
1E23
330
1F
100
AcDbEntity
  8
電線
100
AcDbLine
 10
1451.678020831788
 20
423.5678855892055
 30
0.0
 11
1453.678020831788
 21
423.5678855892055
 31
0.0
  0
LINE
  5
1E24
330
1F
100
AcDbEntity
  8
電線
100
AcDbLine
 10
1441.178020831788
 20
415.5678855892054
 30
0.0
 11
1443.178020831788
 21
415.5678855892054
 31
0.0
  0
LINE
  5
1E25
330
1F
100
AcDbEntity
  8
電線
100
AcDbLine
 10
1448.178020831788
 20
415.5678855892054
 30
0.0
 11
1450.178020831788
 21
415.5678855892054
 31
0.0
  0
LINE
  5
1E26
330
1F
100
AcDbEntity
  8
電線
100
AcDbLine
 10
1441.178020831788
 20
419.5678855892055
 30
0.0
 11
1443.178020831788
 21
419.5678855892055
 31
0.0
  0
LINE
  5
1E27
330
1F
100
AcDbEntity
  8
電線
100
AcDbLine
 10
1444.678020831788
 20
419.5678855892055
 30
0.0
 11
1446.678020831788
 21
419.5678855892055
 31
0.0
  0
LINE
  5
1E28
330
1F
100
AcDbEntity
  8
電線
100
AcDbLine
 10
1448.178020831788
 20
419.5678855892055
 30
0.0
 11
1450.178020831788
 21
419.5678855892055
 31
0.0
  0
LINE
  5
1E29
330
1F
100
AcDbEntity
  8
電線
100
AcDbLine
 10
1451.678020831788
 20
419.5678855892055
 30
0.0
 11
1453.678020831788
 21
419.5678855892055
 31
0.0
  0
XLINE
  5
1E33
330
1F
100
AcDbEntity
  8
構築線2
100
AcDbXline
 10
1402.099999999999
 20
834.0
 30
0.0
 11
1.0
 21
0.0
 31
0.0
  0
LINE
  5
1E37
330
1F
100
AcDbEntity
  8
1_外形線
100
AcDbLine
 10
1354.352424095742
 20
439.7114149279937
 30
0.0
 11
1357.865179744761
 21
607.6211349510495
 31
0.0
  0
LINE
  5
1E38
330
1F
100
AcDbEntity
  8
1_外形線
100
AcDbLine
 10
1353.549805999045
 20
611.712289975585
 30
0.0
 11
1353.949718494285
 21
611.7039236053916
 31
0.0
  0
LINE
  5
1E3A
330
1F
100
AcDbEntity
  8
1_外形線
100
AcDbLine
 10
1350.269635441401
 20
435.7959536775181
 30
0.0
 11
1349.86972294616
 21
435.8043200477117
 31
0.0
  0
ARC
  5
1E3B
330
1F
100
AcDbEntity
  8
1_外形線
100
AcDbCircle
 10
1350.353299143334
 20
439.7950786299269
 30
0.0
 40
4.0
100
AcDbArc
 50
268.8015183498809
 51
358.8015183498815
  0
ARC
  5
1E3C
330
1F
100
AcDbEntity
  8
1_外形線
100
AcDbCircle
 10
1353.866054792352
 20
607.7047986529827
 30
0.0
 40
4.0
100
AcDbArc
 50
358.8015183498812
 51
88.80151834988259
  0
LINE
  5
1E3D
330
1F
100
AcDbEntity
  8
1_外形線
100
AcDbLine
 10
1353.822244871066
 20
414.3688479884141
 30
0.0
 11
1354.039807112166
 21
424.7683231130012
 31
0.0
  0
LINE
  5
1E50
330
1F
100
AcDbEntity
  8
1_外形線
100
AcDbLine
 10
1352.082076486928
 20
426.8097174401722
 30
0.0
 11
1349.682601515483
 21
426.859915661332
 31
0.0
  0
LINE
  5
1E51
330
1F
100
AcDbEntity
  8
1_外形線
100
AcDbLine
 10
1351.780850543895
 20
412.4111173631761
 30
0.0
 11
1349.38137557245
 21
412.4613155843361
 31
0.0
  0
ARC
  5
1E52
330
1F
100
AcDbEntity
  8
1_外形線
100
AcDbCircle
 10
1352.040244635961
 20
424.8101549639676
 30
0.0
 40
2.0
100
AcDbArc
 50
358.8015183498833
 51
88.80151834988119
  0
ARC
  5
1E53
330
1F
100
AcDbEntity
  8
1_外形線
100
AcDbCircle
 10
1351.822682394862
 20
414.4106798393806
 30
0.0
 40
2.0
100
AcDbArc
 50
268.8015183498813
 51
358.8015183498839
  0
LINE
  5
1E55
330
1F
100
AcDbEntity
  8
電線
100
AcDbLine
 10
1388.558643154004
 20
423.5678855892055
 30
0.0
 11
1390.825278446679
 21
415.5017403641353
 31
0.0
  0
LINE
  5
1E56
330
1F
100
AcDbEntity
  8
電線
100
AcDbLine
 10
1394.876379160775
 20
423.5678855892055
 30
0.0
 11
1397.412526516568
 21
415.5017403641353
 31
0.0
  0
LINE
  5
1E59
330
1F
100
AcDbEntity
  8
電線
100
AcDbLine
 10
1394.876379160776
 20
423.5678855892055
 30
0.0
 11
1438.178020831788
 21
423.5678855892055
 31
0.0
  0
LINE
  5
1E5A
330
1F
100
AcDbEntity
  8
電線
100
AcDbLine
 10
1390.806691240845
 20
415.5678855892054
 30
0.0
 11
1353.847329339701
 21
415.5678855892054
 31
0.0
  0
LINE
  5
1E65
330
1F
100
AcDbEntity
  8
8_中心線3長
100
AcDbLine
 10
702.9054545346097
 20
389.1549986474386
 30
0.0
 11
702.9054545346097
 21
335.0239835010079
 31
0.0
  0
LINE
  5
1E6A
330
1F
100
AcDbEntity
  8
8_中心線3長
100
AcDbLine
 10
702.9054545346097
 20
297.0948872645997
 30
0.0
 11
702.9054545346097
 21
265.4547665879013
 31
0.0
  0
DIMENSION
  5
1E6B
330
1F
100
AcDbEntity
  8
寸法線
100
AcDbDimension
  2
*D21
 10
702.9054545346097
 20
194.7122899755848
 30
0.0
 11
672.9054545346095
 21
205.9622899755849
 31
0.0
 70
    32
 71
     5
 42
-1.0
  3
ISO-25
100
AcDbAlignedDimension
 13
642.9054545346096
 23
228.7109511260478
 33
0.0
 14
702.9054545346097
 24
228.7109511260478
 34
0.0
100
AcDbRotatedDimension
  0
LINE
  5
1E83
330
1F
100
AcDbEntity
  8
寸法線
100
AcDbLine
 10
527.9054545346098
 20
285.212289975585
 30
0.0
 11
527.9054545346098
 21
144.087289975585
 31
0.0
  0
LINE
  5
1E84
330
1F
100
AcDbEntity
  8
寸法線
100
AcDbLine
 10
757.9054545346097
 20
285.212289975585
 30
0.0
 11
757.9054545346097
 21
144.087289975585
 31
0.0
  0
LINE
  5
1E85
330
1F
100
AcDbEntity
  8
寸法線
100
AcDbLine
 10
541.4054545346098
 20
149.712289975585
 30
0.0
 11
744.4054545346097
 21
149.712289975585
 31
0.0
  0
INSERT
  5
1E86
330
1F
100
AcDbEntity
  8
寸法線
100
AcDbBlockReference
  2
_OPEN
 10
527.9054545346098
 20
149.712289975585
 30
0.0
 41
13.5
 42
13.5
 43
13.5
 50
180.0
  0
INSERT
  5
1E87
330
1F
100
AcDbEntity
  8
寸法線
100
AcDbBlockReference
  2
_OPEN
 10
757.9054545346097
 20
149.712289975585
 30
0.0
 41
13.5
 42
13.5
 43
13.5
  0
MTEXT
  5
1E88
330
1F
100
AcDbEntity
  8
寸法線
100
AcDbMText
 10
642.9054545346096
 20
160.962289975585
 30
0.0
 40
13.5
 41
0.0
 71
     5
 72
     1
  1
230
 73
     1
 44
1.0
1001
ACAD
1000
MTEXTBEGIN
1070
    73
1070
     1
1070
    44
1040
1.0
1070
    74
1070
     0
1000
MTEXTEND
  0
DIMENSION
  5
1E8D
330
1F
100
AcDbEntity
  8
寸法線
100
AcDbDimension
  2
*D22
 10
1313.90545453461
 20
244.712289975585
 30
0.0
 11
1198.905454534609
 21
255.9622899755849
 31
0.0
 70
    32
 71
     5
 42
-1.0
  3
ISO-25
100
AcDbAlignedDimension
 13
1083.905454534609
 23
289.712289975585
 33
0.0
 14
1313.90545453461
 24
289.712289975585
 34
0.0
100
AcDbRotatedDimension
  0
LINE
  5
1FB1
330
1F
100
AcDbEntity
  8
0
100
AcDbLine
 10
2037.49998075
 20
45.0
 30
0.0
 11
2037.49998075
 21
1429.99998615
 31
0.0
  0
LINE
  5
1FB2
330
1F
100
AcDbEntity
  8
0
100
AcDbLine
 10
2037.49998075
 20
1429.99998615
 30
0.0
 11
112.5
 21
1429.99998615
 31
0.0
  0
LINE
  5
1FB3
330
1F
100
AcDbEntity
  8
0
100
AcDbLine
 10
1137.499989749999
 20
45.0
 30
0.0
 11
2037.49998075
 21
45.0
 31
0.0
  0
LINE
  5
1FB4
330
1F
100
AcDbEntity
  8
0
100
AcDbLine
 10
112.5
 20
1429.99998615
 30
0.0
 11
112.5
 21
45.0
 31
0.0
  0
LINE
  5
1FB6
330
1F
100
AcDbEntity
  8
0
100
AcDbLine
 10
112.5
 20
45.0
 30
0.0
 11
2037.49998075
 21
45.0
 31
0.0
  0
LINE
  5
1FB7
330
1F
100
AcDbEntity
  8
0
100
AcDbLine
 10
1580.764860433743
 20
172.6035474558367
 30
0.0
 11
1550.764860733742
 21
142.6035477558366
 31
0.0
  0
TEXT
  5
1FB8
330
1F
100
AcDbEntity
  8
0
100
AcDbText
 10
1404.039470279578
 20
47.97426041796613
 30
0.0
 40
18.7499998125
  1
承　認
100
AcDbText
  0
TEXT
  5
1FB9
330
1F
100
AcDbEntity
  8
0
100
AcDbText
 10
1149.101792617629
 20
47.83645626937103
 30
0.0
 40
18.7499998125
  1
設　計
100
AcDbText
  0
TEXT
  5
1FBA
330
1F
100
AcDbEntity
  8
0
100
AcDbText
 10
1319.270279759354
 20
48.40747687761735
 30
0.0
 40
18.7499998125
  1
検　図
100
AcDbText
  0
TEXT
  5
1FBB
330
1F
100
AcDbEntity
  8
0
100
AcDbText
 10
1234.671710235998
 20
48.05747395485602
 30
0.0
 40
18.7499998125
  1
製　図
100
AcDbText
  0
TEXT
  5
1FBC
330
1F
100
AcDbEntity
  8
0
100
AcDbText
 10
1489.430085365133
 20
115.3797242988471
 30
0.0
 40
17.812499821875
  1
品
100
AcDbText
  0
TEXT
  5
1FBD
330
1F
100
AcDbEntity
  8
0
100
AcDbText
 10
1489.430078754388
 20
93.97343943763424
 30
0.0
 40
17.812499821875
  1
名
100
AcDbText
  0
TEXT
  5
1FBE
330
1F
100
AcDbEntity
  8
0
100
AcDbText
 10
1487.134669136541
 20
148.7094879456931
 30
0.0
 40
18.7499998125
  1
尺度
100
AcDbText
  0
TEXT
  5
1FBF
330
1F
100
AcDbEntity
  8
0
100
AcDbText
 10
1766.986696471539
 20
148.4450864718233
 30
0.0
 40
18.7499998125
  1
処理
100
AcDbText
  0
TEXT
  5
1FC0
330
1F
100
AcDbEntity
  8
0
100
AcDbText
 10
1799.262195744522
 20
70.4510076604312
 30
0.0
 40
17.812499821875
  1
図
100
AcDbText
  0
TEXT
  5
1FC1
330
1F
100
AcDbEntity
  8
0
100
AcDbText
 10
1798.945845147397
 20
48.95959425624828
 30
0.0
 40
17.812499821875
  1
番
100
AcDbText
  0
TEXT
  5
1FC2
330
1F
100
AcDbEntity
  8
0
100
AcDbText
 10
1608.868328846138
 20
147.5367390015574
 30
0.0
 40
18.7499998125
  1
材質
100
AcDbText
  0
TEXT
  5
1FC3
330
1F
100
AcDbEntity
  8
0
100
AcDbText
 10
1926.312175359791
 20
147.627704195386
 30
0.0
 40
18.7499998125
  1
個数
100
AcDbText
  0
LINE
  5
1FC4
330
1F
100
AcDbEntity
  8
0
100
AcDbLine
 10
1477.499986349999
 20
89.99999954999998
 30
0.0
 11
2037.49998075
 21
89.99999954999998
 31
0.0
  0
LINE
  5
1FC5
330
1F
100
AcDbEntity
  8
0
100
AcDbLine
 10
1477.499986349999
 20
134.9999991
 30
0.0
 11
2037.49998075
 21
134.9999991
 31
0.0
  0
LINE
  5
1FC6
330
1F
100
AcDbEntity
  8
0
100
AcDbLine
 10
1477.499986349999
 20
179.99999865
 30
0.0
 11
1477.499986349999
 21
45.0
 31
0.0
  0
LINE
  5
1FC7
330
1F
100
AcDbEntity
  8
0
100
AcDbLine
 10
1517.49998595
 20
134.9999991
 30
0.0
 11
1517.49998595
 21
89.99999954999998
 31
0.0
  0
LINE
  5
1FC8
330
1F
100
AcDbEntity
  8
0
100
AcDbLine
 10
1787.49998325
 20
134.9999991
 30
0.0
 11
1787.49998325
 21
45.0
 31
0.0
  0
LINE
  5
1FC9
330
1F
100
AcDbEntity
  8
0
100
AcDbLine
 10
1827.49998285
 20
134.9999991
 30
0.0
 11
1827.49998285
 21
45.0
 31
0.0
  0
LINE
  5
1FCA
330
1F
100
AcDbEntity
  8
0
100
AcDbLine
 10
1137.499989749999
 20
179.99999865
 30
0.0
 11
1137.499989749999
 21
45.0
 31
0.0
  0
LINE
  5
1FCB
330
1F
100
AcDbEntity
  8
0
100
AcDbLine
 10
1597.499985149999
 20
179.99999865
 30
0.0
 11
1597.499985149999
 21
134.9999991
 31
0.0
  0
LINE
  5
1FCC
330
1F
100
AcDbEntity
  8
0
100
AcDbLine
 10
1757.49998355
 20
179.99999865
 30
0.0
 11
1757.49998355
 21
134.9999991
 31
0.0
  0
LINE
  5
1FCD
330
1F
100
AcDbEntity
  8
0
100
AcDbLine
 10
1917.499981949999
 20
179.99999865
 30
0.0
 11
1917.499981949999
 21
134.9999991
 31
0.0
  0
LINE
  5
1FCE
330
1F
100
AcDbEntity
  8
0
100
AcDbLine
 10
2037.49998075
 20
179.99999865
 30
0.0
 11
1137.499989749999
 21
179.99999865
 31
0.0
  0
LINE
  5
1FCF
330
1F
100
AcDbEntity
  8
0
100
AcDbLine
 10
1137.499989749999
 20
154.9999988999998
 30
0.0
 11
1477.499986349999
 21
154.9999988999998
 31
0.0
  0
LINE
  5
1FD0
330
1F
100
AcDbEntity
  8
0
100
AcDbLine
 10
1137.499989749999
 20
69.99999975
 30
0.0
 11
1477.499986349999
 21
69.99999975
 31
0.0
  0
LINE
  5
1FD1
330
1F
100
AcDbEntity
  8
0
100
AcDbLine
 10
1222.4999889
 20
154.9999988999998
 30
0.0
 11
1222.4999889
 21
45.0
 31
0.0
  0
LINE
  5
1FD2
330
1F
100
AcDbEntity
  8
0
100
AcDbLine
 10
1307.49998805
 20
154.9999988999998
 30
0.0
 11
1307.49998805
 21
45.0
 31
0.0
  0
MTEXT
  5
1FD3
330
1F
100
AcDbEntity
  8
0
100
AcDbMText
 10
1155.91117146796
 20
177.6806889359205
 30
0.0
 40
19.9999998
 41
255.7908832005586
 71
     1
 72
     5
  1
作 成 日
 73
     1
 44
1.0
1001
ACAD
1000
ACAD_MTEXT_DEFINED_HEIGHT_BEGIN
1070
    46
1040
0.0
1000
ACAD_MTEXT_DEFINED_HEIGHT_END
1000
MTEXTBEGIN
1070
    73
1070
     1
1070
    44
1040
1.0
1070
    74
1070
     0
1000
MTEXTEND
1000
MTEXTBEGIN
1070
    73
1070
     1
1070
    44
1040
1.0
1070
    74
1070
     0
1000
MTEXTEND
  0
LINE
  5
1FD4
330
1F
100
AcDbEntity
  8
0
100
AcDbLine
 10
1264.9999889
 20
179.99999865
 30
0.0
 11
1264.9999889
 21
154.9999988999998
 31
0.0
  0
LINE
  5
1FD5
330
1F
100
AcDbEntity
  8
0
100
AcDbLine
 10
1392.4999872
 20
154.9999988999998
 30
0.0
 11
1392.4999872
 21
45.0
 31
0.0
  0
TEXT
  5
1FD6
330
1F
100
AcDbEntity
  8
0
100
AcDbText
 10
1798.523978379182
 20
115.5994002067707
 30
0.0
 40
17.812499821875
  1
型
100
AcDbText
  0
TEXT
  5
1FD7
330
1F
100
AcDbEntity
  8
0
100
AcDbText
 10
1798.898113499427
 20
94.12924335277535
 30
0.0
 40
17.812499821875
  1
式
100
AcDbText
  0
CIRCLE
  5
1FD8
330
1F
100
AcDbEntity
  8
0
100
AcDbCircle
 10
1337.499988175
 20
167.8403384397344
 30
0.0
 40
2.499999975
  0
CIRCLE
  5
1FD9
330
1F
100
AcDbEntity
  8
0
100
AcDbCircle
 10
1337.499988175
 20
167.8403384397344
 30
0.0
 40
1.999999979999999
  0
CIRCLE
  5
1FDA
330
1F
100
AcDbEntity
  8
0
100
AcDbCircle
 10
1337.499988175
 20
167.8403384397344
 30
0.0
 40
1.499999985
  0
CIRCLE
  5
1FDB
330
1F
100
AcDbEntity
  8
0
100
AcDbCircle
 10
1337.499988175
 20
167.8403384397344
 30
0.0
 40
0.9999999900000002
  0
CIRCLE
  5
1FDC
330
1F
100
AcDbEntity
  8
0
100
AcDbCircle
 10
1337.499988175
 20
167.8403384397344
 30
0.0
 40
0.4999999950000002
  0
CIRCLE
  5
1FDD
330
1F
100
AcDbEntity
  8
0
100
AcDbCircle
 10
1407.49998705
 20
167.8403384397344
 30
0.0
 40
2.499999975
  0
CIRCLE
  5
1FDE
330
1F
100
AcDbEntity
  8
0
100
AcDbCircle
 10
1407.49998705
 20
167.8403384397344
 30
0.0
 40
2.499999975
  0
CIRCLE
  5
1FDF
330
1F
100
AcDbEntity
  8
0
100
AcDbCircle
 10
1407.49998705
 20
167.8403384397344
 30
0.0
 40
1.999999979999999
  0
CIRCLE
  5
1FE0
330
1F
100
AcDbEntity
  8
0
100
AcDbCircle
 10
1407.49998705
 20
167.8403384397344
 30
0.0
 40
1.499999985
  0
CIRCLE
  5
1FE1
330
1F
100
AcDbEntity
  8
0
100
AcDbCircle
 10
1407.49998705
 20
167.8403384397344
 30
0.0
 40
0.9999999900000002
  0
CIRCLE
  5
1FE2
330
1F
100
AcDbEntity
  8
0
100
AcDbCircle
 10
1407.49998705
 20
167.8403384397344
 30
0.0
 40
0.4999999950000002
  0
MTEXT
  5
1FE3
330
1F
100
AcDbEntity
  8
0
100
AcDbMText
 10
1509.997227521347
 20
80.15344199778882
 30
0.0
 40
24.99999975
 41
393.3431203511364
 71
     1
 72
     5
  1
株式会社 アンナカ
 73
     1
 44
1.0
1001
ACAD
1000
MTEXTBEGIN
1070
    73
1070
     1
1070
    44
1040
1.0
1070
    74
1070
     0
1000
MTEXTEND
1000
MTEXTBEGIN
1070
    73
1070
     1
1070
    44
1040
1.0
1070
    74
1070
     0
1000
MTEXTEND
  0
LINE
  5
1FE4
330
1F
100
AcDbEntity
  8
0
100
AcDbLine
 10
1537.49998575
 20
179.99999865
 30
0.0
 11
1537.49998575
 21
134.9999991
 31
0.0
  0
LINE
  5
1FE5
330
1F
100
AcDbEntity
  8
0
100
AcDbLine
 10
1657.49998455
 20
179.99999865
 30
0.0
 11
1657.49998455
 21
134.9999991
 31
0.0
  0
LINE
  5
1FE6
330
1F
100
AcDbEntity
  8
0
100
AcDbLine
 10
1817.49998295
 20
179.99999865
 30
0.0
 11
1817.49998295
 21
134.9999991
 31
0.0
  0
LINE
  5
1FE7
330
1F
100
AcDbEntity
  8
0
100
AcDbLine
 10
1977.49998135
 20
179.99999865
 30
0.0
 11
1977.49998135
 21
134.9999991
 31
0.0
  0
XLINE
  5
2095
330
1F
100
AcDbEntity
  8
9_構築線
100
AcDbXline
 10
517.8746319048221
 20
972.7122899755846
 30
0.0
 11
1.0
 21
0.0
 31
0.0
  0
XLINE
  5
2097
330
1F
100
AcDbEntity
  8
9_構築線
100
AcDbXline
 10
517.8746319048221
 20
995.2122899755847
 30
0.0
 11
1.0
 21
0.0
 31
0.0
  0
LINE
  5
2098
330
1F
100
AcDbEntity
  8
8_中心線3長
100
AcDbLine
 10
642.9054545346096
 20
972.7122899755846
 30
0.0
 11
642.9054545346096
 21
950.2122899755852
 31
0.0
  0
LINE
  5
2099
330
1F
100
AcDbEntity
  8
8_中心線3長
100
AcDbLine
 10
642.9054545346096
 20
927.712289975585
 30
0.0
 11
642.9054545346096
 21
228.7109511260478
 31
0.0
  0
LINE
  5
20F0
330
1F
100
AcDbEntity
  8
0
100
AcDbLine
 10
1810.699980749999
 20
1078.999986149999
 30
0.0
 11
1810.699980749999
 21
1429.99998615
 31
0.0
  0
LINE
  5
20F1
330
1F
100
AcDbEntity
  8
0
100
AcDbLine
 10
1767.49998075
 20
1078.999986149999
 30
0.0
 11
1767.49998075
 21
1429.99998615
 31
0.0
  0
LINE
  5
20F2
330
1F
100
AcDbEntity
  8
0
100
AcDbLine
 10
1562.29998075
 20
1078.999986149999
 30
0.0
 11
1562.29998075
 21
1429.99998615
 31
0.0
  0
LINE
  5
20F3
330
1F
100
AcDbEntity
  8
0
100
AcDbLine
 10
1519.09998075
 20
1078.999986149999
 30
0.0
 11
1519.09998075
 21
1429.99998615
 31
0.0
  0
LINE
  5
20F6
330
1F
100
AcDbEntity
  8
構築線
100
AcDbLine
 10
940.7739668227561
 20
1407.499986149999
 30
0.0
 11
1345.773966822756
 21
1407.499986149999
 31
0.0
  0
LINE
  5
20F7
330
1F
100
AcDbEntity
  8
構築線
100
AcDbLine
 10
940.7739668227561
 20
1384.999986149999
 30
0.0
 11
1345.773966822756
 21
1384.999986149999
 31
0.0
  0
LINE
  5
20F8
330
1F
100
AcDbEntity
  8
構築線
100
AcDbLine
 10
940.7739668227561
 20
1362.49998615
 30
0.0
 11
1345.773966822756
 21
1362.49998615
 31
0.0
  0
LINE
  5
20F9
330
1F
100
AcDbEntity
  8
構築線
100
AcDbLine
 10
940.7739668227561
 20
1339.999986149998
 30
0.0
 11
1345.773966822756
 21
1339.999986149998
 31
0.0
  0
LINE
  5
20FA
330
1F
100
AcDbEntity
  8
構築線
100
AcDbLine
 10
940.7739668227561
 20
1317.499986149998
 30
0.0
 11
1345.773966822756
 21
1317.499986149998
 31
0.0
  0
LINE
  5
20FB
330
1F
100
AcDbEntity
  8
構築線
100
AcDbLine
 10
940.7739668227561
 20
1294.999986149998
 30
0.0
 11
1345.773966822756
 21
1294.999986149998
 31
0.0
  0
LINE
  5
20FC
330
1F
100
AcDbEntity
  8
構築線
100
AcDbLine
 10
940.7739668227561
 20
1272.499986149999
 30
0.0
 11
1345.773966822756
 21
1272.499986149999
 31
0.0
  0
LINE
  5
20FD
330
1F
100
AcDbEntity
  8
構築線
100
AcDbLine
 10
940.7739668227561
 20
1249.999986149997
 30
0.0
 11
1345.773966822756
 21
1249.999986149997
 31
0.0
  0
LINE
  5
20FE
330
1F
100
AcDbEntity
  8
構築線
100
AcDbLine
 10
940.7739668227561
 20
1227.499986149998
 30
0.0
 11
1345.773966822756
 21
1227.499986149998
 31
0.0
  0
LINE
  5
20FF
330
1F
100
AcDbEntity
  8
構築線
100
AcDbLine
 10
940.7739668227561
 20
1204.999986149998
 30
0.0
 11
1345.773966822756
 21
1204.999986149998
 31
0.0
  0
LINE
  5
2100
330
1F
100
AcDbEntity
  8
構築線
100
AcDbLine
 10
940.7739668227561
 20
1182.499986149998
 30
0.0
 11
1345.773966822756
 21
1182.499986149998
 31
0.0
  0
LINE
  5
2101
330
1F
100
AcDbEntity
  8
構築線
100
AcDbLine
 10
940.7739668227561
 20
1159.999986149997
 30
0.0
 11
1345.773966822756
 21
1159.999986149997
 31
0.0
  0
LINE
  5
2102
330
1F
100
AcDbEntity
  8
構築線
100
AcDbLine
 10
940.7739668227561
 20
1137.499986149997
 30
0.0
 11
1345.773966822756
 21
1137.499986149997
 31
0.0
  0
LINE
  5
2103
330
1F
100
AcDbEntity
  8
構築線
100
AcDbLine
 10
940.7739668227561
 20
1114.999986149997
 30
0.0
 11
1345.773966822756
 21
1114.999986149997
 31
0.0
  0
LINE
  5
2104
330
1F
100
AcDbEntity
  8
構築線
100
AcDbLine
 10
940.7739668227561
 20
1092.499986149998
 30
0.0
 11
1345.773966822756
 21
1092.499986149998
 31
0.0
  0
LINE
  5
2105
330
1F
100
AcDbEntity
  8
構築線
100
AcDbLine
 10
940.7739668227561
 20
1069.999986149998
 30
0.0
 11
1345.773966822756
 21
1069.999986149998
 31
0.0
  0
XLINE
  5
2106
330
1F
100
AcDbEntity
  8
構築線
100
AcDbXline
 10
1345.773966822756
 20
1426.291179870795
 30
0.0
 11
0.0000000000000002
 21
-1.0
 31
0.0
  0
XLINE
  5
2108
330
1F
100
AcDbEntity
  8
構築線
100
AcDbXline
 10
940.7739668227561
 20
1426.291179870795
 30
0.0
 11
0.0000000000000002
 21
-1.0
 31
0.0
  0
LINE
  5
210C
330
1F
100
AcDbEntity
  8
2_細線
100
AcDbLine
 10
1519.09998075
 20
1078.999986149999
 30
0.0
 11
2037.49998075
 21
1078.999986149999
 31
0.0
  0
LINE
  5
210D
330
1F
100
AcDbEntity
  8
2_細線
100
AcDbLine
 10
1519.09998075
 20
1105.999986149998
 30
0.0
 11
2037.49998075
 21
1105.999986149998
 31
0.0
  0
LINE
  5
210E
330
1F
100
AcDbEntity
  8
2_細線
100
AcDbLine
 10
1519.09998075
 20
1132.999986149997
 30
0.0
 11
2037.49998075
 21
1132.999986149997
 31
0.0
  0
LINE
  5
210F
330
1F
100
AcDbEntity
  8
2_細線
100
AcDbLine
 10
1519.09998075
 20
1159.999986149997
 30
0.0
 11
2037.49998075
 21
1159.999986149997
 31
0.0
  0
LINE
  5
2110
330
1F
100
AcDbEntity
  8
2_細線
100
AcDbLine
 10
1519.09998075
 20
1186.999986149998
 30
0.0
 11
2037.49998075
 21
1186.999986149998
 31
0.0
  0
LINE
  5
2111
330
1F
100
AcDbEntity
  8
2_細線
100
AcDbLine
 10
1519.09998075
 20
1213.999986149999
 30
0.0
 11
2037.49998075
 21
1213.999986149999
 31
0.0
  0
LINE
  5
2112
330
1F
100
AcDbEntity
  8
2_細線
100
AcDbLine
 10
1519.09998075
 20
1240.999986149998
 30
0.0
 11
2037.49998075
 21
1240.999986149998
 31
0.0
  0
LINE
  5
2113
330
1F
100
AcDbEntity
  8
2_細線
100
AcDbLine
 10
1519.09998075
 20
1267.999986149999
 30
0.0
 11
2037.49998075
 21
1267.999986149999
 31
0.0
  0
LINE
  5
2114
330
1F
100
AcDbEntity
  8
2_細線
100
AcDbLine
 10
1519.09998075
 20
1294.999986149998
 30
0.0
 11
2037.49998075
 21
1294.999986149998
 31
0.0
  0
LINE
  5
2115
330
1F
100
AcDbEntity
  8
2_細線
100
AcDbLine
 10
1519.09998075
 20
1321.999986149998
 30
0.0
 11
2037.49998075
 21
1321.999986149998
 31
0.0
  0
LINE
  5
2116
330
1F
100
AcDbEntity
  8
2_細線
100
AcDbLine
 10
1519.09998075
 20
1348.999986149999
 30
0.0
 11
2037.49998075
 21
1348.999986149999
 31
0.0
  0
LINE
  5
2117
330
1F
100
AcDbEntity
  8
2_細線
100
AcDbLine
 10
1519.09998075
 20
1375.99998615
 30
0.0
 11
2037.49998075
 21
1375.99998615
 31
0.0
  0
LINE
  5
2118
330
1F
100
AcDbEntity
  8
0
100
AcDbLine
 10
1519.09998075
 20
1402.99998615
 30
0.0
 11
2037.49998075
 21
1402.99998615
 31
0.0
  0
TEXT
  5
218B
330
1F
100
AcDbEntity
  8
0
100
AcDbText
 10
1527.53523974516
 20
1410.742580226007
 30
0.0
 40
14.39999999999999
  1
No
100
AcDbText
  0
TEXT
  5
218C
330
1F
100
AcDbEntity
  8
0
100
AcDbText
 10
1783.259582953937
 20
1410.188644754969
 30
0.0
 40
14.39999999999999
  1
数
100
AcDbText
  0
TEXT
  5
218D
330
1F
100
AcDbEntity
  8
0
100
AcDbText
 10
1569.329662555436
 20
1410.715602334184
 30
0.0
 40
14.39999999999999
  1
品　　名
100
AcDbText
  0
MTEXT
  5
218E
330
1F
100
AcDbEntity
  8
0
100
AcDbMText
 10
1822.602305310819
 20
1424.943390596442
 30
0.0
 40
14.39999999999999
 41
198.2287651683451
 71
     1
 72
     5
  1
材質又は定格
 73
     1
 44
1.0
1001
ACAD
1000
MTEXTBEGIN
1070
    73
1070
     1
1070
    44
1040
1.0
1070
    74
1070
     0
1000
MTEXTEND
1000
MTEXTBEGIN
1070
    73
1070
     1
1070
    44
1040
1.0
1070
    74
1070
     0
1000
MTEXTEND
  0
TEXT
  5
218F
330
1F
100
AcDbEntity
  8
0
100
AcDbText
 10
1543.068241327167
 20
1382.221589411982
 30
0.0
 40
14.39999999999999
  1
1
100
AcDbText
  0
TEXT
  5
2190
330
1F
100
AcDbEntity
  8
0
100
AcDbText
 10
1538.850602420005
 20
1353.869717799731
 30
0.0
 40
14.39999999999999
  1
2
100
AcDbText
  0
TEXT
  5
2191
330
1F
100
AcDbEntity
  8
0
100
AcDbText
 10
1538.323392851815
 20
1326.89021423569
 30
0.0
 40
14.39999999999999
  1
3
100
AcDbText
  0
TEXT
  5
2192
330
1F
100
AcDbEntity
  8
0
100
AcDbText
 10
1537.796192693211
 20
1299.542981391557
 30
0.0
 40
14.39999999999999
  1
4
100
AcDbText
  0
TEXT
  5
2193
330
1F
100
AcDbEntity
  8
0
100
AcDbText
 10
1538.850602420005
 20
1273.458170721057
 30
0.0
 40
14.39999999999999
  1
5
100
AcDbText
  0
TEXT
  5
2194
330
1F
100
AcDbEntity
  8
0
100
AcDbText
 10
1537.796192693211
 20
1245.633242293798
 30
0.0
 40
14.39999999999999
  1
6
100
AcDbText
  0
TEXT
  5
2195
330
1F
100
AcDbEntity
  8
0
100
AcDbText
 10
1539.377802578607
 20
1218.812960994651
 30
0.0
 40
14.39999999999999
  1
7
100
AcDbText
  0
TEXT
  5
2196
330
1F
100
AcDbEntity
  8
0
100
AcDbText
 10
1538.850602420002
 20
1192.568919699261
 30
0.0
 40
14.39999999999999
  1
8
100
AcDbText
  0
TEXT
  5
2197
330
1F
100
AcDbEntity
  8
0
100
AcDbText
 10
1538.323392851815
 20
1166.116361645968
 30
0.0
 40
14.39999999999999
  1
9
100
AcDbText
  0
TEXT
  5
2198
330
1F
100
AcDbEntity
  8
0
100
AcDbText
 10
1530.415324605676
 20
1139.296086381057
 30
0.0
 40
14.39999999999999
  1
10
100
AcDbText
  0
TEXT
  5
2199
330
1F
100
AcDbEntity
  8
0
100
AcDbText
 10
1534.105772763819
 20
1111.103449102166
 30
0.0
 40
14.39999999999999
  1
11
100
AcDbText
  0
TEXT
  5
219A
330
1F
100
AcDbEntity
  8
0
100
AcDbText
 10
1529.360933698052
 20
1085.864034506432
 30
0.0
 40
14.39999999999999
  1
12
100
AcDbText
  0
TEXT
  5
21A0
330
1F
100
AcDbEntity
  8
0
100
AcDbText
 10
1570.668121879942
 20
1381.512759286529
 30
0.0
 40
14.39999999999999
  1
ケース
100
AcDbText
  0
TEXT
  5
21A1
330
1F
100
AcDbEntity
  8
0
100
AcDbText
 10
1571.286820830976
 20
1353.395663501888
 30
0.0
 40
14.39999999999999
  1
蓋
100
AcDbText
  0
TEXT
  5
21A2
330
1F
100
AcDbEntity
  8
0
100
AcDbText
 10
1571.286820830974
 20
1326.650935765461
 30
0.0
 40
14.39999999999999
  1
麺水切カゴ受け
100
AcDbText
  0
TEXT
  5
21A3
330
1F
100
AcDbEntity
  8
0
100
AcDbText
 10
1569.430723977875
 20
1301.210794267317
 30
0.0
 40
14.39999999999999
  1
逆水防止筒
100
AcDbText
  0
TEXT
  5
21A4
330
1F
100
AcDbEntity
  8
0
100
AcDbText
 10
1570.668121879942
 20
1273.77988668678
 30
0.0
 40
14.39999999999999
  1
パッキン
100
AcDbText
  0
TEXT
  5
21A5
330
1F
100
AcDbEntity
  8
0
100
AcDbText
 10
1570.049422928909
 20
1246.420450510621
 30
0.0
 40
14.39999999999999
  1
排水用パイプ
100
AcDbText
  0
TEXT
  5
21A6
330
1F
100
AcDbEntity
  8
0
100
AcDbText
 10
1570.668121879942
 20
1219.604234649831
 30
0.0
 40
14.39999999999999
  1
マフラー
100
AcDbText
  0
TEXT
  5
21A7
330
1F
100
AcDbEntity
  8
0
100
AcDbText
 10
1570.668121879942
 20
1192.86320116157
 30
0.0
 40
14.39999999999999
  1
表示灯
100
AcDbText
  0
TEXT
  5
21A8
330
1F
100
AcDbEntity
  8
0
100
AcDbText
 10
1571.905529191591
 20
1166.118485491411
 30
0.0
 40
14.39999999999999
  1
電源スイッチ
100
AcDbText
  0
TEXT
  5
21A9
330
1F
100
AcDbEntity
  8
0
100
AcDbText
 10
1570.049422928909
 20
1138.683863236444
 30
0.0
 40
14.39999999999999
  1
脚
100
AcDbText
  0
TEXT
  5
21AA
330
1F
100
AcDbEntity
  8
0
100
AcDbText
 10
1571.28683024056
 20
1111.252947295914
 30
0.0
 40
14.39999999999999
  1
脚ゴム
100
AcDbText
  0
TEXT
  5
21AB
330
1F
100
AcDbEntity
  8
0
100
AcDbText
 10
1570.668121879942
 20
1084.575993009414
 30
0.0
 40
14.39999999999999
  1
電源コード 3m
100
AcDbText
  0
TEXT
  5
21B1
330
1F
100
AcDbEntity
  8
0
100
AcDbText
 10
1790.117029838434
 20
1383.122602381195
 30
0.0
 40
14.39999999999999
  1
1
100
AcDbText
  0
TEXT
  5
21B2
330
1F
100
AcDbEntity
  8
0
100
AcDbText
 10
1790.672148232036
 20
1353.650808229848
 30
0.0
 40
14.39999999999999
  1
1
100
AcDbText
  0
TEXT
  5
21B3
330
1F
100
AcDbEntity
  8
0
100
AcDbText
 10
1790.505862067925
 20
1326.788200949303
 30
0.0
 40
14.39999999999999
  1
1
100
AcDbText
  0
TEXT
  5
21B4
330
1F
100
AcDbEntity
  8
0
100
AcDbText
 10
1790.117029838434
 20
1300.611773512865
 30
0.0
 40
14.39999999999999
  1
1
100
AcDbText
  0
TEXT
  5
21B5
330
1F
100
AcDbEntity
  8
0
100
AcDbText
 10
1790.672148232038
 20
1274.236246624988
 30
0.0
 40
14.39999999999999
  1
1
100
AcDbText
  0
TEXT
  5
21B6
330
1F
100
AcDbEntity
  8
0
100
AcDbText
 10
1790.767523772973
 20
1244.828002699464
 30
0.0
 40
14.39999999999999
  1
1
100
AcDbText
  0
TEXT
  5
21B7
330
1F
100
AcDbEntity
  8
0
100
AcDbText
 10
1790.559261455733
 20
1219.266904197908
 30
0.0
 40
14.39999999999999
  1
1
100
AcDbText
  0
TEXT
  5
21B8
330
1F
100
AcDbEntity
  8
0
100
AcDbText
 10
1790.276249405144
 20
1191.38776160881
 30
0.0
 40
14.39999999999999
  1
1
100
AcDbText
  0
TEXT
  5
21B9
330
1F
100
AcDbEntity
  8
0
100
AcDbText
 10
1790.842282915905
 20
1164.880987067921
 30
0.0
 40
14.39999999999999
  1
1
100
AcDbText
  0
TEXT
  5
21BA
330
1F
100
AcDbEntity
  8
0
100
AcDbText
 10
1784.952168407044
 20
1139.060392371143
 30
0.0
 40
14.39999999999999
  1
4
100
AcDbText
  0
TEXT
  5
21BB
330
1F
100
AcDbEntity
  8
0
100
AcDbText
 10
1785.518201917803
 20
1111.301671922871
 30
0.0
 40
14.39999999999999
  1
4
100
AcDbText
  0
TEXT
  5
21BC
330
1F
100
AcDbEntity
  8
0
100
AcDbText
 10
1790.276249405144
 20
1085.763956077734
 30
0.0
 40
14.39999999999999
  1
1
100
AcDbText
  0
TEXT
  5
21C2
330
1F
100
AcDbEntity
  8
0
100
AcDbText
 10
1825.106959978348
 20
1382.647660682926
 30
0.0
 40
14.39999999999999
  1
合成樹脂
100
AcDbText
  0
TEXT
  5
21C3
330
1F
100
AcDbEntity
  8
0
100
AcDbText
 10
1850.978104352705
 20
1219.548764833244
 30
0.0
 40
14.39999999999999
  1
〃
100
AcDbText
  0
TEXT
  5
21C4
330
1F
100
AcDbEntity
  8
0
100
AcDbText
 10
1825.106959978348
 20
1192.180559716932
 30
0.0
 40
14.39999999999999
  1
ネオンランプ
100
AcDbText
  0
TEXT
  5
21C5
330
1F
100
AcDbEntity
  8
0
100
AcDbText
 10
1824.357712462304
 20
1164.686935277942
 30
0.0
 40
14.39999999999999
  1
防水キャップ付
100
AcDbText
  0
TEXT
  5
21C6
330
1F
100
AcDbEntity
  8
0
100
AcDbText
 10
1825.106959978348
 20
1139.377284088185
 30
0.0
 40
14.39999999999999
  1
合成樹脂
100
AcDbText
  0
TEXT
  5
21CD
330
1F
100
AcDbEntity
  8
0
100
AcDbText
 10
1850.978104352705
 20
1353.817058193016
 30
0.0
 40
14.39999999999999
  1
〃
100
AcDbText
  0
TEXT
  5
21CE
330
1F
100
AcDbEntity
  8
0
100
AcDbText
 10
1853.225846900839
 20
1327.107714419646
 30
0.0
 40
14.39999999999999
  1
〃
100
AcDbText
  0
TEXT
  5
21CF
330
1F
100
AcDbEntity
  8
0
100
AcDbText
 10
1853.225846900839
 20
1245.607306691329
 30
0.0
 40
14.39999999999999
  1
〃
100
AcDbText
  0
TEXT
  5
21D0
330
1F
100
AcDbEntity
  8
0
100
AcDbText
 10
1826.605455010438
 20
1275.186814243791
 30
0.0
 40
14.39999999999999
  1
合成ゴム
100
AcDbText
  0
TEXT
  5
21D1
330
1F
100
AcDbEntity
  8
0
100
AcDbText
 10
1850.978104352702
 20
1302.092364053181
 30
0.0
 40
14.39999999999999
  1
〃
100
AcDbText
  0
TEXT
  5
21D2
330
1F
100
AcDbEntity
  8
0
100
AcDbText
 10
1823.608464946257
 20
1111.946374181889
 30
0.0
 40
14.39999999999999
  1
合成ゴム　脚に接着
100
AcDbText
  0
TEXT
  5
21D4
330
1F
100
AcDbEntity
  8
0
100
AcDbText
 10
1825.106959978348
 20
1085.610156259821
 30
0.0
 40
14.39999999999999
  1
プラグ付キャプタイヤ
100
AcDbText
  0
LINE
  5
21D7
330
1F
100
AcDbEntity
  8
0
100
AcDbLine
 10
1596.948215858347
 20
1013.639902455633
 30
0.0
 11
2000.148215858347
 21
1013.639902455633
 31
0.0
  0
LINE
  5
21D8
330
1F
100
AcDbEntity
  8
0
100
AcDbLine
 10
2000.148215858347
 20
1013.639902455633
 30
0.0
 11
2000.148215858347
 21
851.6399024556328
 31
0.0
  0
LINE
  5
21D9
330
1F
100
AcDbEntity
  8
0
100
AcDbLine
 10
2000.148215858347
 20
851.6399024556328
 30
0.0
 11
1596.948215858347
 21
851.6399024556328
 31
0.0
  0
LINE
  5
21DA
330
1F
100
AcDbEntity
  8
0
100
AcDbLine
 10
1596.948215858347
 20
851.6399024556328
 30
0.0
 11
1596.948215858347
 21
1013.639902455633
 31
0.0
  0
TEXT
  5
21DB
330
1F
100
AcDbEntity
  8
0
100
AcDbText
 10
1609.492628434106
 20
992.5899255612476
 30
0.0
 40
14.39999999999999
  1
電    源
100
AcDbText
  0
TEXT
  5
21DC
330
1F
100
AcDbEntity
  8
0
100
AcDbText
 10
1611.055413023884
 20
963.9749105581632
 30
0.0
 40
14.39999999999999
  1
消費電力
100
AcDbText
  0
TEXT
  5
21DE
330
1F
100
AcDbEntity
  8
0
100
AcDbText
 10
1609.492628434106
 20
937.3264485772523
 30
0.0
 40
14.39999999999999
  1
麺水切時間
100
AcDbText
  0
TEXT
  5
21DF
330
1F
100
AcDbEntity
  8
0
100
AcDbText
 10
1609.492628434106
 20
910.6342253800043
 30
0.0
 40
14.39999999999999
  1
排水方法
100
AcDbText
  0
TEXT
  5
21E1
330
1F
100
AcDbEntity
  8
0
100
AcDbText
 10
1609.492628434106
 20
883.3312860786119
 30
0.0
 40
14.39999999999999
  1
外形寸法
100
AcDbText
  0
TEXT
  5
21E3
330
1F
100
AcDbEntity
  8
0
100
AcDbText
 10
1609.492628434106
 20
855.8147091640501
 30
0.0
 40
14.39999999999999
  1
質    量
100
AcDbText
  0
TEXT
  5
21E4
330
1F
100
AcDbEntity
  8
0
100
AcDbText
 10
1717.778569597365
 20
991.6359575008106
 30
0.0
 40
14.39999999999999
  1
単相 100Ｖ　50/60Hz
100
AcDbText
  0
TEXT
  5
21E5
330
1F
100
AcDbEntity
  8
0
100
AcDbText
 10
1718.559944015106
 20
963.5027464075696
 30
0.0
 40
14.39999999999999
  1
720Ｗ
100
AcDbText
  0
TEXT
  5
21E7
330
1F
100
AcDbEntity
  8
0
100
AcDbText
 10
1717.778569597365
 20
938.0313087814514
 30
0.0
 40
14.39999999999999
  1
１，３秒
100
AcDbText
  0
TEXT
  5
21E8
330
1F
100
AcDbEntity
  8
0
100
AcDbText
 10
1718.559944015106
 20
910.4205817347979
 30
0.0
 40
14.39999999999999
  1
排水ホース使用
100
AcDbText
  0
TEXT
  5
21EB
330
1F
100
AcDbEntity
  8
0
100
AcDbText
 10
1718.169256806232
 20
883.6401494865802
 30
0.0
 40
14.39999999999999
  1
３５６Ｗ×３５６Ｄ×５８３Ｈ
100
AcDbText
  0
TEXT
  5
21ED
330
1F
100
AcDbEntity
  8
0
100
AcDbText
 10
1718.559944015106
 20
855.8147091640501
 30
0.0
 40
14.39999999999999
  1
８Ｋｇ
100
AcDbText
  0
LINE
  5
21FE
330
1F
100
AcDbEntity
  8
0
100
AcDbLine
 10
1704.628989840125
 20
1013.639902455633
 30
0.0
 11
1704.628989840125
 21
851.6399024556328
 31
0.0
  0
LINE
  5
2200
330
1F
100
AcDbEntity
  8
2_細線
100
AcDbLine
 10
1596.948215858347
 20
986.6399024556328
 30
0.0
 11
2000.148215858347
 21
986.6399024556328
 31
0.0
  0
LINE
  5
2201
330
1F
100
AcDbEntity
  8
2_細線
100
AcDbLine
 10
1596.948215858347
 20
959.6399024556328
 30
0.0
 11
2000.148215858347
 21
959.6399024556328
 31
0.0
  0
LINE
  5
2202
330
1F
100
AcDbEntity
  8
2_細線
100
AcDbLine
 10
1596.948215858347
 20
932.6399024556327
 30
0.0
 11
2000.148215858347
 21
932.6399024556327
 31
0.0
  0
LINE
  5
2203
330
1F
100
AcDbEntity
  8
2_細線
100
AcDbLine
 10
1596.948215858347
 20
905.6399024556327
 30
0.0
 11
2000.148215858347
 21
905.6399024556327
 31
0.0
  0
LINE
  5
2204
330
1F
100
AcDbEntity
  8
2_細線
100
AcDbLine
 10
1596.948215858347
 20
878.6399024556329
 30
0.0
 11
2000.148215858347
 21
878.6399024556329
 31
0.0
  0
LINE
  5
2206
330
1F
100
AcDbEntity
  8
9_構築線
100
AcDbLine
 10
1214.499739343616
 20
1244.91683262881
 30
0.0
 11
1550.499739343616
 21
1244.91683262881
 31
0.0
  0
TEXT
  5
220B
330
1F
100
AcDbEntity
  8
文字
100
AcDbText
 10
1283.990378385904
 20
160.589184271852
 30
0.0
 40
13.5
  1
2016
100
AcDbText
  0
TEXT
  5
220C
330
1F
100
AcDbEntity
  8
文字
100
AcDbText
 10
1366.15505190254
 20
160.7922270699855
 30
0.0
 40
13.5
  1
05
100
AcDbText
  0
TEXT
  5
220D
330
1F
100
AcDbEntity
  8
文字
100
AcDbText
 10
1429.08972776524
 20
160.1220705342675
 30
0.0
 40
13.5
  1
25
100
AcDbText
  0
TEXT
  5
220E
330
1F
100
AcDbEntity
  8
文字
100
AcDbText
 10
1244.656198376977
 20
122.6482624572499
 30
0.0
 40
17.99549999999999
  1
G.Y
100
AcDbText
  0
TEXT
  5
220F
330
1F
100
AcDbEntity
  8
文字
100
AcDbText
 10
1233.293073179564
 20
78.43675837712694
 30
0.0
 40
11.2471875
  1
28.05.25
100
AcDbText
  0
TEXT
  5
2210
330
1F
100
AcDbEntity
  8
文字
100
AcDbText
 10
1603.9081368107
 20
101.4612113339555
 30
0.0
 40
17.99549999999999
  1
麺水切機
100
AcDbText
  0
TEXT
  5
2212
330
1F
100
AcDbEntity
  8
文字
100
AcDbText
 10
1841.66122171891
 20
54.95151941096594
 30
0.0
 40
13.5
  1
NMM-720-1A
100
AcDbText
  0
TEXT
  5
2213
330
1F
100
AcDbEntity
  8
文字
100
AcDbText
 10
1886.23990235498
 20
103.8504023426354
 30
0.0
 40
13.5
  1
NMM-720
100
AcDbText
  0
TEXT
  5
2215
330
1F
100
AcDbEntity
  8
文字
100
AcDbText
 10
1550.588642048707
 20
159.9190277361375
 30
0.0
 40
13.5
  1
1
100
AcDbText
  0
TEXT
  5
2216
330
1F
100
AcDbEntity
  8
文字
100
AcDbText
 10
1564.574078317593
 20
140.0386257376885
 30
0.0
 40
13.5
  1
4.5
100
AcDbText
  0
CIRCLE
  5
221E
330
1F
100
AcDbEntity
  8
文字
100
AcDbCircle
 10
1408.283681006765
 20
342.4681307567043
 30
0.0
 40
15.75
  0
TEXT
  5
2221
330
1F
100
AcDbEntity
  8
文字
100
AcDbText
 10
507.4201699706589
 20
924.1996569525928
 30
0.0
 40
13.5
  1
5
100
AcDbText
  0
TEXT
  5
2222
330
1F
100
AcDbEntity
  8
文字
100
AcDbText
 10
866.1763753774312
 20
225.8434809605519
 30
0.0
 40
13.5
  1
6
100
AcDbText
  0
TEXT
  5
2223
330
1F
100
AcDbEntity
  8
文字
100
AcDbText
 10
400.0204725504181
 20
304.4437277179145
 30
0.0
 40
13.5
  1
7
100
AcDbText
  0
TEXT
  5
2224
330
1F
100
AcDbEntity
  8
文字
100
AcDbText
 10
955.5110481804833
 20
825.0560742542353
 30
0.0
 40
13.5
  1
8
100
AcDbText
  0
TEXT
  5
2225
330
1F
100
AcDbEntity
  8
文字
100
AcDbText
 10
955.0358616003661
 20
682.9945766520973
 30
0.0
 40
13.5
  1
9
100
AcDbText
  0
TEXT
  5
2226
330
1F
100
AcDbEntity
  8
文字
100
AcDbText
 10
397.1693609963613
 20
411.1399272836247
 30
0.0
 40
13.5
  1
10
100
AcDbText
  0
TEXT
  5
2227
330
1F
100
AcDbEntity
  8
文字
100
AcDbText
 10
398.1197420832423
 20
233.4296933921118
 30
0.0
 40
13.5
  1
11
100
AcDbText
  0
TEXT
  5
2228
330
1F
100
AcDbEntity
  8
文字
100
AcDbText
 10
1399.333276861747
 20
335.7623919966471
 30
0.0
 40
13.5
  1
12
100
AcDbText
  0
TEXT
  5
2229
330
1F
100
AcDbEntity
  8
文字
100
AcDbText
 10
1450.927594349527
 20
784.4577833289632
 30
0.0
 40
13.5
  1
1
100
AcDbText
  0
TEXT
  5
222A
330
1F
100
AcDbEntity
  8
文字
100
AcDbText
 10
400.2628297547808
 20
935.8837169019572
 30
0.0
 40
13.5
  1
2
100
AcDbText
  0
TEXT
  5
222B
330
1F
100
AcDbEntity
  8
文字
100
AcDbText
 10
399.6846601885926
 20
738.0066790390233
 30
0.0
 40
13.5
  1
3
100
AcDbText
  0
TEXT
  5
222C
330
1F
100
AcDbEntity
  8
文字
100
AcDbText
 10
398.5935775164236
 20
644.0643411744659
 30
0.0
 40
13.5
  1
4
100
AcDbText
  0
CIRCLE
  5
222E
330
1F
100
AcDbEntity
  8
文字
100
AcDbCircle
 10
1452.991066787685
 20
790.9544166513368
 30
0.0
 40
15.75
  0
CIRCLE
  5
222F
330
1F
100
AcDbEntity
  8
文字
100
AcDbCircle
 10
404.7022271668764
 20
943.0464991410374
 30
0.0
 40
15.75
  0
CIRCLE
  5
2230
330
1F
100
AcDbEntity
  8
文字
100
AcDbCircle
 10
404.1240576006903
 20
745.3609521354792
 30
0.0
 40
15.75
  0
CIRCLE
  5
2231
330
1F
100
AcDbEntity
  8
文字
100
AcDbCircle
 10
403.9833401621092
 20
651.1354610571637
 30
0.0
 40
15.75
  0
CIRCLE
  5
2232
330
1F
100
AcDbEntity
  8
文字
100
AcDbCircle
 10
959.709602377622
 20
831.7742334088277
 30
0.0
 40
15.75
  0
CIRCLE
  5
2233
330
1F
100
AcDbEntity
  8
文字
100
AcDbCircle
 10
404.6942133276743
 20
312.0905919726773
 30
0.0
 40
15.75
  0
CIRCLE
  5
2234
330
1F
100
AcDbEntity
  8
文字
100
AcDbCircle
 10
870.3749295745701
 20
232.3495522274752
 30
0.0
 40
15.75
  0
CIRCLE
  5
2235
330
1F
100
AcDbEntity
  8
文字
100
AcDbCircle
 10
511.6187241677978
 20
930.9888814332735
 30
0.0
 40
15.75
  0
CIRCLE
  5
2237
330
1F
100
AcDbEntity
  8
文字
100
AcDbCircle
 10
959.709602377622
 20
690.0751309822949
 30
0.0
 40
15.75
  0
CIRCLE
  5
2238
330
1F
100
AcDbEntity
  8
文字
100
AcDbCircle
 10
404.6942133276743
 20
418.4119759682471
 30
0.0
 40
15.75
  0
CIRCLE
  5
2239
330
1F
100
AcDbEntity
  8
文字
100
AcDbCircle
 10
404.6942133276743
 20
239.9439377977441
 30
0.0
 40
15.75
  0
XLINE
  5
223A
330
1F
100
AcDbEntity
  8
構築線
100
AcDbXline
 10
798.2186427726247
 20
1188.065427129622
 30
0.0
 11
0.0000000000000002
 21
-1.0
 31
0.0
  0
XLINE
  5
223B
330
1F
100
AcDbEntity
  8
構築線
100
AcDbXline
 10
243.203253722677
 20
1191.862618166233
 30
0.0
 11
0.0000000000000002
 21
-1.0
 31
0.0
  0
LEADER
  5
223D
330
1F
100
AcDbEntity
  8
寸法線
100
AcDbLeader
  3
ISO-25
 76
     2
 10
486.6140556472163
 20
883.6196745052792
 30
0.0
 10
417.4505771730165
 20
933.797603416631
 30
0.0
1001
ACAD
1000
DSTYLE
1002
{
1070
     5
1000
OPEN
1070
    77
1070
     0
1070
   147
1040
1.0
1002
}
  0
LINE
  5
223F
330
1F
100
AcDbEntity
  8
寸法線
100
AcDbLine
 10
535.0054545346097
 20
844.9303146598206
 30
0.0
 11
515.7490483175187
 21
915.7901011395058
 31
0.0
  0
LEADER
  5
2241
330
1F
100
AcDbEntity
  8
寸法線
100
AcDbLeader
  3
ISO-25
 40
15.75
 41
109.3499999999999
 76
     2
 10
579.8200537748875
 20
800.6000444337576
 30
0.0
 10
419.1489607713096
 20
750.0848048759348
 30
0.0
213
0.0
223
6.75
233
0.0
1001
ACAD
1000
DSTYLE
1002
{
1070
     5
1000
OPEN
1070
    77
1070
     0
1070
   147
1040
1.0
1002
}
  0
LEADER
  5
2243
330
1F
100
AcDbEntity
  8
寸法線
100
AcDbLeader
  3
ISO-25
 76
     2
 10
581.4593328156743
 20
762.1823174537735
 30
0.0
 10
417.3351068789416
 20
659.4896711059524
 30
0.0
1001
ACAD
1000
DSTYLE
1002
{
1070
     5
1000
OPEN
1070
    77
1070
     0
1070
   147
1040
1.0
1002
}
  0
LEADER
  5
2245
330
1F
100
AcDbEntity
  8
寸法線
100
AcDbLeader
  3
ISO-25
 76
     2
 10
627.5017084786632
 20
369.1248645617652
 30
0.0
 10
419.9522472660987
 20
315.9963441836968
 30
0.0
1001
ACAD
1000
DSTYLE
1002
{
1070
     5
1000
OPEN
1070
    77
1070
     0
1070
   147
1040
1.0
1002
}
  0
LEADER
  5
2246
330
1F
100
AcDbEntity
  8
寸法線
100
AcDbLeader
  3
ISO-25
 76
     2
 10
513.4579121546903
 20
368.322644846647
 30
0.0
 10
419.0000387095598
 20
411.8236635786443
 30
0.0
1001
ACAD
1000
DSTYLE
1002
{
1070
     5
1000
OPEN
1070
    77
1070
     0
1070
   147
1040
1.0
1002
}
  0
LEADER
  5
2249
330
1F
100
AcDbEntity
  8
寸法線
100
AcDbLeader
  3
ISO-25
 76
     2
 10
515.4054545346098
 20
289.712289975585
 30
0.0
 10
419.0594866435223
 20
246.4016016602398
 30
0.0
1001
ACAD
1000
DSTYLE
1002
{
1070
     5
1000
OPEN
1070
    77
1070
     0
1070
   147
1040
1.0
1002
}
  0
LEADER
  5
224A
330
1F
100
AcDbEntity
  8
寸法線
100
AcDbLeader
  3
ISO-25
 76
     2
 10
717.9175203225822
 20
382.7626137069667
 30
0.0
 10
859.1630799173755
 20
243.4110587823917
 30
0.0
1001
ACAD
1000
DSTYLE
1002
{
1070
     5
1000
OPEN
1070
    77
1070
     0
1070
   147
1040
1.0
1002
}
  0
LEADER
  5
224C
330
1F
100
AcDbEntity
  8
寸法線
100
AcDbLeader
  3
ISO-25
 76
     2
 10
754.8612794118663
 20
753.4205187602632
 30
0.0
 10
944.6626043073983
 20
694.7281245428622
 30
0.0
1001
ACAD
1000
DSTYLE
1002
{
1070
     5
1000
OPEN
1070
    77
1070
     0
1070
   147
1040
1.0
1002
}
  0
LINE
  5
224D
330
1F
100
AcDbEntity
  8
寸法線
100
AcDbLine
 10
745.9054545346097
 20
780.7122899755849
 30
0.0
 11
944.3904298181418
 21
828.1156199975923
 31
0.0
  0
LEADER
  5
224E
330
1F
100
AcDbEntity
  8
寸法線
100
AcDbLeader
  3
ISO-25
 76
     2
 10
1372.464657511873
 20
753.8216303663472
 30
0.0
 10
1438.688460361994
 20
784.3591191272106
 30
0.0
1001
ACAD
1000
DSTYLE
1002
{
1070
     5
1000
OPEN
1070
    77
1070
     0
1070
   147
1040
1.0
1002
}
  0
LEADER
  5
224F
330
1F
100
AcDbEntity
  8
寸法線
100
AcDbLeader
  3
ISO-25
 76
     2
 10
1424.549674249166
 20
414.5889884621081
 30
0.0
 10
1411.748865051718
 20
357.8322122305381
 30
0.0
1001
ACAD
1000
DSTYLE
1002
{
1070
     5
1000
OPEN
1070
    77
1070
     0
1070
   147
1040
1.0
1002
}
  0
XLINE
  5
22B1
330
1F
100
AcDbEntity
  8
構築線
100
AcDbXline
 10
642.9054545346096
 20
1180.574921991818
 30
0.0
 11
0.0000000000000002
 21
-1.0
 31
0.0
  0
XLINE
  5
22B2
330
1F
100
AcDbEntity
  8
構築線
100
AcDbXline
 10
702.9054545346097
 20
1180.574921991818
 30
0.0
 11
0.0000000000000002
 21
-1.0
 31
0.0
  0
CIRCLE
  5
22B4
330
1F
100
AcDbEntity
  8
4_破線2中
100
AcDbCircle
 10
702.9054545346097
 20
1195.712289975584
 30
0.0
 40
13.0
  0
DIMENSION
  5
22B8
330
1F
100
AcDbEntity
  8
寸法線
100
AcDbDimension
  2
*D23
 10
1264.701020126514
 20
374.712289975585
 30
0.0
 11
1253.451020126512
 21
333.0872899755851
 31
0.0
 70
    32
 71
     5
 42
-1.0
  3
ISO-25
100
AcDbAlignedDimension
 13
1213.405454534609
 23
394.7122899755849
 33
0.0
 14
1213.405454534609
 24
374.712289975585
 34
0.0
 50
90.0
100
AcDbRotatedDimension
  0
DIMENSION
  5
2307
330
1F
100
AcDbEntity
  8
寸法線
100
AcDbDimension
  2
*D24
 10
1023.61884369711
 20
354.7122899755851
 30
0.0
 11
1012.368843697111
 21
374.7122899755851
 31
0.0
 70
    32
 71
     5
 42
-1.0
  3
ISO-25
100
AcDbAlignedDimension
 13
1054.093835100879
 23
394.712289975585
 33
0.0
 14
1152.905454534609
 24
354.712289975585
 34
0.0
 50
90.0
100
AcDbRotatedDimension
  0
CIRCLE
  5
2318
330
1F
100
AcDbEntity
  8
5_破線3長
100
AcDbCircle
 10
1163.905454534609
 20
530.1327533313233
 30
0.0
 40
17.5
  0
XLINE
  5
231B
330
1F
100
AcDbEntity
  8
構築線
100
AcDbXline
 10
525.2090359428838
 20
1243.071041880537
 30
0.0
 11
0.0000000000000002
 21
-1.0
 31
0.0
  0
XLINE
  5
231C
330
1F
100
AcDbEntity
  8
構築線
100
AcDbXline
 10
580.5261327633851
 20
1466.071041880537
 30
0.0
 11
0.0000000000000002
 21
-1.0
 31
0.0
  0
XLINE
  5
231D
330
1F
100
AcDbEntity
  8
構築線
100
AcDbXline
 10
725.5779536561306
 20
1107.996002836338
 30
0.0
 11
0.0000000000000002
 21
-1.0
 31
0.0
  0
LINE
  5
231E
330
1F
100
AcDbEntity
  8
5_破線3長
100
AcDbLine
 10
725.5528660015767
 20
1193.675751538004
 30
0.0
 11
770.7300289573033
 21
1182.71928517849
 31
0.0
  0
LINE
  5
231F
330
1F
100
AcDbEntity
  8
5_破線3長
100
AcDbLine
 10
717.3037171561897
 20
1159.661761132191
 30
0.0
 11
762.4808801119162
 21
1148.705294772679
 31
0.0
  0
CIRCLE
  5
2320
330
1F
100
AcDbEntity
  8
5_破線3長
100
AcDbCircle
 10
642.9054545346096
 20
1195.712289975584
 30
0.0
 40
82.67249912152079
  0
XLINE
  5
2323
330
1F
100
AcDbEntity
  8
構築線
100
AcDbXline
 10
1198.905454534609
 20
1344.074921991817
 30
0.0
 11
0.0000000000000002
 21
-1.0
 31
0.0
  0
XLINE
  5
2324
330
1F
100
AcDbEntity
  8
構築線
100
AcDbXline
 10
1196.905454534609
 20
1344.074921991817
 30
0.0
 11
0.0000000000000002
 21
-1.0
 31
0.0
  0
XLINE
  5
2327
330
1F
100
AcDbEntity
  8
構築線
100
AcDbXline
 10
726.0017693378578
 20
892.0648821055037
 30
0.0
 11
1.0
 21
0.0000000000000002
 31
0.0
  0
ARC
  5
2329
330
1F
100
AcDbEntity
  8
5_破線3長
100
AcDbCircle
 10
1179.405454534609
 20
792.0648821055037
 30
0.0
 40
17.5
100
AcDbArc
 50
302.2132798221236
 51
289.4410988125588
  0
ARC
  5
232C
330
1F
100
AcDbEntity
  8
5_破線3長
100
AcDbCircle
 10
1191.255422064066
 20
767.5817038974221
 30
0.0
 40
10.0
100
AcDbArc
 50
104.6030026173643
 51
180.0
  0
ARC
  5
2337
330
1F
100
AcDbEntity
  8
5_破線3長
100
AcDbCircle
 10
1176.398698863215
 20
779.4408289641478
 30
0.0
 40
30.0
100
AcDbArc
 50
88.40999760077139
 51
181.2159603436703
  0
TEXT
  5
2795
330
1F
100
AcDbEntity
  8
0
100
AcDbText
 10
1916.900472227393
 20
1256.049460879535
 30
0.0
 40
10.0
  1
外径：29mm
100
AcDbText
  0
TEXT
  5
2796
330
1F
100
AcDbEntity
  8
0
100
AcDbText
 10
1916.900472227393
 20
1242.925485040786
 30
0.0
 40
10.0
  1
内径：23.5mm
100
AcDbText
  0
LINE
  5
283B
102
{ACAD_REACTORS
330
2948
102
}
330
1F
100
AcDbEntity
  8
0
 62
     2
100
AcDbLine
 10
2008.453273161282
 20
73.65612586014958
 30
0.0
 11
1996.723273161283
 21
53.25612586014995
 31
0.0
  0
LINE
  5
283C
102
{ACAD_REACTORS
330
2948
102
}
330
1F
100
AcDbEntity
  8
0
 62
     2
100
AcDbLine
 10
1996.723273161283
 20
53.25612586014995
 30
0.0
 11
2020.183273161286
 21
53.25612586014995
 31
0.0
  0
LINE
  5
283D
102
{ACAD_REACTORS
330
2948
102
}
330
1F
100
AcDbEntity
  8
0
 62
     2
100
AcDbLine
 10
2020.183273161286
 20
53.25612586014995
 30
0.0
 11
2008.453273161282
 21
73.65612586014958
 31
0.0
  0
TEXT
  5
283E
102
{ACAD_REACTORS
330
2948
102
}
330
1F
100
AcDbEntity
  8
文字
 62
     2
100
AcDbText
 10
2006.640913541076
 20
55.8468488069252
 30
0.0
 40
11.04999999999999
  1
1
100
AcDbText
  0
TEXT
  5
28A2
330
1F
100
AcDbEntity
  8
文字
 62
     2
100
AcDbText
 10
835.234543247393
 20
72.89246606666043
 30
0.0
 40
13.81249986187504
  1
1
100
AcDbText
  0
TEXT
  5
28A3
330
1F
100
AcDbEntity
  8
文字
100
AcDbText
 10
866.3176023955028
 20
74.67020773854227
 30
0.0
 40
13.74999986250004
  1
2021.06.07
 41
0.5030373009487203
  7
ED_VECTOR
 72
     5
 11
933.1796429779831
 21
74.67020773854227
 31
0.0
100
AcDbText
  0
LINE
  5
28A6
330
1F
100
AcDbEntity
  8
0
100
AcDbLine
 10
812.4999929999981
 20
119.9999992499998
 30
0.0
 11
1137.499989749999
 21
119.9999992499998
 31
0.0
  0
LINE
  5
28A7
330
1F
100
AcDbEntity
  8
0
100
AcDbLine
 10
812.4999929999981
 20
44.99999999999992
 30
0.0
 11
812.4999929999981
 21
119.9999992499998
 31
0.0
  0
LINE
  5
28A8
330
1F
100
AcDbEntity
  8
0
100
AcDbLine
 10
1137.499989749999
 20
69.99999975
 30
0.0
 11
812.4999929999981
 21
69.99999975
 31
0.0
  0
LINE
  5
28A9
330
1F
100
AcDbEntity
  8
0
100
AcDbLine
 10
1137.499989749999
 20
94.99999950000008
 30
0.0
 11
812.4999929999981
 21
94.99999950000008
 31
0.0
  0
LINE
  5
28AA
330
1F
100
AcDbEntity
  8
0
100
AcDbLine
 10
1087.499990249999
 20
44.99999999999964
 30
0.0
 11
1087.499990249999
 21
119.9999992499998
 31
0.0
  0
LINE
  5
28AF
330
1F
100
AcDbEntity
  8
0
100
AcDbLine
 10
862.4999924999983
 20
44.99999999999992
 30
0.0
 11
862.4999924999983
 21
119.9999992499998
 31
0.0
  0
LINE
  5
28B0
330
1F
100
AcDbEntity
  8
0
100
AcDbLine
 10
937.4999917499984
 20
44.99999999999992
 30
0.0
 11
937.4999917499984
 21
119.9999992499998
 31
0.0
  0
LINE
  5
28B1
330
1F
100
AcDbEntity
  8
0
100
AcDbLine
 10
824.999992874998
 20
94.99999950000008
 30
0.0
 11
849.9999926249982
 21
94.99999950000008
 31
0.0
  0
LINE
  5
28B2
330
1F
100
AcDbEntity
  8
0
100
AcDbLine
 10
837.4999927499981
 20
119.9999992499998
 30
0.0
 11
823.1249928937481
 21
94.99999950000008
 31
0.0
  0
LINE
  5
28B3
330
1F
100
AcDbEntity
  8
0
100
AcDbLine
 10
823.1249928937481
 20
94.99999950000008
 30
0.0
 11
851.8749926062483
 21
94.99999950000008
 31
0.0
  0
LINE
  5
28B4
330
1F
100
AcDbEntity
  8
0
100
AcDbLine
 10
851.8749926062483
 20
94.99999950000008
 30
0.0
 11
837.4999927499981
 21
119.9999992499998
 31
0.0
  0
LINE
  5
28B5
330
1F
100
AcDbEntity
  8
0
100
AcDbLine
 10
837.4999927499981
 20
94.99999950000008
 30
0.0
 11
823.1249928937481
 21
69.99999975
 31
0.0
  0
LINE
  5
28B6
330
1F
100
AcDbEntity
  8
0
100
AcDbLine
 10
823.1249928937481
 20
69.99999975
 30
0.0
 11
851.8749926062483
 21
69.99999975
 31
0.0
  0
LINE
  5
28B7
330
1F
100
AcDbEntity
  8
0
100
AcDbLine
 10
851.8749926062483
 20
69.99999975
 30
0.0
 11
837.4999927499981
 21
94.99999950000008
 31
0.0
  0
LINE
  5
28B9
330
1F
100
AcDbEntity
  8
0
100
AcDbLine
 10
1137.499989749999
 20
44.99999999999992
 30
0.0
 11
812.4999929999981
 21
44.99999999999992
 31
0.0
  0
LINE
  5
28BA
330
1F
100
AcDbEntity
  8
0
100
AcDbLine
 10
1137.499989749999
 20
44.99999999999992
 30
0.0
 11
1137.499989749999
 21
119.9999992499998
 31
0.0
  0
TEXT
  5
290A
330
1F
100
AcDbEntity
  8
0
100
AcDbText
 10
1092.300290336965
 20
47.83645626937103
 30
0.0
 40
18.7499998125
  1
担当
100
AcDbText
  0
TEXT
  5
290E
330
1F
100
AcDbEntity
  8
0
100
AcDbText
 10
969.7208569424377
 20
47.83645626937103
 30
0.0
 40
18.7499998125
  1
訂　　正
100
AcDbText
  0
TEXT
  5
291A
330
1F
100
AcDbEntity
  8
0
100
AcDbText
 10
817.3002930869639
 20
47.83645626937096
 30
0.0
 40
18.7499998125
  1
記号
100
AcDbText
  0
TEXT
  5
291B
330
1F
100
AcDbEntity
  8
0
100
AcDbText
 10
869.989949164619
 20
47.83645626937096
 30
0.0
 40
18.7499998125
  1
日　付
100
AcDbText
  0
LINE
  5
2949
102
{ACAD_REACTORS
330
294D
102
}
330
1F
100
AcDbEntity
  8
0
 62
     2
100
AcDbLine
 10
2021.578589372145
 20
1264.506835442968
 30
0.0
 11
2009.848589372146
 21
1244.106835442968
 31
0.0
  0
LINE
  5
294A
102
{ACAD_REACTORS
330
294D
102
}
330
1F
100
AcDbEntity
  8
0
 62
     2
100
AcDbLine
 10
2009.848589372146
 20
1244.106835442968
 30
0.0
 11
2033.308589372148
 21
1244.106835442968
 31
0.0
  0
LINE
  5
294B
102
{ACAD_REACTORS
330
294D
102
}
330
1F
100
AcDbEntity
  8
0
 62
     2
100
AcDbLine
 10
2033.308589372148
 20
1244.106835442968
 30
0.0
 11
2021.578589372145
 21
1264.506835442968
 31
0.0
  0
TEXT
  5
294C
102
{ACAD_REACTORS
330
294D
102
}
330
1F
100
AcDbEntity
  8
文字
 62
     2
100
AcDbText
 10
2019.766229751939
 20
1246.697558389744
 30
0.0
 40
11.04999999999999
  1
1
100
AcDbText
  0
LINE
  5
294E
102
{ACAD_REACTORS
330
2952
102
}
330
1F
100
AcDbEntity
  8
0
 62
     2
100
AcDbLine
 10
1707.392424753881
 20
1102.506835442969
 30
0.0
 11
1695.662424753881
 21
1082.106835442969
 31
0.0
  0
LINE
  5
294F
102
{ACAD_REACTORS
330
2952
102
}
330
1F
100
AcDbEntity
  8
0
 62
     2
100
AcDbLine
 10
1695.662424753881
 20
1082.106835442969
 30
0.0
 11
1719.122424753884
 21
1082.106835442969
 31
0.0
  0
LINE
  5
2950
102
{ACAD_REACTORS
330
2952
102
}
330
1F
100
AcDbEntity
  8
0
 62
     2
100
AcDbLine
 10
1719.122424753884
 20
1082.106835442969
 30
0.0
 11
1707.392424753881
 21
1102.506835442969
 31
0.0
  0
TEXT
  5
2951
102
{ACAD_REACTORS
330
2952
102
}
330
1F
100
AcDbEntity
  8
文字
 62
     2
100
AcDbText
 10
1705.580065133675
 20
1084.697558389745
 30
0.0
 40
11.04999999999999
  1
1
100
AcDbText
  0
TEXT
  5
2956
330
1F
100
AcDbEntity
  8
0
100
AcDbText
 10
1096.144514937752
 20
74.70849082178915
 30
0.0
 40
15.0
  1
福田
100
AcDbText
  0
TEXT
  5
295A
330
1F
100
AcDbEntity
  8
0
100
AcDbText
 10
946.1445164377522
 20
74.70849082178915
 30
0.0
 40
15.0
  1
詳細追加
100
AcDbText
  0
VIEWPORT
  5
100
102
{ACAD_XDICTIONARY
360
1789
102
}
330
1B
100
AcDbEntity
 67
     1
  8
0
100
AcDbViewport
 10
229.1094728774532
 20
144.7270843982695
 30
0.0
 40
561.9335828491458
 41
314.1924854736328
 68
     1
 69
     1
 12
229.1094728774532
 22
144.7270843982695
 13
0.0
 23
0.0
 14
10.0
 24
10.0
 15
10.0
 25
10.0
 16
0.0
 26
0.0
 36
1.0
 17
0.0
 27
0.0
 37
0.0
 42
50.0
 43
0.0
 44
0.0
 45
314.1924854736328
 50
0.0
 51
0.0
 72
   100
 90
    32800
  1

281
     0
 71
     1
 74
     0
110
0.0
120
0.0
130
0.0
111
1.0
121
0.0
131
0.0
112
0.0
122
1.0
132
0.0
 79
     0
146
0.0
  0
VIEWPORT
  5
102
102
{ACAD_XDICTIONARY
360
178B
102
}
330
1B
100
AcDbEntity
 67
     1
  8
7_中心線2中
100
AcDbViewport
 10
195.244864463806
 20
144.7270828485488
 30
0.0
 40
312.3917831420898
 41
231.5633325576782
 68
     2
 69
     2
 12
209.5918278868679
 22
144.9878089149573
 13
0.0
 23
0.0
 14
10.0
 24
10.0
 15
10.0
 25
10.0
 16
0.0
 26
0.0
 36
1.0
 17
0.0
 27
0.0
 37
0.0
 42
50.0
 43
0.0
 44
0.0
 45
300.2695985379375
 50
0.0
 51
0.0
 72
   100
 90
    33376
  1

281
     0
 71
     1
 74
     0
110
0.0
120
0.0
130
0.0
111
1.0
121
0.0
131
0.0
112
0.0
122
1.0
132
0.0
 79
     0
146
0.0
  0
ENDSEC
  0
SECTION
  2
OBJECTS
  0
DICTIONARY
  5
C
330
0
100
AcDbDictionary
281
     1
  3
ACAD_COLOR
350
7D2
  3
ACAD_GROUP
350
D
  3
ACAD_LAYOUT
350
1A
  3
ACAD_MATERIAL
350
7D1
  3
ACAD_MLINESTYLE
350
17
  3
ACAD_PLOTSETTINGS
350
19
  3
ACAD_PLOTSTYLENAME
350
E
  3
ACAD_TABLESTYLE
350
7D3
  3
ACADDIM
350
224B
  3
ACDBVARIABLEDICTIONARY
350
7DA
  0
DICTIONARY
  5
854
330
2
100
AcDbDictionary
280
     1
281
     1
  3
ACAD_LAYERFILTERS
360
1414
  3
ACLYDICTIONARY
360
1413
  0
DICTIONARY
  5
803
330
1F
100
AcDbDictionary
280
     1
281
     1
  3
ACAD_SORTENTS
360
804
  3
ACAD_LAYOUTSELFREF
360
236C
  0
DICTIONARY
  5
236A
330
1B
100
AcDbDictionary
280
     1
281
     1
  3
ACAD_LAYOUTSELFREF
360
236B
  0
DICTIONARY
  5
1300
330
12FF
100
AcDbDictionary
280
     1
281
     1
  3
ACAD_SORTENTS
360
1301
  0
DICTIONARY
  5
1789
330
100
100
AcDbDictionary
280
     1
281
     1
  3
ACAD_XREC_ROUNDTRIP
360
178A
  0
DICTIONARY
  5
178B
330
102
100
AcDbDictionary
280
     1
281
     1
  3
ACAD_XREC_ROUNDTRIP
360
178C
  0
DICTIONARY
  5
7D2
102
{ACAD_REACTORS
330
C
102
}
330
C
100
AcDbDictionary
281
     1
  0
DICTIONARY
  5
D
102
{ACAD_REACTORS
330
C
102
}
330
C
100
AcDbDictionary
281
     1
  3
*A3
350
28D4
  3
*A4
350
28D5
  3
*A5
350
28EE
  3
*A6
350
28EF
  3
*A7
350
2908
  3
*A8
350
2909
  3
*A9
350
2948
  3
*A10
350
294D
  3
*A11
350
2952
  0
DICTIONARY
  5
1A
102
{ACAD_REACTORS
330
C
102
}
330
C
100
AcDbDictionary
281
     1
  3
Model
350
2376
  3
ﾚｲｱｳﾄ1
350
2377
  0
DICTIONARY
  5
7D1
102
{ACAD_REACTORS
330
C
102
}
330
C
100
AcDbDictionary
281
     1
  0
DICTIONARY
  5
17
102
{ACAD_REACTORS
330
C
102
}
330
C
100
AcDbDictionary
281
     1
  3
STANDARD
350
18
  0
DICTIONARY
  5
19
102
{ACAD_REACTORS
330
C
102
}
330
C
100
AcDbDictionary
281
     1
  0
ACDBDICTIONARYWDFLT
  5
E
102
{ACAD_REACTORS
330
C
102
}
330
C
100
AcDbDictionary
281
     1
  3
Normal
350
F
100
AcDbDictionaryWithDefault
340
F
  0
DICTIONARY
  5
7D3
102
{ACAD_REACTORS
330
C
102
}
330
C
100
AcDbDictionary
281
     1
  3
STANDARD
350
7D4
  0
XRECORD
  5
224B
102
{ACAD_REACTORS
330
C
102
}
330
C
100
AcDbXrecord
280
     1
 90
   990106
  3

 60
     0
 61
     0
 62
     1
 63
     3
 64
     0
 65
     0
 66
     0
 67
     3
 68
     1
 69
     0
 70
     0
 71
     0
 72
     0
 40
0.0
170
     0
340
0
  0
DICTIONARY
  5
7DA
102
{ACAD_REACTORS
330
C
102
}
330
C
100
AcDbDictionary
281
     1
  3
CTABLESTYLE
350
7DB
  3
DIMASSOC
350
1791
  3
PROJECTNAME
350
1792
  0
DICTIONARY
  5
1414
102
{ACAD_REACTORS
330
854
102
}
330
854
100
AcDbDictionary
281
     1
  0
DICTIONARY
  5
1413
102
{ACAD_REACTORS
330
854
102
}
330
854
100
AcDbDictionary
281
     1
1001
ACAD
1000
<All
  0
SORTENTSTABLE
  5
804
102
{ACAD_REACTORS
330
803
102
}
330
803
100
AcDbSortentsTable
330
1F
331
8B
  5
8B
331
9C
  5
9C
331
9A
  5
9A
331
98
  5
98
331
96
  5
96
331
9B
  5
9B
331
97
  5
97
331
95
  5
95
331
AA
  5
AA
  0
XRECORD
  5
236C
102
{ACAD_REACTORS
330
803
102
}
330
803
100
AcDbXrecord
280
     1
340
1F
  0
XRECORD
  5
236B
102
{ACAD_REACTORS
330
236A
102
}
330
236A
100
AcDbXrecord
280
     1
340
1B
  0
SORTENTSTABLE
  5
1301
102
{ACAD_REACTORS
330
1300
102
}
330
1300
100
AcDbSortentsTable
330
12FF
  0
XRECORD
  5
178A
102
{ACAD_REACTORS
330
1789
102
}
330
1789
100
AcDbXrecord
280
     1
102
SHADEPLOT
 70
     0
  0
XRECORD
  5
178C
102
{ACAD_REACTORS
330
178B
102
}
330
178B
100
AcDbXrecord
280
     1
102
SHADEPLOT
 70
     0
  0
GROUP
  5
28D4
102
{ACAD_REACTORS
330
D
102
}
330
D
100
AcDbGroup
300

 70
     1
 71
     1
  0
GROUP
  5
28D5
102
{ACAD_REACTORS
330
D
102
}
330
D
100
AcDbGroup
300

 70
     1
 71
     1
  0
GROUP
  5
28EE
102
{ACAD_REACTORS
330
D
102
}
330
D
100
AcDbGroup
300

 70
     1
 71
     1
  0
GROUP
  5
28EF
102
{ACAD_REACTORS
330
D
102
}
330
D
100
AcDbGroup
300

 70
     1
 71
     1
  0
GROUP
  5
2908
102
{ACAD_REACTORS
330
D
102
}
330
D
100
AcDbGroup
300

 70
     1
 71
     1
  0
GROUP
  5
2909
102
{ACAD_REACTORS
330
D
102
}
330
D
100
AcDbGroup
300

 70
     1
 71
     1
  0
GROUP
  5
2948
102
{ACAD_REACTORS
330
D
102
}
330
D
100
AcDbGroup
300

 70
     1
 71
     1
340
283C
340
283D
340
283B
340
283E
  0
GROUP
  5
294D
102
{ACAD_REACTORS
330
D
102
}
330
D
100
AcDbGroup
300

 70
     1
 71
     1
340
294A
340
294B
340
2949
340
294C
  0
GROUP
  5
2952
102
{ACAD_REACTORS
330
D
102
}
330
D
100
AcDbGroup
300

 70
     1
 71
     1
340
294F
340
2950
340
294E
340
2951
  0
LAYOUT
  5
2376
102
{ACAD_REACTORS
330
1A
102
}
330
1A
100
AcDbPlotSettings
  1

  2
PrimoPDF
  4
A3
  6

 40
3.174999952316284
 41
3.174999952316284
 42
3.17498779296875
 43
3.17498779296875
 44
297.0106506347656
 45
419.9889831542968
 46
6.83
 47
14.32
 48
112.5
 49
45.0
140
2037.49998075
141
1429.99998615
142
1.0
143
5.0
 70
 11940
 72
     1
 73
     1
 74
     4
  7
monochrome.ctb
 75
     0
147
0.2
148
-112.5
149
-45.0
100
AcDbLayout
  1
Model
 70
     1
 71
     0
 10
0.0
 20
0.0
 11
12.0
 21
9.0
 12
0.0
 22
0.0
 32
0.0
 14
0.0
 24
0.0
 34
0.0
 15
0.0
 25
0.0
 35
0.0
146
0.0
 13
0.0
 23
0.0
 33
0.0
 16
1.0
 26
0.0
 36
0.0
 17
0.0
 27
1.0
 37
0.0
 76
     0
330
1F
  0
LAYOUT
  5
2377
102
{ACAD_REACTORS
330
1A
102
}
330
1A
100
AcDbPlotSettings
  1

  2
iR3035
  4

  6

 40
0.0
 41
0.0
 42
0.0
 43
0.0
 44
0.0
 45
0.0
 46
0.0
 47
0.0
 48
0.0
 49
0.0
140
0.0
141
0.0
142
1.0
143
1.0
 70
   688
 72
     0
 73
     0
 74
     5
  7
monochrome.ctb
 75
    16
147
1.0
148
0.0
149
0.0
100
AcDbLayout
  1
ﾚｲｱｳﾄ1
 70
     1
 71
     1
 10
-14.76375007629393
 20
-3.757076978683471
 11
405.2534618377683
 21
293.2112457752227
 12
0.0
 22
0.0
 32
0.0
 14
39.04897289276124
 24
28.94541656970977
 34
0.0
 15
351.440756034851
 25
260.5087491273879
 35
0.0
146
0.0
 13
0.0
 23
0.0
 33
0.0
 16
1.0
 26
0.0
 36
0.0
 17
0.0
 27
1.0
 37
0.0
 76
     0
330
1B
331
100
  0
MLINESTYLE
  5
18
102
{ACAD_REACTORS
330
17
102
}
330
17
100
AcDbMlineStyle
  2
STANDARD
 70
     0
  3

 62
   256
 51
90.0
 52
90.0
 71
     2
 49
0.5
 62
   256
  6
BYLAYER
 49
-0.5
 62
   256
  6
BYLAYER
  0
ACDBPLACEHOLDER
  5
F
102
{ACAD_REACTORS
330
E
102
}
330
E
  0
ACAD_PROXY_OBJECT
  5
7D4
102
{ACAD_REACTORS
330
7D3
102
}
330
7D3
100
AcDbProxyObject
 90
      499
 91
      503
 95
   393239
 70
     0
 93
     1841
310
4214DD185B99185C9928B81E85EB51B8AE3F2E07A17AD46E2B8FC02B5E8DC0F42B1CFD028000000C1008070000C3001FDFF8000000C1003FBFF000000182007F7FE00000030400FEFFC00000060801FDFF8000000C1003FBFF00000018200000000000000681FA0B0000001820100E000186003FBFF000000182007F7FE000
310
00030400FEFFC00000060801FDFF8000000C1003FBFF000000182007F7FE000000304000AD7A3703D0AC73F4160000003040201C00030C007F7FE00000030400FEFFC00000060801FDFF8000000C1003FBFF000000182007F7FE00000030400FEFFC000000608000
340
11
340
11
340
11
 94
        0
  0
DICTIONARYVAR
  5
7DB
102
{ACAD_REACTORS
330
7DA
102
}
330
7DA
100
DictionaryVariables
280
     0
  1
STANDARD
  0
DICTIONARYVAR
  5
1791
102
{ACAD_REACTORS
330
7DA
102
}
330
7DA
100
DictionaryVariables
280
     0
  1
1
  0
DICTIONARYVAR
  5
1792
102
{ACAD_REACTORS
330
7DA
102
}
330
7DA
100
DictionaryVariables
280
     0
  1

  0
ENDSEC
  0
EOF
