  0
SECTION
  2
HEADER
  9
$ACADVER
  1
AC1015
  9
$ACADMAINTVER
 70
     6
  9
$DWGCODEPAGE
  3
ANSI_932
  9
$INSBASE
 10
0.0
 20
0.0
 30
0.0
  9
$EXTMIN
 10
-39.87316755837563
 20
-1.237593623069109
 30
-0.00000001
  9
$EXTMAX
 10
954.3201757263107
 20
703.3756062294823
 30
0.00000001
  9
$LIMMIN
 10
0.0
 20
0.0
  9
$LIMMAX
 10
900.0
 20
700.0
  9
$ORTHOMODE
 70
     1
  9
$REGENMODE
 70
     1
  9
$FILLMODE
 70
     1
  9
$QTEXTMODE
 70
     0
  9
$MIRRTEXT
 70
     1
  9
$LTSCALE
 40
2.356901999999999
  9
$ATTMODE
 70
     1
  9
$TEXTSIZE
 40
5.892255999999999
  9
$TRACEWID
 40
1.0
  9
$TEXTSTYLE
  7
STANDARD
  9
$CLAYER
  8
0
  9
$CELTYPE
  6
BYLAYER
  9
$CECOLOR
 62
   256
  9
$CELTSCALE
 40
1.0
  9
$DISPSILH
 70
     0
  9
$DIMSCALE
 40
2.356901999999999
  9
$DIMASZ
 40
5.0
  9
$DIMEXO
 40
5.0
  9
$DIMDLI
 40
4.0
  9
$DIMRND
 40
0.0
  9
$DIMDLE
 40
0.0
  9
$DIMEXE
 40
5.0
  9
$DIMTP
 40
0.0
  9
$DIMTM
 40
0.0
  9
$DIMTXT
 40
4.0
  9
$DIMCEN
 40
3.0
  9
$DIMTSZ
 40
0.0
  9
$DIMTOL
 70
     0
  9
$DIMLIM
 70
     0
  9
$DIMTIH
 70
     0
  9
$DIMTOH
 70
     0
  9
$DIMSE1
 70
     0
  9
$DIMSE2
 70
     0
  9
$DIMTAD
 70
     1
  9
$DIMZIN
 70
     8
  9
$DIMBLK
  1

  9
$DIMASO
 70
     1
  9
$DIMSHO
 70
     1
  9
$DIMPOST
  1

  9
$DIMAPOST
  1

  9
$DIMALT
 70
     0
  9
$DIMALTD
 70
     4
  9
$DIMALTF
 40
0.0394
  9
$DIMLFAC
 40
1.0
  9
$DIMTOFL
 70
     0
  9
$DIMTVP
 40
0.0
  9
$DIMTIX
 70
     0
  9
$DIMSOXD
 70
     0
  9
$DIMSAH
 70
     1
  9
$DIMBLK1
  1
OPEN
  9
$DIMBLK2
  1
OPEN
  9
$DIMSTYLE
  2
STANDARD_WS
  9
$DIMCLRD
 70
     0
  9
$DIMCLRE
 70
     0
  9
$DIMCLRT
 70
     0
  9
$DIMTFAC
 40
1.0
  9
$DIMGAP
 40
1.0
  9
$DIMJUST
 70
     0
  9
$DIMSD1
 70
     0
  9
$DIMSD2
 70
     0
  9
$DIMTOLJ
 70
     1
  9
$DIMTZIN
 70
     0
  9
$DIMALTZ
 70
     0
  9
$DIMALTTZ
 70
     0
  9
$DIMUPT
 70
     0
  9
$DIMDEC
 70
     0
  9
$DIMTDEC
 70
     0
  9
$DIMALTU
 70
     8
  9
$DIMALTTD
 70
     4
  9
$DIMTXSTY
  7
STANDARD
  9
$DIMAUNIT
 70
     0
  9
$DIMADEC
 70
     0
  9
$DIMALTRND
 40
0.0
  9
$DIMAZIN
 70
     0
  9
$DIMDSEP
 70
    46
  9
$DIMATFIT
 70
     3
  9
$DIMFRAC
 70
     0
  9
$DIMLDRBLK
  1
OPEN
  9
$DIMLUNIT
 70
     2
  9
$DIMLWD
 70
    -2
  9
$DIMLWE
 70
    -2
  9
$DIMTMOVE
 70
     0
  9
$LUNITS
 70
     2
  9
$LUPREC
 70
     0
  9
$SKETCHINC
 40
1.0
  9
$FILLETRAD
 40
0.0
  9
$AUNITS
 70
     0
  9
$AUPREC
 70
     0
  9
$MENU
  1
acad
  9
$ELEVATION
 40
0.0
  9
$PELEVATION
 40
0.0
  9
$THICKNESS
 40
0.0
  9
$LIMCHECK
 70
     0
  9
$CHAMFERA
 40
23.569024
  9
$CHAMFERB
 40
23.569024
  9
$CHAMFERC
 40
47.13804699999999
  9
$CHAMFERD
 40
0.0
  9
$SKPOLY
 70
     0
  9
$TDCREATE
 40
2451427.611195486
  9
$TDUCREATE
 40
2451427.236195486
  9
$TDUPDATE
 40
2458368.809583507
  9
$TDUUPDATE
 40
2458368.434583507
  9
$TDINDWG
 40
0.3457680671
  9
$TDUSRTIMER
 40
0.3457677083
  9
$USRTIMER
 70
     1
  9
$ANGBASE
 50
0.0
  9
$ANGDIR
 70
     0
  9
$PDMODE
 70
     0
  9
$PDSIZE
 40
0.0
  9
$PLINEWID
 40
0.0
  9
$SPLFRAME
 70
     0
  9
$SPLINETYPE
 70
     6
  9
$SPLINESEGS
 70
     8
  9
$HANDSEED
  5
B01
  9
$SURFTAB1
 70
     6
  9
$SURFTAB2
 70
     6
  9
$SURFTYPE
 70
     6
  9
$SURFU
 70
     6
  9
$SURFV
 70
     6
  9
$UCSBASE
  2

  9
$UCSNAME
  2

  9
$UCSORG
 10
0.0
 20
0.0
 30
0.0
  9
$UCSXDIR
 10
1.0
 20
0.0
 30
0.0
  9
$UCSYDIR
 10
0.0
 20
1.0
 30
0.0
  9
$UCSORTHOREF
  2

  9
$UCSORTHOVIEW
 70
     0
  9
$UCSORGTOP
 10
0.0
 20
0.0
 30
0.0
  9
$UCSORGBOTTOM
 10
0.0
 20
0.0
 30
0.0
  9
$UCSORGLEFT
 10
0.0
 20
0.0
 30
0.0
  9
$UCSORGRIGHT
 10
0.0
 20
0.0
 30
0.0
  9
$UCSORGFRONT
 10
0.0
 20
0.0
 30
0.0
  9
$UCSORGBACK
 10
0.0
 20
0.0
 30
0.0
  9
$PUCSBASE
  2

  9
$PUCSNAME
  2

  9
$PUCSORG
 10
0.0
 20
0.0
 30
0.0
  9
$PUCSXDIR
 10
1.0
 20
0.0
 30
0.0
  9
$PUCSYDIR
 10
0.0
 20
1.0
 30
0.0
  9
$PUCSORTHOREF
  2

  9
$PUCSORTHOVIEW
 70
     0
  9
$PUCSORGTOP
 10
0.0
 20
0.0
 30
0.0
  9
$PUCSORGBOTTOM
 10
0.0
 20
0.0
 30
0.0
  9
$PUCSORGLEFT
 10
0.0
 20
0.0
 30
0.0
  9
$PUCSORGRIGHT
 10
0.0
 20
0.0
 30
0.0
  9
$PUCSORGFRONT
 10
0.0
 20
0.0
 30
0.0
  9
$PUCSORGBACK
 10
0.0
 20
0.0
 30
0.0
  9
$USERI1
 70
     0
  9
$USERI2
 70
     0
  9
$USERI3
 70
     0
  9
$USERI4
 70
     0
  9
$USERI5
 70
     0
  9
$USERR1
 40
0.0
  9
$USERR2
 40
0.0
  9
$USERR3
 40
0.0
  9
$USERR4
 40
0.0
  9
$USERR5
 40
0.0
  9
$WORLDVIEW
 70
     1
  9
$SHADEDGE
 70
     3
  9
$SHADEDIF
 70
    70
  9
$TILEMODE
 70
     1
  9
$MAXACTVP
 70
    48
  9
$PINSBASE
 10
0.0
 20
0.0
 30
0.0
  9
$PLIMCHECK
 70
     0
  9
$PEXTMIN
 10
0.976927487544799
 20
2.495837633482437
 30
-0.000000000000013
  9
$PEXTMAX
 10
419.0261081339705
 20
295.0253605347511
 30
0.0000000000000023
  9
$PLIMMIN
 10
-7.668216935080479
 20
-6.170828937969053
  9
$PLIMMAX
 10
430.5128483089034
 20
303.6920256632912
  9
$UNITMODE
 70
     0
  9
$VISRETAIN
 70
     1
  9
$PLINEGEN
 70
     0
  9
$PSLTSCALE
 70
     1
  9
$TREEDEPTH
 70
  3020
  9
$CMLSTYLE
  2
STANDARD
  9
$CMLJUST
 70
     0
  9
$CMLSCALE
 40
20.0
  9
$PROXYGRAPHICS
 70
     1
  9
$MEASUREMENT
 70
     1
  9
$CELWEIGHT
370
    -1
  9
$ENDCAPS
280
     0
  9
$JOINSTYLE
280
     0
  9
$LWDISPLAY
290
     0
  9
$INSUNITS
 70
     0
  9
$HYPERLINKBASE
  1

  9
$STYLESHEET
  1

  9
$XEDIT
290
     1
  9
$CEPSNTYPE
380
     0
  9
$PSTYLEMODE
290
     1
  9
$FINGERPRINTGUID
  2
{FCD6431E-D11A-4855-B4F5-FF91F176E44D}
  9
$VERSIONGUID
  2
{8773B90A-4150-4F8F-83E9-01CA8C5BAB0B}
  9
$EXTNAMES
290
     1
  9
$PSVPSCALE
 40
0.0
  9
$OLESTARTUP
290
     0
  0
ENDSEC
  0
SECTION
  2
CLASSES
  0
CLASS
  1
DICTIONARYVAR
  2
AcDbDictionaryVar
  3
AutoCAD 2000
 90
        0
280
     0
281
     0
  0
CLASS
  1
LWPOLYLINE
  2
AcDbPolyline
  3
AutoCAD 2000
 90
    32768
280
     0
281
     1
  0
CLASS
  1
OLE2FRAME
  2
AcDbOle2Frame
  3
AutoCAD 2000
 90
    32768
280
     0
281
     1
  0
CLASS
  1
ACDBDICTIONARYWDFLT
  2
AcDbDictionaryWithDefault
  3
AutoCAD 2000
 90
        0
280
     0
281
     0
  0
CLASS
  1
ACDBPLACEHOLDER
  2
AcDbPlaceHolder
  3
AutoCAD 2000
 90
        0
280
     0
281
     0
  0
CLASS
  1
LAYOUT
  2
AcDbLayout
  3
AutoCAD 2000
 90
        0
280
     0
281
     0
  0
ENDSEC
  0
SECTION
  2
TABLES
  0
TABLE
  2
VPORT
  5
8
330
0
100
AcDbSymbolTable
 70
    15
  0
VPORT
  5
B00
330
8
100
AcDbSymbolTableRecord
100
AcDbViewportTableRecord
  2
*Active
 70
     0
 10
0.0
 20
0.0
 11
1.0
 21
1.0
 12
533.0379292249033
 22
326.6348708619178
 13
0.0
 23
0.0
 14
10.0
 24
10.0
 15
10.0
 25
10.0
 16
0.0
 26
0.0
 36
1.0
 17
0.0
 27
0.0
 37
0.0
 40
845.3011276218473
 41
1.485380116959064
 42
50.0
 43
0.0
 44
0.0
 50
0.0
 51
0.0
 71
     0
 72
   100
 73
     1
 74
     1
 75
     0
 76
     0
 77
     0
 78
     0
281
     0
 65
     1
110
0.0
120
0.0
130
0.0
111
1.0
121
0.0
131
0.0
112
0.0
122
1.0
132
0.0
 79
     0
146
0.0
  0
ENDTAB
  0
TABLE
  2
LTYPE
  5
5
330
0
100
AcDbSymbolTable
 70
     3
  0
LTYPE
  5
12
330
5
100
AcDbSymbolTableRecord
100
AcDbLinetypeTableRecord
  2
BYBLOCK
 70
     0
  3

 72
    65
 73
     0
 40
0.0
  0
LTYPE
  5
13
330
5
100
AcDbSymbolTableRecord
100
AcDbLinetypeTableRecord
  2
BYLAYER
 70
     0
  3

 72
    65
 73
     0
 40
0.0
  0
LTYPE
  5
14
330
5
100
AcDbSymbolTableRecord
100
AcDbLinetypeTableRecord
  2
CONTINUOUS
 70
     0
  3
Solid line
 72
    65
 73
     0
 40
0.0
  0
LTYPE
  5
DA
330
5
100
AcDbSymbolTableRecord
100
AcDbLinetypeTableRecord
  2
CENTER
 70
     0
  3
Center ____ _ ____ _ ____ _ ____ _ ____ _ ____
 72
    65
 73
     4
 40
50.8
 49
31.75
 74
     0
 49
-6.349999999999999
 74
     0
 49
6.349999999999999
 74
     0
 49
-6.349999999999999
 74
     0
  0
LTYPE
  5
DB
330
5
100
AcDbSymbolTableRecord
100
AcDbLinetypeTableRecord
  2
HIDDEN2
 70
     0
  3
Hidden (.5x) _ _ _ _ _ _ _ _ _ _ _ _ _ _ _ _ _
 72
    65
 73
     2
 40
4.7625
 49
3.174999999999999
 74
     0
 49
-1.587499999999999
 74
     0
  0
ENDTAB
  0
TABLE
  2
LAYER
  5
2
330
0
100
AcDbSymbolTable
 70
     8
  0
LAYER
  5
E
330
2
100
AcDbSymbolTableRecord
100
AcDbLayerTableRecord
  2
0
 70
     0
 62
     7
  6
CONTINUOUS
370
    -3
390
35F
  0
LAYER
  5
37
330
2
100
AcDbSymbolTableRecord
100
AcDbLayerTableRecord
  2
TITLE_BLOCK
 70
     0
 62
     7
  6
CONTINUOUS
370
    -3
390
35F
  0
LAYER
  5
38
330
2
100
AcDbSymbolTableRecord
100
AcDbLayerTableRecord
  2
DEFPOINTS
 70
     0
 62
     7
  6
CONTINUOUS
290
     0
370
    -3
390
35F
  0
LAYER
  5
39
330
2
100
AcDbSymbolTableRecord
100
AcDbLayerTableRecord
  2
OBJECT
 70
     0
 62
     7
  6
CONTINUOUS
370
    -3
390
35F
  0
LAYER
  5
D2
330
2
100
AcDbSymbolTableRecord
100
AcDbLayerTableRecord
  2
VIEWPORT
 70
     0
 62
     7
  6
CONTINUOUS
370
    -3
390
35F
  0
LAYER
  5
DC
330
2
100
AcDbSymbolTableRecord
100
AcDbLayerTableRecord
  2
CENTER
 70
     0
 62
     1
  6
CENTER
370
    -3
390
35F
  0
LAYER
  5
DD
330
2
100
AcDbSymbolTableRecord
100
AcDbLayerTableRecord
  2
HIDDEN2
 70
     0
 62
     7
  6
HIDDEN2
370
    -3
390
35F
  0
LAYER
  5
DE
330
2
100
AcDbSymbolTableRecord
100
AcDbLayerTableRecord
  2
BYLAYER
 70
     0
 62
     7
  6
CONTINUOUS
370
    -3
390
35F
  0
ENDTAB
  0
TABLE
  2
STYLE
  5
3
330
0
100
AcDbSymbolTable
 70
    10
  0
STYLE
  5
F
330
3
100
AcDbSymbolTableRecord
100
AcDbTextStyleTableRecord
  2
STANDARD
 70
     0
 40
0.0
 41
1.0
 50
0.0
 71
     0
 42
5.892255999999999
  3

  4

1001
ACAD
1000
MS Gothic
1071
    32817
  0
STYLE
  5
3A
330
3
100
AcDbSymbolTableRecord
100
AcDbTextStyleTableRecord
  2
ADESK1
 70
     0
 40
0.0
 41
1.0
 50
0.0
 71
     0
 42
5.0
  3
romans
  4
bigfont
  0
STYLE
  5
D9
330
3
100
AcDbSymbolTableRecord
100
AcDbTextStyleTableRecord
  2

 70
     1
 40
0.0
 41
1.0
 50
0.0
 71
     0
 42
5.892255999999999
  3
ltypeshp.shx
  4

  0
STYLE
  5
371
330
3
100
AcDbSymbolTableRecord
100
AcDbTextStyleTableRecord
  2
WMF-ＭＳ Ｐゴシック0
 70
     0
 40
0.0
 41
1.0
 50
0.0
 71
     0
 42
5.892255999999999
  3

  4

1001
ACAD
1000
ＭＳ Ｐゴシック
1071
    32816
  0
STYLE
  5
3A9
330
3
100
AcDbSymbolTableRecord
100
AcDbTextStyleTableRecord
  2
WMF-System0
 70
     0
 40
0.0
 41
1.0
 50
0.0
 71
     0
 42
5.892255999999999
  3

  4

  0
STYLE
  5
4BD
330
3
100
AcDbSymbolTableRecord
100
AcDbTextStyleTableRecord
  2
WMF-System1
 70
     0
 40
0.0
 41
1.0
 50
0.0
 71
     0
 42
5.892255999999999
  3

  4

  0
STYLE
  5
5A5
330
3
100
AcDbSymbolTableRecord
100
AcDbTextStyleTableRecord
  2
WMF-System2
 70
     0
 40
0.0
 41
1.0
 50
0.0
 71
     0
 42
5.892255999999999
  3

  4

  0
STYLE
  5
68E
330
3
100
AcDbSymbolTableRecord
100
AcDbTextStyleTableRecord
  2
WMF-ＭＳ Ｐゴシック1
 70
     0
 40
0.0
 41
1.0
 50
0.0
 71
     0
 42
5.892255999999999
  3

  4

1001
ACAD
1000
ＭＳ Ｐゴシック
1071
 33587248
  0
STYLE
  5
693
330
3
100
AcDbSymbolTableRecord
100
AcDbTextStyleTableRecord
  2
WMF-System3
 70
     0
 40
0.0
 41
1.0
 50
0.0
 71
     0
 42
5.892255999999999
  3

  4

  0
STYLE
  5
7F7
330
3
100
AcDbSymbolTableRecord
100
AcDbTextStyleTableRecord
  2
WMF-System4
 70
     0
 40
0.0
 41
1.0
 50
0.0
 71
     0
 42
5.892255999999999
  3

  4

  0
ENDTAB
  0
TABLE
  2
VIEW
  5
6
330
0
100
AcDbSymbolTable
 70
     0
  0
ENDTAB
  0
TABLE
  2
UCS
  5
7
330
0
100
AcDbSymbolTable
 70
     0
  0
ENDTAB
  0
TABLE
  2
APPID
  5
9
330
0
100
AcDbSymbolTable
 70
     3
  0
APPID
  5
10
330
9
100
AcDbSymbolTableRecord
100
AcDbRegAppTableRecord
  2
ACAD
 70
     0
  0
APPID
  5
24
330
9
100
AcDbSymbolTableRecord
100
AcDbRegAppTableRecord
  2
CONTENTTABDATA
 70
     0
  0
APPID
  5
25
330
9
100
AcDbSymbolTableRecord
100
AcDbRegAppTableRecord
  2
CONTENTCURRENTTAB
 70
     0
  0
ENDTAB
  0
TABLE
  2
DIMSTYLE
  5
A
330
0
100
AcDbSymbolTable
 70
     5
100
AcDbDimStyleTable
 71
     1
340
D7
  0
DIMSTYLE
105
1D
330
A
100
AcDbSymbolTableRecord
100
AcDbDimStyleTableRecord
  2
STANDARD
 70
     0
340
F
  0
DIMSTYLE
105
3B
330
A
100
AcDbSymbolTableRecord
100
AcDbDimStyleTableRecord
  2
JIS
 70
     0
 41
2.5
 42
1.0
 43
7.0
 44
1.0
 73
     0
 74
     0
 77
     1
 78
     8
140
2.5
141
0.0
143
0.0394
147
0.0
172
     1
174
     1
175
     1
340
F
  0
DIMSTYLE
105
D7
102
{ACAD_REACTORS
330
147
330
154
330
161
330
16E
330
21A
330
227
330
234
330
250
330
25D
330
2E7
330
A41
330
AB4
102
}
330
A
100
AcDbSymbolTableRecord
100
AcDbDimStyleTableRecord
  2
STANDARD_WS
 70
     0
 40
2.356901999999999
 41
5.0
 42
5.0
 43
4.0
 44
5.0
 73
     0
 74
     0
 77
     1
 78
     8
140
4.0
141
3.0
143
0.0394
147
1.0
171
     4
173
     1
271
     0
272
     0
273
     8
274
     4
340
F
341
E0
343
E0
344
E0
  0
DIMSTYLE
105
E6
330
A
100
AcDbSymbolTableRecord
100
AcDbDimStyleTableRecord
  2
STANDARD_WS$4
 70
     0
 40
2.356901999999999
 41
5.0
 42
5.0
 43
4.0
 44
5.0
 73
     0
 74
     0
 77
     1
 78
     8
140
4.0
141
3.0
143
0.0394
147
1.0
171
     4
173
     1
271
     0
272
     0
273
     8
274
     4
288
     1
340
F
341
E0
343
E0
344
E0
  0
DIMSTYLE
105
E7
330
A
100
AcDbSymbolTableRecord
100
AcDbDimStyleTableRecord
  2
STANDARD_WS$3
 70
     0
 40
2.356901999999999
 41
5.0
 42
5.0
 43
4.0
 44
5.0
 73
     0
 74
     0
 77
     1
 78
     8
140
4.0
141
3.0
143
0.0394
147
1.0
171
     4
173
     1
271
     0
272
     0
273
     8
274
     4
288
     1
340
F
341
E0
343
E0
344
E0
  0
ENDTAB
  0
TABLE
  2
BLOCK_RECORD
  5
1
330
0
100
AcDbSymbolTable
 70
    19
  0
BLOCK_RECORD
  5
18
330
1
100
AcDbSymbolTableRecord
100
AcDbBlockTableRecord
  2
*MODEL_SPACE
340
362
  0
BLOCK_RECORD
  5
15
330
1
100
AcDbSymbolTableRecord
100
AcDbBlockTableRecord
  2
*PAPER_SPACE
340
363
  0
BLOCK_RECORD
  5
3C
330
1
100
AcDbSymbolTableRecord
100
AcDbBlockTableRecord
  2
TITLE_BLOCK
340
0
  0
BLOCK_RECORD
  5
E0
330
1
100
AcDbSymbolTableRecord
100
AcDbBlockTableRecord
  2
_OPEN
340
0
102
{BLKREFS
331
194
331
195
331
19F
331
1A0
331
189
331
18A
331
17E
331
17F
331
28F
331
290
331
284
331
285
331
279
331
27A
331
26E
331
26F
331
262
331
263
331
2E0
331
2E1
331
9EF
331
9F0
331
9F8
331
9F9
331
A01
331
A02
331
A0A
331
A0B
331
A13
331
A14
331
A28
331
A29
331
A31
331
A32
331
A3B
331
A3C
331
A46
331
A47
331
A51
331
A52
331
A5B
331
A5C
331
A6C
331
A6D
331
A75
331
A76
331
A7E
331
A7F
331
A87
331
A88
331
A91
331
A92
331
A9B
331
A9C
331
AA5
331
AA6
331
AAE
331
AAF
331
AB9
331
ABA
331
AC4
331
AC5
331
ACD
331
ACE
331
AD6
331
AD7
331
ADF
331
AE0
331
AE9
331
AEA
331
AF3
331
AF4
102
}
  0
BLOCK_RECORD
  5
13B
330
1
100
AcDbSymbolTableRecord
100
AcDbBlockTableRecord
  2
*D2
340
0
  0
BLOCK_RECORD
  5
148
330
1
100
AcDbSymbolTableRecord
100
AcDbBlockTableRecord
  2
*D3
340
0
  0
BLOCK_RECORD
  5
155
330
1
100
AcDbSymbolTableRecord
100
AcDbBlockTableRecord
  2
*D4
340
0
  0
BLOCK_RECORD
  5
162
330
1
100
AcDbSymbolTableRecord
100
AcDbBlockTableRecord
  2
*D5
340
0
  0
BLOCK_RECORD
  5
20E
330
1
100
AcDbSymbolTableRecord
100
AcDbBlockTableRecord
  2
*D6
340
0
  0
BLOCK_RECORD
  5
21B
330
1
100
AcDbSymbolTableRecord
100
AcDbBlockTableRecord
  2
*D7
340
0
  0
BLOCK_RECORD
  5
228
330
1
100
AcDbSymbolTableRecord
100
AcDbBlockTableRecord
  2
*D8
340
0
  0
BLOCK_RECORD
  5
243
330
1
100
AcDbSymbolTableRecord
100
AcDbBlockTableRecord
  2
*D9
340
0
  0
BLOCK_RECORD
  5
251
330
1
100
AcDbSymbolTableRecord
100
AcDbBlockTableRecord
  2
*D10
340
0
  0
BLOCK_RECORD
  5
2DB
330
1
100
AcDbSymbolTableRecord
100
AcDbBlockTableRecord
  2
*D11
340
0
  0
BLOCK_RECORD
  5
36D
330
1
100
AcDbSymbolTableRecord
100
AcDbBlockTableRecord
  2
WMF0
340
0
  0
BLOCK_RECORD
  5
483
330
1
100
AcDbSymbolTableRecord
100
AcDbBlockTableRecord
  2
WMF1
340
0
  0
BLOCK_RECORD
  5
597
330
1
100
AcDbSymbolTableRecord
100
AcDbBlockTableRecord
  2
WMF2
340
0
  0
BLOCK_RECORD
  5
677
330
1
100
AcDbSymbolTableRecord
100
AcDbBlockTableRecord
  2
WMF3
340
0
  0
BLOCK_RECORD
  5
7DC
330
1
100
AcDbSymbolTableRecord
100
AcDbBlockTableRecord
  2
WMF4
340
0
  0
BLOCK_RECORD
  5
A42
330
1
100
AcDbSymbolTableRecord
100
AcDbBlockTableRecord
  2
*D17
340
0
  0
BLOCK_RECORD
  5
AB5
330
1
100
AcDbSymbolTableRecord
100
AcDbBlockTableRecord
  2
*D18
340
0
  0
ENDTAB
  0
ENDSEC
  0
SECTION
  2
BLOCKS
  0
BLOCK
  5
19
330
18
100
AcDbEntity
  8
0
100
AcDbBlockBegin
  2
*MODEL_SPACE
 70
     0
 10
0.0
 20
0.0
 30
0.0
  3
*MODEL_SPACE
  1

  0
ENDBLK
  5
1A
330
18
100
AcDbEntity
  8
0
100
AcDbBlockEnd
  0
BLOCK
  5
16
330
15
100
AcDbEntity
 67
     1
  8
0
100
AcDbBlockBegin
  2
*PAPER_SPACE
 70
     0
 10
0.0
 20
0.0
 30
0.0
  3
*PAPER_SPACE
  1

  0
ENDBLK
  5
17
330
15
100
AcDbEntity
 67
     1
  8
0
100
AcDbBlockEnd
  0
BLOCK
  5
C9
330
3C
100
AcDbEntity
  8
0
100
AcDbBlockBegin
  2
TITLE_BLOCK
 70
     2
 10
0.0
 20
0.0
 30
0.0
  3
TITLE_BLOCK
  1

  0
LINE
  5
3D
330
3C
100
AcDbEntity
  8
0
100
AcDbLine
 10
0.0
 20
0.0
 30
0.0
 11
0.0
 21
10.0
 31
0.0
  0
LINE
  5
3E
330
3C
100
AcDbEntity
  8
0
100
AcDbLine
 10
0.0
 20
297.0
 30
0.0
 11
25.0
 21
297.0
 31
0.0
  0
LINE
  5
3F
330
3C
100
AcDbEntity
  8
0
100
AcDbLine
 10
420.0
 20
297.0
 30
0.0
 11
420.0
 21
287.0
 31
0.0
  0
LINE
  5
40
330
3C
100
AcDbEntity
  8
0
100
AcDbLine
 10
420.0
 20
0.0
 30
0.0
 11
410.0
 21
0.0
 31
0.0
  0
LINE
  5
41
330
3C
100
AcDbEntity
  8
0
100
AcDbLine
 10
25.0
 20
10.0
 30
0.0
 11
25.0
 21
287.0
 31
0.0
  0
LINE
  5
42
330
3C
100
AcDbEntity
  8
0
100
AcDbLine
 10
410.0
 20
10.0
 30
0.0
 11
25.0
 21
10.0
 31
0.0
  0
LINE
  5
43
330
3C
100
AcDbEntity
  8
0
100
AcDbLine
 10
410.0
 20
287.0
 30
0.0
 11
410.0
 21
10.0
 31
0.0
  0
LINE
  5
44
330
3C
100
AcDbEntity
  8
0
100
AcDbLine
 10
25.0
 20
287.0
 30
0.0
 11
410.0
 21
287.0
 31
0.0
  0
LINE
  5
45
330
3C
100
AcDbEntity
  8
0
100
AcDbLine
 10
0.0
 20
287.0
 30
0.0
 11
0.0
 21
297.0
 31
0.0
  0
LINE
  5
46
330
3C
100
AcDbEntity
  8
0
100
AcDbLine
 10
25.0
 20
0.0
 30
0.0
 11
0.0
 21
0.0
 31
0.0
  0
LINE
  5
47
330
3C
100
AcDbEntity
  8
0
100
AcDbLine
 10
420.0
 20
10.0
 30
0.0
 11
420.0
 21
0.0
 31
0.0
  0
LINE
  5
48
330
3C
100
AcDbEntity
  8
0
100
AcDbLine
 10
410.0
 20
297.0
 30
0.0
 11
420.0
 21
297.0
 31
0.0
  0
ATTDEF
  5
49
330
3C
100
AcDbEntity
  8
0
 62
     0
100
AcDbText
 10
19.0
 20
10.0
 30
0.0
 40
3.0
  1

 50
90.0
  7
ADESK1
100
AcDbAttributeDefinition
  3

  2
USER
 70
     8
  0
ATTDEF
  5
4A
330
3C
100
AcDbEntity
  8
0
 62
     0
100
AcDbText
 10
19.0
 20
70.0
 30
0.0
 40
3.0
  1

 50
90.0
  7
ADESK1
100
AcDbAttributeDefinition
  3

  2
REVDATE
 70
     8
  0
ATTDEF
  5
4B
330
3C
100
AcDbEntity
  8
0
 62
     0
100
AcDbText
 10
19.0
 20
118.0
 30
0.0
 40
3.0
  1

 50
90.0
  7
ADESK1
100
AcDbAttributeDefinition
  3

  2
FNAME
 70
     8
  0
LINE
  5
4C
330
3C
100
AcDbEntity
  8
OBJECT
100
AcDbLine
 10
130.0
 20
16.0
 30
0.0
 11
25.0
 21
16.0
 31
0.0
  0
LINE
  5
4D
330
3C
100
AcDbEntity
  8
OBJECT
100
AcDbLine
 10
130.0
 20
22.0
 30
0.0
 11
25.0
 21
22.0
 31
0.0
  0
LINE
  5
4E
330
3C
100
AcDbEntity
  8
OBJECT
100
AcDbLine
 10
130.0
 20
28.0
 30
0.0
 11
25.0
 21
28.0
 31
0.0
  0
LINE
  5
4F
330
3C
100
AcDbEntity
  8
OBJECT
100
AcDbLine
 10
130.0
 20
34.0
 30
0.0
 11
25.0
 21
34.0
 31
0.0
  0
LINE
  5
50
330
3C
100
AcDbEntity
  8
OBJECT
100
AcDbLine
 10
130.0
 20
40.0
 30
0.0
 11
25.0
 21
40.0
 31
0.0
  0
LINE
  5
51
330
3C
100
AcDbEntity
  8
OBJECT
100
AcDbLine
 10
28.0
 20
11.53589799999999
 30
0.0
 11
30.0
 21
15.0
 31
0.0
  0
LINE
  5
52
330
3C
100
AcDbEntity
  8
OBJECT
100
AcDbLine
 10
32.0
 20
11.53589799999999
 30
0.0
 11
30.0
 21
15.0
 31
0.0
  0
LINE
  5
53
330
3C
100
AcDbEntity
  8
OBJECT
100
AcDbLine
 10
35.0
 20
10.0
 30
0.0
 11
35.0
 21
40.0
 31
0.0
  0
LINE
  5
54
330
3C
100
AcDbEntity
  8
OBJECT
100
AcDbLine
 10
50.0
 20
10.0
 30
0.0
 11
50.0
 21
40.0
 31
0.0
  0
LINE
  5
55
330
3C
100
AcDbEntity
  8
OBJECT
100
AcDbLine
 10
80.0
 20
10.0
 30
0.0
 11
80.0
 21
40.0
 31
0.0
  0
LINE
  5
56
330
3C
100
AcDbEntity
  8
OBJECT
100
AcDbLine
 10
28.0
 20
11.53589799999999
 30
0.0
 11
32.0
 21
11.53589799999999
 31
0.0
  0
LINE
  5
57
330
3C
100
AcDbEntity
  8
OBJECT
100
AcDbLine
 10
39.5
 20
13.0
 30
0.0
 11
40.49999999999999
 21
13.0
 31
0.0
  0
LINE
  5
58
330
3C
100
AcDbEntity
  8
OBJECT
100
AcDbLine
 10
44.5
 20
13.0
 30
0.0
 11
45.49999999999999
 21
13.0
 31
0.0
  0
LINE
  5
59
330
3C
100
AcDbEntity
  8
OBJECT
100
AcDbLine
 10
32.0
 20
17.535898
 30
0.0
 11
30.0
 21
21.0
 31
0.0
  0
LINE
  5
5A
330
3C
100
AcDbEntity
  8
OBJECT
100
AcDbLine
 10
28.0
 20
17.535898
 30
0.0
 11
32.0
 21
17.535898
 31
0.0
  0
LINE
  5
5B
330
3C
100
AcDbEntity
  8
OBJECT
100
AcDbLine
 10
28.0
 20
17.535898
 30
0.0
 11
30.0
 21
21.0
 31
0.0
  0
LINE
  5
5C
330
3C
100
AcDbEntity
  8
OBJECT
100
AcDbLine
 10
32.0
 20
23.53589799999999
 30
0.0
 11
30.0
 21
27.0
 31
0.0
  0
LINE
  5
5D
330
3C
100
AcDbEntity
  8
OBJECT
100
AcDbLine
 10
28.0
 20
23.53589799999999
 30
0.0
 11
32.0
 21
23.53589799999999
 31
0.0
  0
LINE
  5
5E
330
3C
100
AcDbEntity
  8
OBJECT
100
AcDbLine
 10
28.0
 20
23.53589799999999
 30
0.0
 11
30.0
 21
27.0
 31
0.0
  0
LINE
  5
5F
330
3C
100
AcDbEntity
  8
OBJECT
100
AcDbLine
 10
28.0
 20
35.53589799999999
 30
0.0
 11
30.0
 21
39.0
 31
0.0
  0
LINE
  5
60
330
3C
100
AcDbEntity
  8
OBJECT
100
AcDbLine
 10
32.0
 20
35.53589799999999
 30
0.0
 11
30.0
 21
39.0
 31
0.0
  0
LINE
  5
61
330
3C
100
AcDbEntity
  8
OBJECT
100
AcDbLine
 10
28.0
 20
35.53589799999999
 30
0.0
 11
32.0
 21
35.53589799999999
 31
0.0
  0
LINE
  5
62
330
3C
100
AcDbEntity
  8
OBJECT
100
AcDbLine
 10
32.0
 20
29.53589799999999
 30
0.0
 11
30.0
 21
33.0
 31
0.0
  0
LINE
  5
63
330
3C
100
AcDbEntity
  8
OBJECT
100
AcDbLine
 10
28.0
 20
29.53589799999999
 30
0.0
 11
32.0
 21
29.53589799999999
 31
0.0
  0
LINE
  5
64
330
3C
100
AcDbEntity
  8
OBJECT
100
AcDbLine
 10
28.0
 20
29.53589799999999
 30
0.0
 11
30.0
 21
33.0
 31
0.0
  0
LINE
  5
65
330
3C
100
AcDbEntity
  8
OBJECT
100
AcDbLine
 10
39.5
 20
19.0
 30
0.0
 11
40.49999999999999
 21
19.0
 31
0.0
  0
LINE
  5
66
330
3C
100
AcDbEntity
  8
OBJECT
100
AcDbLine
 10
44.5
 20
19.0
 30
0.0
 11
45.49999999999999
 21
19.0
 31
0.0
  0
LINE
  5
67
330
3C
100
AcDbEntity
  8
OBJECT
100
AcDbLine
 10
39.5
 20
25.0
 30
0.0
 11
40.49999999999999
 21
25.0
 31
0.0
  0
LINE
  5
68
330
3C
100
AcDbEntity
  8
OBJECT
100
AcDbLine
 10
44.5
 20
25.0
 30
0.0
 11
45.49999999999999
 21
25.0
 31
0.0
  0
LINE
  5
69
330
3C
100
AcDbEntity
  8
OBJECT
100
AcDbLine
 10
39.5
 20
31.0
 30
0.0
 11
40.49999999999999
 21
31.0
 31
0.0
  0
LINE
  5
6A
330
3C
100
AcDbEntity
  8
OBJECT
100
AcDbLine
 10
39.5
 20
37.0
 30
0.0
 11
40.49999999999999
 21
37.0
 31
0.0
  0
LINE
  5
6B
330
3C
100
AcDbEntity
  8
OBJECT
100
AcDbLine
 10
44.5
 20
31.0
 30
0.0
 11
45.49999999999999
 21
31.0
 31
0.0
  0
LINE
  5
6C
330
3C
100
AcDbEntity
  8
OBJECT
100
AcDbLine
 10
44.5
 20
37.0
 30
0.0
 11
45.49999999999999
 21
37.0
 31
0.0
  0
LINE
  5
6D
330
3C
100
AcDbEntity
  8
OBJECT
100
AcDbLine
 10
120.0
 20
10.0
 30
0.0
 11
120.0
 21
40.0
 31
0.0
  0
LINE
  5
6E
330
3C
100
AcDbEntity
  8
OBJECT
100
AcDbLine
 10
130.0
 20
40.0
 30
0.0
 11
130.0
 21
10.0
 31
0.0
  0
LINE
  5
6F
330
3C
100
AcDbEntity
  8
0
100
AcDbLine
 10
217.5
 20
10.0
 30
0.0
 11
217.5
 21
0.0
 31
0.0
  0
LINE
  5
70
330
3C
100
AcDbEntity
  8
0
100
AcDbLine
 10
217.5
 20
287.0
 30
0.0
 11
217.5
 21
297.0
 31
0.0
  0
LINE
  5
71
330
3C
100
AcDbEntity
  8
0
100
AcDbLine
 10
410.0
 20
148.5
 30
0.0
 11
420.0
 21
148.5
 31
0.0
  0
LINE
  5
72
330
3C
100
AcDbEntity
  8
0
100
AcDbLine
 10
25.0
 20
148.5
 30
0.0
 11
0.0
 21
148.5
 31
0.0
  0
TEXT
  5
73
330
3C
100
AcDbEntity
  8
0
100
AcDbText
 10
1.0
 20
1.0
 30
0.0
 40
3.0
  1
この図枠はサンプルです。社内の規格やプロッタの出力範囲に合わせて適当に変更してご利用ください。
  7
ADESK1
100
AcDbText
  0
LINE
  5
74
330
3C
100
AcDbEntity
  8
0
100
AcDbLine
 10
25.0
 20
240.833333
 30
0.0
 11
20.0
 21
240.833333
 31
0.0
  0
LINE
  5
75
330
3C
100
AcDbEntity
  8
0
100
AcDbLine
 10
25.0
 20
194.6666669999999
 30
0.0
 11
20.0
 21
194.6666669999999
 31
0.0
  0
LINE
  5
76
330
3C
100
AcDbEntity
  8
0
100
AcDbLine
 10
25.0
 20
148.5
 30
0.0
 11
20.0
 21
148.5
 31
0.0
  0
LINE
  5
77
330
3C
100
AcDbEntity
  8
0
100
AcDbLine
 10
25.0
 20
102.333333
 30
0.0
 11
20.0
 21
102.333333
 31
0.0
  0
LINE
  5
78
330
3C
100
AcDbEntity
  8
0
100
AcDbLine
 10
25.0
 20
56.166667
 30
0.0
 11
20.0
 21
56.166667
 31
0.0
  0
LINE
  5
79
330
3C
100
AcDbEntity
  8
0
100
AcDbLine
 10
410.0
 20
56.166667
 30
0.0
 11
415.0
 21
56.166667
 31
0.0
  0
LINE
  5
7A
330
3C
100
AcDbEntity
  8
0
100
AcDbLine
 10
410.0
 20
102.333333
 30
0.0
 11
415.0
 21
102.333333
 31
0.0
  0
LINE
  5
7B
330
3C
100
AcDbEntity
  8
0
100
AcDbLine
 10
410.0
 20
148.5
 30
0.0
 11
415.0
 21
148.5
 31
0.0
  0
LINE
  5
7C
330
3C
100
AcDbEntity
  8
0
100
AcDbLine
 10
410.0
 20
194.6666669999999
 30
0.0
 11
415.0
 21
194.6666669999999
 31
0.0
  0
LINE
  5
7D
330
3C
100
AcDbEntity
  8
0
100
AcDbLine
 10
410.0
 20
240.833333
 30
0.0
 11
415.0
 21
240.833333
 31
0.0
  0
LINE
  5
7E
330
3C
100
AcDbEntity
  8
0
100
AcDbLine
 10
73.125
 20
10.0
 30
0.0
 11
73.125
 21
5.0
 31
0.0
  0
LINE
  5
7F
330
3C
100
AcDbEntity
  8
0
100
AcDbLine
 10
121.25
 20
10.0
 30
0.0
 11
121.25
 21
5.0
 31
0.0
  0
LINE
  5
80
330
3C
100
AcDbEntity
  8
0
100
AcDbLine
 10
169.375
 20
10.0
 30
0.0
 11
169.375
 21
5.0
 31
0.0
  0
LINE
  5
81
330
3C
100
AcDbEntity
  8
0
100
AcDbLine
 10
217.5
 20
10.0
 30
0.0
 11
217.5
 21
5.0
 31
0.0
  0
LINE
  5
82
330
3C
100
AcDbEntity
  8
0
100
AcDbLine
 10
265.625
 20
10.0
 30
0.0
 11
265.625
 21
5.0
 31
0.0
  0
LINE
  5
83
330
3C
100
AcDbEntity
  8
0
100
AcDbLine
 10
313.75
 20
10.0
 30
0.0
 11
313.75
 21
5.0
 31
0.0
  0
LINE
  5
84
330
3C
100
AcDbEntity
  8
0
100
AcDbLine
 10
361.8749999999999
 20
10.0
 30
0.0
 11
361.8749999999999
 21
5.0
 31
0.0
  0
LINE
  5
85
330
3C
100
AcDbEntity
  8
0
100
AcDbLine
 10
361.8749999999999
 20
287.0
 30
0.0
 11
361.8749999999999
 21
292.0
 31
0.0
  0
LINE
  5
86
330
3C
100
AcDbEntity
  8
0
100
AcDbLine
 10
313.75
 20
287.0
 30
0.0
 11
313.75
 21
292.0
 31
0.0
  0
LINE
  5
87
330
3C
100
AcDbEntity
  8
0
100
AcDbLine
 10
265.625
 20
287.0
 30
0.0
 11
265.625
 21
292.0
 31
0.0
  0
LINE
  5
88
330
3C
100
AcDbEntity
  8
0
100
AcDbLine
 10
217.5
 20
287.0
 30
0.0
 11
217.5
 21
292.0
 31
0.0
  0
LINE
  5
89
330
3C
100
AcDbEntity
  8
0
100
AcDbLine
 10
169.375
 20
287.0
 30
0.0
 11
169.375
 21
292.0
 31
0.0
  0
LINE
  5
8A
330
3C
100
AcDbEntity
  8
0
100
AcDbLine
 10
121.25
 20
287.0
 30
0.0
 11
121.25
 21
292.0
 31
0.0
  0
LINE
  5
8B
330
3C
100
AcDbEntity
  8
0
100
AcDbLine
 10
73.125
 20
287.0
 30
0.0
 11
73.125
 21
292.0
 31
0.0
  0
TEXT
  5
8C
330
3C
100
AcDbEntity
  8
0
100
AcDbText
 10
47.84821428571429
 20
288.0
 30
0.0
 40
3.0
  1
1
  7
ADESK1
 72
     1
 11
49.0625
 21
288.0
 31
0.0
100
AcDbText
  0
TEXT
  5
8D
330
3C
100
AcDbEntity
  8
0
100
AcDbText
 10
21.32144671428571
 20
263.916667
 30
0.0
 40
3.0
  1
A
  7
ADESK1
 72
     1
 11
22.60716099999999
 21
263.916667
 31
0.0
100
AcDbText
  0
TEXT
  5
8E
330
3C
100
AcDbEntity
  8
0
100
AcDbText
 10
95.75892857142857
 20
288.0
 30
0.0
 40
3.0
  1
2
  7
ADESK1
 72
     1
 11
97.1875
 21
288.0
 31
0.0
100
AcDbText
  0
TEXT
  5
8F
330
3C
100
AcDbEntity
  8
0
100
AcDbText
 10
143.8839285714285
 20
288.0
 30
0.0
 40
3.0
  1
3
  7
ADESK1
 72
     1
 11
145.3125
 21
288.0
 31
0.0
100
AcDbText
  0
TEXT
  5
90
330
3C
100
AcDbEntity
  8
0
100
AcDbText
 10
191.9375
 20
288.0
 30
0.0
 40
3.0
  1
4
  7
ADESK1
 72
     1
 11
193.4375
 21
288.0
 31
0.0
100
AcDbText
  0
TEXT
  5
91
330
3C
100
AcDbEntity
  8
0
100
AcDbText
 10
240.1339285714285
 20
288.0
 30
0.0
 40
3.0
  1
5
  7
ADESK1
 72
     1
 11
241.5624999999999
 21
288.0
 31
0.0
100
AcDbText
  0
TEXT
  5
92
330
3C
100
AcDbEntity
  8
0
100
AcDbText
 10
288.1874999999999
 20
288.0
 30
0.0
 40
3.0
  1
6
  7
ADESK1
 72
     1
 11
289.6875
 21
288.0
 31
0.0
100
AcDbText
  0
TEXT
  5
93
330
3C
100
AcDbEntity
  8
0
100
AcDbText
 10
336.3839285714285
 20
288.0
 30
0.0
 40
3.0
  1
7
  7
ADESK1
 72
     1
 11
337.8125
 21
288.0
 31
0.0
100
AcDbText
  0
TEXT
  5
94
330
3C
100
AcDbEntity
  8
0
100
AcDbText
 10
384.5089285714285
 20
288.0
 30
0.0
 40
3.0
  1
8
  7
ADESK1
 72
     1
 11
385.9375
 21
288.0
 31
0.0
100
AcDbText
  0
TEXT
  5
95
330
3C
100
AcDbEntity
  8
0
100
AcDbText
 10
21.03573242857142
 20
217.75
 30
0.0
 40
3.0
  1
B
  7
ADESK1
 72
     1
 11
22.60716099999999
 21
217.75
 31
0.0
100
AcDbText
  0
TEXT
  5
96
330
3C
100
AcDbEntity
  8
0
100
AcDbText
 10
21.10716099999999
 20
171.583333
 30
0.0
 40
3.0
  1
C
  7
ADESK1
 72
     1
 11
22.60716099999999
 21
171.583333
 31
0.0
100
AcDbText
  0
TEXT
  5
97
330
3C
100
AcDbEntity
  8
0
100
AcDbText
 10
21.03573242857142
 20
125.4166669999999
 30
0.0
 40
3.0
  1
D
  7
ADESK1
 72
     1
 11
22.60716099999999
 21
125.4166669999999
 31
0.0
100
AcDbText
  0
TEXT
  5
98
330
3C
100
AcDbEntity
  8
0
100
AcDbText
 10
21.10716099999999
 20
79.25
 30
0.0
 40
3.0
  1
E
  7
ADESK1
 72
     1
 11
22.60716099999999
 21
79.25
 31
0.0
100
AcDbText
  0
TEXT
  5
99
330
3C
100
AcDbEntity
  8
0
100
AcDbText
 10
21.10716099999999
 20
33.083333
 30
0.0
 40
3.0
  1
F
  7
ADESK1
 72
     1
 11
22.60716099999999
 21
33.083333
 31
0.0
100
AcDbText
  0
TEXT
  5
9A
330
3C
100
AcDbEntity
  8
0
100
AcDbText
 10
47.84821428571429
 20
6.019997
 30
0.0
 40
3.0
  1
1
  7
ADESK1
 72
     1
 11
49.0625
 21
6.019997
 31
0.0
100
AcDbText
  0
TEXT
  5
9B
330
3C
100
AcDbEntity
  8
0
100
AcDbText
 10
95.75892857142857
 20
6.019997
 30
0.0
 40
3.0
  1
2
  7
ADESK1
 72
     1
 11
97.1875
 21
6.019997
 31
0.0
100
AcDbText
  0
TEXT
  5
9C
330
3C
100
AcDbEntity
  8
0
100
AcDbText
 10
143.8839285714285
 20
6.019997
 30
0.0
 40
3.0
  1
3
  7
ADESK1
 72
     1
 11
145.3125
 21
6.019997
 31
0.0
100
AcDbText
  0
TEXT
  5
9D
330
3C
100
AcDbEntity
  8
0
100
AcDbText
 10
191.9375
 20
6.019997
 30
0.0
 40
3.0
  1
4
  7
ADESK1
 72
     1
 11
193.4375
 21
6.019997
 31
0.0
100
AcDbText
  0
TEXT
  5
9E
330
3C
100
AcDbEntity
  8
0
100
AcDbText
 10
240.1339285714285
 20
6.019997
 30
0.0
 40
3.0
  1
5
  7
ADESK1
 72
     1
 11
241.5624999999999
 21
6.019997
 31
0.0
100
AcDbText
  0
TEXT
  5
9F
330
3C
100
AcDbEntity
  8
0
100
AcDbText
 10
288.1874999999999
 20
6.019997
 30
0.0
 40
3.0
  1
6
  7
ADESK1
 72
     1
 11
289.6875
 21
6.019997
 31
0.0
100
AcDbText
  0
TEXT
  5
A0
330
3C
100
AcDbEntity
  8
0
100
AcDbText
 10
336.3839285714285
 20
6.019997
 30
0.0
 40
3.0
  1
7
  7
ADESK1
 72
     1
 11
337.8125
 21
6.019997
 31
0.0
100
AcDbText
  0
TEXT
  5
A1
330
3C
100
AcDbEntity
  8
0
100
AcDbText
 10
384.5089285714285
 20
6.019997
 30
0.0
 40
3.0
  1
8
  7
ADESK1
 72
     1
 11
385.9375
 21
6.019997
 31
0.0
100
AcDbText
  0
TEXT
  5
A2
330
3C
100
AcDbEntity
  8
0
100
AcDbText
 10
411.5851107142857
 20
263.916667
 30
0.0
 40
3.0
  1
A
  7
ADESK1
 72
     1
 11
412.870825
 21
263.916667
 31
0.0
100
AcDbText
  0
TEXT
  5
A3
330
3C
100
AcDbEntity
  8
0
100
AcDbText
 10
411.2993964285714
 20
217.75
 30
0.0
 40
3.0
  1
B
  7
ADESK1
 72
     1
 11
412.870825
 21
217.75
 31
0.0
100
AcDbText
  0
TEXT
  5
A4
330
3C
100
AcDbEntity
  8
0
100
AcDbText
 10
411.370825
 20
171.583333
 30
0.0
 40
3.0
  1
C
  7
ADESK1
 72
     1
 11
412.870825
 21
171.583333
 31
0.0
100
AcDbText
  0
TEXT
  5
A5
330
3C
100
AcDbEntity
  8
0
100
AcDbText
 10
411.2993964285714
 20
125.4166669999999
 30
0.0
 40
3.0
  1
D
  7
ADESK1
 72
     1
 11
412.870825
 21
125.4166669999999
 31
0.0
100
AcDbText
  0
TEXT
  5
A6
330
3C
100
AcDbEntity
  8
0
100
AcDbText
 10
411.370825
 20
79.25
 30
0.0
 40
3.0
  1
E
  7
ADESK1
 72
     1
 11
412.870825
 21
79.25
 31
0.0
100
AcDbText
  0
TEXT
  5
A7
330
3C
100
AcDbEntity
  8
0
100
AcDbText
 10
411.370825
 20
33.083333
 30
0.0
 40
3.0
  1
F
  7
ADESK1
 72
     1
 11
412.870825
 21
33.083333
 31
0.0
100
AcDbText
  0
LINE
  5
A8
330
3C
100
AcDbEntity
  8
0
 62
     0
100
AcDbLine
 10
280.297872
 20
49.0
 30
0.0
 11
410.0
 21
49.0
 31
0.0
  0
LINE
  5
A9
330
3C
100
AcDbEntity
  8
0
 62
     0
100
AcDbLine
 10
280.297872
 20
13.0
 30
0.0
 11
410.0
 21
13.0
 31
0.0
  0
LINE
  5
AA
330
3C
100
AcDbEntity
  8
0
 62
     0
100
AcDbLine
 10
280.297872
 20
37.0
 30
0.0
 11
410.0
 21
37.0
 31
0.0
  0
LINE
  5
AB
330
3C
100
AcDbEntity
  8
0
 62
     0
100
AcDbLine
 10
318.1276599999999
 20
22.0
 30
0.0
 11
410.0
 21
22.0
 31
0.0
  0
LINE
  5
AC
330
3C
100
AcDbEntity
  8
0
 62
     0
100
AcDbLine
 10
280.297872
 20
10.0
 30
0.0
 11
410.0
 21
10.0
 31
0.0
  0
LINE
  5
AD
330
3C
100
AcDbEntity
  8
0
 62
     0
100
AcDbLine
 10
410.0
 20
49.0
 30
0.0
 11
280.297872
 21
49.0
 31
0.0
  0
LINE
  5
AE
330
3C
100
AcDbEntity
  8
0
 62
     0
100
AcDbLine
 10
303.716312
 20
37.0
 30
0.0
 11
303.716312
 21
10.0
 31
0.0
  0
LINE
  5
AF
330
3C
100
AcDbEntity
  8
0
 62
     0
100
AcDbLine
 10
285.7021279999999
 20
37.0
 30
0.0
 11
285.7021279999999
 21
10.0
 31
0.0
  0
LINE
  5
B0
330
3C
100
AcDbEntity
  8
0
 62
     0
100
AcDbLine
 10
312.723404
 20
37.0
 30
0.0
 11
312.723404
 21
10.0
 31
0.0
  0
LINE
  5
B1
330
3C
100
AcDbEntity
  8
0
 62
     0
100
AcDbLine
 10
318.1276599999999
 20
25.0
 30
0.0
 11
318.1276599999999
 21
10.0
 31
0.0
  0
LINE
  5
B2
330
3C
100
AcDbEntity
  8
0
 62
     0
100
AcDbLine
 10
280.297872
 20
49.0
 30
0.0
 11
280.297872
 21
10.0
 31
0.0
  0
LINE
  5
B3
330
3C
100
AcDbEntity
  8
0
 62
     0
100
AcDbLine
 10
348.751773
 20
49.0
 30
0.0
 11
348.751773
 21
10.0
 31
0.0
  0
LINE
  5
B4
330
3C
100
AcDbEntity
  8
0
 62
     0
100
AcDbLine
 10
328.7659569999999
 20
22.0
 30
0.0
 11
328.7659569999999
 21
10.0
 31
0.0
  0
LINE
  5
B5
330
3C
100
AcDbEntity
  8
0
 62
     0
100
AcDbLine
 10
339.4042549999999
 20
22.0
 30
0.0
 11
339.4042549999999
 21
10.0
 31
0.0
  0
LINE
  5
B6
330
3C
100
AcDbEntity
  8
0
 62
     0
100
AcDbLine
 10
280.297872
 20
16.0
 30
0.0
 11
318.1276599999999
 21
16.0
 31
0.0
  0
LINE
  5
B7
330
3C
100
AcDbEntity
  8
0
 62
     0
100
AcDbLine
 10
280.297872
 20
10.0
 30
0.0
 11
280.297872
 21
13.0
 31
0.0
  0
TEXT
  5
B8
330
3C
100
AcDbEntity
  8
0
 62
     0
100
AcDbText
 10
321.7174935333333
 20
10.48329
 30
0.0
 40
1.791674
  1
製図
  7
ADESK1
 72
     1
 11
323.5688899999999
 21
10.48329
 31
0.0
100
AcDbText
  0
TEXT
  5
B9
330
3C
100
AcDbEntity
  8
0
 62
     0
100
AcDbText
 10
332.2960690666666
 20
10.48329
 30
0.0
 40
1.791674
  1
設計
  7
ADESK1
 72
     1
 11
334.2071879999999
 21
10.48329
 31
0.0
100
AcDbText
  0
TEXT
  5
BA
330
3C
100
AcDbEntity
  8
0
 62
     0
100
AcDbText
 10
342.2447160666667
 20
10.552201
 30
0.0
 40
1.791674
  1
照査
  7
ADESK1
 72
     1
 11
344.155835
 21
10.552201
 31
0.0
100
AcDbText
  0
LINE
  5
BB
330
3C
100
AcDbEntity
  8
0
 62
     0
100
AcDbLine
 10
280.297872
 20
25.0
 30
0.0
 11
318.1276599999999
 21
25.0
 31
0.0
  0
LINE
  5
BC
330
3C
100
AcDbEntity
  8
0
 62
     0
100
AcDbLine
 10
280.297872
 20
22.0
 30
0.0
 11
318.1276599999999
 21
22.0
 31
0.0
  0
LINE
  5
BD
330
3C
100
AcDbEntity
  8
0
 62
     0
100
AcDbLine
 10
280.297872
 20
19.0
 30
0.0
 11
318.1276599999999
 21
19.0
 31
0.0
  0
LINE
  5
BE
330
3C
100
AcDbEntity
  8
0
 62
     0
100
AcDbLine
 10
280.297872
 20
34.0
 30
0.0
 11
348.751773
 21
34.0
 31
0.0
  0
LINE
  5
BF
330
3C
100
AcDbEntity
  8
0
 62
     0
100
AcDbLine
 10
280.297872
 20
31.0
 30
0.0
 11
348.751773
 21
31.0
 31
0.0
  0
LINE
  5
C0
330
3C
100
AcDbEntity
  8
0
 62
     0
100
AcDbLine
 10
280.297872
 20
28.0
 30
0.0
 11
348.751773
 21
28.0
 31
0.0
  0
LINE
  5
C1
330
3C
100
AcDbEntity
  8
0
 62
     0
100
AcDbLine
 10
318.1276599999999
 20
25.0
 30
0.0
 11
348.751773
 21
25.0
 31
0.0
  0
LINE
  5
C2
330
3C
100
AcDbEntity
  8
0
 62
     0
100
AcDbLine
 10
318.1276599999999
 20
49.0
 30
0.0
 11
318.1276599999999
 21
25.0
 31
0.0
  0
LINE
  5
C3
330
3C
100
AcDbEntity
  8
0
 62
     0
100
AcDbLine
 10
325.3333329999999
 20
37.0
 30
0.0
 11
325.3333329999999
 21
25.0
 31
0.0
  0
LINE
  5
C4
330
3C
100
AcDbEntity
  8
0
 62
     0
100
AcDbLine
 10
336.141844
 20
49.0
 30
0.0
 11
336.141844
 21
22.0
 31
0.0
  0
LINE
  5
C5
330
3C
100
AcDbEntity
  8
0
 62
     0
100
AcDbLine
 10
402.7943259999999
 20
22.0
 30
0.0
 11
402.7943259999999
 21
10.0
 31
0.0
  0
LINE
  5
C6
330
3C
100
AcDbEntity
  8
0
 62
     0
100
AcDbLine
 10
410.0
 20
49.0
 30
0.0
 11
410.0
 21
10.0
 31
0.0
  0
LINE
  5
C7
330
3C
100
AcDbEntity
  8
0
 62
     0
100
AcDbLine
 10
410.0
 20
10.0
 30
0.0
 11
410.0
 21
49.0
 31
0.0
  0
LINE
  5
C8
330
3C
100
AcDbEntity
  8
0
 62
     0
100
AcDbLine
 10
402.7943259999999
 20
16.0
 30
0.0
 11
410.0
 21
16.0
 31
0.0
  0
ENDBLK
  5
CA
330
3C
100
AcDbEntity
  8
0
100
AcDbBlockEnd
  0
BLOCK
  5
E1
330
E0
100
AcDbEntity
  8
0
100
AcDbBlockBegin
  2
_OPEN
 70
     0
 10
0.0
 20
0.0
 30
0.0
  3
_OPEN
  1

  0
LINE
  5
E2
330
E0
100
AcDbEntity
  8
0
  6
ByBlock
 62
     0
100
AcDbLine
 10
-1.0
 20
0.166667
 30
0.0
 11
0.0
 21
0.0
 31
0.0
  0
LINE
  5
E3
330
E0
100
AcDbEntity
  8
0
  6
ByBlock
 62
     0
100
AcDbLine
 10
0.0
 20
0.0
 30
0.0
 11
-1.0
 21
-0.166667
 31
0.0
  0
LINE
  5
E4
330
E0
100
AcDbEntity
  8
0
  6
ByBlock
 62
     0
100
AcDbLine
 10
0.0
 20
0.0
 30
0.0
 11
-1.0
 21
0.0
 31
0.0
  0
ENDBLK
  5
E5
330
E0
100
AcDbEntity
  8
0
100
AcDbBlockEnd
  0
BLOCK
  5
190
330
13B
100
AcDbEntity
  8
0
100
AcDbBlockBegin
  2
*D2
 70
     1
 10
0.0
 20
0.0
 30
0.0
  3
*D2
  1

  0
LINE
  5
A07
330
13B
100
AcDbEntity
  8
BYLAYER
 62
     0
370
    -2
100
AcDbLine
 10
392.839695
 20
648.557358
 30
0.0
 11
471.391166
 21
648.557358
 31
0.0
  0
LINE
  5
A08
330
13B
100
AcDbEntity
  8
BYLAYER
 62
     0
370
    -2
100
AcDbLine
 10
392.839695
 20
420.2287639999998
 30
0.0
 11
471.3911659999999
 21
420.2287639999998
 31
0.0
  0
LINE
  5
A09
330
13B
100
AcDbEntity
  8
BYLAYER
 62
     0
370
    -2
100
AcDbLine
 10
459.6066559999999
 20
636.7728480000001
 30
0.0
 11
459.6066559999999
 21
432.0132739999999
 31
0.0
  0
INSERT
  5
A0A
330
13B
100
AcDbEntity
  8
BYLAYER
 62
     0
370
    -2
100
AcDbBlockReference
  2
_OPEN
 10
459.606656
 20
648.557358
 30
0.0
 41
11.78450999999999
 42
11.78450999999999
 43
11.78450999999999
 50
90.0
  0
INSERT
  5
A0B
330
13B
100
AcDbEntity
  8
BYLAYER
 62
     0
370
    -2
100
AcDbBlockReference
  2
_OPEN
 10
459.6066559999999
 20
420.2287639999998
 30
0.0
 41
11.78450999999999
 42
11.78450999999999
 43
11.78450999999999
 50
270.0
  0
MTEXT
  5
A0C
330
13B
100
AcDbEntity
  8
BYLAYER
 62
     0
100
AcDbMText
 10
452.5359499999999
 20
534.3930610000001
 30
0.0
 40
9.427607999999999
 41
0.0
 71
     5
 72
     1
  1
\A1;225
 11
0.0000000000000001
 21
1.0
 31
0.0
 73
     1
 44
1.0
  0
POINT
  5
A0D
330
13B
100
AcDbEntity
  8
DEFPOINTS
 62
     0
100
AcDbPoint
 10
381.0551849999999
 20
648.557358
 30
0.0
  0
POINT
  5
A0E
330
13B
100
AcDbEntity
  8
DEFPOINTS
 62
     0
100
AcDbPoint
 10
381.0551849999999
 20
420.2287639999999
 30
0.0
  0
POINT
  5
A0F
330
13B
100
AcDbEntity
  8
DEFPOINTS
 62
     0
100
AcDbPoint
 10
459.6066559999999
 20
420.2287639999998
 30
0.0
  0
ENDBLK
  5
19A
330
13B
100
AcDbEntity
  8
0
100
AcDbBlockEnd
  0
BLOCK
  5
19B
330
148
100
AcDbEntity
  8
0
100
AcDbBlockBegin
  2
*D3
 70
     1
 10
0.0
 20
0.0
 30
0.0
  3
*D3
  1

  0
LINE
  5
9EC
330
148
100
AcDbEntity
  8
BYLAYER
 62
     0
370
    -2
100
AcDbLine
 10
404.505756
 20
659.430149
 30
0.0
 11
501.722922
 21
659.430149
 31
0.0
  0
LINE
  5
9ED
330
148
100
AcDbEntity
  8
BYLAYER
 62
     0
370
    -2
100
AcDbLine
 10
404.505756
 20
410.132602
 30
0.0
 11
501.722922
 21
410.132602
 31
0.0
  0
LINE
  5
9EE
330
148
100
AcDbEntity
  8
BYLAYER
 62
     0
370
    -2
100
AcDbLine
 10
489.938412
 20
647.645639
 30
0.0
 11
489.938412
 21
421.917112
 31
0.0
  0
INSERT
  5
9EF
330
148
100
AcDbEntity
  8
BYLAYER
 62
     0
370
    -2
100
AcDbBlockReference
  2
_OPEN
 10
489.938412
 20
659.430149
 30
0.0
 41
11.78450999999999
 42
11.78450999999999
 43
11.78450999999999
 50
90.0
  0
INSERT
  5
9F0
330
148
100
AcDbEntity
  8
BYLAYER
 62
     0
370
    -2
100
AcDbBlockReference
  2
_OPEN
 10
489.938412
 20
410.132602
 30
0.0
 41
11.78450999999999
 42
11.78450999999999
 43
11.78450999999999
 50
270.0
  0
MTEXT
  5
9F1
330
148
100
AcDbEntity
  8
BYLAYER
 62
     0
100
AcDbMText
 10
482.867706
 20
534.7813755000002
 30
0.0
 40
9.427607999999999
 41
0.0
 71
     5
 72
     1
  1
\A1;252
 11
0.0000000000000001
 21
1.0
 31
0.0
 73
     1
 44
1.0
  0
POINT
  5
9F2
330
148
100
AcDbEntity
  8
DEFPOINTS
 62
     0
100
AcDbPoint
 10
392.721246
 20
659.430149
 30
0.0
  0
POINT
  5
9F3
330
148
100
AcDbEntity
  8
DEFPOINTS
 62
     0
100
AcDbPoint
 10
392.721246
 20
410.132602
 30
0.0
  0
POINT
  5
9F4
330
148
100
AcDbEntity
  8
DEFPOINTS
 62
     0
100
AcDbPoint
 10
489.938412
 20
410.132602
 30
0.0
  0
ENDBLK
  5
1A5
330
148
100
AcDbEntity
  8
0
100
AcDbBlockEnd
  0
BLOCK
  5
185
330
155
100
AcDbEntity
  8
0
100
AcDbBlockBegin
  2
*D4
 70
     1
 10
0.0
 20
0.0
 30
0.0
  3
*D4
  1

  0
LINE
  5
9F5
330
155
100
AcDbEntity
  8
BYLAYER
 62
     0
370
    -2
100
AcDbLine
 10
12.252138
 20
428.40359
 30
0.0
 11
12.25213799999999
 21
368.6032429999999
 31
0.0
  0
LINE
  5
9F6
330
155
100
AcDbEntity
  8
BYLAYER
 62
     0
370
    -2
100
AcDbLine
 10
398.787597
 20
428.40359
 30
0.0
 11
398.787597
 21
368.6032429999999
 31
0.0
  0
LINE
  5
9F7
330
155
100
AcDbEntity
  8
BYLAYER
 62
     0
370
    -2
100
AcDbLine
 10
24.03664799999999
 20
380.3877529999999
 30
0.0
 11
387.0030869999999
 21
380.3877529999999
 31
0.0
  0
INSERT
  5
9F8
330
155
100
AcDbEntity
  8
BYLAYER
 62
     0
370
    -2
100
AcDbBlockReference
  2
_OPEN
 10
12.25213799999999
 20
380.3877529999999
 30
0.0
 41
11.78450999999999
 42
11.78450999999999
 43
11.78450999999999
 50
180.0
  0
INSERT
  5
9F9
330
155
100
AcDbEntity
  8
BYLAYER
 62
     0
370
    -2
100
AcDbBlockReference
  2
_OPEN
 10
398.787597
 20
380.3877529999999
 30
0.0
 41
11.78450999999999
 42
11.78450999999999
 43
11.78450999999999
  0
MTEXT
  5
9FA
330
155
100
AcDbEntity
  8
BYLAYER
 62
     0
100
AcDbMText
 10
205.5198675
 20
387.4584589999999
 30
0.0
 40
9.427607999999999
 41
0.0
 71
     5
 72
     1
  1
\A1;394
 73
     1
 44
1.0
  0
POINT
  5
9FB
330
155
100
AcDbEntity
  8
DEFPOINTS
 62
     0
100
AcDbPoint
 10
12.252138
 20
440.1881
 30
0.0
  0
POINT
  5
9FC
330
155
100
AcDbEntity
  8
DEFPOINTS
 62
     0
100
AcDbPoint
 10
398.787597
 20
440.1881
 30
0.0
  0
POINT
  5
9FD
330
155
100
AcDbEntity
  8
DEFPOINTS
 62
     0
100
AcDbPoint
 10
398.787597
 20
380.3877529999999
 30
0.0
  0
ENDBLK
  5
18F
330
155
100
AcDbEntity
  8
0
100
AcDbBlockEnd
  0
BLOCK
  5
17A
330
162
100
AcDbEntity
  8
0
100
AcDbBlockBegin
  2
*D5
 70
     1
 10
0.0
 20
0.0
 30
0.0
  3
*D5
  1

  0
LINE
  5
9FE
330
162
100
AcDbEntity
  8
BYLAYER
 62
     0
370
    -2
100
AcDbLine
 10
0.5860769999999995
 20
415.9775449999999
 30
0.0
 11
0.5860769999999946
 21
337.5381279999999
 31
0.0
  0
LINE
  5
9FF
330
162
100
AcDbEntity
  8
BYLAYER
 62
     0
370
    -2
100
AcDbLine
 10
412.009131
 20
415.9775449999999
 30
0.0
 11
412.009131
 21
337.5381279999999
 31
0.0
  0
LINE
  5
A00
330
162
100
AcDbEntity
  8
BYLAYER
 62
     0
370
    -2
100
AcDbLine
 10
12.37058699999999
 20
349.3226379999999
 30
0.0
 11
400.224621
 21
349.3226379999999
 31
0.0
  0
INSERT
  5
A01
330
162
100
AcDbEntity
  8
BYLAYER
 62
     0
370
    -2
100
AcDbBlockReference
  2
_OPEN
 10
0.5860769999999953
 20
349.3226379999999
 30
0.0
 41
11.78450999999999
 42
11.78450999999999
 43
11.78450999999999
 50
180.0
  0
INSERT
  5
A02
330
162
100
AcDbEntity
  8
BYLAYER
 62
     0
370
    -2
100
AcDbBlockReference
  2
_OPEN
 10
412.009131
 20
349.3226379999999
 30
0.0
 41
11.78450999999999
 42
11.78450999999999
 43
11.78450999999999
  0
MTEXT
  5
A03
330
162
100
AcDbEntity
  8
BYLAYER
 62
     0
100
AcDbMText
 10
206.297604
 20
356.3933439999999
 30
0.0
 40
9.427607999999999
 41
0.0
 71
     5
 72
     1
  1
\A1;422
 73
     1
 44
1.0
  0
POINT
  5
A04
330
162
100
AcDbEntity
  8
DEFPOINTS
 62
     0
100
AcDbPoint
 10
0.5860770000000001
 20
427.7620549999999
 30
0.0
  0
POINT
  5
A05
330
162
100
AcDbEntity
  8
DEFPOINTS
 62
     0
100
AcDbPoint
 10
412.009131
 20
427.7620549999999
 30
0.0
  0
POINT
  5
A06
330
162
100
AcDbEntity
  8
DEFPOINTS
 62
     0
100
AcDbPoint
 10
412.009131
 20
349.3226379999999
 30
0.0
  0
ENDBLK
  5
184
330
162
100
AcDbEntity
  8
0
100
AcDbBlockEnd
  0
BLOCK
  5
28B
330
20E
100
AcDbEntity
  8
0
100
AcDbBlockBegin
  2
*D6
 70
     1
 10
0.0
 20
0.0
 30
0.0
  3
*D6
  1

  0
LINE
  5
ACA
330
20E
100
AcDbEntity
  8
BYLAYER
 62
     0
370
    -2
100
AcDbLine
 10
432.58444
 20
329.085437
 30
0.0
 11
471.3911659999999
 21
329.085437
 31
0.0
  0
LINE
  5
ACB
330
20E
100
AcDbEntity
  8
BYLAYER
 62
     0
370
    -2
100
AcDbLine
 10
437.1563529999999
 20
278.892047
 30
0.0
 11
471.3911659999999
 21
278.892047
 31
0.0
  0
LINE
  5
ACC
330
20E
100
AcDbEntity
  8
BYLAYER
 62
     0
370
    -2
100
AcDbLine
 10
459.6066559999999
 20
317.300927
 30
0.0
 11
459.6066559999999
 21
290.676557
 31
0.0
  0
INSERT
  5
ACD
330
20E
100
AcDbEntity
  8
BYLAYER
 62
     0
370
    -2
100
AcDbBlockReference
  2
_OPEN
 10
459.6066559999999
 20
329.085437
 30
0.0
 41
11.78450999999999
 42
11.78450999999999
 43
11.78450999999999
 50
90.0
  0
INSERT
  5
ACE
330
20E
100
AcDbEntity
  8
BYLAYER
 62
     0
370
    -2
100
AcDbBlockReference
  2
_OPEN
 10
459.6066559999999
 20
278.892047
 30
0.0
 41
11.78450999999999
 42
11.78450999999999
 43
11.78450999999999
 50
270.0
  0
MTEXT
  5
ACF
330
20E
100
AcDbEntity
  8
BYLAYER
 62
     0
100
AcDbMText
 10
452.5359499999999
 20
303.9887420000001
 30
0.0
 40
9.427607999999999
 41
0.0
 71
     5
 72
     1
  1
\A1;48
 11
0.0000000000000001
 21
1.0
 31
0.0
 73
     1
 44
1.0
  0
POINT
  5
AD0
330
20E
100
AcDbEntity
  8
DEFPOINTS
 62
     0
100
AcDbPoint
 10
420.7999299999999
 20
329.085437
 30
0.0
  0
POINT
  5
AD1
330
20E
100
AcDbEntity
  8
DEFPOINTS
 62
     0
100
AcDbPoint
 10
425.3718429999999
 20
278.892047
 30
0.0
  0
POINT
  5
AD2
330
20E
100
AcDbEntity
  8
DEFPOINTS
 62
     0
100
AcDbPoint
 10
459.6066559999999
 20
278.892047
 30
0.0
  0
ENDBLK
  5
295
330
20E
100
AcDbEntity
  8
0
100
AcDbBlockEnd
  0
BLOCK
  5
280
330
21B
100
AcDbEntity
  8
0
100
AcDbBlockBegin
  2
*D7
 70
     1
 10
0.0
 20
0.0
 30
0.0
  3
*D7
  1

  0
LINE
  5
AD3
330
21B
100
AcDbEntity
  8
BYLAYER
 62
     0
370
    -2
100
AcDbLine
 10
437.1563529999999
 20
278.892047
 30
0.0
 11
501.722922
 21
278.892047
 31
0.0
  0
LINE
  5
AD4
330
21B
100
AcDbEntity
  8
BYLAYER
 62
     0
370
    -2
100
AcDbLine
 10
422.775991
 20
112.427712
 30
0.0
 11
501.722922
 21
112.4277119999999
 31
0.0
  0
LINE
  5
AD5
330
21B
100
AcDbEntity
  8
BYLAYER
 62
     0
370
    -2
100
AcDbLine
 10
489.938412
 20
267.107537
 30
0.0
 11
489.938412
 21
124.2122219999999
 31
0.0
  0
INSERT
  5
AD6
330
21B
100
AcDbEntity
  8
BYLAYER
 62
     0
370
    -2
100
AcDbBlockReference
  2
_OPEN
 10
489.938412
 20
278.892047
 30
0.0
 41
11.78450999999999
 42
11.78450999999999
 43
11.78450999999999
 50
90.0
  0
INSERT
  5
AD7
330
21B
100
AcDbEntity
  8
BYLAYER
 62
     0
370
    -2
100
AcDbBlockReference
  2
_OPEN
 10
489.938412
 20
112.4277119999999
 30
0.0
 41
11.78450999999999
 42
11.78450999999999
 43
11.78450999999999
 50
270.0
  0
MTEXT
  5
AD8
330
21B
100
AcDbEntity
  8
BYLAYER
 62
     0
100
AcDbMText
 10
482.867706
 20
195.6598795000001
 30
0.0
 40
9.427607999999999
 41
0.0
 71
     5
 72
     1
  1
\A1;180
 11
0.0000000000000001
 21
1.0
 31
0.0
 73
     1
 44
1.0
  0
POINT
  5
AD9
330
21B
100
AcDbEntity
  8
DEFPOINTS
 62
     0
100
AcDbPoint
 10
425.3718429999999
 20
278.892047
 30
0.0
  0
POINT
  5
ADA
330
21B
100
AcDbEntity
  8
DEFPOINTS
 62
     0
100
AcDbPoint
 10
410.991481
 20
112.427712
 30
0.0
  0
POINT
  5
ADB
330
21B
100
AcDbEntity
  8
DEFPOINTS
 62
     0
100
AcDbPoint
 10
489.938412
 20
112.4277119999999
 30
0.0
  0
ENDBLK
  5
28A
330
21B
100
AcDbEntity
  8
0
100
AcDbBlockEnd
  0
BLOCK
  5
275
330
228
100
AcDbEntity
  8
0
100
AcDbBlockBegin
  2
*D8
 70
     1
 10
0.0
 20
0.0
 30
0.0
  3
*D8
  1

  0
LINE
  5
ADC
330
228
100
AcDbEntity
  8
BYLAYER
 62
     0
370
    -2
100
AcDbLine
 10
437.1563529999999
 20
278.892047
 30
0.0
 11
532.054678
 21
278.892047
 31
0.0
  0
LINE
  5
ADD
330
228
100
AcDbEntity
  8
BYLAYER
 62
     0
370
    -2
100
AcDbLine
 10
406.301821
 20
96.74190899999999
 30
0.0
 11
532.0546779999999
 21
96.74190899999995
 31
0.0
  0
LINE
  5
ADE
330
228
100
AcDbEntity
  8
BYLAYER
 62
     0
370
    -2
100
AcDbLine
 10
520.2701680000001
 20
267.107537
 30
0.0
 11
520.270168
 21
108.5264189999999
 31
0.0
  0
INSERT
  5
ADF
330
228
100
AcDbEntity
  8
BYLAYER
 62
     0
370
    -2
100
AcDbBlockReference
  2
_OPEN
 10
520.2701680000001
 20
278.892047
 30
0.0
 41
11.78450999999999
 42
11.78450999999999
 43
11.78450999999999
 50
90.0
  0
INSERT
  5
AE0
330
228
100
AcDbEntity
  8
BYLAYER
 62
     0
370
    -2
100
AcDbBlockReference
  2
_OPEN
 10
520.270168
 20
96.74190899999995
 30
0.0
 41
11.78450999999999
 42
11.78450999999999
 43
11.78450999999999
 50
270.0
  0
MTEXT
  5
AE1
330
228
100
AcDbEntity
  8
BYLAYER
 62
     0
100
AcDbMText
 10
513.199462
 20
187.8169780000001
 30
0.0
 40
9.427607999999999
 41
0.0
 71
     5
 72
     1
  1
\A1;200
 11
0.0000000000000001
 21
1.0
 31
0.0
 73
     1
 44
1.0
  0
POINT
  5
AE2
330
228
100
AcDbEntity
  8
DEFPOINTS
 62
     0
100
AcDbPoint
 10
425.3718429999999
 20
278.892047
 30
0.0
  0
POINT
  5
AE3
330
228
100
AcDbEntity
  8
DEFPOINTS
 62
     0
100
AcDbPoint
 10
394.517311
 20
96.74190899999999
 30
0.0
  0
POINT
  5
AE4
330
228
100
AcDbEntity
  8
DEFPOINTS
 62
     0
100
AcDbPoint
 10
520.270168
 20
96.74190899999995
 30
0.0
  0
ENDBLK
  5
27F
330
228
100
AcDbEntity
  8
0
100
AcDbBlockEnd
  0
BLOCK
  5
269
330
243
100
AcDbEntity
  8
0
100
AcDbBlockBegin
  2
*D9
 70
     1
 10
0.0
 20
0.0
 30
0.0
  3
*D9
  1

  0
LINE
  5
AEF
330
243
100
AcDbEntity
  8
BYLAYER
 62
     0
370
    -2
100
AcDbLine
 10
422.775991
 20
112.427712
 30
0.0
 11
501.722922
 21
112.4277119999999
 31
0.0
  0
LINE
  5
AF0
330
243
100
AcDbEntity
  8
BYLAYER
 62
     0
370
    -2
100
AcDbLine
 10
405.247426412951
 20
96.74190899999999
 30
0.0
 11
501.722922
 21
96.74190899999997
 31
0.0
  0
LINE
  5
AF1
330
243
100
AcDbEntity
  8
BYLAYER
 62
     0
370
    -2
100
AcDbLine
 10
489.938412
 20
124.2122219999999
 30
0.0
 11
489.938412
 21
135.9967319999999
 31
0.0
  0
LINE
  5
AF2
330
243
100
AcDbEntity
  8
BYLAYER
 62
     0
370
    -2
100
AcDbLine
 10
489.938412
 20
84.95739899999996
 30
0.0
 11
489.938412
 21
73.17288899999997
 31
0.0
  0
INSERT
  5
AF3
330
243
100
AcDbEntity
  8
BYLAYER
 62
     0
370
    -2
100
AcDbBlockReference
  2
_OPEN
 10
489.938412
 20
112.4277119999999
 30
0.0
 41
11.78450999999999
 42
11.78450999999999
 43
11.78450999999999
 50
270.0
  0
INSERT
  5
AF4
330
243
100
AcDbEntity
  8
BYLAYER
 62
     0
370
    -2
100
AcDbBlockReference
  2
_OPEN
 10
489.938412
 20
96.74190899999997
 30
0.0
 41
11.78450999999999
 42
11.78450999999999
 43
11.78450999999999
 50
90.0
  0
MTEXT
  5
AF5
330
243
100
AcDbEntity
  8
BYLAYER
 62
     0
100
AcDbMText
 10
482.867706
 20
104.5848105
 30
0.0
 40
9.427607999999999
 41
0.0
 71
     5
 72
     1
  1
\A1;20
 11
0.0000000000000001
 21
1.0
 31
0.0
 73
     1
 44
1.0
  0
POINT
  5
AF6
330
243
100
AcDbEntity
  8
DEFPOINTS
 62
     0
100
AcDbPoint
 10
410.991481
 20
112.427712
 30
0.0
  0
POINT
  5
AF7
330
243
100
AcDbEntity
  8
DEFPOINTS
 62
     0
100
AcDbPoint
 10
393.462916412951
 20
96.74190899999999
 30
0.0
  0
POINT
  5
AF8
330
243
100
AcDbEntity
  8
DEFPOINTS
 62
     0
100
AcDbPoint
 10
489.938412
 20
96.74190899999997
 30
0.0
  0
ENDBLK
  5
274
330
243
100
AcDbEntity
  8
0
100
AcDbBlockEnd
  0
BLOCK
  5
25E
330
251
100
AcDbEntity
  8
0
100
AcDbBlockBegin
  2
*D10
 70
     1
 10
0.0
 20
0.0
 30
0.0
  3
*D10
  1

  0
LINE
  5
25F
330
251
100
AcDbEntity
  8
0
  6
ByBlock
 62
     0
100
AcDbLine
 10
0.9841989999999999
 20
72.40964100000001
 30
0.0
 11
0.9841989999999999
 21
30.08867399999999
 31
0.0
  0
LINE
  5
260
330
251
100
AcDbEntity
  8
0
  6
ByBlock
 62
     0
100
AcDbLine
 10
409.37567
 20
71.401999
 30
0.0
 11
409.37567
 21
30.08867399999999
 31
0.0
  0
LINE
  5
261
330
251
100
AcDbEntity
  8
0
  6
ByBlock
 62
     0
100
AcDbLine
 10
12.768711
 20
41.873186
 30
0.0
 11
397.591158
 21
41.873186
 31
0.0
  0
INSERT
  5
262
330
251
100
AcDbEntity
  8
0
  6
ByBlock
 62
     0
100
AcDbBlockReference
  2
_OPEN
 10
0.9841989999999999
 20
41.873186
 30
0.0
 41
11.784512
 42
11.784512
 43
11.784512
 50
180.0
  0
INSERT
  5
263
330
251
100
AcDbEntity
  8
0
  6
ByBlock
 62
     0
100
AcDbBlockReference
  2
_OPEN
 10
409.37567
 20
41.873186
 30
0.0
 41
11.784512
 42
11.784512
 43
11.784512
  0
MTEXT
  5
264
330
251
100
AcDbEntity
  8
0
  6
ByBlock
 62
     0
100
AcDbMText
 10
205.179935
 20
48.943893
 30
0.0
 40
9.427609
 41
0.0
 71
     5
 72
     1
  1
\A1;405
 73
     1
 44
1.0
  0
POINT
  5
265
330
251
100
AcDbEntity
  8
DEFPOINTS
  6
ByBlock
 62
     0
100
AcDbPoint
 10
0.9841989999999999
 20
84.194153
 30
0.0
  0
POINT
  5
266
330
251
100
AcDbEntity
  8
DEFPOINTS
  6
ByBlock
 62
     0
100
AcDbPoint
 10
409.37567
 20
83.186511
 30
0.0
  0
POINT
  5
267
330
251
100
AcDbEntity
  8
DEFPOINTS
  6
ByBlock
 62
     0
100
AcDbPoint
 10
409.37567
 20
41.873186
 30
0.0
  0
ENDBLK
  5
268
330
251
100
AcDbEntity
  8
0
100
AcDbBlockEnd
  0
BLOCK
  5
2DC
330
2DB
100
AcDbEntity
  8
0
100
AcDbBlockBegin
  2
*D11
 70
     1
 10
0.0
 20
0.0
 30
0.0
  3
*D11
  1

  0
LINE
  5
2DD
330
2DB
100
AcDbEntity
  8
0
  6
ByBlock
 62
     0
100
AcDbLine
 10
559.768023
 20
68.426011
 30
0.0
 11
559.768023
 21
29.591711
 31
0.0
  0
LINE
  5
2DE
330
2DB
100
AcDbEntity
  8
0
  6
ByBlock
 62
     0
100
AcDbLine
 10
799.588323
 20
69.145166
 30
0.0
 11
799.588323
 21
29.591711
 31
0.0
  0
LINE
  5
2DF
330
2DB
100
AcDbEntity
  8
0
  6
ByBlock
 62
     0
100
AcDbLine
 10
571.552534
 20
41.37622299999999
 30
0.0
 11
787.803811
 21
41.37622299999999
 31
0.0
  0
INSERT
  5
2E0
330
2DB
100
AcDbEntity
  8
0
  6
ByBlock
 62
     0
100
AcDbBlockReference
  2
_OPEN
 10
559.768023
 20
41.37622299999999
 30
0.0
 41
11.784512
 42
11.784512
 43
11.784512
 50
180.0
  0
INSERT
  5
2E1
330
2DB
100
AcDbEntity
  8
0
  6
ByBlock
 62
     0
100
AcDbBlockReference
  2
_OPEN
 10
799.588323
 20
41.37622299999999
 30
0.0
 41
11.784512
 42
11.784512
 43
11.784512
  0
MTEXT
  5
2E2
330
2DB
100
AcDbEntity
  8
0
  6
ByBlock
 62
     0
100
AcDbMText
 10
679.678173
 20
48.44693
 30
0.0
 40
9.427609
 41
0.0
 71
     5
 72
     1
  1
\A1;240
 73
     1
 44
1.0
  0
POINT
  5
2E3
330
2DB
100
AcDbEntity
  8
DEFPOINTS
  6
ByBlock
 62
     0
100
AcDbPoint
 10
559.768023
 20
80.21052299999999
 30
0.0
  0
POINT
  5
2E4
330
2DB
100
AcDbEntity
  8
DEFPOINTS
  6
ByBlock
 62
     0
100
AcDbPoint
 10
799.588323
 20
80.92967800000002
 30
0.0
  0
POINT
  5
2E5
330
2DB
100
AcDbEntity
  8
DEFPOINTS
  6
ByBlock
 62
     0
100
AcDbPoint
 10
799.588323
 20
41.37622299999999
 30
0.0
  0
ENDBLK
  5
2E6
330
2DB
100
AcDbEntity
  8
0
100
AcDbBlockEnd
  0
BLOCK
  5
370
330
36D
100
AcDbEntity
  8
0
 62
     0
370
     0
100
AcDbBlockBegin
  2
WMF0
 70
     0
 10
0.0
 20
0.0
 30
0.0
  3
WMF0
  1

  0
TEXT
  5
372
330
36D
100
AcDbEntity
  8
0
 62
     7
370
     0
100
AcDbText
 10
2.287014799274194
 20
-4.900745998444701
 30
0.0
 40
2.875104319087558
  1
No
  7
WMF-ＭＳ Ｐゴシック0
100
AcDbText
  0
TEXT
  5
374
330
36D
100
AcDbEntity
  8
0
 62
     7
370
     0
100
AcDbText
 10
22.87014799274194
 20
-4.900745998444701
 30
0.0
 40
2.875104319087558
  1
部品名
  7
WMF-ＭＳ Ｐゴシック0
100
AcDbText
  0
TEXT
  5
375
330
36D
100
AcDbEntity
  8
0
 62
     7
370
     0
100
AcDbText
 10
51.29447478372121
 20
-4.900745998444701
 30
0.0
 40
2.875104319087558
  1
数量
  7
WMF-ＭＳ Ｐゴシック0
100
AcDbText
  0
TEXT
  5
376
330
36D
100
AcDbEntity
  8
0
 62
     7
370
     0
100
AcDbText
 10
70.57074237760369
 20
-4.900745998444701
 30
0.0
 40
2.875104319087558
  1
材質又は定格
  7
WMF-ＭＳ Ｐゴシック0
100
AcDbText
  0
TEXT
  5
377
330
36D
100
AcDbEntity
  8
0
 62
     7
370
     0
100
AcDbText
 10
3.593880398859447
 20
-10.45492479668203
 30
0.0
 40
2.875104319087558
  1
1
  7
WMF-ＭＳ Ｐゴシック0
100
AcDbText
  0
TEXT
  5
378
330
36D
100
AcDbEntity
  8
0
 62
     7
370
     0
100
AcDbText
 10
9.801491996889401
 20
-10.45492479668203
 30
0.0
 40
2.875104319087558
  1
本体
  7
WMF-ＭＳ Ｐゴシック0
100
AcDbText
  0
TEXT
  5
379
330
36D
100
AcDbEntity
  8
0
 62
     7
370
     0
100
AcDbText
 10
54.23492238278803
 20
-10.45492479668203
 30
0.0
 40
2.875104319087558
  1
1
  7
WMF-ＭＳ Ｐゴシック0
100
AcDbText
  0
TEXT
  5
37A
330
36D
100
AcDbEntity
  8
0
 62
     7
370
     0
100
AcDbText
 10
62.40283238019586
 20
-10.45492479668203
 30
0.0
 40
2.875104319087558
  1
ステンレス
  7
WMF-ＭＳ Ｐゴシック0
100
AcDbText
  0
TEXT
  5
37B
330
36D
100
AcDbEntity
  8
0
 62
     7
370
     0
100
AcDbText
 10
3.593880398859447
 20
-16.00910359491936
 30
0.0
 40
2.875104319087558
  1
2
  7
WMF-ＭＳ Ｐゴシック0
100
AcDbText
  0
TEXT
  5
37C
330
36D
100
AcDbEntity
  8
0
 62
     7
370
     0
100
AcDbText
 10
9.801491996889401
 20
-16.00910359491936
 30
0.0
 40
2.875104319087558
  1
内容器
  7
WMF-ＭＳ Ｐゴシック0
100
AcDbText
  0
TEXT
  5
37D
330
36D
100
AcDbEntity
  8
0
 62
     7
370
     0
100
AcDbText
 10
54.23492238278803
 20
-16.00910359491936
 30
0.0
 40
2.875104319087558
  1
1
  7
WMF-ＭＳ Ｐゴシック0
100
AcDbText
  0
TEXT
  5
37E
330
36D
100
AcDbEntity
  8
0
 62
     7
370
     0
100
AcDbText
 10
62.40283238019586
 20
-16.00910359491936
 30
0.0
 40
2.875104319087558
  1
ステンレス
  7
WMF-ＭＳ Ｐゴシック0
100
AcDbText
  0
TEXT
  5
37F
330
36D
100
AcDbEntity
  8
0
 62
     7
370
     0
100
AcDbText
 10
3.593880398859447
 20
-21.56328239315668
 30
0.0
 40
2.875104319087558
  1
3
  7
WMF-ＭＳ Ｐゴシック0
100
AcDbText
  0
TEXT
  5
380
330
36D
100
AcDbEntity
  8
0
 62
     7
370
     0
100
AcDbText
 10
9.801491996889401
 20
-21.56328239315668
 30
0.0
 40
2.875104319087558
  1
熱板
  7
WMF-ＭＳ Ｐゴシック0
100
AcDbText
  0
TEXT
  5
381
330
36D
100
AcDbEntity
  8
0
 62
     7
370
     0
100
AcDbText
 10
54.23492238278803
 20
-21.56328239315668
 30
0.0
 40
2.875104319087558
  1
1
  7
WMF-ＭＳ Ｐゴシック0
100
AcDbText
  0
TEXT
  5
382
330
36D
100
AcDbEntity
  8
0
 62
     7
370
     0
100
AcDbText
 10
62.40283238019586
 20
-21.56328239315668
 30
0.0
 40
2.875104319087558
  1
アルミ
  7
WMF-ＭＳ Ｐゴシック0
100
AcDbText
  0
TEXT
  5
383
330
36D
100
AcDbEntity
  8
0
 62
     7
370
     0
100
AcDbText
 10
3.593880398859447
 20
-27.11746119139401
 30
0.0
 40
2.875104319087558
  1
4
  7
WMF-ＭＳ Ｐゴシック0
100
AcDbText
  0
TEXT
  5
384
330
36D
100
AcDbEntity
  8
0
 62
     7
370
     0
100
AcDbText
 10
9.801491996889401
 20
-27.11746119139401
 30
0.0
 40
2.875104319087558
  1
仕切板
  7
WMF-ＭＳ Ｐゴシック0
100
AcDbText
  0
TEXT
  5
385
330
36D
100
AcDbEntity
  8
0
 62
     7
370
     0
100
AcDbText
 10
54.23492238278803
 20
-27.11746119139401
 30
0.0
 40
2.875104319087558
  1
1
  7
WMF-ＭＳ Ｐゴシック0
100
AcDbText
  0
TEXT
  5
386
330
36D
100
AcDbEntity
  8
0
 62
     7
370
     0
100
AcDbText
 10
62.40283238019586
 20
-27.11746119139401
 30
0.0
 40
2.875104319087558
  1
ステンレス　四つ切り
  7
WMF-ＭＳ Ｐゴシック0
100
AcDbText
  0
TEXT
  5
387
330
36D
100
AcDbEntity
  8
0
 62
     7
370
     0
100
AcDbText
 10
3.593880398859447
 20
-32.99835638952766
 30
0.0
 40
2.875104319087558
  1
5
  7
WMF-ＭＳ Ｐゴシック0
100
AcDbText
  0
TEXT
  5
388
330
36D
100
AcDbEntity
  8
0
 62
     7
370
     0
100
AcDbText
 10
9.801491996889401
 20
-32.99835638952766
 30
0.0
 40
2.875104319087558
  1
蓋
  7
WMF-ＭＳ Ｐゴシック0
100
AcDbText
  0
TEXT
  5
389
330
36D
100
AcDbEntity
  8
0
 62
     7
370
     0
100
AcDbText
 10
54.23492238278803
 20
-32.99835638952766
 30
0.0
 40
2.875104319087558
  1
1
  7
WMF-ＭＳ Ｐゴシック0
100
AcDbText
  0
TEXT
  5
38A
330
36D
100
AcDbEntity
  8
0
 62
     7
370
     0
100
AcDbText
 10
62.40283238019586
 20
-32.99835638952766
 30
0.0
 40
2.875104319087558
  1
ステンレス
  7
WMF-ＭＳ Ｐゴシック0
100
AcDbText
  0
TEXT
  5
38B
330
36D
100
AcDbEntity
  8
0
 62
     7
370
     0
100
AcDbText
 10
3.593880398859447
 20
-38.87925158766129
 30
0.0
 40
2.875104319087558
  1
6
  7
WMF-ＭＳ Ｐゴシック0
100
AcDbText
  0
TEXT
  5
38C
330
36D
100
AcDbEntity
  8
0
 62
     7
370
     0
100
AcDbText
 10
9.801491996889401
 20
-38.87925158766129
 30
0.0
 40
2.875104319087558
  1
ヒーター
  7
WMF-ＭＳ Ｐゴシック0
100
AcDbText
  0
TEXT
  5
38D
330
36D
100
AcDbEntity
  8
0
 62
     7
370
     0
100
AcDbText
 10
54.23492238278803
 20
-38.87925158766129
 30
0.0
 40
2.875104319087558
  1
1
  7
WMF-ＭＳ Ｐゴシック0
100
AcDbText
  0
TEXT
  5
38E
330
36D
100
AcDbEntity
  8
0
 62
     7
370
     0
100
AcDbText
 10
62.40283238019586
 20
-38.87925158766129
 30
0.0
 40
2.875104319087558
  1
100V805W
  7
WMF-ＭＳ Ｐゴシック0
100
AcDbText
  0
TEXT
  5
38F
330
36D
100
AcDbEntity
  8
0
 62
     7
370
     0
100
AcDbText
 10
3.593880398859447
 20
-44.76014678579494
 30
0.0
 40
2.875104319087558
  1
7
  7
WMF-ＭＳ Ｐゴシック0
100
AcDbText
  0
TEXT
  5
390
330
36D
100
AcDbEntity
  8
0
 62
     7
370
     0
100
AcDbText
 10
9.801491996889401
 20
-44.76014678579494
 30
0.0
 40
2.875104319087558
  1
ヒーターカバー
  7
WMF-ＭＳ Ｐゴシック0
100
AcDbText
  0
TEXT
  5
391
330
36D
100
AcDbEntity
  8
0
 62
     7
370
     0
100
AcDbText
 10
54.23492238278803
 20
-44.76014678579494
 30
0.0
 40
2.875104319087558
  1
1
  7
WMF-ＭＳ Ｐゴシック0
100
AcDbText
  0
TEXT
  5
392
330
36D
100
AcDbEntity
  8
0
 62
     7
370
     0
100
AcDbText
 10
62.40283238019586
 20
-44.76014678579494
 30
0.0
 40
2.875104319087558
  1
網板
  7
WMF-ＭＳ Ｐゴシック0
100
AcDbText
  0
TEXT
  5
393
330
36D
100
AcDbEntity
  8
0
 62
     7
370
     0
100
AcDbText
 10
3.593880398859447
 20
-50.64104198392858
 30
0.0
 40
2.875104319087558
  1
8
  7
WMF-ＭＳ Ｐゴシック0
100
AcDbText
  0
TEXT
  5
394
330
36D
100
AcDbEntity
  8
0
 62
     7
370
     0
100
AcDbText
 10
9.801491996889401
 20
-50.64104198392858
 30
0.0
 40
2.875104319087558
  1
温度センサー
  7
WMF-ＭＳ Ｐゴシック0
100
AcDbText
  0
TEXT
  5
395
330
36D
100
AcDbEntity
  8
0
 62
     7
370
     0
100
AcDbText
 10
54.23492238278803
 20
-50.64104198392858
 30
0.0
 40
2.875104319087558
  1
1
  7
WMF-ＭＳ Ｐゴシック0
100
AcDbText
  0
TEXT
  5
396
330
36D
100
AcDbEntity
  8
0
 62
     7
370
     0
100
AcDbText
 10
3.593880398859447
 20
-56.52193718206222
 30
0.0
 40
2.875104319087558
  1
9
  7
WMF-ＭＳ Ｐゴシック0
100
AcDbText
  0
TEXT
  5
397
330
36D
100
AcDbEntity
  8
0
 62
     7
370
     0
100
AcDbText
 10
9.801491996889401
 20
-56.52193718206222
 30
0.0
 40
2.875104319087558
  1
温度センサーカバー
  7
WMF-ＭＳ Ｐゴシック0
100
AcDbText
  0
TEXT
  5
398
330
36D
100
AcDbEntity
  8
0
 62
     7
370
     0
100
AcDbText
 10
54.23492238278803
 20
-56.52193718206222
 30
0.0
 40
2.875104319087558
  1
1
  7
WMF-ＭＳ Ｐゴシック0
100
AcDbText
  0
TEXT
  5
399
330
36D
100
AcDbEntity
  8
0
 62
     7
370
     0
100
AcDbText
 10
62.40283238019586
 20
-56.52193718206222
 30
0.0
 40
2.875104319087558
  1
アルミ
  7
WMF-ＭＳ Ｐゴシック0
100
AcDbText
  0
TEXT
  5
39A
330
36D
100
AcDbEntity
  8
0
 62
     7
370
     0
100
AcDbText
 10
2.287014799274194
 20
-62.40283238019586
 30
0.0
 40
2.875104319087558
  1
10
  7
WMF-ＭＳ Ｐゴシック0
100
AcDbText
  0
TEXT
  5
39B
330
36D
100
AcDbEntity
  8
0
 62
     7
370
     0
100
AcDbText
 10
9.801491996889401
 20
-62.40283238019586
 30
0.0
 40
2.875104319087558
  1
電源スイッチ
  7
WMF-ＭＳ Ｐゴシック0
100
AcDbText
  0
TEXT
  5
39C
330
36D
100
AcDbEntity
  8
0
 62
     7
370
     0
100
AcDbText
 10
54.23492238278803
 20
-62.40283238019586
 30
0.0
 40
2.875104319087558
  1
1
  7
WMF-ＭＳ Ｐゴシック0
100
AcDbText
  0
TEXT
  5
39D
330
36D
100
AcDbEntity
  8
0
 62
     7
370
     0
100
AcDbText
 10
2.287014799274194
 20
-68.2837275783295
 30
0.0
 40
2.875104319087558
  1
11
  7
WMF-ＭＳ Ｐゴシック0
100
AcDbText
  0
TEXT
  5
39E
330
36D
100
AcDbEntity
  8
0
 62
     7
370
     0
100
AcDbText
 10
9.801491996889401
 20
-68.2837275783295
 30
0.0
 40
2.875104319087558
  1
表示灯
  7
WMF-ＭＳ Ｐゴシック0
100
AcDbText
  0
TEXT
  5
39F
330
36D
100
AcDbEntity
  8
0
 62
     7
370
     0
100
AcDbText
 10
54.23492238278803
 20
-68.2837275783295
 30
0.0
 40
2.875104319087558
  1
1
  7
WMF-ＭＳ Ｐゴシック0
100
AcDbText
  0
TEXT
  5
3A0
330
36D
100
AcDbEntity
  8
0
 62
     7
370
     0
100
AcDbText
 10
62.40283238019586
 20
-68.2837275783295
 30
0.0
 40
2.875104319087558
  1
ネオンランプ
  7
WMF-ＭＳ Ｐゴシック0
100
AcDbText
  0
TEXT
  5
3A1
330
36D
100
AcDbEntity
  8
0
 62
     7
370
     0
100
AcDbText
 10
2.287014799274194
 20
-74.16462277646314
 30
0.0
 40
2.875104319087558
  1
12
  7
WMF-ＭＳ Ｐゴシック0
100
AcDbText
  0
TEXT
  5
3A2
330
36D
100
AcDbEntity
  8
0
 62
     7
370
     0
100
AcDbText
 10
9.801491996889401
 20
-74.16462277646314
 30
0.0
 40
2.875104319087558
  1
温度調節器
  7
WMF-ＭＳ Ｐゴシック0
100
AcDbText
  0
TEXT
  5
3A3
330
36D
100
AcDbEntity
  8
0
 62
     7
370
     0
100
AcDbText
 10
54.23492238278803
 20
-74.16462277646314
 30
0.0
 40
2.875104319087558
  1
1
  7
WMF-ＭＳ Ｐゴシック0
100
AcDbText
  0
TEXT
  5
3A4
330
36D
100
AcDbEntity
  8
0
 62
     7
370
     0
100
AcDbText
 10
62.40283238019586
 20
-74.16462277646314
 30
0.0
 40
2.875104319087558
  1
30℃～110℃
  7
WMF-ＭＳ Ｐゴシック0
100
AcDbText
  0
TEXT
  5
3A5
330
36D
100
AcDbEntity
  8
0
 62
     7
370
     0
100
AcDbText
 10
2.287014799274194
 20
-80.04551797459679
 30
0.0
 40
2.875104319087558
  1
13
  7
WMF-ＭＳ Ｐゴシック0
100
AcDbText
  0
TEXT
  5
3A6
330
36D
100
AcDbEntity
  8
0
 62
     7
370
     0
100
AcDbText
 10
9.801491996889401
 20
-80.04551797459679
 30
0.0
 40
2.875104319087558
  1
ゴム脚
  7
WMF-ＭＳ Ｐゴシック0
100
AcDbText
  0
TEXT
  5
3A7
330
36D
100
AcDbEntity
  8
0
 62
     7
370
     0
100
AcDbText
 10
54.23492238278803
 20
-80.04551797459679
 30
0.0
 40
2.875104319087558
  1
1
  7
WMF-ＭＳ Ｐゴシック0
100
AcDbText
  0
TEXT
  5
3A8
330
36D
100
AcDbEntity
  8
0
 62
     7
370
     0
100
AcDbText
 10
62.40283238019586
 20
-80.04551797459679
 30
0.0
 40
2.875104319087558
  1
合成ゴム
  7
WMF-ＭＳ Ｐゴシック0
100
AcDbText
  0
POLYLINE
  5
3AA
330
36D
100
AcDbEntity
  8
0
 62
     7
370
     0
100
AcDb2dPolyline
 66
     1
 10
0.0
 20
0.0
 30
0.0
  0
VERTEX
  5
3AB
330
3AA
100
AcDbEntity
  8
0
 62
     7
370
     0
100
AcDbVertex
100
AcDb2dVertex
 10
0.3267163998963134
 20
0.0
 30
0.0
  0
VERTEX
  5
3AC
330
3AA
100
AcDbEntity
  8
0
 62
     7
370
     0
100
AcDbVertex
100
AcDb2dVertex
 10
104.8759643667166
 20
0.0
 30
0.0
  0
SEQEND
  5
3AD
330
3AA
100
AcDbEntity
  8
0
 62
     7
370
     0
  0
POLYLINE
  5
3AE
330
36D
100
AcDbEntity
  8
0
 62
     7
370
     0
100
AcDb2dPolyline
 66
     1
 10
0.0
 20
0.0
 30
0.0
  0
VERTEX
  5
3AF
330
3AE
100
AcDbEntity
  8
0
 62
     7
370
     0
100
AcDbVertex
100
AcDb2dVertex
 10
0.3267163998963134
 20
-5.554178798237328
 30
0.0
  0
VERTEX
  5
3B0
330
3AE
100
AcDbEntity
  8
0
 62
     7
370
     0
100
AcDbVertex
100
AcDb2dVertex
 10
104.8759643667166
 20
-5.554178798237328
 30
0.0
  0
SEQEND
  5
3B1
330
3AE
100
AcDbEntity
  8
0
 62
     7
370
     0
  0
POLYLINE
  5
3B2
330
36D
100
AcDbEntity
  8
0
 62
     7
370
     0
100
AcDb2dPolyline
 66
     1
 10
0.0
 20
0.0
 30
0.0
  0
VERTEX
  5
3B3
330
3B2
100
AcDbEntity
  8
0
 62
     7
370
     0
100
AcDbVertex
100
AcDb2dVertex
 10
0.3267163998963134
 20
-11.10835759647465
 30
0.0
  0
VERTEX
  5
3B4
330
3B2
100
AcDbEntity
  8
0
 62
     7
370
     0
100
AcDbVertex
100
AcDb2dVertex
 10
104.8759643667166
 20
-11.10835759647465
 30
0.0
  0
SEQEND
  5
3B5
330
3B2
100
AcDbEntity
  8
0
 62
     7
370
     0
  0
POLYLINE
  5
3B6
330
36D
100
AcDbEntity
  8
0
 62
     7
370
     0
100
AcDb2dPolyline
 66
     1
 10
0.0
 20
0.0
 30
0.0
  0
VERTEX
  5
3B7
330
3B6
100
AcDbEntity
  8
0
 62
     7
370
     0
100
AcDbVertex
100
AcDb2dVertex
 10
0.3267163998963134
 20
-16.66253639471198
 30
0.0
  0
VERTEX
  5
3B8
330
3B6
100
AcDbEntity
  8
0
 62
     7
370
     0
100
AcDbVertex
100
AcDb2dVertex
 10
104.8759643667166
 20
-16.66253639471198
 30
0.0
  0
SEQEND
  5
3B9
330
3B6
100
AcDbEntity
  8
0
 62
     7
370
     0
  0
POLYLINE
  5
3BA
330
36D
100
AcDbEntity
  8
0
 62
     7
370
     0
100
AcDb2dPolyline
 66
     1
 10
0.0
 20
0.0
 30
0.0
  0
VERTEX
  5
3BB
330
3BA
100
AcDbEntity
  8
0
 62
     7
370
     0
100
AcDbVertex
100
AcDb2dVertex
 10
0.3267163998963134
 20
-22.21671519294931
 30
0.0
  0
VERTEX
  5
3BC
330
3BA
100
AcDbEntity
  8
0
 62
     7
370
     0
100
AcDbVertex
100
AcDb2dVertex
 10
104.8759643667166
 20
-22.21671519294931
 30
0.0
  0
SEQEND
  5
3BD
330
3BA
100
AcDbEntity
  8
0
 62
     7
370
     0
  0
POLYLINE
  5
3BE
330
36D
100
AcDbEntity
  8
0
 62
     7
370
     0
100
AcDb2dPolyline
 66
     1
 10
0.0
 20
0.0
 30
0.0
  0
VERTEX
  5
3BF
330
3BE
100
AcDbEntity
  8
0
 62
     7
370
     0
100
AcDbVertex
100
AcDb2dVertex
 10
0.3267163998963134
 20
-27.77089399118664
 30
0.0
  0
VERTEX
  5
3C0
330
3BE
100
AcDbEntity
  8
0
 62
     7
370
     0
100
AcDbVertex
100
AcDb2dVertex
 10
104.8759643667166
 20
-27.77089399118664
 30
0.0
  0
SEQEND
  5
3C1
330
3BE
100
AcDbEntity
  8
0
 62
     7
370
     0
  0
POLYLINE
  5
3C2
330
36D
100
AcDbEntity
  8
0
 62
     7
370
     0
100
AcDb2dPolyline
 66
     1
 10
0.0
 20
0.0
 30
0.0
  0
VERTEX
  5
3C3
330
3C2
100
AcDbEntity
  8
0
 62
     7
370
     0
100
AcDbVertex
100
AcDb2dVertex
 10
0.3267163998963134
 20
-33.65178918932028
 30
0.0
  0
VERTEX
  5
3C4
330
3C2
100
AcDbEntity
  8
0
 62
     7
370
     0
100
AcDbVertex
100
AcDb2dVertex
 10
104.8759643667166
 20
-33.65178918932028
 30
0.0
  0
SEQEND
  5
3C5
330
3C2
100
AcDbEntity
  8
0
 62
     7
370
     0
  0
POLYLINE
  5
3C6
330
36D
100
AcDbEntity
  8
0
 62
     7
370
     0
100
AcDb2dPolyline
 66
     1
 10
0.0
 20
0.0
 30
0.0
  0
VERTEX
  5
3C7
330
3C6
100
AcDbEntity
  8
0
 62
     7
370
     0
100
AcDbVertex
100
AcDb2dVertex
 10
0.3267163998963134
 20
-39.53268438745392
 30
0.0
  0
VERTEX
  5
3C8
330
3C6
100
AcDbEntity
  8
0
 62
     7
370
     0
100
AcDbVertex
100
AcDb2dVertex
 10
104.8759643667166
 20
-39.53268438745392
 30
0.0
  0
SEQEND
  5
3C9
330
3C6
100
AcDbEntity
  8
0
 62
     7
370
     0
  0
POLYLINE
  5
3CA
330
36D
100
AcDbEntity
  8
0
 62
     7
370
     0
100
AcDb2dPolyline
 66
     1
 10
0.0
 20
0.0
 30
0.0
  0
VERTEX
  5
3CB
330
3CA
100
AcDbEntity
  8
0
 62
     7
370
     0
100
AcDbVertex
100
AcDb2dVertex
 10
0.3267163998963134
 20
-45.41357958558756
 30
0.0
  0
VERTEX
  5
3CC
330
3CA
100
AcDbEntity
  8
0
 62
     7
370
     0
100
AcDbVertex
100
AcDb2dVertex
 10
104.8759643667166
 20
-45.41357958558756
 30
0.0
  0
SEQEND
  5
3CD
330
3CA
100
AcDbEntity
  8
0
 62
     7
370
     0
  0
POLYLINE
  5
3CE
330
36D
100
AcDbEntity
  8
0
 62
     7
370
     0
100
AcDb2dPolyline
 66
     1
 10
0.0
 20
0.0
 30
0.0
  0
VERTEX
  5
3CF
330
3CE
100
AcDbEntity
  8
0
 62
     7
370
     0
100
AcDbVertex
100
AcDb2dVertex
 10
0.3267163998963134
 20
-51.29447478372121
 30
0.0
  0
VERTEX
  5
3D0
330
3CE
100
AcDbEntity
  8
0
 62
     7
370
     0
100
AcDbVertex
100
AcDb2dVertex
 10
104.8759643667166
 20
-51.29447478372121
 30
0.0
  0
SEQEND
  5
3D1
330
3CE
100
AcDbEntity
  8
0
 62
     7
370
     0
  0
POLYLINE
  5
3D2
330
36D
100
AcDbEntity
  8
0
 62
     7
370
     0
100
AcDb2dPolyline
 66
     1
 10
0.0
 20
0.0
 30
0.0
  0
VERTEX
  5
3D3
330
3D2
100
AcDbEntity
  8
0
 62
     7
370
     0
100
AcDbVertex
100
AcDb2dVertex
 10
0.3267163998963134
 20
-57.17536998185485
 30
0.0
  0
VERTEX
  5
3D4
330
3D2
100
AcDbEntity
  8
0
 62
     7
370
     0
100
AcDbVertex
100
AcDb2dVertex
 10
104.8759643667166
 20
-57.17536998185485
 30
0.0
  0
SEQEND
  5
3D5
330
3D2
100
AcDbEntity
  8
0
 62
     7
370
     0
  0
POLYLINE
  5
3D6
330
36D
100
AcDbEntity
  8
0
 62
     7
370
     0
100
AcDb2dPolyline
 66
     1
 10
0.0
 20
0.0
 30
0.0
  0
VERTEX
  5
3D7
330
3D6
100
AcDbEntity
  8
0
 62
     7
370
     0
100
AcDbVertex
100
AcDb2dVertex
 10
0.3267163998963134
 20
-63.05626517998849
 30
0.0
  0
VERTEX
  5
3D8
330
3D6
100
AcDbEntity
  8
0
 62
     7
370
     0
100
AcDbVertex
100
AcDb2dVertex
 10
104.8759643667166
 20
-63.05626517998849
 30
0.0
  0
SEQEND
  5
3D9
330
3D6
100
AcDbEntity
  8
0
 62
     7
370
     0
  0
POLYLINE
  5
3DA
330
36D
100
AcDbEntity
  8
0
 62
     7
370
     0
100
AcDb2dPolyline
 66
     1
 10
0.0
 20
0.0
 30
0.0
  0
VERTEX
  5
3DB
330
3DA
100
AcDbEntity
  8
0
 62
     7
370
     0
100
AcDbVertex
100
AcDb2dVertex
 10
0.3267163998963134
 20
-68.93716037812213
 30
0.0
  0
VERTEX
  5
3DC
330
3DA
100
AcDbEntity
  8
0
 62
     7
370
     0
100
AcDbVertex
100
AcDb2dVertex
 10
104.8759643667166
 20
-68.93716037812213
 30
0.0
  0
SEQEND
  5
3DD
330
3DA
100
AcDbEntity
  8
0
 62
     7
370
     0
  0
POLYLINE
  5
3DE
330
36D
100
AcDbEntity
  8
0
 62
     7
370
     0
100
AcDb2dPolyline
 66
     1
 10
0.0
 20
0.0
 30
0.0
  0
VERTEX
  5
3DF
330
3DE
100
AcDbEntity
  8
0
 62
     7
370
     0
100
AcDbVertex
100
AcDb2dVertex
 10
0.3267163998963134
 20
-74.81805557625577
 30
0.0
  0
VERTEX
  5
3E0
330
3DE
100
AcDbEntity
  8
0
 62
     7
370
     0
100
AcDbVertex
100
AcDb2dVertex
 10
104.8759643667166
 20
-74.81805557625577
 30
0.0
  0
SEQEND
  5
3E1
330
3DE
100
AcDbEntity
  8
0
 62
     7
370
     0
  0
POLYLINE
  5
3E2
330
36D
100
AcDbEntity
  8
0
 62
     7
370
     0
100
AcDb2dPolyline
 66
     1
 10
0.0
 20
0.0
 30
0.0
  0
VERTEX
  5
3E3
330
3E2
100
AcDbEntity
  8
0
 62
     7
370
     0
100
AcDbVertex
100
AcDb2dVertex
 10
0.0
 20
0.0
 30
0.0
  0
VERTEX
  5
3E4
330
3E2
100
AcDbEntity
  8
0
 62
     7
370
     0
100
AcDbVertex
100
AcDb2dVertex
 10
0.0
 20
-81.02566717428572
 30
0.0
  0
SEQEND
  5
3E5
330
3E2
100
AcDbEntity
  8
0
 62
     7
370
     0
  0
POLYLINE
  5
3E6
330
36D
100
AcDbEntity
  8
0
 62
     7
370
     0
100
AcDb2dPolyline
 66
     1
 10
0.0
 20
0.0
 30
0.0
  0
VERTEX
  5
3E7
330
3E6
100
AcDbEntity
  8
0
 62
     7
370
     0
100
AcDbVertex
100
AcDb2dVertex
 10
8.821342797200461
 20
-0.3267163998963134
 30
0.0
  0
VERTEX
  5
3E8
330
3E6
100
AcDbEntity
  8
0
 62
     7
370
     0
100
AcDbVertex
100
AcDb2dVertex
 10
8.821342797200461
 20
-81.02566717428572
 30
0.0
  0
SEQEND
  5
3E9
330
3E6
100
AcDbEntity
  8
0
 62
     7
370
     0
  0
POLYLINE
  5
3EA
330
36D
100
AcDbEntity
  8
0
 62
     7
370
     0
100
AcDb2dPolyline
 66
     1
 10
0.0
 20
0.0
 30
0.0
  0
VERTEX
  5
3EB
330
3EA
100
AcDbEntity
  8
0
 62
     7
370
     0
100
AcDbVertex
100
AcDb2dVertex
 10
49.00745998444701
 20
-0.3267163998963134
 30
0.0
  0
VERTEX
  5
3EC
330
3EA
100
AcDbEntity
  8
0
 62
     7
370
     0
100
AcDbVertex
100
AcDb2dVertex
 10
49.00745998444701
 20
-81.02566717428572
 30
0.0
  0
SEQEND
  5
3ED
330
3EA
100
AcDbEntity
  8
0
 62
     7
370
     0
  0
POLYLINE
  5
3EE
330
36D
100
AcDbEntity
  8
0
 62
     7
370
     0
100
AcDb2dPolyline
 66
     1
 10
0.0
 20
0.0
 30
0.0
  0
VERTEX
  5
3EF
330
3EE
100
AcDbEntity
  8
0
 62
     7
370
     0
100
AcDbVertex
100
AcDb2dVertex
 10
61.42268318050692
 20
-0.3267163998963134
 30
0.0
  0
VERTEX
  5
3F0
330
3EE
100
AcDbEntity
  8
0
 62
     7
370
     0
100
AcDbVertex
100
AcDb2dVertex
 10
61.42268318050692
 20
-81.02566717428572
 30
0.0
  0
SEQEND
  5
3F1
330
3EE
100
AcDbEntity
  8
0
 62
     7
370
     0
  0
POLYLINE
  5
3F2
330
36D
100
AcDbEntity
  8
0
 62
     7
370
     0
100
AcDb2dPolyline
 66
     1
 10
0.0
 20
0.0
 30
0.0
  0
VERTEX
  5
3F3
330
3F2
100
AcDbEntity
  8
0
 62
     7
370
     0
100
AcDbVertex
100
AcDb2dVertex
 10
0.3267163998963134
 20
-80.69895077438941
 30
0.0
  0
VERTEX
  5
3F4
330
3F2
100
AcDbEntity
  8
0
 62
     7
370
     0
100
AcDbVertex
100
AcDb2dVertex
 10
104.8759643667166
 20
-80.69895077438941
 30
0.0
  0
SEQEND
  5
3F5
330
3F2
100
AcDbEntity
  8
0
 62
     7
370
     0
  0
POLYLINE
  5
3F6
330
36D
100
AcDbEntity
  8
0
 62
     7
370
     0
100
AcDb2dPolyline
 66
     1
 10
0.0
 20
0.0
 30
0.0
  0
VERTEX
  5
3F7
330
3F6
100
AcDbEntity
  8
0
 62
     7
370
     0
100
AcDbVertex
100
AcDb2dVertex
 10
104.5492479668202
 20
-0.3267163998963134
 30
0.0
  0
VERTEX
  5
3F8
330
3F6
100
AcDbEntity
  8
0
 62
     7
370
     0
100
AcDbVertex
100
AcDb2dVertex
 10
104.5492479668202
 20
-81.02566717428572
 30
0.0
  0
SEQEND
  5
3F9
330
3F6
100
AcDbEntity
  8
0
 62
     7
370
     0
  0
ENDBLK
  5
3FA
330
36D
100
AcDbEntity
  8
0
 62
     0
370
     0
100
AcDbBlockEnd
  0
BLOCK
  5
486
330
483
100
AcDbEntity
  8
0
 62
     0
370
     0
100
AcDbBlockBegin
  2
WMF1
 70
     0
 10
0.0
 20
0.0
 30
0.0
  3
WMF1
  1

  0
TEXT
  5
487
330
483
100
AcDbEntity
  8
0
 62
     7
370
     0
100
AcDbText
 10
1.686466362196326
 20
-3.6138564904207
 30
0.0
 40
2.120129141046811
  1
No
  7
WMF-ＭＳ Ｐゴシック0
100
AcDbText
  0
TEXT
  5
488
330
483
100
AcDbEntity
  8
0
 62
     7
370
     0
100
AcDbText
 10
16.86466362196326
 20
-3.6138564904207
 30
0.0
 40
2.120129141046811
  1
部品名
  7
WMF-ＭＳ Ｐゴシック0
100
AcDbText
  0
TEXT
  5
489
330
483
100
AcDbEntity
  8
0
 62
     7
370
     0
100
AcDbText
 10
37.82503126640333
 20
-3.6138564904207
 30
0.0
 40
2.120129141046811
  1
数量
  7
WMF-ＭＳ Ｐゴシック0
100
AcDbText
  0
TEXT
  5
48A
330
483
100
AcDbEntity
  8
0
 62
     7
370
     0
100
AcDbText
 10
50.83491463191784
 20
-3.6138564904207
 30
0.0
 40
2.120129141046811
  1
材質又は定格
  7
WMF-ＭＳ Ｐゴシック0
100
AcDbText
  0
TEXT
  5
48B
330
483
100
AcDbEntity
  8
0
 62
     7
370
     0
100
AcDbText
 10
2.650161426308513
 20
-7.709560512897494
 30
0.0
 40
2.120129141046811
  1
1
  7
WMF-ＭＳ Ｐゴシック0
100
AcDbText
  0
TEXT
  5
48C
330
483
100
AcDbEntity
  8
0
 62
     7
370
     0
100
AcDbText
 10
7.2277129808414
 20
-7.709560512897494
 30
0.0
 40
2.120129141046811
  1
本体
  7
WMF-ＭＳ Ｐゴシック0
100
AcDbText
  0
TEXT
  5
48D
330
483
100
AcDbEntity
  8
0
 62
     7
370
     0
100
AcDbText
 10
39.99334516065575
 20
-7.709560512897494
 30
0.0
 40
2.120129141046811
  1
1
  7
WMF-ＭＳ Ｐゴシック0
100
AcDbText
  0
TEXT
  5
48E
330
483
100
AcDbEntity
  8
0
 62
     7
370
     0
100
AcDbText
 10
46.01643931135692
 20
-7.709560512897494
 30
0.0
 40
2.120129141046811
  1
ステンレス
  7
WMF-ＭＳ Ｐゴシック0
100
AcDbText
  0
TEXT
  5
48F
330
483
100
AcDbEntity
  8
0
 62
     7
370
     0
100
AcDbText
 10
2.650161426308513
 20
-11.80526453537428
 30
0.0
 40
2.120129141046811
  1
2
  7
WMF-ＭＳ Ｐゴシック0
100
AcDbText
  0
TEXT
  5
490
330
483
100
AcDbEntity
  8
0
 62
     7
370
     0
100
AcDbText
 10
7.2277129808414
 20
-11.80526453537428
 30
0.0
 40
2.120129141046811
  1
内容器
  7
WMF-ＭＳ Ｐゴシック0
100
AcDbText
  0
TEXT
  5
491
330
483
100
AcDbEntity
  8
0
 62
     7
370
     0
100
AcDbText
 10
39.99334516065575
 20
-11.80526453537428
 30
0.0
 40
2.120129141046811
  1
1
  7
WMF-ＭＳ Ｐゴシック0
100
AcDbText
  0
TEXT
  5
492
330
483
100
AcDbEntity
  8
0
 62
     7
370
     0
100
AcDbText
 10
46.01643931135692
 20
-11.80526453537428
 30
0.0
 40
2.120129141046811
  1
ステンレス
  7
WMF-ＭＳ Ｐゴシック0
100
AcDbText
  0
TEXT
  5
493
330
483
100
AcDbEntity
  8
0
 62
     7
370
     0
100
AcDbText
 10
2.650161426308513
 20
-15.90096855785108
 30
0.0
 40
2.120129141046811
  1
3
  7
WMF-ＭＳ Ｐゴシック0
100
AcDbText
  0
TEXT
  5
494
330
483
100
AcDbEntity
  8
0
 62
     7
370
     0
100
AcDbText
 10
7.2277129808414
 20
-15.90096855785108
 30
0.0
 40
2.120129141046811
  1
熱板
  7
WMF-ＭＳ Ｐゴシック0
100
AcDbText
  0
TEXT
  5
495
330
483
100
AcDbEntity
  8
0
 62
     7
370
     0
100
AcDbText
 10
39.99334516065575
 20
-15.90096855785108
 30
0.0
 40
2.120129141046811
  1
1
  7
WMF-ＭＳ Ｐゴシック0
100
AcDbText
  0
TEXT
  5
496
330
483
100
AcDbEntity
  8
0
 62
     7
370
     0
100
AcDbText
 10
46.01643931135692
 20
-15.90096855785108
 30
0.0
 40
2.120129141046811
  1
アルミ
  7
WMF-ＭＳ Ｐゴシック0
100
AcDbText
  0
TEXT
  5
497
330
483
100
AcDbEntity
  8
0
 62
     7
370
     0
100
AcDbText
 10
2.650161426308513
 20
-19.99667258032787
 30
0.0
 40
2.120129141046811
  1
4
  7
WMF-ＭＳ Ｐゴシック0
100
AcDbText
  0
TEXT
  5
498
330
483
100
AcDbEntity
  8
0
 62
     7
370
     0
100
AcDbText
 10
7.2277129808414
 20
-19.99667258032787
 30
0.0
 40
2.120129141046811
  1
仕切板
  7
WMF-ＭＳ Ｐゴシック0
100
AcDbText
  0
TEXT
  5
499
330
483
100
AcDbEntity
  8
0
 62
     7
370
     0
100
AcDbText
 10
39.99334516065575
 20
-19.99667258032787
 30
0.0
 40
2.120129141046811
  1
1
  7
WMF-ＭＳ Ｐゴシック0
100
AcDbText
  0
TEXT
  5
49A
330
483
100
AcDbEntity
  8
0
 62
     7
370
     0
100
AcDbText
 10
46.01643931135692
 20
-19.99667258032787
 30
0.0
 40
2.120129141046811
  1
ステンレス　四つ切り
  7
WMF-ＭＳ Ｐゴシック0
100
AcDbText
  0
TEXT
  5
49B
330
483
100
AcDbEntity
  8
0
 62
     7
370
     0
100
AcDbText
 10
2.650161426308513
 20
-24.33330036883271
 30
0.0
 40
2.120129141046811
  1
5
  7
WMF-ＭＳ Ｐゴシック0
100
AcDbText
  0
TEXT
  5
49C
330
483
100
AcDbEntity
  8
0
 62
     7
370
     0
100
AcDbText
 10
7.2277129808414
 20
-24.33330036883271
 30
0.0
 40
2.120129141046811
  1
蓋
  7
WMF-ＭＳ Ｐゴシック0
100
AcDbText
  0
TEXT
  5
49D
330
483
100
AcDbEntity
  8
0
 62
     7
370
     0
100
AcDbText
 10
39.99334516065575
 20
-24.33330036883271
 30
0.0
 40
2.120129141046811
  1
1
  7
WMF-ＭＳ Ｐゴシック0
100
AcDbText
  0
TEXT
  5
49E
330
483
100
AcDbEntity
  8
0
 62
     7
370
     0
100
AcDbText
 10
46.01643931135692
 20
-24.33330036883271
 30
0.0
 40
2.120129141046811
  1
ステンレス
  7
WMF-ＭＳ Ｐゴシック0
100
AcDbText
  0
TEXT
  5
49F
330
483
100
AcDbEntity
  8
0
 62
     7
370
     0
100
AcDbText
 10
2.650161426308513
 20
-28.66992815733755
 30
0.0
 40
2.120129141046811
  1
6
  7
WMF-ＭＳ Ｐゴシック0
100
AcDbText
  0
TEXT
  5
4A0
330
483
100
AcDbEntity
  8
0
 62
     7
370
     0
100
AcDbText
 10
7.2277129808414
 20
-28.66992815733755
 30
0.0
 40
2.120129141046811
  1
ヒーター
  7
WMF-ＭＳ Ｐゴシック0
100
AcDbText
  0
TEXT
  5
4A1
330
483
100
AcDbEntity
  8
0
 62
     7
370
     0
100
AcDbText
 10
39.99334516065575
 20
-28.66992815733755
 30
0.0
 40
2.120129141046811
  1
1
  7
WMF-ＭＳ Ｐゴシック0
100
AcDbText
  0
TEXT
  5
4A2
330
483
100
AcDbEntity
  8
0
 62
     7
370
     0
100
AcDbText
 10
46.01643931135692
 20
-28.66992815733755
 30
0.0
 40
2.120129141046811
  1
100V805W
  7
WMF-ＭＳ Ｐゴシック0
100
AcDbText
  0
TEXT
  5
4A3
330
483
100
AcDbEntity
  8
0
 62
     7
370
     0
100
AcDbText
 10
2.650161426308513
 20
-33.00655594584239
 30
0.0
 40
2.120129141046811
  1
7
  7
WMF-ＭＳ Ｐゴシック0
100
AcDbText
  0
TEXT
  5
4A4
330
483
100
AcDbEntity
  8
0
 62
     7
370
     0
100
AcDbText
 10
7.2277129808414
 20
-33.00655594584239
 30
0.0
 40
2.120129141046811
  1
ヒーターカバー
  7
WMF-ＭＳ Ｐゴシック0
100
AcDbText
  0
TEXT
  5
4A5
330
483
100
AcDbEntity
  8
0
 62
     7
370
     0
100
AcDbText
 10
39.99334516065575
 20
-33.00655594584239
 30
0.0
 40
2.120129141046811
  1
1
  7
WMF-ＭＳ Ｐゴシック0
100
AcDbText
  0
TEXT
  5
4A6
330
483
100
AcDbEntity
  8
0
 62
     7
370
     0
100
AcDbText
 10
46.01643931135692
 20
-33.00655594584239
 30
0.0
 40
2.120129141046811
  1
網板
  7
WMF-ＭＳ Ｐゴシック0
100
AcDbText
  0
TEXT
  5
4A7
330
483
100
AcDbEntity
  8
0
 62
     7
370
     0
100
AcDbText
 10
2.650161426308513
 20
-37.34318373434723
 30
0.0
 40
2.120129141046811
  1
8
  7
WMF-ＭＳ Ｐゴシック0
100
AcDbText
  0
TEXT
  5
4A8
330
483
100
AcDbEntity
  8
0
 62
     7
370
     0
100
AcDbText
 10
7.2277129808414
 20
-37.34318373434723
 30
0.0
 40
2.120129141046811
  1
温度センサー
  7
WMF-ＭＳ Ｐゴシック0
100
AcDbText
  0
TEXT
  5
4A9
330
483
100
AcDbEntity
  8
0
 62
     7
370
     0
100
AcDbText
 10
39.99334516065575
 20
-37.34318373434723
 30
0.0
 40
2.120129141046811
  1
1
  7
WMF-ＭＳ Ｐゴシック0
100
AcDbText
  0
TEXT
  5
4AA
330
483
100
AcDbEntity
  8
0
 62
     7
370
     0
100
AcDbText
 10
2.650161426308513
 20
-41.67981152285207
 30
0.0
 40
2.120129141046811
  1
9
  7
WMF-ＭＳ Ｐゴシック0
100
AcDbText
  0
TEXT
  5
4AB
330
483
100
AcDbEntity
  8
0
 62
     7
370
     0
100
AcDbText
 10
7.2277129808414
 20
-41.67981152285207
 30
0.0
 40
2.120129141046811
  1
温度センサーカバー
  7
WMF-ＭＳ Ｐゴシック0
100
AcDbText
  0
TEXT
  5
4AC
330
483
100
AcDbEntity
  8
0
 62
     7
370
     0
100
AcDbText
 10
39.99334516065575
 20
-41.67981152285207
 30
0.0
 40
2.120129141046811
  1
1
  7
WMF-ＭＳ Ｐゴシック0
100
AcDbText
  0
TEXT
  5
4AD
330
483
100
AcDbEntity
  8
0
 62
     7
370
     0
100
AcDbText
 10
46.01643931135692
 20
-41.67981152285207
 30
0.0
 40
2.120129141046811
  1
アルミ
  7
WMF-ＭＳ Ｐゴシック0
100
AcDbText
  0
TEXT
  5
4AE
330
483
100
AcDbEntity
  8
0
 62
     7
370
     0
100
AcDbText
 10
1.686466362196326
 20
-46.01643931135692
 30
0.0
 40
2.120129141046811
  1
10
  7
WMF-ＭＳ Ｐゴシック0
100
AcDbText
  0
TEXT
  5
4AF
330
483
100
AcDbEntity
  8
0
 62
     7
370
     0
100
AcDbText
 10
7.2277129808414
 20
-46.01643931135692
 30
0.0
 40
2.120129141046811
  1
電源スイッチ
  7
WMF-ＭＳ Ｐゴシック0
100
AcDbText
  0
TEXT
  5
4B0
330
483
100
AcDbEntity
  8
0
 62
     7
370
     0
100
AcDbText
 10
39.99334516065575
 20
-46.01643931135692
 30
0.0
 40
2.120129141046811
  1
1
  7
WMF-ＭＳ Ｐゴシック0
100
AcDbText
  0
TEXT
  5
4B1
330
483
100
AcDbEntity
  8
0
 62
     7
370
     0
100
AcDbText
 10
1.686466362196326
 20
-50.35306709986176
 30
0.0
 40
2.120129141046811
  1
11
  7
WMF-ＭＳ Ｐゴシック0
100
AcDbText
  0
TEXT
  5
4B2
330
483
100
AcDbEntity
  8
0
 62
     7
370
     0
100
AcDbText
 10
7.2277129808414
 20
-50.35306709986176
 30
0.0
 40
2.120129141046811
  1
表示灯
  7
WMF-ＭＳ Ｐゴシック0
100
AcDbText
  0
TEXT
  5
4B3
330
483
100
AcDbEntity
  8
0
 62
     7
370
     0
100
AcDbText
 10
39.99334516065575
 20
-50.35306709986176
 30
0.0
 40
2.120129141046811
  1
1
  7
WMF-ＭＳ Ｐゴシック0
100
AcDbText
  0
TEXT
  5
4B4
330
483
100
AcDbEntity
  8
0
 62
     7
370
     0
100
AcDbText
 10
46.01643931135692
 20
-50.35306709986176
 30
0.0
 40
2.120129141046811
  1
ネオンランプ
  7
WMF-ＭＳ Ｐゴシック0
100
AcDbText
  0
TEXT
  5
4B5
330
483
100
AcDbEntity
  8
0
 62
     7
370
     0
100
AcDbText
 10
1.686466362196326
 20
-54.68969488836659
 30
0.0
 40
2.120129141046811
  1
12
  7
WMF-ＭＳ Ｐゴシック0
100
AcDbText
  0
TEXT
  5
4B6
330
483
100
AcDbEntity
  8
0
 62
     7
370
     0
100
AcDbText
 10
7.2277129808414
 20
-54.68969488836659
 30
0.0
 40
2.120129141046811
  1
温度調節器
  7
WMF-ＭＳ Ｐゴシック0
100
AcDbText
  0
TEXT
  5
4B7
330
483
100
AcDbEntity
  8
0
 62
     7
370
     0
100
AcDbText
 10
39.99334516065575
 20
-54.68969488836659
 30
0.0
 40
2.120129141046811
  1
1
  7
WMF-ＭＳ Ｐゴシック0
100
AcDbText
  0
TEXT
  5
4B8
330
483
100
AcDbEntity
  8
0
 62
     7
370
     0
100
AcDbText
 10
46.01643931135692
 20
-54.68969488836659
 30
0.0
 40
2.120129141046811
  1
30℃～110℃
  7
WMF-ＭＳ Ｐゴシック0
100
AcDbText
  0
TEXT
  5
4B9
330
483
100
AcDbEntity
  8
0
 62
     7
370
     0
100
AcDbText
 10
1.686466362196326
 20
-59.02632267687144
 30
0.0
 40
2.120129141046811
  1
13
  7
WMF-ＭＳ Ｐゴシック0
100
AcDbText
  0
TEXT
  5
4BA
330
483
100
AcDbEntity
  8
0
 62
     7
370
     0
100
AcDbText
 10
7.2277129808414
 20
-59.02632267687144
 30
0.0
 40
2.120129141046811
  1
ゴム脚
  7
WMF-ＭＳ Ｐゴシック0
100
AcDbText
  0
TEXT
  5
4BB
330
483
100
AcDbEntity
  8
0
 62
     7
370
     0
100
AcDbText
 10
39.99334516065575
 20
-59.02632267687144
 30
0.0
 40
2.120129141046811
  1
1
  7
WMF-ＭＳ Ｐゴシック0
100
AcDbText
  0
TEXT
  5
4BC
330
483
100
AcDbEntity
  8
0
 62
     7
370
     0
100
AcDbText
 10
46.01643931135692
 20
-59.02632267687144
 30
0.0
 40
2.120129141046811
  1
合成ゴム
  7
WMF-ＭＳ Ｐゴシック0
100
AcDbText
  0
POLYLINE
  5
4BE
330
483
100
AcDbEntity
  8
0
 62
     7
370
     0
100
AcDb2dPolyline
 66
     1
 10
0.0
 20
0.0
 30
0.0
  0
VERTEX
  5
4BF
330
4BE
100
AcDbEntity
  8
0
 62
     7
370
     0
100
AcDbVertex
100
AcDb2dVertex
 10
0.2409237660280467
 20
0.0
 30
0.0
  0
VERTEX
  5
4C0
330
4BE
100
AcDbEntity
  8
0
 62
     7
370
     0
100
AcDbVertex
100
AcDb2dVertex
 10
74.92729123472251
 20
0.0
 30
0.0
  0
SEQEND
  5
4C1
330
4BE
100
AcDbEntity
  8
0
 62
     7
370
     0
  0
POLYLINE
  5
4C2
330
483
100
AcDbEntity
  8
0
 62
     7
370
     0
100
AcDb2dPolyline
 66
     1
 10
0.0
 20
0.0
 30
0.0
  0
VERTEX
  5
4C3
330
4C2
100
AcDbEntity
  8
0
 62
     7
370
     0
100
AcDbVertex
100
AcDb2dVertex
 10
0.2409237660280467
 20
-4.095704022476793
 30
0.0
  0
VERTEX
  5
4C4
330
4C2
100
AcDbEntity
  8
0
 62
     7
370
     0
100
AcDbVertex
100
AcDb2dVertex
 10
74.92729123472251
 20
-4.095704022476793
 30
0.0
  0
SEQEND
  5
4C5
330
4C2
100
AcDbEntity
  8
0
 62
     7
370
     0
  0
POLYLINE
  5
4C6
330
483
100
AcDbEntity
  8
0
 62
     7
370
     0
100
AcDb2dPolyline
 66
     1
 10
0.0
 20
0.0
 30
0.0
  0
VERTEX
  5
4C7
330
4C6
100
AcDbEntity
  8
0
 62
     7
370
     0
100
AcDbVertex
100
AcDb2dVertex
 10
0.2409237660280467
 20
-8.191408044953586
 30
0.0
  0
VERTEX
  5
4C8
330
4C6
100
AcDbEntity
  8
0
 62
     7
370
     0
100
AcDbVertex
100
AcDb2dVertex
 10
74.92729123472251
 20
-8.191408044953586
 30
0.0
  0
SEQEND
  5
4C9
330
4C6
100
AcDbEntity
  8
0
 62
     7
370
     0
  0
POLYLINE
  5
4CA
330
483
100
AcDbEntity
  8
0
 62
     7
370
     0
100
AcDb2dPolyline
 66
     1
 10
0.0
 20
0.0
 30
0.0
  0
VERTEX
  5
4CB
330
4CA
100
AcDbEntity
  8
0
 62
     7
370
     0
100
AcDbVertex
100
AcDb2dVertex
 10
0.2409237660280467
 20
-12.28711206743038
 30
0.0
  0
VERTEX
  5
4CC
330
4CA
100
AcDbEntity
  8
0
 62
     7
370
     0
100
AcDbVertex
100
AcDb2dVertex
 10
74.92729123472251
 20
-12.28711206743038
 30
0.0
  0
SEQEND
  5
4CD
330
4CA
100
AcDbEntity
  8
0
 62
     7
370
     0
  0
POLYLINE
  5
4CE
330
483
100
AcDbEntity
  8
0
 62
     7
370
     0
100
AcDb2dPolyline
 66
     1
 10
0.0
 20
0.0
 30
0.0
  0
VERTEX
  5
4CF
330
4CE
100
AcDbEntity
  8
0
 62
     7
370
     0
100
AcDbVertex
100
AcDb2dVertex
 10
0.2409237660280467
 20
-16.38281608990717
 30
0.0
  0
VERTEX
  5
4D0
330
4CE
100
AcDbEntity
  8
0
 62
     7
370
     0
100
AcDbVertex
100
AcDb2dVertex
 10
74.92729123472251
 20
-16.38281608990717
 30
0.0
  0
SEQEND
  5
4D1
330
4CE
100
AcDbEntity
  8
0
 62
     7
370
     0
  0
POLYLINE
  5
4D2
330
483
100
AcDbEntity
  8
0
 62
     7
370
     0
100
AcDb2dPolyline
 66
     1
 10
0.0
 20
0.0
 30
0.0
  0
VERTEX
  5
4D3
330
4D2
100
AcDbEntity
  8
0
 62
     7
370
     0
100
AcDbVertex
100
AcDb2dVertex
 10
0.2409237660280467
 20
-20.47852011238397
 30
0.0
  0
VERTEX
  5
4D4
330
4D2
100
AcDbEntity
  8
0
 62
     7
370
     0
100
AcDbVertex
100
AcDb2dVertex
 10
74.92729123472251
 20
-20.47852011238397
 30
0.0
  0
SEQEND
  5
4D5
330
4D2
100
AcDbEntity
  8
0
 62
     7
370
     0
  0
POLYLINE
  5
4D6
330
483
100
AcDbEntity
  8
0
 62
     7
370
     0
100
AcDb2dPolyline
 66
     1
 10
0.0
 20
0.0
 30
0.0
  0
VERTEX
  5
4D7
330
4D6
100
AcDbEntity
  8
0
 62
     7
370
     0
100
AcDbVertex
100
AcDb2dVertex
 10
0.2409237660280467
 20
-24.8151479008888
 30
0.0
  0
VERTEX
  5
4D8
330
4D6
100
AcDbEntity
  8
0
 62
     7
370
     0
100
AcDbVertex
100
AcDb2dVertex
 10
74.92729123472251
 20
-24.8151479008888
 30
0.0
  0
SEQEND
  5
4D9
330
4D6
100
AcDbEntity
  8
0
 62
     7
370
     0
  0
POLYLINE
  5
4DA
330
483
100
AcDbEntity
  8
0
 62
     7
370
     0
100
AcDb2dPolyline
 66
     1
 10
0.0
 20
0.0
 30
0.0
  0
VERTEX
  5
4DB
330
4DA
100
AcDbEntity
  8
0
 62
     7
370
     0
100
AcDbVertex
100
AcDb2dVertex
 10
0.2409237660280467
 20
-29.15177568939364
 30
0.0
  0
VERTEX
  5
4DC
330
4DA
100
AcDbEntity
  8
0
 62
     7
370
     0
100
AcDbVertex
100
AcDb2dVertex
 10
74.92729123472251
 20
-29.15177568939364
 30
0.0
  0
SEQEND
  5
4DD
330
4DA
100
AcDbEntity
  8
0
 62
     7
370
     0
  0
POLYLINE
  5
4DE
330
483
100
AcDbEntity
  8
0
 62
     7
370
     0
100
AcDb2dPolyline
 66
     1
 10
0.0
 20
0.0
 30
0.0
  0
VERTEX
  5
4DF
330
4DE
100
AcDbEntity
  8
0
 62
     7
370
     0
100
AcDbVertex
100
AcDb2dVertex
 10
0.2409237660280467
 20
-33.48840347789848
 30
0.0
  0
VERTEX
  5
4E0
330
4DE
100
AcDbEntity
  8
0
 62
     7
370
     0
100
AcDbVertex
100
AcDb2dVertex
 10
74.92729123472251
 20
-33.48840347789848
 30
0.0
  0
SEQEND
  5
4E1
330
4DE
100
AcDbEntity
  8
0
 62
     7
370
     0
  0
POLYLINE
  5
4E2
330
483
100
AcDbEntity
  8
0
 62
     7
370
     0
100
AcDb2dPolyline
 66
     1
 10
0.0
 20
0.0
 30
0.0
  0
VERTEX
  5
4E3
330
4E2
100
AcDbEntity
  8
0
 62
     7
370
     0
100
AcDbVertex
100
AcDb2dVertex
 10
0.2409237660280467
 20
-37.82503126640333
 30
0.0
  0
VERTEX
  5
4E4
330
4E2
100
AcDbEntity
  8
0
 62
     7
370
     0
100
AcDbVertex
100
AcDb2dVertex
 10
74.92729123472251
 20
-37.82503126640333
 30
0.0
  0
SEQEND
  5
4E5
330
4E2
100
AcDbEntity
  8
0
 62
     7
370
     0
  0
POLYLINE
  5
4E6
330
483
100
AcDbEntity
  8
0
 62
     7
370
     0
100
AcDb2dPolyline
 66
     1
 10
0.0
 20
0.0
 30
0.0
  0
VERTEX
  5
4E7
330
4E6
100
AcDbEntity
  8
0
 62
     7
370
     0
100
AcDbVertex
100
AcDb2dVertex
 10
0.2409237660280467
 20
-42.16165905490817
 30
0.0
  0
VERTEX
  5
4E8
330
4E6
100
AcDbEntity
  8
0
 62
     7
370
     0
100
AcDbVertex
100
AcDb2dVertex
 10
74.92729123472251
 20
-42.16165905490817
 30
0.0
  0
SEQEND
  5
4E9
330
4E6
100
AcDbEntity
  8
0
 62
     7
370
     0
  0
POLYLINE
  5
4EA
330
483
100
AcDbEntity
  8
0
 62
     7
370
     0
100
AcDb2dPolyline
 66
     1
 10
0.0
 20
0.0
 30
0.0
  0
VERTEX
  5
4EB
330
4EA
100
AcDbEntity
  8
0
 62
     7
370
     0
100
AcDbVertex
100
AcDb2dVertex
 10
0.2409237660280467
 20
-46.49828684341301
 30
0.0
  0
VERTEX
  5
4EC
330
4EA
100
AcDbEntity
  8
0
 62
     7
370
     0
100
AcDbVertex
100
AcDb2dVertex
 10
74.92729123472251
 20
-46.49828684341301
 30
0.0
  0
SEQEND
  5
4ED
330
4EA
100
AcDbEntity
  8
0
 62
     7
370
     0
  0
POLYLINE
  5
4EE
330
483
100
AcDbEntity
  8
0
 62
     7
370
     0
100
AcDb2dPolyline
 66
     1
 10
0.0
 20
0.0
 30
0.0
  0
VERTEX
  5
4EF
330
4EE
100
AcDbEntity
  8
0
 62
     7
370
     0
100
AcDbVertex
100
AcDb2dVertex
 10
0.2409237660280467
 20
-50.83491463191784
 30
0.0
  0
VERTEX
  5
4F0
330
4EE
100
AcDbEntity
  8
0
 62
     7
370
     0
100
AcDbVertex
100
AcDb2dVertex
 10
74.92729123472251
 20
-50.83491463191784
 30
0.0
  0
SEQEND
  5
4F1
330
4EE
100
AcDbEntity
  8
0
 62
     7
370
     0
  0
POLYLINE
  5
4F2
330
483
100
AcDbEntity
  8
0
 62
     7
370
     0
100
AcDb2dPolyline
 66
     1
 10
0.0
 20
0.0
 30
0.0
  0
VERTEX
  5
4F3
330
4F2
100
AcDbEntity
  8
0
 62
     7
370
     0
100
AcDbVertex
100
AcDb2dVertex
 10
0.2409237660280467
 20
-55.17154242042269
 30
0.0
  0
VERTEX
  5
4F4
330
4F2
100
AcDbEntity
  8
0
 62
     7
370
     0
100
AcDbVertex
100
AcDb2dVertex
 10
74.92729123472251
 20
-55.17154242042269
 30
0.0
  0
SEQEND
  5
4F5
330
4F2
100
AcDbEntity
  8
0
 62
     7
370
     0
  0
POLYLINE
  5
4F6
330
483
100
AcDbEntity
  8
0
 62
     7
370
     0
100
AcDb2dPolyline
 66
     1
 10
0.0
 20
0.0
 30
0.0
  0
VERTEX
  5
4F7
330
4F6
100
AcDbEntity
  8
0
 62
     7
370
     0
100
AcDbVertex
100
AcDb2dVertex
 10
0.0
 20
0.0
 30
0.0
  0
VERTEX
  5
4F8
330
4F6
100
AcDbEntity
  8
0
 62
     7
370
     0
100
AcDbVertex
100
AcDb2dVertex
 10
0.0
 20
-59.74909397495558
 30
0.0
  0
SEQEND
  5
4F9
330
4F6
100
AcDbEntity
  8
0
 62
     7
370
     0
  0
POLYLINE
  5
4FA
330
483
100
AcDbEntity
  8
0
 62
     7
370
     0
100
AcDb2dPolyline
 66
     1
 10
0.0
 20
0.0
 30
0.0
  0
VERTEX
  5
4FB
330
4FA
100
AcDbEntity
  8
0
 62
     7
370
     0
100
AcDbVertex
100
AcDb2dVertex
 10
6.50494168275726
 20
-0.2409237660280467
 30
0.0
  0
VERTEX
  5
4FC
330
4FA
100
AcDbEntity
  8
0
 62
     7
370
     0
100
AcDbVertex
100
AcDb2dVertex
 10
6.50494168275726
 20
-59.74909397495558
 30
0.0
  0
SEQEND
  5
4FD
330
4FA
100
AcDbEntity
  8
0
 62
     7
370
     0
  0
POLYLINE
  5
4FE
330
483
100
AcDbEntity
  8
0
 62
     7
370
     0
100
AcDb2dPolyline
 66
     1
 10
0.0
 20
0.0
 30
0.0
  0
VERTEX
  5
4FF
330
4FE
100
AcDbEntity
  8
0
 62
     7
370
     0
100
AcDbVertex
100
AcDb2dVertex
 10
36.138564904207
 20
-0.2409237660280467
 30
0.0
  0
VERTEX
  5
500
330
4FE
100
AcDbEntity
  8
0
 62
     7
370
     0
100
AcDbVertex
100
AcDb2dVertex
 10
36.138564904207
 20
-59.74909397495558
 30
0.0
  0
SEQEND
  5
501
330
4FE
100
AcDbEntity
  8
0
 62
     7
370
     0
  0
POLYLINE
  5
502
330
483
100
AcDbEntity
  8
0
 62
     7
370
     0
100
AcDb2dPolyline
 66
     1
 10
0.0
 20
0.0
 30
0.0
  0
VERTEX
  5
503
330
502
100
AcDbEntity
  8
0
 62
     7
370
     0
100
AcDbVertex
100
AcDb2dVertex
 10
45.29366801327277
 20
-0.2409237660280467
 30
0.0
  0
VERTEX
  5
504
330
502
100
AcDbEntity
  8
0
 62
     7
370
     0
100
AcDbVertex
100
AcDb2dVertex
 10
45.29366801327277
 20
-59.74909397495558
 30
0.0
  0
SEQEND
  5
505
330
502
100
AcDbEntity
  8
0
 62
     7
370
     0
  0
POLYLINE
  5
506
330
483
100
AcDbEntity
  8
0
 62
     7
370
     0
100
AcDb2dPolyline
 66
     1
 10
0.0
 20
0.0
 30
0.0
  0
VERTEX
  5
507
330
506
100
AcDbEntity
  8
0
 62
     7
370
     0
100
AcDbVertex
100
AcDb2dVertex
 10
0.2409237660280467
 20
-59.50817020892753
 30
0.0
  0
VERTEX
  5
508
330
506
100
AcDbEntity
  8
0
 62
     7
370
     0
100
AcDbVertex
100
AcDb2dVertex
 10
74.92729123472251
 20
-59.50817020892753
 30
0.0
  0
SEQEND
  5
509
330
506
100
AcDbEntity
  8
0
 62
     7
370
     0
  0
POLYLINE
  5
50A
330
483
100
AcDbEntity
  8
0
 62
     7
370
     0
100
AcDb2dPolyline
 66
     1
 10
0.0
 20
0.0
 30
0.0
  0
VERTEX
  5
50B
330
50A
100
AcDbEntity
  8
0
 62
     7
370
     0
100
AcDbVertex
100
AcDb2dVertex
 10
74.68636746869447
 20
-0.2409237660280467
 30
0.0
  0
VERTEX
  5
50C
330
50A
100
AcDbEntity
  8
0
 62
     7
370
     0
100
AcDbVertex
100
AcDb2dVertex
 10
74.68636746869447
 20
-59.74909397495558
 30
0.0
  0
SEQEND
  5
50D
330
50A
100
AcDbEntity
  8
0
 62
     7
370
     0
  0
ENDBLK
  5
50E
330
483
100
AcDbEntity
  8
0
 62
     0
370
     0
100
AcDbBlockEnd
  0
BLOCK
  5
59A
330
597
100
AcDbEntity
  8
0
 62
     0
370
     0
100
AcDbBlockBegin
  2
WMF2
 70
     0
 10
0.0
 20
0.0
 30
0.0
  3
WMF2
  1

  0
TEXT
  5
59B
330
597
100
AcDbEntity
  8
0
 62
     7
370
     0
100
AcDbText
 10
5.57032054824879
 20
-5.57032054824879
 30
0.0
 40
3.620708356361713
  1
電　　　源
  7
WMF-ＭＳ Ｐゴシック0
100
AcDbText
  0
TEXT
  5
59C
330
597
100
AcDbEntity
  8
0
 62
     7
370
     0
100
AcDbText
 10
32.72563322096164
 20
-5.57032054824879
 30
0.0
 40
3.620708356361713
  1
100Ｖ　50/60Ｈｚ
  7
WMF-ＭＳ Ｐゴシック0
100
AcDbText
  0
TEXT
  5
59D
330
597
100
AcDbEntity
  8
0
 62
     7
370
     0
100
AcDbText
 10
5.57032054824879
 20
-11.83693116502868
 30
0.0
 40
3.620708356361713
  1
消費電力
  7
WMF-ＭＳ Ｐゴシック0
100
AcDbText
  0
TEXT
  5
59E
330
597
100
AcDbEntity
  8
0
 62
     7
370
     0
100
AcDbText
 10
32.72563322096164
 20
-11.83693116502868
 30
0.0
 40
3.620708356361713
  1
805Ｗ
  7
WMF-ＭＳ Ｐゴシック0
100
AcDbText
  0
TEXT
  5
59F
330
597
100
AcDbEntity
  8
0
 62
     7
370
     0
100
AcDbText
 10
5.57032054824879
 20
-18.10354178180856
 30
0.0
 40
3.620708356361713
  1
温度調節
  7
WMF-ＭＳ Ｐゴシック0
100
AcDbText
  0
TEXT
  5
5A0
330
597
100
AcDbEntity
  8
0
 62
     7
370
     0
100
AcDbText
 10
32.72563322096164
 20
-18.10354178180856
 30
0.0
 40
3.620708356361713
  1
可変サーモスタット
  7
WMF-ＭＳ Ｐゴシック0
100
AcDbText
  0
TEXT
  5
5A1
330
597
100
AcDbEntity
  8
0
 62
     7
370
     0
100
AcDbText
 10
8.355480822373186
 20
-24.37015239858846
 30
0.0
 40
3.620708356361713
  1
内容積
  7
WMF-ＭＳ Ｐゴシック0
100
AcDbText
  0
TEXT
  5
5A2
330
597
100
AcDbEntity
  8
0
 62
     7
370
     0
100
AcDbText
 10
32.72563322096164
 20
-24.37015239858846
 30
0.0
 40
3.620708356361713
  1
8l
  7
WMF-ＭＳ Ｐゴシック0
100
AcDbText
  0
TEXT
  5
5A3
330
597
100
AcDbEntity
  8
0
 62
     7
370
     0
100
AcDbText
 10
5.57032054824879
 20
-30.63676301536835
 30
0.0
 40
3.620708356361713
  1
質　　　量
  7
WMF-ＭＳ Ｐゴシック0
100
AcDbText
  0
TEXT
  5
5A4
330
597
100
AcDbEntity
  8
0
 62
     7
370
     0
100
AcDbText
 10
32.72563322096164
 20
-30.63676301536835
 30
0.0
 40
3.620708356361713
  1
6Kg
  7
WMF-ＭＳ Ｐゴシック0
100
AcDbText
  0
POLYLINE
  5
5A6
330
597
100
AcDbEntity
  8
0
 62
     7
370
     0
100
AcDb2dPolyline
 66
     1
 10
0.0
 20
0.0
 30
0.0
  0
VERTEX
  5
5A7
330
5A6
100
AcDbEntity
  8
0
 62
     7
370
     0
100
AcDbVertex
100
AcDb2dVertex
 10
0.3481450342655494
 20
0.0
 30
0.0
  0
VERTEX
  5
5A8
330
5A6
100
AcDbEntity
  8
0
 62
     7
370
     0
100
AcDbVertex
100
AcDb2dVertex
 10
114.8878613076313
 20
0.0
 30
0.0
  0
SEQEND
  5
5A9
330
5A6
100
AcDbEntity
  8
0
 62
     7
370
     0
  0
POLYLINE
  5
5AA
330
597
100
AcDbEntity
  8
0
 62
     7
370
     0
100
AcDb2dPolyline
 66
     1
 10
0.0
 20
0.0
 30
0.0
  0
VERTEX
  5
5AB
330
5AA
100
AcDbEntity
  8
0
 62
     7
370
     0
100
AcDbVertex
100
AcDb2dVertex
 10
0.3481450342655494
 20
-6.266610616779889
 30
0.0
  0
VERTEX
  5
5AC
330
5AA
100
AcDbEntity
  8
0
 62
     7
370
     0
100
AcDbVertex
100
AcDb2dVertex
 10
114.8878613076313
 20
-6.266610616779889
 30
0.0
  0
SEQEND
  5
5AD
330
5AA
100
AcDbEntity
  8
0
 62
     7
370
     0
  0
POLYLINE
  5
5AE
330
597
100
AcDbEntity
  8
0
 62
     7
370
     0
100
AcDb2dPolyline
 66
     1
 10
0.0
 20
0.0
 30
0.0
  0
VERTEX
  5
5AF
330
5AE
100
AcDbEntity
  8
0
 62
     7
370
     0
100
AcDbVertex
100
AcDb2dVertex
 10
0.3481450342655494
 20
-12.53322123355977
 30
0.0
  0
VERTEX
  5
5B0
330
5AE
100
AcDbEntity
  8
0
 62
     7
370
     0
100
AcDbVertex
100
AcDb2dVertex
 10
114.8878613076313
 20
-12.53322123355977
 30
0.0
  0
SEQEND
  5
5B1
330
5AE
100
AcDbEntity
  8
0
 62
     7
370
     0
  0
POLYLINE
  5
5B2
330
597
100
AcDbEntity
  8
0
 62
     7
370
     0
100
AcDb2dPolyline
 66
     1
 10
0.0
 20
0.0
 30
0.0
  0
VERTEX
  5
5B3
330
5B2
100
AcDbEntity
  8
0
 62
     7
370
     0
100
AcDbVertex
100
AcDb2dVertex
 10
0.3481450342655494
 20
-18.79983185033966
 30
0.0
  0
VERTEX
  5
5B4
330
5B2
100
AcDbEntity
  8
0
 62
     7
370
     0
100
AcDbVertex
100
AcDb2dVertex
 10
114.8878613076313
 20
-18.79983185033966
 30
0.0
  0
SEQEND
  5
5B5
330
5B2
100
AcDbEntity
  8
0
 62
     7
370
     0
  0
POLYLINE
  5
5B6
330
597
100
AcDbEntity
  8
0
 62
     7
370
     0
100
AcDb2dPolyline
 66
     1
 10
0.0
 20
0.0
 30
0.0
  0
VERTEX
  5
5B7
330
5B6
100
AcDbEntity
  8
0
 62
     7
370
     0
100
AcDbVertex
100
AcDb2dVertex
 10
0.3481450342655494
 20
-25.06644246711955
 30
0.0
  0
VERTEX
  5
5B8
330
5B6
100
AcDbEntity
  8
0
 62
     7
370
     0
100
AcDbVertex
100
AcDb2dVertex
 10
114.8878613076313
 20
-25.06644246711955
 30
0.0
  0
SEQEND
  5
5B9
330
5B6
100
AcDbEntity
  8
0
 62
     7
370
     0
  0
POLYLINE
  5
5BA
330
597
100
AcDbEntity
  8
0
 62
     7
370
     0
100
AcDb2dPolyline
 66
     1
 10
0.0
 20
0.0
 30
0.0
  0
VERTEX
  5
5BB
330
5BA
100
AcDbEntity
  8
0
 62
     7
370
     0
100
AcDbVertex
100
AcDb2dVertex
 10
0.0
 20
0.0
 30
0.0
  0
VERTEX
  5
5BC
330
5BA
100
AcDbEntity
  8
0
 62
     7
370
     0
100
AcDbVertex
100
AcDb2dVertex
 10
0.0
 20
-31.681198118165
 30
0.0
  0
SEQEND
  5
5BD
330
5BA
100
AcDbEntity
  8
0
 62
     7
370
     0
  0
POLYLINE
  5
5BE
330
597
100
AcDbEntity
  8
0
 62
     7
370
     0
100
AcDb2dPolyline
 66
     1
 10
0.0
 20
0.0
 30
0.0
  0
VERTEX
  5
5BF
330
5BE
100
AcDbEntity
  8
0
 62
     7
370
     0
100
AcDbVertex
100
AcDb2dVertex
 10
31.681198118165
 20
-0.3481450342655494
 30
0.0
  0
VERTEX
  5
5C0
330
5BE
100
AcDbEntity
  8
0
 62
     7
370
     0
100
AcDbVertex
100
AcDb2dVertex
 10
31.681198118165
 20
-31.681198118165
 30
0.0
  0
SEQEND
  5
5C1
330
5BE
100
AcDbEntity
  8
0
 62
     7
370
     0
  0
POLYLINE
  5
5C2
330
597
100
AcDbEntity
  8
0
 62
     7
370
     0
100
AcDb2dPolyline
 66
     1
 10
0.0
 20
0.0
 30
0.0
  0
VERTEX
  5
5C3
330
5C2
100
AcDbEntity
  8
0
 62
     7
370
     0
100
AcDbVertex
100
AcDb2dVertex
 10
0.3481450342655494
 20
-31.33305308389945
 30
0.0
  0
VERTEX
  5
5C4
330
5C2
100
AcDbEntity
  8
0
 62
     7
370
     0
100
AcDbVertex
100
AcDb2dVertex
 10
114.8878613076313
 20
-31.33305308389945
 30
0.0
  0
SEQEND
  5
5C5
330
5C2
100
AcDbEntity
  8
0
 62
     7
370
     0
  0
POLYLINE
  5
5C6
330
597
100
AcDbEntity
  8
0
 62
     7
370
     0
100
AcDb2dPolyline
 66
     1
 10
0.0
 20
0.0
 30
0.0
  0
VERTEX
  5
5C7
330
5C6
100
AcDbEntity
  8
0
 62
     7
370
     0
100
AcDbVertex
100
AcDb2dVertex
 10
114.5397162733657
 20
-0.3481450342655494
 30
0.0
  0
VERTEX
  5
5C8
330
5C6
100
AcDbEntity
  8
0
 62
     7
370
     0
100
AcDbVertex
100
AcDb2dVertex
 10
114.5397162733657
 20
-31.681198118165
 30
0.0
  0
SEQEND
  5
5C9
330
5C6
100
AcDbEntity
  8
0
 62
     7
370
     0
  0
ENDBLK
  5
5CA
330
597
100
AcDbEntity
  8
0
 62
     0
370
     0
100
AcDbBlockEnd
  0
BLOCK
  5
67A
330
677
100
AcDbEntity
  8
0
 62
     0
370
     0
100
AcDbBlockBegin
  2
WMF3
 70
     0
 10
0.0
 20
0.0
 30
0.0
  3
WMF3
  1

  0
TEXT
  5
67B
330
677
100
AcDbEntity
  8
0
 62
     7
370
     0
100
AcDbText
 10
84.40084744289105
 20
-9.063178248901051
 30
0.0
 40
5.891065861785683
  1
精
  7
WMF-ＭＳ Ｐゴシック0
100
AcDbText
  0
TEXT
  5
67C
330
677
100
AcDbEntity
  8
0
 62
     7
370
     0
100
AcDbText
 10
97.99561481624262
 20
-9.063178248901051
 30
0.0
 40
5.891065861785683
  1
中
  7
WMF-ＭＳ Ｐゴシック0
100
AcDbText
  0
TEXT
  5
67D
330
677
100
AcDbEntity
  8
0
 62
     7
370
     0
100
AcDbText
 10
111.5903821895942
 20
-9.063178248901051
 30
0.0
 40
5.891065861785683
  1
粗
  7
WMF-ＭＳ Ｐゴシック0
100
AcDbText
  0
TEXT
  5
67E
330
677
100
AcDbEntity
  8
0
 62
     7
370
     0
100
AcDbText
 10
173.8997326507889
 20
-9.063178248901051
 30
0.0
 40
5.891065861785683
  1
尺度
  7
WMF-ＭＳ Ｐゴシック0
100
AcDbText
  0
TEXT
  5
67F
330
677
100
AcDbEntity
  8
0
 62
     7
370
     0
100
AcDbText
 10
202.788613319161
 20
-9.063178248901051
 30
0.0
 40
5.891065861785683
  1
～
  7
WMF-ＭＳ Ｐゴシック0
100
AcDbText
  0
TEXT
  5
680
330
677
100
AcDbEntity
  8
0
 62
     7
370
     0
100
AcDbText
 10
221.4814184575194
 20
-9.063178248901051
 30
0.0
 40
5.891065861785683
  1
材質
  7
WMF-ＭＳ Ｐゴシック0
100
AcDbText
  0
TEXT
  5
681
330
677
100
AcDbEntity
  8
0
 62
     7
370
     0
100
AcDbText
 10
279.8256284348199
 20
-9.063178248901051
 30
0.0
 40
5.891065861785683
  1
重量
  7
WMF-ＭＳ Ｐゴシック0
100
AcDbText
  0
TEXT
  5
682
330
677
100
AcDbEntity
  8
0
 62
     7
370
     0
100
AcDbText
 10
324.5750710387689
 20
-9.063178248901051
 30
0.0
 40
5.891065861785683
  1
Kg
  7
WMF-ＭＳ Ｐゴシック0
100
AcDbText
  0
TEXT
  5
683
330
677
100
AcDbEntity
  8
0
 62
     7
370
     0
100
AcDbText
 10
337.6033897715641
 20
-9.063178248901051
 30
0.0
 40
5.891065861785683
  1
処理
  7
WMF-ＭＳ Ｐゴシック0
100
AcDbText
  0
TEXT
  5
684
330
677
100
AcDbEntity
  8
0
 62
     7
370
     0
100
AcDbText
 10
400.4791888733152
 20
-9.063178248901051
 30
0.0
 40
5.891065861785683
  1
個数
  7
WMF-ＭＳ Ｐゴシック0
100
AcDbText
  0
TEXT
  5
685
330
677
100
AcDbEntity
  8
0
 62
     7
370
     0
100
AcDbText
 10
427.1022749794621
 20
-9.063178248901051
 30
0.0
 40
5.891065861785683
  1
1
  7
WMF-ＭＳ Ｐゴシック0
100
AcDbText
  0
TEXT
  5
686
330
677
100
AcDbEntity
  8
0
 62
     7
370
     0
100
AcDbText
 10
12.46187009223894
 20
-19.25925377891473
 30
0.0
 40
5.891065861785683
  1
設計
  7
WMF-ＭＳ Ｐゴシック0
100
AcDbText
  0
TEXT
  5
687
330
677
100
AcDbEntity
  8
0
 62
     7
370
     0
100
AcDbText
 10
128.0173927657273
 20
-19.25925377891473
 30
0.0
 40
5.891065861785683
  1
区
  7
WMF-ＭＳ Ｐゴシック0
100
AcDbText
  0
TEXT
  5
688
330
677
100
AcDbEntity
  8
0
 62
     7
370
     0
100
AcDbText
 10
226.01300758197
 20
-19.25925377891473
 30
0.0
 40
5.891065861785683
  1
品
  7
WMF-ＭＳ Ｐゴシック0
100
AcDbText
  0
TEXT
  5
689
330
677
100
AcDbEntity
  8
0
 62
     7
370
     0
100
AcDbText
 10
12.46187009223894
 20
-29.45532930892841
 30
0.0
 40
5.891065861785683
  1
製図
  7
WMF-ＭＳ Ｐゴシック0
100
AcDbText
  0
TEXT
  5
68A
330
677
100
AcDbEntity
  8
0
 62
     7
370
     0
100
AcDbText
 10
54.37906949340631
 20
-29.45532930892841
 30
0.0
 40
5.891065861785683
  1
A・S
  7
WMF-ＭＳ Ｐゴシック0
100
AcDbText
  0
TEXT
  5
68B
330
677
100
AcDbEntity
  8
0
 62
     7
370
     0
100
AcDbText
 10
128.0173927657273
 20
-29.45532930892841
 30
0.0
 40
5.891065861785683
  1
分
  7
WMF-ＭＳ Ｐゴシック0
100
AcDbText
  0
TEXT
  5
68C
330
677
100
AcDbEntity
  8
0
 62
     7
370
     0
100
AcDbText
 10
226.01300758197
 20
-29.45532930892841
 30
0.0
 40
5.891065861785683
  1
名
  7
WMF-ＭＳ Ｐゴシック0
100
AcDbText
  0
TEXT
  5
68D
330
677
100
AcDbEntity
  8
0
 62
     7
370
     0
100
AcDbText
 10
342.1349788960147
 20
-29.45532930892841
 30
0.0
 40
5.891065861785683
  1
図
  7
WMF-ＭＳ Ｐゴシック0
100
AcDbText
  0
TEXT
  5
68F
330
677
100
AcDbEntity
  8
0
 62
     7
370
     0
100
AcDbText
 10
12.46187009223894
 20
-39.65140483894209
 30
0.0
 40
5.891065861785683
  1
検図
  7
WMF-ＭＳ Ｐゴシック0
100
AcDbText
  0
TEXT
  5
690
330
677
100
AcDbEntity
  8
0
 62
     7
370
     0
100
AcDbText
 10
53.81262085284999
 20
-39.65140483894209
 30
0.0
 40
5.891065861785683
  1
G・Y
  7
WMF-ＭＳ Ｐゴシック0
100
AcDbText
  0
TEXT
  5
691
330
677
100
AcDbEntity
  8
0
 62
     7
370
     0
100
AcDbText
 10
342.1349788960147
 20
-39.65140483894209
 30
0.0
 40
5.891065861785683
  1
番
  7
WMF-ＭＳ Ｐゴシック0
100
AcDbText
  0
TEXT
  5
692
330
677
100
AcDbEntity
  8
0
 62
     7
370
     0
100
AcDbText
 10
12.46187009223894
 20
-49.84748036895578
 30
0.0
 40
5.891065861785683
  1
承認
  7
WMF-ＭＳ Ｐゴシック0
100
AcDbText
  0
TEXT
  5
694
330
677
100
AcDbEntity
  8
0
 62
     7
370
     0
100
AcDbText
 10
248.6709532042226
 20
-28.8888806683721
 30
0.0
 40
9.516337161346106
  1
電気おでん鍋
  7
WMF-ＭＳ Ｐゴシック0
100
AcDbText
  0
TEXT
  5
695
330
677
100
AcDbEntity
  8
0
 62
     7
370
     0
100
AcDbText
 10
95.16337161346106
 20
-29.45532930892841
 30
0.0
 40
5.891065861785683
  1
・　・
  7
WMF-ＭＳ Ｐゴシック0
100
AcDbText
  0
TEXT
  5
696
330
677
100
AcDbEntity
  8
0
 62
     7
370
     0
100
AcDbText
 10
95.16337161346106
 20
-19.25925377891473
 30
0.0
 40
5.891065861785683
  1
・　・
  7
WMF-ＭＳ Ｐゴシック0
100
AcDbText
  0
TEXT
  5
697
330
677
100
AcDbEntity
  8
0
 62
     7
370
     0
100
AcDbText
 10
373.8561027671684
 20
-39.08495619838578
 30
0.0
 40
7.250542599120841
  1
NW-201H
  7
WMF-ＭＳ Ｐゴシック1
100
AcDbText
  0
TEXT
  5
699
330
677
100
AcDbEntity
  8
0
 62
     7
370
     0
100
AcDbText
 10
95.16337161346106
 20
-39.65140483894209
 30
0.0
 40
5.891065861785683
  1
・　・
  7
WMF-ＭＳ Ｐゴシック0
100
AcDbText
  0
TEXT
  5
69A
330
677
100
AcDbEntity
  8
0
 62
     7
370
     0
100
AcDbText
 10
166.5359003235568
 20
-48.71458308784315
 30
0.0
 40
10.42265498623621
  1
株式会社　アンナカ
  7
WMF-ＭＳ Ｐゴシック0
100
AcDbText
  0
TEXT
  5
69B
330
677
100
AcDbEntity
  8
0
 62
     7
370
     0
100
AcDbText
 10
95.16337161346106
 20
-49.84748036895578
 30
0.0
 40
5.891065861785683
  1
・　・
  7
WMF-ＭＳ Ｐゴシック0
100
AcDbText
  0
TEXT
  5
69C
330
677
100
AcDbEntity
  8
0
 62
     7
370
     0
100
AcDbText
 10
157.4727220746557
 20
-28.32243202781579
 30
0.0
 40
10.42265498623621
  1
承認図
  7
WMF-ＭＳ Ｐゴシック0
100
AcDbText
  0
TEXT
  5
69D
330
677
100
AcDbEntity
  8
0
 62
     7
370
     0
100
AcDbText
 10
5.09803776500684
 20
-9.063178248901051
 30
0.0
 40
5.891065861785683
  1
寸法差(JIS B 0405)
  7
WMF-ＭＳ Ｐゴシック0
100
AcDbText
  0
TEXT
  5
69E
330
677
100
AcDbEntity
  8
0
 62
     7
370
     0
100
AcDbText
 10
130.8496359685089
 20
-9.063178248901051
 30
0.0
 40
5.891065861785683
  1
第３角法
  7
WMF-ＭＳ Ｐゴシック0
100
AcDbText
  0
POLYLINE
  5
69F
330
677
100
AcDbEntity
  8
0
 62
     7
370
     0
100
AcDb2dPolyline
 66
     1
 10
0.0
 20
0.0
 30
0.0
  0
VERTEX
  5
6A0
330
69F
100
AcDbEntity
  8
0
 62
     7
370
     0
100
AcDbVertex
100
AcDb2dVertex
 10
0.5664486405563158
 20
0.0
 30
0.0
  0
VERTEX
  5
6A1
330
69F
100
AcDbEntity
  8
0
 62
     7
370
     0
100
AcDbVertex
100
AcDb2dVertex
 10
438.9976964311447
 20
0.0
 30
0.0
  0
SEQEND
  5
6A2
330
69F
100
AcDbEntity
  8
0
 62
     7
370
     0
  0
POLYLINE
  5
6A3
330
677
100
AcDbEntity
  8
0
 62
     7
370
     0
100
AcDb2dPolyline
 66
     1
 10
0.0
 20
0.0
 30
0.0
  0
VERTEX
  5
6A4
330
6A3
100
AcDbEntity
  8
0
 62
     7
370
     0
100
AcDbVertex
100
AcDb2dVertex
 10
397.6469456705336
 20
-0.5664486405563158
 30
0.0
  0
VERTEX
  5
6A5
330
6A3
100
AcDbEntity
  8
0
 62
     7
370
     0
100
AcDbVertex
100
AcDb2dVertex
 10
397.6469456705336
 20
-10.76252417057
 30
0.0
  0
SEQEND
  5
6A6
330
6A3
100
AcDbEntity
  8
0
 62
     7
370
     0
  0
POLYLINE
  5
6A7
330
677
100
AcDbEntity
  8
0
 62
     7
370
     0
100
AcDb2dPolyline
 66
     1
 10
0.0
 20
0.0
 30
0.0
  0
VERTEX
  5
6A8
330
6A7
100
AcDbEntity
  8
0
 62
     7
370
     0
100
AcDbVertex
100
AcDb2dVertex
 10
419.7384426522299
 20
-0.5664486405563158
 30
0.0
  0
VERTEX
  5
6A9
330
6A7
100
AcDbEntity
  8
0
 62
     7
370
     0
100
AcDbVertex
100
AcDb2dVertex
 10
419.7384426522299
 20
-10.76252417057
 30
0.0
  0
SEQEND
  5
6AA
330
6A7
100
AcDbEntity
  8
0
 62
     7
370
     0
  0
POLYLINE
  5
6AB
330
677
100
AcDbEntity
  8
0
 62
     7
370
     0
100
AcDb2dPolyline
 66
     1
 10
0.0
 20
0.0
 30
0.0
  0
VERTEX
  5
6AC
330
6AB
100
AcDbEntity
  8
0
 62
     7
370
     0
100
AcDbVertex
100
AcDb2dVertex
 10
0.5664486405563158
 20
-10.19607553001368
 30
0.0
  0
VERTEX
  5
6AD
330
6AB
100
AcDbEntity
  8
0
 62
     7
370
     0
100
AcDbVertex
100
AcDb2dVertex
 10
438.9976964311447
 20
-10.19607553001368
 30
0.0
  0
SEQEND
  5
6AE
330
6AB
100
AcDbEntity
  8
0
 62
     7
370
     0
  0
POLYLINE
  5
6AF
330
677
100
AcDbEntity
  8
0
 62
     7
370
     0
100
AcDb2dPolyline
 66
     1
 10
0.0
 20
0.0
 30
0.0
  0
VERTEX
  5
6B0
330
6AF
100
AcDbEntity
  8
0
 62
     7
370
     0
100
AcDbVertex
100
AcDb2dVertex
 10
0.5664486405563158
 20
-20.39215106002736
 30
0.0
  0
VERTEX
  5
6B1
330
6AF
100
AcDbEntity
  8
0
 62
     7
370
     0
100
AcDbVertex
100
AcDb2dVertex
 10
122.9193550007205
 20
-20.39215106002736
 30
0.0
  0
SEQEND
  5
6B2
330
6AF
100
AcDbEntity
  8
0
 62
     7
370
     0
  0
POLYLINE
  5
6B3
330
677
100
AcDbEntity
  8
0
 62
   254
370
     0
100
AcDb2dPolyline
 66
     1
 10
0.0
 20
0.0
 30
0.0
  0
VERTEX
  5
6B4
330
6B3
100
AcDbEntity
  8
0
 62
   254
370
     0
100
AcDbVertex
100
AcDb2dVertex
 10
122.9193550007205
 20
-20.39215106002736
 30
0.0
  0
VERTEX
  5
6B5
330
6B3
100
AcDbEntity
  8
0
 62
   254
370
     0
100
AcDbVertex
100
AcDb2dVertex
 10
141.0457114985226
 20
-20.39215106002736
 30
0.0
  0
SEQEND
  5
6B6
330
6B3
100
AcDbEntity
  8
0
 62
   254
370
     0
  0
POLYLINE
  5
6B7
330
677
100
AcDbEntity
  8
0
 62
   254
370
     0
100
AcDb2dPolyline
 66
     1
 10
0.0
 20
0.0
 30
0.0
  0
VERTEX
  5
6B8
330
6B7
100
AcDbEntity
  8
0
 62
   254
370
     0
100
AcDbVertex
100
AcDb2dVertex
 10
219.2156238952942
 20
-20.39215106002736
 30
0.0
  0
VERTEX
  5
6B9
330
6B7
100
AcDbEntity
  8
0
 62
   254
370
     0
100
AcDbVertex
100
AcDb2dVertex
 10
240.7406722364342
 20
-20.39215106002736
 30
0.0
  0
SEQEND
  5
6BA
330
6B7
100
AcDbEntity
  8
0
 62
   254
370
     0
  0
POLYLINE
  5
6BB
330
677
100
AcDbEntity
  8
0
 62
   254
370
     0
100
AcDb2dPolyline
 66
     1
 10
0.0
 20
0.0
 30
0.0
  0
VERTEX
  5
6BC
330
6BB
100
AcDbEntity
  8
0
 62
   254
370
     0
100
AcDbVertex
100
AcDb2dVertex
 10
335.3375952093389
 20
-20.39215106002736
 30
0.0
  0
VERTEX
  5
6BD
330
6BB
100
AcDbEntity
  8
0
 62
   254
370
     0
100
AcDbVertex
100
AcDb2dVertex
 10
356.8626435504789
 20
-20.39215106002736
 30
0.0
  0
SEQEND
  5
6BE
330
6BB
100
AcDbEntity
  8
0
 62
   254
370
     0
  0
POLYLINE
  5
6BF
330
677
100
AcDbEntity
  8
0
 62
   254
370
     0
100
AcDb2dPolyline
 66
     1
 10
0.0
 20
0.0
 30
0.0
  0
VERTEX
  5
6C0
330
6BF
100
AcDbEntity
  8
0
 62
   254
370
     0
100
AcDbVertex
100
AcDb2dVertex
 10
357.4290921910352
 20
-20.39215106002736
 30
0.0
  0
VERTEX
  5
6C1
330
6BF
100
AcDbEntity
  8
0
 62
   254
370
     0
100
AcDbVertex
100
AcDb2dVertex
 10
438.4312477905884
 20
-20.39215106002736
 30
0.0
  0
SEQEND
  5
6C2
330
6BF
100
AcDbEntity
  8
0
 62
   254
370
     0
  0
POLYLINE
  5
6C3
330
677
100
AcDbEntity
  8
0
 62
     7
370
     0
100
AcDb2dPolyline
 66
     1
 10
0.0
 20
0.0
 30
0.0
  0
VERTEX
  5
6C4
330
6C3
100
AcDbEntity
  8
0
 62
     7
370
     0
100
AcDbVertex
100
AcDb2dVertex
 10
0.5664486405563158
 20
-30.58822659004105
 30
0.0
  0
VERTEX
  5
6C5
330
6C3
100
AcDbEntity
  8
0
 62
     7
370
     0
100
AcDbVertex
100
AcDb2dVertex
 10
335.3375952093389
 20
-30.58822659004105
 30
0.0
  0
SEQEND
  5
6C6
330
6C3
100
AcDbEntity
  8
0
 62
     7
370
     0
  0
POLYLINE
  5
6C7
330
677
100
AcDbEntity
  8
0
 62
   254
370
     0
100
AcDb2dPolyline
 66
     1
 10
0.0
 20
0.0
 30
0.0
  0
VERTEX
  5
6C8
330
6C7
100
AcDbEntity
  8
0
 62
   254
370
     0
100
AcDbVertex
100
AcDb2dVertex
 10
335.3375952093389
 20
-30.58822659004105
 30
0.0
  0
VERTEX
  5
6C9
330
6C7
100
AcDbEntity
  8
0
 62
   254
370
     0
100
AcDbVertex
100
AcDb2dVertex
 10
356.8626435504789
 20
-30.58822659004105
 30
0.0
  0
SEQEND
  5
6CA
330
6C7
100
AcDbEntity
  8
0
 62
   254
370
     0
  0
POLYLINE
  5
6CB
330
677
100
AcDbEntity
  8
0
 62
     7
370
     0
100
AcDb2dPolyline
 66
     1
 10
0.0
 20
0.0
 30
0.0
  0
VERTEX
  5
6CC
330
6CB
100
AcDbEntity
  8
0
 62
     7
370
     0
100
AcDbVertex
100
AcDb2dVertex
 10
0.5664486405563158
 20
-40.78430212005473
 30
0.0
  0
VERTEX
  5
6CD
330
6CB
100
AcDbEntity
  8
0
 62
     7
370
     0
100
AcDbVertex
100
AcDb2dVertex
 10
122.9193550007205
 20
-40.78430212005473
 30
0.0
  0
SEQEND
  5
6CE
330
6CB
100
AcDbEntity
  8
0
 62
     7
370
     0
  0
POLYLINE
  5
6CF
330
677
100
AcDbEntity
  8
0
 62
   254
370
     0
100
AcDb2dPolyline
 66
     1
 10
0.0
 20
0.0
 30
0.0
  0
VERTEX
  5
6D0
330
6CF
100
AcDbEntity
  8
0
 62
   254
370
     0
100
AcDbVertex
100
AcDb2dVertex
 10
335.3375952093389
 20
-40.78430212005473
 30
0.0
  0
VERTEX
  5
6D1
330
6CF
100
AcDbEntity
  8
0
 62
   254
370
     0
100
AcDbVertex
100
AcDb2dVertex
 10
356.8626435504789
 20
-40.78430212005473
 30
0.0
  0
SEQEND
  5
6D2
330
6CF
100
AcDbEntity
  8
0
 62
   254
370
     0
  0
POLYLINE
  5
6D3
330
677
100
AcDbEntity
  8
0
 62
   254
370
     0
100
AcDb2dPolyline
 66
     1
 10
0.0
 20
0.0
 30
0.0
  0
VERTEX
  5
6D4
330
6D3
100
AcDbEntity
  8
0
 62
   254
370
     0
100
AcDbVertex
100
AcDb2dVertex
 10
397.6469456705336
 20
-10.76252417057
 30
0.0
  0
VERTEX
  5
6D5
330
6D3
100
AcDbEntity
  8
0
 62
   254
370
     0
100
AcDbVertex
100
AcDb2dVertex
 10
397.6469456705336
 20
-20.95859970058368
 30
0.0
  0
SEQEND
  5
6D6
330
6D3
100
AcDbEntity
  8
0
 62
   254
370
     0
  0
POLYLINE
  5
6D7
330
677
100
AcDbEntity
  8
0
 62
   254
370
     0
100
AcDb2dPolyline
 66
     1
 10
0.0
 20
0.0
 30
0.0
  0
VERTEX
  5
6D8
330
6D7
100
AcDbEntity
  8
0
 62
   254
370
     0
100
AcDbVertex
100
AcDb2dVertex
 10
419.7384426522299
 20
-10.76252417057
 30
0.0
  0
VERTEX
  5
6D9
330
6D7
100
AcDbEntity
  8
0
 62
   254
370
     0
100
AcDbVertex
100
AcDb2dVertex
 10
419.7384426522299
 20
-20.95859970058368
 30
0.0
  0
SEQEND
  5
6DA
330
6D7
100
AcDbEntity
  8
0
 62
   254
370
     0
  0
POLYLINE
  5
6DB
330
677
100
AcDbEntity
  8
0
 62
   254
370
     0
100
AcDb2dPolyline
 66
     1
 10
0.0
 20
0.0
 30
0.0
  0
VERTEX
  5
6DC
330
6DB
100
AcDbEntity
  8
0
 62
   254
370
     0
100
AcDbVertex
100
AcDb2dVertex
 10
357.4290921910352
 20
-40.78430212005473
 30
0.0
  0
VERTEX
  5
6DD
330
6DB
100
AcDbEntity
  8
0
 62
   254
370
     0
100
AcDbVertex
100
AcDb2dVertex
 10
438.4312477905884
 20
-40.78430212005473
 30
0.0
  0
SEQEND
  5
6DE
330
6DB
100
AcDbEntity
  8
0
 62
   254
370
     0
  0
POLYLINE
  5
6DF
330
677
100
AcDbEntity
  8
0
 62
     7
370
     0
100
AcDb2dPolyline
 66
     1
 10
0.0
 20
0.0
 30
0.0
  0
VERTEX
  5
6E0
330
6DF
100
AcDbEntity
  8
0
 62
     7
370
     0
100
AcDbVertex
100
AcDb2dVertex
 10
0.0
 20
0.0
 30
0.0
  0
VERTEX
  5
6E1
330
6DF
100
AcDbEntity
  8
0
 62
     7
370
     0
100
AcDbVertex
100
AcDb2dVertex
 10
0.0
 20
-51.54682629062474
 30
0.0
  0
SEQEND
  5
6E2
330
6DF
100
AcDbEntity
  8
0
 62
     7
370
     0
  0
POLYLINE
  5
6E3
330
677
100
AcDbEntity
  8
0
 62
     7
370
     0
100
AcDb2dPolyline
 66
     1
 10
0.0
 20
0.0
 30
0.0
  0
VERTEX
  5
6E4
330
6E3
100
AcDbEntity
  8
0
 62
     7
370
     0
100
AcDbVertex
100
AcDb2dVertex
 10
40.78430212005473
 20
-10.76252417057
 30
0.0
  0
VERTEX
  5
6E5
330
6E3
100
AcDbEntity
  8
0
 62
     7
370
     0
100
AcDbVertex
100
AcDb2dVertex
 10
40.78430212005473
 20
-51.54682629062474
 30
0.0
  0
SEQEND
  5
6E6
330
6E3
100
AcDbEntity
  8
0
 62
     7
370
     0
  0
POLYLINE
  5
6E7
330
677
100
AcDbEntity
  8
0
 62
     7
370
     0
100
AcDb2dPolyline
 66
     1
 10
0.0
 20
0.0
 30
0.0
  0
VERTEX
  5
6E8
330
6E7
100
AcDbEntity
  8
0
 62
     7
370
     0
100
AcDbVertex
100
AcDb2dVertex
 10
81.56860424010947
 20
-0.5664486405563158
 30
0.0
  0
VERTEX
  5
6E9
330
6E7
100
AcDbEntity
  8
0
 62
     7
370
     0
100
AcDbVertex
100
AcDb2dVertex
 10
81.56860424010947
 20
-51.54682629062474
 30
0.0
  0
SEQEND
  5
6EA
330
6E7
100
AcDbEntity
  8
0
 62
     7
370
     0
  0
POLYLINE
  5
6EB
330
677
100
AcDbEntity
  8
0
 62
     7
370
     0
100
AcDb2dPolyline
 66
     1
 10
0.0
 20
0.0
 30
0.0
  0
VERTEX
  5
6EC
330
6EB
100
AcDbEntity
  8
0
 62
     7
370
     0
100
AcDbVertex
100
AcDb2dVertex
 10
95.16337161346106
 20
-0.5664486405563158
 30
0.0
  0
VERTEX
  5
6ED
330
6EB
100
AcDbEntity
  8
0
 62
     7
370
     0
100
AcDbVertex
100
AcDb2dVertex
 10
95.16337161346106
 20
-10.76252417057
 30
0.0
  0
SEQEND
  5
6EE
330
6EB
100
AcDbEntity
  8
0
 62
     7
370
     0
  0
POLYLINE
  5
6EF
330
677
100
AcDbEntity
  8
0
 62
     7
370
     0
100
AcDb2dPolyline
 66
     1
 10
0.0
 20
0.0
 30
0.0
  0
VERTEX
  5
6F0
330
6EF
100
AcDbEntity
  8
0
 62
     7
370
     0
100
AcDbVertex
100
AcDb2dVertex
 10
108.7581389868126
 20
-0.5664486405563158
 30
0.0
  0
VERTEX
  5
6F1
330
6EF
100
AcDbEntity
  8
0
 62
     7
370
     0
100
AcDbVertex
100
AcDb2dVertex
 10
108.7581389868126
 20
-10.76252417057
 30
0.0
  0
SEQEND
  5
6F2
330
6EF
100
AcDbEntity
  8
0
 62
     7
370
     0
  0
POLYLINE
  5
6F3
330
677
100
AcDbEntity
  8
0
 62
     7
370
     0
100
AcDb2dPolyline
 66
     1
 10
0.0
 20
0.0
 30
0.0
  0
VERTEX
  5
6F4
330
6F3
100
AcDbEntity
  8
0
 62
     7
370
     0
100
AcDbVertex
100
AcDb2dVertex
 10
122.3529063601642
 20
-0.5664486405563158
 30
0.0
  0
VERTEX
  5
6F5
330
6F3
100
AcDbEntity
  8
0
 62
     7
370
     0
100
AcDbVertex
100
AcDb2dVertex
 10
122.3529063601642
 20
-51.54682629062474
 30
0.0
  0
SEQEND
  5
6F6
330
6F3
100
AcDbEntity
  8
0
 62
     7
370
     0
  0
POLYLINE
  5
6F7
330
677
100
AcDbEntity
  8
0
 62
     7
370
     0
100
AcDb2dPolyline
 66
     1
 10
0.0
 20
0.0
 30
0.0
  0
VERTEX
  5
6F8
330
6F7
100
AcDbEntity
  8
0
 62
     7
370
     0
100
AcDbVertex
100
AcDb2dVertex
 10
141.0457114985226
 20
-10.76252417057
 30
0.0
  0
VERTEX
  5
6F9
330
6F7
100
AcDbEntity
  8
0
 62
     7
370
     0
100
AcDbVertex
100
AcDb2dVertex
 10
141.0457114985226
 20
-31.15467523059736
 30
0.0
  0
SEQEND
  5
6FA
330
6F7
100
AcDbEntity
  8
0
 62
     7
370
     0
  0
POLYLINE
  5
6FB
330
677
100
AcDbEntity
  8
0
 62
     7
370
     0
100
AcDb2dPolyline
 66
     1
 10
0.0
 20
0.0
 30
0.0
  0
VERTEX
  5
6FC
330
6FB
100
AcDbEntity
  8
0
 62
     7
370
     0
100
AcDbVertex
100
AcDb2dVertex
 10
169.3681435263384
 20
-0.5664486405563158
 30
0.0
  0
VERTEX
  5
6FD
330
6FB
100
AcDbEntity
  8
0
 62
     7
370
     0
100
AcDbVertex
100
AcDb2dVertex
 10
169.3681435263384
 20
-10.76252417057
 30
0.0
  0
SEQEND
  5
6FE
330
6FB
100
AcDbEntity
  8
0
 62
     7
370
     0
  0
POLYLINE
  5
6FF
330
677
100
AcDbEntity
  8
0
 62
     7
370
     0
100
AcDb2dPolyline
 66
     1
 10
0.0
 20
0.0
 30
0.0
  0
VERTEX
  5
700
330
6FF
100
AcDbEntity
  8
0
 62
     7
370
     0
100
AcDbVertex
100
AcDb2dVertex
 10
194.2918837108163
 20
-0.5664486405563158
 30
0.0
  0
VERTEX
  5
701
330
6FF
100
AcDbEntity
  8
0
 62
     7
370
     0
100
AcDbVertex
100
AcDb2dVertex
 10
194.2918837108163
 20
-10.76252417057
 30
0.0
  0
SEQEND
  5
702
330
6FF
100
AcDbEntity
  8
0
 62
     7
370
     0
  0
POLYLINE
  5
703
330
677
100
AcDbEntity
  8
0
 62
     7
370
     0
100
AcDb2dPolyline
 66
     1
 10
0.0
 20
0.0
 30
0.0
  0
VERTEX
  5
704
330
703
100
AcDbEntity
  8
0
 62
     7
370
     0
100
AcDbVertex
100
AcDb2dVertex
 10
218.6491752547378
 20
-0.5664486405563158
 30
0.0
  0
VERTEX
  5
705
330
703
100
AcDbEntity
  8
0
 62
     7
370
     0
100
AcDbVertex
100
AcDb2dVertex
 10
218.6491752547378
 20
-31.15467523059736
 30
0.0
  0
SEQEND
  5
706
330
703
100
AcDbEntity
  8
0
 62
     7
370
     0
  0
POLYLINE
  5
707
330
677
100
AcDbEntity
  8
0
 62
     7
370
     0
100
AcDb2dPolyline
 66
     1
 10
0.0
 20
0.0
 30
0.0
  0
VERTEX
  5
708
330
707
100
AcDbEntity
  8
0
 62
     7
370
     0
100
AcDbVertex
100
AcDb2dVertex
 10
240.7406722364342
 20
-0.5664486405563158
 30
0.0
  0
VERTEX
  5
709
330
707
100
AcDbEntity
  8
0
 62
     7
370
     0
100
AcDbVertex
100
AcDb2dVertex
 10
240.7406722364342
 20
-31.15467523059736
 30
0.0
  0
SEQEND
  5
70A
330
707
100
AcDbEntity
  8
0
 62
     7
370
     0
  0
POLYLINE
  5
70B
330
677
100
AcDbEntity
  8
0
 62
     7
370
     0
100
AcDb2dPolyline
 66
     1
 10
0.0
 20
0.0
 30
0.0
  0
VERTEX
  5
70C
330
70B
100
AcDbEntity
  8
0
 62
     7
370
     0
100
AcDbVertex
100
AcDb2dVertex
 10
276.9933852320384
 20
-0.5664486405563158
 30
0.0
  0
VERTEX
  5
70D
330
70B
100
AcDbEntity
  8
0
 62
     7
370
     0
100
AcDbVertex
100
AcDb2dVertex
 10
276.9933852320384
 20
-10.76252417057
 30
0.0
  0
SEQEND
  5
70E
330
70B
100
AcDbEntity
  8
0
 62
     7
370
     0
  0
POLYLINE
  5
70F
330
677
100
AcDbEntity
  8
0
 62
     7
370
     0
100
AcDb2dPolyline
 66
     1
 10
0.0
 20
0.0
 30
0.0
  0
VERTEX
  5
710
330
70F
100
AcDbEntity
  8
0
 62
     7
370
     0
100
AcDbVertex
100
AcDb2dVertex
 10
299.0848822137347
 20
-0.5664486405563158
 30
0.0
  0
VERTEX
  5
711
330
70F
100
AcDbEntity
  8
0
 62
     7
370
     0
100
AcDbVertex
100
AcDb2dVertex
 10
299.0848822137347
 20
-10.76252417057
 30
0.0
  0
SEQEND
  5
712
330
70F
100
AcDbEntity
  8
0
 62
     7
370
     0
  0
POLYLINE
  5
713
330
677
100
AcDbEntity
  8
0
 62
     7
370
     0
100
AcDb2dPolyline
 66
     1
 10
0.0
 20
0.0
 30
0.0
  0
VERTEX
  5
714
330
713
100
AcDbEntity
  8
0
 62
     7
370
     0
100
AcDbVertex
100
AcDb2dVertex
 10
334.7711465687826
 20
-0.5664486405563158
 30
0.0
  0
VERTEX
  5
715
330
713
100
AcDbEntity
  8
0
 62
     7
370
     0
100
AcDbVertex
100
AcDb2dVertex
 10
334.7711465687826
 20
-51.54682629062474
 30
0.0
  0
SEQEND
  5
716
330
713
100
AcDbEntity
  8
0
 62
     7
370
     0
  0
POLYLINE
  5
717
330
677
100
AcDbEntity
  8
0
 62
     7
370
     0
100
AcDb2dPolyline
 66
     1
 10
0.0
 20
0.0
 30
0.0
  0
VERTEX
  5
718
330
717
100
AcDbEntity
  8
0
 62
     7
370
     0
100
AcDbVertex
100
AcDb2dVertex
 10
356.8626435504789
 20
-0.5664486405563158
 30
0.0
  0
VERTEX
  5
719
330
717
100
AcDbEntity
  8
0
 62
     7
370
     0
100
AcDbVertex
100
AcDb2dVertex
 10
356.8626435504789
 20
-51.54682629062474
 30
0.0
  0
SEQEND
  5
71A
330
717
100
AcDbEntity
  8
0
 62
     7
370
     0
  0
POLYLINE
  5
71B
330
677
100
AcDbEntity
  8
0
 62
   254
370
     0
100
AcDb2dPolyline
 66
     1
 10
0.0
 20
0.0
 30
0.0
  0
VERTEX
  5
71C
330
71B
100
AcDbEntity
  8
0
 62
   254
370
     0
100
AcDbVertex
100
AcDb2dVertex
 10
397.6469456705336
 20
-41.35075076061105
 30
0.0
  0
VERTEX
  5
71D
330
71B
100
AcDbEntity
  8
0
 62
   254
370
     0
100
AcDbVertex
100
AcDb2dVertex
 10
397.6469456705336
 20
-50.98037765006842
 30
0.0
  0
SEQEND
  5
71E
330
71B
100
AcDbEntity
  8
0
 62
   254
370
     0
  0
POLYLINE
  5
71F
330
677
100
AcDbEntity
  8
0
 62
   254
370
     0
100
AcDb2dPolyline
 66
     1
 10
0.0
 20
0.0
 30
0.0
  0
VERTEX
  5
720
330
71F
100
AcDbEntity
  8
0
 62
   254
370
     0
100
AcDbVertex
100
AcDb2dVertex
 10
419.7384426522299
 20
-41.35075076061105
 30
0.0
  0
VERTEX
  5
721
330
71F
100
AcDbEntity
  8
0
 62
   254
370
     0
100
AcDbVertex
100
AcDb2dVertex
 10
419.7384426522299
 20
-50.98037765006842
 30
0.0
  0
SEQEND
  5
722
330
71F
100
AcDbEntity
  8
0
 62
   254
370
     0
  0
POLYLINE
  5
723
330
677
100
AcDbEntity
  8
0
 62
     7
370
     0
100
AcDb2dPolyline
 66
     1
 10
0.0
 20
0.0
 30
0.0
  0
VERTEX
  5
724
330
723
100
AcDbEntity
  8
0
 62
     7
370
     0
100
AcDbVertex
100
AcDb2dVertex
 10
0.5664486405563158
 20
-50.98037765006842
 30
0.0
  0
VERTEX
  5
725
330
723
100
AcDbEntity
  8
0
 62
     7
370
     0
100
AcDbVertex
100
AcDb2dVertex
 10
438.9976964311447
 20
-50.98037765006842
 30
0.0
  0
SEQEND
  5
726
330
723
100
AcDbEntity
  8
0
 62
     7
370
     0
  0
POLYLINE
  5
727
330
677
100
AcDbEntity
  8
0
 62
     7
370
     0
100
AcDb2dPolyline
 66
     1
 10
0.0
 20
0.0
 30
0.0
  0
VERTEX
  5
728
330
727
100
AcDbEntity
  8
0
 62
     7
370
     0
100
AcDbVertex
100
AcDb2dVertex
 10
438.4312477905884
 20
-0.5664486405563158
 30
0.0
  0
VERTEX
  5
729
330
727
100
AcDbEntity
  8
0
 62
     7
370
     0
100
AcDbVertex
100
AcDb2dVertex
 10
438.4312477905884
 20
-51.54682629062474
 30
0.0
  0
SEQEND
  5
72A
330
727
100
AcDbEntity
  8
0
 62
     7
370
     0
  0
ENDBLK
  5
72B
330
677
100
AcDbEntity
  8
0
 62
     0
370
     0
100
AcDbBlockEnd
  0
BLOCK
  5
7DF
330
7DC
100
AcDbEntity
  8
0
 62
     0
370
     0
100
AcDbBlockBegin
  2
WMF4
 70
     0
 10
0.0
 20
0.0
 30
0.0
  3
WMF4
  1

  0
TEXT
  5
7E0
330
7DC
100
AcDbEntity
  8
0
 62
     7
370
     0
100
AcDbText
 10
46.14346379066419
 20
-4.012475112231668
 30
0.0
 40
2.608108822950585
  1
精
  7
WMF-ＭＳ Ｐゴシック0
100
AcDbText
  0
TEXT
  5
7E1
330
7DC
100
AcDbEntity
  8
0
 62
     7
370
     0
100
AcDbText
 10
53.41607493158409
 20
-4.012475112231668
 30
0.0
 40
2.608108822950585
  1
中
  7
WMF-ＭＳ Ｐゴシック0
100
AcDbText
  0
TEXT
  5
7E2
330
7DC
100
AcDbEntity
  8
0
 62
     7
370
     0
100
AcDbText
 10
60.68868607250399
 20
-4.012475112231668
 30
0.0
 40
2.608108822950585
  1
粗
  7
WMF-ＭＳ Ｐゴシック0
100
AcDbText
  0
TEXT
  5
7E3
330
7DC
100
AcDbEntity
  8
0
 62
     7
370
     0
100
AcDbText
 10
88.77601185812567
 20
-4.012475112231668
 30
0.0
 40
2.608108822950585
  1
尺度
  7
WMF-ＭＳ Ｐゴシック0
100
AcDbText
  0
TEXT
  5
7E4
330
7DC
100
AcDbEntity
  8
0
 62
     7
370
     0
100
AcDbText
 10
101.5657762783641
 20
-4.012475112231668
 30
0.0
 40
2.608108822950585
  1
～
  7
WMF-ＭＳ Ｐゴシック0
100
AcDbText
  0
TEXT
  5
7E5
330
7DC
100
AcDbEntity
  8
0
 62
     7
370
     0
100
AcDbText
 10
109.8415061973419
 20
-4.012475112231668
 30
0.0
 40
2.608108822950585
  1
材質
  7
WMF-ＭＳ Ｐゴシック0
100
AcDbText
  0
TEXT
  5
7E6
330
7DC
100
AcDbEntity
  8
0
 62
     7
370
     0
100
AcDbText
 10
135.6718147323332
 20
-4.012475112231668
 30
0.0
 40
2.608108822950585
  1
重量
  7
WMF-ＭＳ Ｐゴシック0
100
AcDbText
  0
TEXT
  5
7E7
330
7DC
100
AcDbEntity
  8
0
 62
     7
370
     0
100
AcDbText
 10
155.4834105989771
 20
-4.012475112231668
 30
0.0
 40
2.608108822950585
  1
Kg
  7
WMF-ＭＳ Ｐゴシック0
100
AcDbText
  0
TEXT
  5
7E8
330
7DC
100
AcDbEntity
  8
0
 62
     7
370
     0
100
AcDbText
 10
162.756021739897
 20
-4.012475112231668
 30
0.0
 40
2.608108822950585
  1
処理
  7
WMF-ＭＳ Ｐゴシック0
100
AcDbText
  0
TEXT
  5
7E9
330
7DC
100
AcDbEntity
  8
0
 62
     7
370
     0
100
AcDbText
 10
200.3729759170689
 20
-4.012475112231668
 30
0.0
 40
2.608108822950585
  1
個数
  7
WMF-ＭＳ Ｐゴシック0
100
AcDbText
  0
TEXT
  5
7EA
330
7DC
100
AcDbEntity
  8
0
 62
     7
370
     0
100
AcDbText
 10
215.6705372824522
 20
-4.012475112231668
 30
0.0
 40
2.608108822950585
  1
1
  7
WMF-ＭＳ Ｐゴシック0
100
AcDbText
  0
TEXT
  5
7EB
330
7DC
100
AcDbEntity
  8
0
 62
     7
370
     0
100
AcDbText
 10
7.523390835434378
 20
-8.526509613492295
 30
0.0
 40
2.608108822950585
  1
設計
  7
WMF-ＭＳ Ｐゴシック0
100
AcDbText
  0
TEXT
  5
7EC
330
7DC
100
AcDbEntity
  8
0
 62
     7
370
     0
100
AcDbText
 10
68.46285660245285
 20
-8.526509613492295
 30
0.0
 40
2.608108822950585
  1
区
  7
WMF-ＭＳ Ｐゴシック0
100
AcDbText
  0
TEXT
  5
7ED
330
7DC
100
AcDbEntity
  8
0
 62
     7
370
     0
100
AcDbText
 10
111.8477437534577
 20
-8.526509613492295
 30
0.0
 40
2.608108822950585
  1
品
  7
WMF-ＭＳ Ｐゴシック0
100
AcDbText
  0
TEXT
  5
7EE
330
7DC
100
AcDbEntity
  8
0
 62
     7
370
     0
100
AcDbText
 10
7.523390835434378
 20
-13.04054411475292
 30
0.0
 40
2.608108822950585
  1
製図
  7
WMF-ＭＳ Ｐゴシック0
100
AcDbText
  0
TEXT
  5
7EF
330
7DC
100
AcDbEntity
  8
0
 62
     7
370
     0
100
AcDbText
 10
30.09356334173751
 20
-13.04054411475292
 30
0.0
 40
2.608108822950585
  1
A・S
  7
WMF-ＭＳ Ｐゴシック0
100
AcDbText
  0
TEXT
  5
7F0
330
7DC
100
AcDbEntity
  8
0
 62
     7
370
     0
100
AcDbText
 10
68.46285660245285
 20
-13.04054411475292
 30
0.0
 40
2.608108822950585
  1
分
  7
WMF-ＭＳ Ｐゴシック0
100
AcDbText
  0
TEXT
  5
7F1
330
7DC
100
AcDbEntity
  8
0
 62
     7
370
     0
100
AcDbText
 10
111.8477437534577
 20
-13.04054411475292
 30
0.0
 40
2.608108822950585
  1
名
  7
WMF-ＭＳ Ｐゴシック0
100
AcDbText
  0
TEXT
  5
7F2
330
7DC
100
AcDbEntity
  8
0
 62
     7
370
     0
100
AcDbText
 10
164.5114796014984
 20
-13.04054411475292
 30
0.0
 40
2.608108822950585
  1
図
  7
WMF-ＭＳ Ｐゴシック0
100
AcDbText
  0
TEXT
  5
7F3
330
7DC
100
AcDbEntity
  8
0
 62
     7
370
     0
100
AcDbText
 10
7.523390835434378
 20
-17.55457861601355
 30
0.0
 40
2.608108822950585
  1
検図
  7
WMF-ＭＳ Ｐゴシック0
100
AcDbText
  0
TEXT
  5
7F4
330
7DC
100
AcDbEntity
  8
0
 62
     7
370
     0
100
AcDbText
 10
29.84278364722303
 20
-17.55457861601355
 30
0.0
 40
2.608108822950585
  1
G・Y
  7
WMF-ＭＳ Ｐゴシック0
100
AcDbText
  0
TEXT
  5
7F5
330
7DC
100
AcDbEntity
  8
0
 62
     7
370
     0
100
AcDbText
 10
164.5114796014984
 20
-17.55457861601355
 30
0.0
 40
2.608108822950585
  1
番
  7
WMF-ＭＳ Ｐゴシック0
100
AcDbText
  0
TEXT
  5
7F6
330
7DC
100
AcDbEntity
  8
0
 62
     7
370
     0
100
AcDbText
 10
7.523390835434378
 20
-22.06861311727417
 30
0.0
 40
2.608108822950585
  1
承認
  7
WMF-ＭＳ Ｐゴシック0
100
AcDbText
  0
TEXT
  5
7F8
330
7DC
100
AcDbEntity
  8
0
 62
     7
370
     0
100
AcDbText
 10
121.8789315340369
 20
-12.78976442023844
 30
0.0
 40
4.213098867843252
  1
電気おでん鍋
  7
WMF-ＭＳ Ｐゴシック0
100
AcDbText
  0
TEXT
  5
7F9
330
7DC
100
AcDbEntity
  8
0
 62
     7
370
     0
100
AcDbText
 10
51.91139676449721
 20
-13.04054411475292
 30
0.0
 40
2.608108822950585
  1
・　・
  7
WMF-ＭＳ Ｐゴシック0
100
AcDbText
  0
TEXT
  5
7FA
330
7DC
100
AcDbEntity
  8
0
 62
     7
370
     0
100
AcDbText
 10
51.91139676449721
 20
-8.526509613492295
 30
0.0
 40
2.608108822950585
  1
・　・
  7
WMF-ＭＳ Ｐゴシック0
100
AcDbText
  0
TEXT
  5
7FB
330
7DC
100
AcDbEntity
  8
0
 62
     7
370
     0
100
AcDbText
 10
187.0816521078015
 20
-17.30379892149907
 30
0.0
 40
3.209980089785335
  1
NW-201H
  7
WMF-ＭＳ Ｐゴシック1
100
AcDbText
  0
TEXT
  5
7FC
330
7DC
100
AcDbEntity
  8
0
 62
     7
370
     0
100
AcDbText
 10
51.91139676449721
 20
-17.55457861601355
 30
0.0
 40
2.608108822950585
  1
・　・
  7
WMF-ＭＳ Ｐゴシック0
100
AcDbText
  0
TEXT
  5
7FD
330
7DC
100
AcDbEntity
  8
0
 62
     7
370
     0
100
AcDbText
 10
85.51587582943744
 20
-21.56705372824522
 30
0.0
 40
4.614346379066419
  1
株式会社　アンナカ
  7
WMF-ＭＳ Ｐゴシック0
100
AcDbText
  0
TEXT
  5
7FE
330
7DC
100
AcDbEntity
  8
0
 62
     7
370
     0
100
AcDbText
 10
51.91139676449721
 20
-22.06861311727417
 30
0.0
 40
2.608108822950585
  1
・　・
  7
WMF-ＭＳ Ｐゴシック0
100
AcDbText
  0
TEXT
  5
7FF
330
7DC
100
AcDbEntity
  8
0
 62
     7
370
     0
100
AcDbText
 10
81.50340071720577
 20
-12.53898472572396
 30
0.0
 40
4.614346379066419
  1
承認図
  7
WMF-ＭＳ Ｐゴシック0
100
AcDbText
  0
TEXT
  5
800
330
7DC
100
AcDbEntity
  8
0
 62
     7
370
     0
100
AcDbText
 10
6.269492362861982
 20
-4.012475112231668
 30
0.0
 40
2.608108822950585
  1
寸法差(JIS B 0405)
  7
WMF-ＭＳ Ｐゴシック0
100
AcDbText
  0
TEXT
  5
801
330
7DC
100
AcDbEntity
  8
0
 62
     7
370
     0
100
AcDbText
 10
69.71675507502524
 20
-4.012475112231668
 30
0.0
 40
2.608108822950585
  1
第３角法
  7
WMF-ＭＳ Ｐゴシック0
100
AcDbText
  0
POLYLINE
  5
802
330
7DC
100
AcDbEntity
  8
0
 62
     7
370
     0
100
AcDb2dPolyline
 66
     1
 10
0.0
 20
0.0
 30
0.0
  0
VERTEX
  5
803
330
802
100
AcDbEntity
  8
0
 62
     7
370
     0
100
AcDbVertex
100
AcDb2dVertex
 10
0.2507796945144793
 20
0.0
 30
0.0
  0
VERTEX
  5
804
330
802
100
AcDbEntity
  8
0
 62
     7
370
     0
100
AcDbVertex
100
AcDb2dVertex
 10
222.9431484233721
 20
0.0
 30
0.0
  0
SEQEND
  5
805
330
802
100
AcDbEntity
  8
0
 62
     7
370
     0
  0
POLYLINE
  5
806
330
7DC
100
AcDbEntity
  8
0
 62
     7
370
     0
100
AcDb2dPolyline
 66
     1
 10
0.0
 20
0.0
 30
0.0
  0
VERTEX
  5
807
330
806
100
AcDbEntity
  8
0
 62
     7
370
     0
100
AcDbVertex
100
AcDb2dVertex
 10
197.6143992774096
 20
-0.2507796945144793
 30
0.0
  0
VERTEX
  5
808
330
806
100
AcDbEntity
  8
0
 62
     7
370
     0
100
AcDbVertex
100
AcDb2dVertex
 10
197.6143992774096
 20
-4.764814195775106
 30
0.0
  0
SEQEND
  5
809
330
806
100
AcDbEntity
  8
0
 62
     7
370
     0
  0
POLYLINE
  5
80A
330
7DC
100
AcDbEntity
  8
0
 62
     7
370
     0
100
AcDb2dPolyline
 66
     1
 10
0.0
 20
0.0
 30
0.0
  0
VERTEX
  5
80B
330
80A
100
AcDbEntity
  8
0
 62
     7
370
     0
100
AcDbVertex
100
AcDb2dVertex
 10
210.1533840031336
 20
-0.2507796945144793
 30
0.0
  0
VERTEX
  5
80C
330
80A
100
AcDbEntity
  8
0
 62
     7
370
     0
100
AcDbVertex
100
AcDb2dVertex
 10
210.1533840031336
 20
-4.764814195775106
 30
0.0
  0
SEQEND
  5
80D
330
80A
100
AcDbEntity
  8
0
 62
     7
370
     0
  0
POLYLINE
  5
80E
330
7DC
100
AcDbEntity
  8
0
 62
     7
370
     0
100
AcDb2dPolyline
 66
     1
 10
0.0
 20
0.0
 30
0.0
  0
VERTEX
  5
80F
330
80E
100
AcDbEntity
  8
0
 62
     7
370
     0
100
AcDbVertex
100
AcDb2dVertex
 10
0.2507796945144793
 20
-4.514034501260627
 30
0.0
  0
VERTEX
  5
810
330
80E
100
AcDbEntity
  8
0
 62
     7
370
     0
100
AcDbVertex
100
AcDb2dVertex
 10
222.9431484233721
 20
-4.514034501260627
 30
0.0
  0
SEQEND
  5
811
330
80E
100
AcDbEntity
  8
0
 62
     7
370
     0
  0
POLYLINE
  5
812
330
7DC
100
AcDbEntity
  8
0
 62
     7
370
     0
100
AcDb2dPolyline
 66
     1
 10
0.0
 20
0.0
 30
0.0
  0
VERTEX
  5
813
330
812
100
AcDbEntity
  8
0
 62
     7
370
     0
100
AcDbVertex
100
AcDb2dVertex
 10
0.2507796945144793
 20
-9.028069002521254
 30
0.0
  0
VERTEX
  5
814
330
812
100
AcDbEntity
  8
0
 62
     7
370
     0
100
AcDbVertex
100
AcDb2dVertex
 10
66.20583935182253
 20
-9.028069002521254
 30
0.0
  0
SEQEND
  5
815
330
812
100
AcDbEntity
  8
0
 62
     7
370
     0
  0
POLYLINE
  5
816
330
7DC
100
AcDbEntity
  8
0
 62
   254
370
     0
100
AcDb2dPolyline
 66
     1
 10
0.0
 20
0.0
 30
0.0
  0
VERTEX
  5
817
330
816
100
AcDbEntity
  8
0
 62
   254
370
     0
100
AcDbVertex
100
AcDb2dVertex
 10
66.20583935182253
 20
-9.028069002521254
 30
0.0
  0
VERTEX
  5
818
330
816
100
AcDbEntity
  8
0
 62
   254
370
     0
100
AcDbVertex
100
AcDb2dVertex
 10
74.23078957628587
 20
-9.028069002521254
 30
0.0
  0
SEQEND
  5
819
330
816
100
AcDbEntity
  8
0
 62
   254
370
     0
  0
POLYLINE
  5
81A
330
7DC
100
AcDbEntity
  8
0
 62
   254
370
     0
100
AcDb2dPolyline
 66
     1
 10
0.0
 20
0.0
 30
0.0
  0
VERTEX
  5
81B
330
81A
100
AcDbEntity
  8
0
 62
   254
370
     0
100
AcDbVertex
100
AcDb2dVertex
 10
108.838387419284
 20
-9.028069002521254
 30
0.0
  0
VERTEX
  5
81C
330
81A
100
AcDbEntity
  8
0
 62
   254
370
     0
100
AcDbVertex
100
AcDb2dVertex
 10
118.3680158108342
 20
-9.028069002521254
 30
0.0
  0
SEQEND
  5
81D
330
81A
100
AcDbEntity
  8
0
 62
   254
370
     0
  0
POLYLINE
  5
81E
330
7DC
100
AcDbEntity
  8
0
 62
   254
370
     0
100
AcDb2dPolyline
 66
     1
 10
0.0
 20
0.0
 30
0.0
  0
VERTEX
  5
81F
330
81E
100
AcDbEntity
  8
0
 62
   254
370
     0
100
AcDbVertex
100
AcDb2dVertex
 10
160.2482247947522
 20
-9.028069002521254
 30
0.0
  0
VERTEX
  5
820
330
81E
100
AcDbEntity
  8
0
 62
   254
370
     0
100
AcDbVertex
100
AcDb2dVertex
 10
172.5364298259617
 20
-9.028069002521254
 30
0.0
  0
SEQEND
  5
821
330
81E
100
AcDbEntity
  8
0
 62
   254
370
     0
  0
POLYLINE
  5
822
330
7DC
100
AcDbEntity
  8
0
 62
   254
370
     0
100
AcDb2dPolyline
 66
     1
 10
0.0
 20
0.0
 30
0.0
  0
VERTEX
  5
823
330
822
100
AcDbEntity
  8
0
 62
   254
370
     0
100
AcDbVertex
100
AcDb2dVertex
 10
172.7872095204762
 20
-9.028069002521254
 30
0.0
  0
VERTEX
  5
824
330
822
100
AcDbEntity
  8
0
 62
   254
370
     0
100
AcDbVertex
100
AcDb2dVertex
 10
222.6923687288576
 20
-9.028069002521254
 30
0.0
  0
SEQEND
  5
825
330
822
100
AcDbEntity
  8
0
 62
   254
370
     0
  0
POLYLINE
  5
826
330
7DC
100
AcDbEntity
  8
0
 62
     7
370
     0
100
AcDb2dPolyline
 66
     1
 10
0.0
 20
0.0
 30
0.0
  0
VERTEX
  5
827
330
826
100
AcDbEntity
  8
0
 62
     7
370
     0
100
AcDbVertex
100
AcDb2dVertex
 10
0.2507796945144793
 20
-13.54210350378188
 30
0.0
  0
VERTEX
  5
828
330
826
100
AcDbEntity
  8
0
 62
     7
370
     0
100
AcDbVertex
100
AcDb2dVertex
 10
160.2482247947522
 20
-13.54210350378188
 30
0.0
  0
SEQEND
  5
829
330
826
100
AcDbEntity
  8
0
 62
     7
370
     0
  0
POLYLINE
  5
82A
330
7DC
100
AcDbEntity
  8
0
 62
   254
370
     0
100
AcDb2dPolyline
 66
     1
 10
0.0
 20
0.0
 30
0.0
  0
VERTEX
  5
82B
330
82A
100
AcDbEntity
  8
0
 62
   254
370
     0
100
AcDbVertex
100
AcDb2dVertex
 10
160.2482247947522
 20
-13.54210350378188
 30
0.0
  0
VERTEX
  5
82C
330
82A
100
AcDbEntity
  8
0
 62
   254
370
     0
100
AcDbVertex
100
AcDb2dVertex
 10
172.5364298259617
 20
-13.54210350378188
 30
0.0
  0
SEQEND
  5
82D
330
82A
100
AcDbEntity
  8
0
 62
   254
370
     0
  0
POLYLINE
  5
82E
330
7DC
100
AcDbEntity
  8
0
 62
     7
370
     0
100
AcDb2dPolyline
 66
     1
 10
0.0
 20
0.0
 30
0.0
  0
VERTEX
  5
82F
330
82E
100
AcDbEntity
  8
0
 62
     7
370
     0
100
AcDbVertex
100
AcDb2dVertex
 10
0.2507796945144793
 20
-18.0561380050425
 30
0.0
  0
VERTEX
  5
830
330
82E
100
AcDbEntity
  8
0
 62
     7
370
     0
100
AcDbVertex
100
AcDb2dVertex
 10
66.20583935182253
 20
-18.0561380050425
 30
0.0
  0
SEQEND
  5
831
330
82E
100
AcDbEntity
  8
0
 62
     7
370
     0
  0
POLYLINE
  5
832
330
7DC
100
AcDbEntity
  8
0
 62
   254
370
     0
100
AcDb2dPolyline
 66
     1
 10
0.0
 20
0.0
 30
0.0
  0
VERTEX
  5
833
330
832
100
AcDbEntity
  8
0
 62
   254
370
     0
100
AcDbVertex
100
AcDb2dVertex
 10
160.2482247947522
 20
-18.0561380050425
 30
0.0
  0
VERTEX
  5
834
330
832
100
AcDbEntity
  8
0
 62
   254
370
     0
100
AcDbVertex
100
AcDb2dVertex
 10
172.5364298259617
 20
-18.0561380050425
 30
0.0
  0
SEQEND
  5
835
330
832
100
AcDbEntity
  8
0
 62
   254
370
     0
  0
POLYLINE
  5
836
330
7DC
100
AcDbEntity
  8
0
 62
   254
370
     0
100
AcDb2dPolyline
 66
     1
 10
0.0
 20
0.0
 30
0.0
  0
VERTEX
  5
837
330
836
100
AcDbEntity
  8
0
 62
   254
370
     0
100
AcDbVertex
100
AcDb2dVertex
 10
197.6143992774096
 20
-4.764814195775106
 30
0.0
  0
VERTEX
  5
838
330
836
100
AcDbEntity
  8
0
 62
   254
370
     0
100
AcDbVertex
100
AcDb2dVertex
 10
197.6143992774096
 20
-9.278848697035734
 30
0.0
  0
SEQEND
  5
839
330
836
100
AcDbEntity
  8
0
 62
   254
370
     0
  0
POLYLINE
  5
83A
330
7DC
100
AcDbEntity
  8
0
 62
   254
370
     0
100
AcDb2dPolyline
 66
     1
 10
0.0
 20
0.0
 30
0.0
  0
VERTEX
  5
83B
330
83A
100
AcDbEntity
  8
0
 62
   254
370
     0
100
AcDbVertex
100
AcDb2dVertex
 10
210.1533840031336
 20
-4.764814195775106
 30
0.0
  0
VERTEX
  5
83C
330
83A
100
AcDbEntity
  8
0
 62
   254
370
     0
100
AcDbVertex
100
AcDb2dVertex
 10
210.1533840031336
 20
-9.278848697035734
 30
0.0
  0
SEQEND
  5
83D
330
83A
100
AcDbEntity
  8
0
 62
   254
370
     0
  0
POLYLINE
  5
83E
330
7DC
100
AcDbEntity
  8
0
 62
   254
370
     0
100
AcDb2dPolyline
 66
     1
 10
0.0
 20
0.0
 30
0.0
  0
VERTEX
  5
83F
330
83E
100
AcDbEntity
  8
0
 62
   254
370
     0
100
AcDbVertex
100
AcDb2dVertex
 10
172.7872095204762
 20
-18.0561380050425
 30
0.0
  0
VERTEX
  5
840
330
83E
100
AcDbEntity
  8
0
 62
   254
370
     0
100
AcDbVertex
100
AcDb2dVertex
 10
222.6923687288576
 20
-18.0561380050425
 30
0.0
  0
SEQEND
  5
841
330
83E
100
AcDbEntity
  8
0
 62
   254
370
     0
  0
POLYLINE
  5
842
330
7DC
100
AcDbEntity
  8
0
 62
     7
370
     0
100
AcDb2dPolyline
 66
     1
 10
0.0
 20
0.0
 30
0.0
  0
VERTEX
  5
843
330
842
100
AcDbEntity
  8
0
 62
     7
370
     0
100
AcDbVertex
100
AcDb2dVertex
 10
0.0
 20
0.0
 30
0.0
  0
VERTEX
  5
844
330
842
100
AcDbEntity
  8
0
 62
     7
370
     0
100
AcDbVertex
100
AcDb2dVertex
 10
0.0
 20
-22.82095220081761
 30
0.0
  0
SEQEND
  5
845
330
842
100
AcDbEntity
  8
0
 62
     7
370
     0
  0
POLYLINE
  5
846
330
7DC
100
AcDbEntity
  8
0
 62
     7
370
     0
100
AcDb2dPolyline
 66
     1
 10
0.0
 20
0.0
 30
0.0
  0
VERTEX
  5
847
330
846
100
AcDbEntity
  8
0
 62
     7
370
     0
100
AcDbVertex
100
AcDb2dVertex
 10
22.06861311727418
 20
-4.764814195775106
 30
0.0
  0
VERTEX
  5
848
330
846
100
AcDbEntity
  8
0
 62
     7
370
     0
100
AcDbVertex
100
AcDb2dVertex
 10
22.06861311727418
 20
-22.82095220081761
 30
0.0
  0
SEQEND
  5
849
330
846
100
AcDbEntity
  8
0
 62
     7
370
     0
  0
POLYLINE
  5
84A
330
7DC
100
AcDbEntity
  8
0
 62
     7
370
     0
100
AcDb2dPolyline
 66
     1
 10
0.0
 20
0.0
 30
0.0
  0
VERTEX
  5
84B
330
84A
100
AcDbEntity
  8
0
 62
     7
370
     0
100
AcDbVertex
100
AcDb2dVertex
 10
44.13722623454836
 20
-0.2507796945144793
 30
0.0
  0
VERTEX
  5
84C
330
84A
100
AcDbEntity
  8
0
 62
     7
370
     0
100
AcDbVertex
100
AcDb2dVertex
 10
44.13722623454836
 20
-22.82095220081761
 30
0.0
  0
SEQEND
  5
84D
330
84A
100
AcDbEntity
  8
0
 62
     7
370
     0
  0
POLYLINE
  5
84E
330
7DC
100
AcDbEntity
  8
0
 62
     7
370
     0
100
AcDb2dPolyline
 66
     1
 10
0.0
 20
0.0
 30
0.0
  0
VERTEX
  5
84F
330
84E
100
AcDbEntity
  8
0
 62
     7
370
     0
100
AcDbVertex
100
AcDb2dVertex
 10
51.40983737546825
 20
-0.2507796945144793
 30
0.0
  0
VERTEX
  5
850
330
84E
100
AcDbEntity
  8
0
 62
     7
370
     0
100
AcDbVertex
100
AcDb2dVertex
 10
51.40983737546825
 20
-4.764814195775106
 30
0.0
  0
SEQEND
  5
851
330
84E
100
AcDbEntity
  8
0
 62
     7
370
     0
  0
POLYLINE
  5
852
330
7DC
100
AcDbEntity
  8
0
 62
     7
370
     0
100
AcDb2dPolyline
 66
     1
 10
0.0
 20
0.0
 30
0.0
  0
VERTEX
  5
853
330
852
100
AcDbEntity
  8
0
 62
     7
370
     0
100
AcDbVertex
100
AcDb2dVertex
 10
58.68244851638816
 20
-0.2507796945144793
 30
0.0
  0
VERTEX
  5
854
330
852
100
AcDbEntity
  8
0
 62
     7
370
     0
100
AcDbVertex
100
AcDb2dVertex
 10
58.68244851638816
 20
-4.764814195775106
 30
0.0
  0
SEQEND
  5
855
330
852
100
AcDbEntity
  8
0
 62
     7
370
     0
  0
POLYLINE
  5
856
330
7DC
100
AcDbEntity
  8
0
 62
     7
370
     0
100
AcDb2dPolyline
 66
     1
 10
0.0
 20
0.0
 30
0.0
  0
VERTEX
  5
857
330
856
100
AcDbEntity
  8
0
 62
     7
370
     0
100
AcDbVertex
100
AcDb2dVertex
 10
65.95505965730805
 20
-0.2507796945144793
 30
0.0
  0
VERTEX
  5
858
330
856
100
AcDbEntity
  8
0
 62
     7
370
     0
100
AcDbVertex
100
AcDb2dVertex
 10
65.95505965730805
 20
-22.82095220081761
 30
0.0
  0
SEQEND
  5
859
330
856
100
AcDbEntity
  8
0
 62
     7
370
     0
  0
POLYLINE
  5
85A
330
7DC
100
AcDbEntity
  8
0
 62
     7
370
     0
100
AcDb2dPolyline
 66
     1
 10
0.0
 20
0.0
 30
0.0
  0
VERTEX
  5
85B
330
85A
100
AcDbEntity
  8
0
 62
     7
370
     0
100
AcDbVertex
100
AcDb2dVertex
 10
74.23078957628587
 20
-4.764814195775106
 30
0.0
  0
VERTEX
  5
85C
330
85A
100
AcDbEntity
  8
0
 62
     7
370
     0
100
AcDbVertex
100
AcDb2dVertex
 10
74.23078957628587
 20
-13.79288319829636
 30
0.0
  0
SEQEND
  5
85D
330
85A
100
AcDbEntity
  8
0
 62
     7
370
     0
  0
POLYLINE
  5
85E
330
7DC
100
AcDbEntity
  8
0
 62
     7
370
     0
100
AcDb2dPolyline
 66
     1
 10
0.0
 20
0.0
 30
0.0
  0
VERTEX
  5
85F
330
85E
100
AcDbEntity
  8
0
 62
     7
370
     0
100
AcDbVertex
100
AcDb2dVertex
 10
86.76977430200983
 20
-0.2507796945144793
 30
0.0
  0
VERTEX
  5
860
330
85E
100
AcDbEntity
  8
0
 62
     7
370
     0
100
AcDbVertex
100
AcDb2dVertex
 10
86.76977430200983
 20
-4.764814195775106
 30
0.0
  0
SEQEND
  5
861
330
85E
100
AcDbEntity
  8
0
 62
     7
370
     0
  0
POLYLINE
  5
862
330
7DC
100
AcDbEntity
  8
0
 62
     7
370
     0
100
AcDb2dPolyline
 66
     1
 10
0.0
 20
0.0
 30
0.0
  0
VERTEX
  5
863
330
862
100
AcDbEntity
  8
0
 62
     7
370
     0
100
AcDbVertex
100
AcDb2dVertex
 10
97.80408086064692
 20
-0.2507796945144793
 30
0.0
  0
VERTEX
  5
864
330
862
100
AcDbEntity
  8
0
 62
     7
370
     0
100
AcDbVertex
100
AcDb2dVertex
 10
97.80408086064692
 20
-4.764814195775106
 30
0.0
  0
SEQEND
  5
865
330
862
100
AcDbEntity
  8
0
 62
     7
370
     0
  0
POLYLINE
  5
866
330
7DC
100
AcDbEntity
  8
0
 62
     7
370
     0
100
AcDb2dPolyline
 66
     1
 10
0.0
 20
0.0
 30
0.0
  0
VERTEX
  5
867
330
866
100
AcDbEntity
  8
0
 62
     7
370
     0
100
AcDbVertex
100
AcDb2dVertex
 10
108.5876077247695
 20
-0.2507796945144793
 30
0.0
  0
VERTEX
  5
868
330
866
100
AcDbEntity
  8
0
 62
     7
370
     0
100
AcDbVertex
100
AcDb2dVertex
 10
108.5876077247695
 20
-13.79288319829636
 30
0.0
  0
SEQEND
  5
869
330
866
100
AcDbEntity
  8
0
 62
     7
370
     0
  0
POLYLINE
  5
86A
330
7DC
100
AcDbEntity
  8
0
 62
     7
370
     0
100
AcDb2dPolyline
 66
     1
 10
0.0
 20
0.0
 30
0.0
  0
VERTEX
  5
86B
330
86A
100
AcDbEntity
  8
0
 62
     7
370
     0
100
AcDbVertex
100
AcDb2dVertex
 10
118.3680158108342
 20
-0.2507796945144793
 30
0.0
  0
VERTEX
  5
86C
330
86A
100
AcDbEntity
  8
0
 62
     7
370
     0
100
AcDbVertex
100
AcDb2dVertex
 10
118.3680158108342
 20
-13.79288319829636
 30
0.0
  0
SEQEND
  5
86D
330
86A
100
AcDbEntity
  8
0
 62
     7
370
     0
  0
POLYLINE
  5
86E
330
7DC
100
AcDbEntity
  8
0
 62
     7
370
     0
100
AcDb2dPolyline
 66
     1
 10
0.0
 20
0.0
 30
0.0
  0
VERTEX
  5
86F
330
86E
100
AcDbEntity
  8
0
 62
     7
370
     0
100
AcDbVertex
100
AcDb2dVertex
 10
134.4179162597609
 20
-0.2507796945144793
 30
0.0
  0
VERTEX
  5
870
330
86E
100
AcDbEntity
  8
0
 62
     7
370
     0
100
AcDbVertex
100
AcDb2dVertex
 10
134.4179162597609
 20
-4.764814195775106
 30
0.0
  0
SEQEND
  5
871
330
86E
100
AcDbEntity
  8
0
 62
     7
370
     0
  0
POLYLINE
  5
872
330
7DC
100
AcDbEntity
  8
0
 62
     7
370
     0
100
AcDb2dPolyline
 66
     1
 10
0.0
 20
0.0
 30
0.0
  0
VERTEX
  5
873
330
872
100
AcDbEntity
  8
0
 62
     7
370
     0
100
AcDbVertex
100
AcDb2dVertex
 10
144.1983243458255
 20
-0.2507796945144793
 30
0.0
  0
VERTEX
  5
874
330
872
100
AcDbEntity
  8
0
 62
     7
370
     0
100
AcDbVertex
100
AcDb2dVertex
 10
144.1983243458255
 20
-4.764814195775106
 30
0.0
  0
SEQEND
  5
875
330
872
100
AcDbEntity
  8
0
 62
     7
370
     0
  0
POLYLINE
  5
876
330
7DC
100
AcDbEntity
  8
0
 62
     7
370
     0
100
AcDb2dPolyline
 66
     1
 10
0.0
 20
0.0
 30
0.0
  0
VERTEX
  5
877
330
876
100
AcDbEntity
  8
0
 62
     7
370
     0
100
AcDbVertex
100
AcDb2dVertex
 10
159.9974451002378
 20
-0.2507796945144793
 30
0.0
  0
VERTEX
  5
878
330
876
100
AcDbEntity
  8
0
 62
     7
370
     0
100
AcDbVertex
100
AcDb2dVertex
 10
159.9974451002378
 20
-22.82095220081761
 30
0.0
  0
SEQEND
  5
879
330
876
100
AcDbEntity
  8
0
 62
     7
370
     0
  0
POLYLINE
  5
87A
330
7DC
100
AcDbEntity
  8
0
 62
     7
370
     0
100
AcDb2dPolyline
 66
     1
 10
0.0
 20
0.0
 30
0.0
  0
VERTEX
  5
87B
330
87A
100
AcDbEntity
  8
0
 62
     7
370
     0
100
AcDbVertex
100
AcDb2dVertex
 10
172.5364298259617
 20
-0.2507796945144793
 30
0.0
  0
VERTEX
  5
87C
330
87A
100
AcDbEntity
  8
0
 62
     7
370
     0
100
AcDbVertex
100
AcDb2dVertex
 10
172.5364298259617
 20
-22.82095220081761
 30
0.0
  0
SEQEND
  5
87D
330
87A
100
AcDbEntity
  8
0
 62
     7
370
     0
  0
POLYLINE
  5
87E
330
7DC
100
AcDbEntity
  8
0
 62
   254
370
     0
100
AcDb2dPolyline
 66
     1
 10
0.0
 20
0.0
 30
0.0
  0
VERTEX
  5
87F
330
87E
100
AcDbEntity
  8
0
 62
   254
370
     0
100
AcDbVertex
100
AcDb2dVertex
 10
197.6143992774096
 20
-18.30691769955699
 30
0.0
  0
VERTEX
  5
880
330
87E
100
AcDbEntity
  8
0
 62
   254
370
     0
100
AcDbVertex
100
AcDb2dVertex
 10
197.6143992774096
 20
-22.57017250630313
 30
0.0
  0
SEQEND
  5
881
330
87E
100
AcDbEntity
  8
0
 62
   254
370
     0
  0
POLYLINE
  5
882
330
7DC
100
AcDbEntity
  8
0
 62
   254
370
     0
100
AcDb2dPolyline
 66
     1
 10
0.0
 20
0.0
 30
0.0
  0
VERTEX
  5
883
330
882
100
AcDbEntity
  8
0
 62
   254
370
     0
100
AcDbVertex
100
AcDb2dVertex
 10
210.1533840031336
 20
-18.30691769955699
 30
0.0
  0
VERTEX
  5
884
330
882
100
AcDbEntity
  8
0
 62
   254
370
     0
100
AcDbVertex
100
AcDb2dVertex
 10
210.1533840031336
 20
-22.57017250630313
 30
0.0
  0
SEQEND
  5
885
330
882
100
AcDbEntity
  8
0
 62
   254
370
     0
  0
POLYLINE
  5
886
330
7DC
100
AcDbEntity
  8
0
 62
     7
370
     0
100
AcDb2dPolyline
 66
     1
 10
0.0
 20
0.0
 30
0.0
  0
VERTEX
  5
887
330
886
100
AcDbEntity
  8
0
 62
     7
370
     0
100
AcDbVertex
100
AcDb2dVertex
 10
0.2507796945144793
 20
-22.57017250630313
 30
0.0
  0
VERTEX
  5
888
330
886
100
AcDbEntity
  8
0
 62
     7
370
     0
100
AcDbVertex
100
AcDb2dVertex
 10
222.9431484233721
 20
-22.57017250630313
 30
0.0
  0
SEQEND
  5
889
330
886
100
AcDbEntity
  8
0
 62
     7
370
     0
  0
POLYLINE
  5
88A
330
7DC
100
AcDbEntity
  8
0
 62
     7
370
     0
100
AcDb2dPolyline
 66
     1
 10
0.0
 20
0.0
 30
0.0
  0
VERTEX
  5
88B
330
88A
100
AcDbEntity
  8
0
 62
     7
370
     0
100
AcDbVertex
100
AcDb2dVertex
 10
222.6923687288576
 20
-0.2507796945144793
 30
0.0
  0
VERTEX
  5
88C
330
88A
100
AcDbEntity
  8
0
 62
     7
370
     0
100
AcDbVertex
100
AcDb2dVertex
 10
222.6923687288576
 20
-22.82095220081761
 30
0.0
  0
SEQEND
  5
88D
330
88A
100
AcDbEntity
  8
0
 62
     7
370
     0
  0
ENDBLK
  5
88E
330
7DC
100
AcDbEntity
  8
0
 62
     0
370
     0
100
AcDbBlockEnd
  0
BLOCK
  5
A4C
330
A42
100
AcDbEntity
  8
0
100
AcDbBlockBegin
  2
*D17
 70
     1
 10
0.0
 20
0.0
 30
0.0
  3
*D17
  1

  0
LINE
  5
A58
330
A42
100
AcDbEntity
  8
BYLAYER
 62
     0
370
    -2
100
AcDbLine
 10
-18.857356
 20
600.5415229999999
 30
0.0
 11
-18.85735599999999
 21
702.2749210315128
 31
0.0
  0
LINE
  5
A59
330
A42
100
AcDbEntity
  8
BYLAYER
 62
     0
370
    -2
100
AcDbLine
 10
429.897091
 20
600.5415229999999
 30
0.0
 11
429.897091
 21
702.2749210315128
 31
0.0
  0
LINE
  5
A5A
330
A42
100
AcDbEntity
  8
BYLAYER
 62
     0
370
    -2
100
AcDbLine
 10
-7.072845999999993
 20
690.4904110315128
 30
0.0
 11
418.112581
 21
690.4904110315128
 31
0.0
  0
INSERT
  5
A5B
330
A42
100
AcDbEntity
  8
BYLAYER
 62
     0
370
    -2
100
AcDbBlockReference
  2
_OPEN
 10
-18.85735599999999
 20
690.4904110315128
 30
0.0
 41
11.78450999999999
 42
11.78450999999999
 43
11.78450999999999
 50
180.0
  0
INSERT
  5
A5C
330
A42
100
AcDbEntity
  8
BYLAYER
 62
     0
370
    -2
100
AcDbBlockReference
  2
_OPEN
 10
429.897091
 20
690.4904110315128
 30
0.0
 41
11.78450999999999
 42
11.78450999999999
 43
11.78450999999999
  0
MTEXT
  5
A5D
330
A42
100
AcDbEntity
  8
BYLAYER
 62
     0
100
AcDbMText
 10
205.5198675
 20
697.5611170315128
 30
0.0
 40
9.427607999999999
 41
0.0
 71
     5
 72
     1
  1
\A1;455
 73
     1
 44
1.0
  0
POINT
  5
A5E
330
A42
100
AcDbEntity
  8
DEFPOINTS
 62
     0
100
AcDbPoint
 10
-18.857356
 20
588.757013
 30
0.0
  0
POINT
  5
A5F
330
A42
100
AcDbEntity
  8
DEFPOINTS
 62
     0
100
AcDbPoint
 10
429.897091
 20
588.757013
 30
0.0
  0
POINT
  5
A60
330
A42
100
AcDbEntity
  8
DEFPOINTS
 62
     0
100
AcDbPoint
 10
429.897091
 20
690.4904110315128
 30
0.0
  0
ENDBLK
  5
A4D
330
A42
100
AcDbEntity
  8
0
100
AcDbBlockEnd
  0
BLOCK
  5
ABF
330
AB5
100
AcDbEntity
  8
0
100
AcDbBlockBegin
  2
*D18
 70
     1
 10
0.0
 20
0.0
 30
0.0
  3
*D18
  1

  0
LINE
  5
AC1
330
AB5
100
AcDbEntity
  8
0
 62
     0
370
    -2
100
AcDbLine
 10
371.317549
 20
169.1964299999999
 30
0.0
 11
471.3911659999999
 21
169.1964299999999
 31
0.0
  0
LINE
  5
AC2
330
AB5
100
AcDbEntity
  8
0
 62
     0
370
    -2
100
AcDbLine
 10
417.4484891195969
 20
278.8920467651529
 30
0.0
 11
471.3911659999999
 21
278.8920467651529
 31
0.0
  0
LINE
  5
AC3
330
AB5
100
AcDbEntity
  8
0
 62
     0
370
    -2
100
AcDbLine
 10
459.6066559999999
 20
180.9809399999999
 30
0.0
 11
459.6066559999999
 21
267.1075367651529
 31
0.0
  0
INSERT
  5
AC4
330
AB5
100
AcDbEntity
  8
0
 62
     0
370
    -2
100
AcDbBlockReference
  2
_OPEN
 10
459.6066559999999
 20
169.1964299999999
 30
0.0
 41
11.78450999999999
 42
11.78450999999999
 43
11.78450999999999
 50
270.0
  0
INSERT
  5
AC5
330
AB5
100
AcDbEntity
  8
0
 62
     0
370
    -2
100
AcDbBlockReference
  2
_OPEN
 10
459.6066559999999
 20
278.8920467651529
 30
0.0
 41
11.78450999999999
 42
11.78450999999999
 43
11.78450999999999
 50
90.0
  0
MTEXT
  5
AC6
330
AB5
100
AcDbEntity
  8
0
 62
     0
100
AcDbMText
 10
452.5359499999999
 20
224.0442383825765
 30
0.0
 40
9.427607999999999
 41
0.0
 71
     5
 72
     1
  1
\A1;100
 11
0.0000000000000001
 21
1.0
 31
0.0
 73
     1
 44
1.0
  0
POINT
  5
AC7
330
AB5
100
AcDbEntity
  8
DEFPOINTS
 62
     0
100
AcDbPoint
 10
359.533039
 20
169.1964299999999
 30
0.0
  0
POINT
  5
AC8
330
AB5
100
AcDbEntity
  8
DEFPOINTS
 62
     0
100
AcDbPoint
 10
405.6639791195969
 20
278.8920467651529
 30
0.0
  0
POINT
  5
AC9
330
AB5
100
AcDbEntity
  8
DEFPOINTS
 62
     0
100
AcDbPoint
 10
459.6066559999999
 20
278.8920467651529
 30
0.0
  0
ENDBLK
  5
AC0
330
AB5
100
AcDbEntity
  8
0
100
AcDbBlockEnd
  0
ENDSEC
  0
SECTION
  2
ENTITIES
  0
LINE
  5
F0
330
18
100
AcDbEntity
  8
BYLAYER
100
AcDbLine
 10
23.569024
 20
660.0
 30
0.0
 11
101.0
 21
660.0
 31
0.0
  0
LINE
  5
F1
330
18
100
AcDbEntity
  8
BYLAYER
100
AcDbLine
 10
0.0
 20
636.430976
 30
0.0
 11
0.0
 21
579.0
 31
0.0
  0
LINE
  5
F2
330
18
100
AcDbEntity
  8
BYLAYER
100
AcDbLine
 10
388.440108
 20
660.0
 30
0.0
 11
318.0
 21
660.0
 31
0.0
  0
LINE
  5
F4
330
18
100
AcDbEntity
  8
BYLAYER
100
AcDbLine
 10
140.0
 20
410.0
 30
0.0
 11
260.0
 21
410.0
 31
0.0
  0
LINE
  5
F5
330
18
100
AcDbEntity
  8
BYLAYER
100
AcDbLine
 10
23.569024
 20
410.0
 30
0.0
 11
120.0
 21
410.0
 31
0.0
  0
LINE
  5
F7
330
18
100
AcDbEntity
  8
BYLAYER
100
AcDbLine
 10
0.0
 20
433.5690239999999
 30
0.0
 11
0.0
 21
500.0
 31
0.0
  0
LINE
  5
F9
330
18
100
AcDbEntity
  8
BYLAYER
100
AcDbLine
 10
283.0
 20
410.0
 30
0.0
 11
388.4309759999999
 21
410.0
 31
0.0
  0
LINE
  5
FA
330
18
100
AcDbEntity
  8
BYLAYER
100
AcDbLine
 10
412.0
 20
433.5690239999999
 30
0.0
 11
412.0
 21
525.0
 31
0.0
  0
ARC
  5
FB
330
18
100
AcDbEntity
  8
BYLAYER
100
AcDbCircle
 10
23.569024
 20
433.5690239999999
 30
0.0
 40
23.569024
100
AcDbArc
 50
180.0
 51
270.0
  0
ARC
  5
FC
330
18
100
AcDbEntity
  8
BYLAYER
100
AcDbCircle
 10
23.569024
 20
636.430976
 30
0.0
 40
23.569024
100
AcDbArc
 50
90.0
 51
180.0
  0
ARC
  5
FE
330
18
100
AcDbEntity
  8
BYLAYER
100
AcDbCircle
 10
388.4309759999999
 20
433.5690239999999
 30
0.0
 40
23.569024
100
AcDbArc
 50
270.0
 51
0.0
  0
LINE
  5
106
330
18
100
AcDbEntity
  8
BYLAYER
100
AcDbLine
 10
12.0
 20
499.0
 30
0.0
 11
12.0
 21
443.569024
 31
0.0
  0
LINE
  5
107
330
18
100
AcDbEntity
  8
BYLAYER
100
AcDbLine
 10
35.569024
 20
420.0
 30
0.0
 11
120.0
 21
420.0
 31
0.0
  0
ARC
  5
108
330
18
100
AcDbEntity
  8
BYLAYER
100
AcDbCircle
 10
35.569024
 20
443.569024
 30
0.0
 40
23.569024
100
AcDbArc
 50
180.0
 51
270.0
  0
LINE
  5
109
330
18
100
AcDbEntity
  8
BYLAYER
100
AcDbLine
 10
300.0
 20
420.0
 30
0.0
 11
375.4309759999999
 21
420.0
 31
0.0
  0
LINE
  5
10A
330
18
100
AcDbEntity
  8
BYLAYER
100
AcDbLine
 10
399.0
 20
520.0
 30
0.0
 11
399.0
 21
443.569024
 31
0.0
  0
ARC
  5
10B
330
18
100
AcDbEntity
  8
BYLAYER
100
AcDbCircle
 10
375.4309759999999
 20
443.569024
 30
0.0
 40
23.569024
100
AcDbArc
 50
270.0
 51
0.0
  0
LINE
  5
10D
330
18
100
AcDbEntity
  8
BYLAYER
100
AcDbLine
 10
100.0
 20
649.0
 30
0.0
 11
300.0
 21
649.0
 31
0.0
  0
LINE
  5
10E
330
18
100
AcDbEntity
  8
BYLAYER
100
AcDbLine
 10
307.0
 20
649.0
 30
0.0
 11
339.6414939999999
 21
649.0
 31
0.0
  0
LINE
  5
10F
330
18
100
AcDbEntity
  8
BYLAYER
100
AcDbLine
 10
399.0
 20
527.0
 30
0.0
 11
399.0
 21
591.0
 31
0.0
  0
LINE
  5
110
330
18
100
AcDbEntity
  8
BYLAYER
100
AcDbLine
 10
399.0
 20
598.0
 30
0.0
 11
399.0
 21
625.325817
 31
0.0
  0
LINE
  5
112
330
18
100
AcDbEntity
  8
BYLAYER
100
AcDbLine
 10
35.82116099999999
 20
649.0
 30
0.0
 11
339.6414939999999
 21
649.0
 31
0.0
  0
LINE
  5
116
330
18
100
AcDbEntity
  8
BYLAYER
100
AcDbLine
 10
0.5860770000000001
 20
579.4374769999999
 30
0.0
 11
0.5860770000000001
 21
495.561668
 31
0.0
  0
LINE
  5
118
330
18
100
AcDbEntity
  8
BYLAYER
100
AcDbLine
 10
105.5806189999999
 20
420.2287639999999
 30
0.0
 11
303.9036419999999
 21
420.2287639999999
 31
0.0
  0
LINE
  5
119
330
18
100
AcDbEntity
  8
BYLAYER
100
AcDbLine
 10
98.58098400000001
 20
410.132602
 30
0.0
 11
287.571156
 21
410.132602
 31
0.0
  0
LINE
  5
11B
330
18
100
AcDbEntity
  8
BYLAYER
100
AcDbLine
 10
398.787597
 20
605.8428259999999
 30
0.0
 11
398.787597
 21
491.678528
 31
0.0
  0
LINE
  5
11C
330
18
100
AcDbEntity
  8
BYLAYER
100
AcDbLine
 10
412.009131
 20
512.6474809999999
 30
0.0
 11
412.009131
 21
636.430976
 31
0.0
  0
LINE
  5
11D
330
18
100
AcDbEntity
  8
BYLAYER
100
AcDbLine
 10
12.252138
 20
499.4448059999999
 30
0.0
 11
12.252138
 21
625.4309759999999
 31
0.0
  0
ARC
  5
11E
330
18
100
AcDbEntity
  8
BYLAYER
100
AcDbCircle
 10
35.82116099999999
 20
625.4309759999999
 30
0.0
 40
23.569024
100
AcDbArc
 50
90.0
 51
180.0
  0
LINE
  5
11F
330
18
100
AcDbEntity
  8
BYLAYER
100
AcDbLine
 10
240.9069169999999
 20
599.6298019999999
 30
0.0
 11
80.693025
 21
599.6298019999999
 31
0.0
  0
LINE
  5
120
330
18
100
AcDbEntity
  8
BYLAYER
100
AcDbLine
 10
240.129179
 20
591.086896
 30
0.0
 11
79.137551
 21
591.086896
 31
0.0
  0
LINE
  5
121
330
18
100
AcDbEntity
  8
BYLAYER
100
AcDbLine
 10
240.129179
 20
471.4862039999999
 30
0.0
 11
79.915287
 21
471.4862039999999
 31
0.0
  0
LINE
  5
122
330
18
100
AcDbEntity
  8
BYLAYER
100
AcDbLine
 10
239.351443
 20
480.0291099999999
 30
0.0
 11
79.915287
 21
480.0291099999999
 31
0.0
  0
LINE
  5
123
330
18
100
AcDbEntity
  8
BYLAYER
100
AcDbLine
 10
199.6868389999999
 20
560.0217809999999
 30
0.0
 11
79.137551
 21
560.0217809999999
 31
0.0
  0
LINE
  5
124
330
18
100
AcDbEntity
  8
BYLAYER
100
AcDbLine
 10
198.9091009999999
 20
550.7022469999999
 30
0.0
 11
80.693025
 21
550.7022469999999
 31
0.0
  0
LINE
  5
125
330
18
100
AcDbEntity
  8
BYLAYER
100
AcDbLine
 10
199.6868389999999
 20
510.317598
 30
0.0
 11
79.915287
 21
510.317598
 31
0.0
  0
LINE
  5
126
330
18
100
AcDbEntity
  8
BYLAYER
100
AcDbLine
 10
198.9091009999999
 20
520.4137599999999
 30
0.0
 11
79.915287
 21
520.4137599999999
 31
0.0
  0
ARC
  5
127
330
18
100
AcDbEntity
  8
BYLAYER
100
AcDbCircle
 10
79.137551
 20
575.554338
 30
0.0
 40
15.532557
100
AcDbArc
 50
90.0
 51
270.0
  0
ARC
  5
128
330
18
100
AcDbEntity
  8
BYLAYER
100
AcDbCircle
 10
80.693025
 20
575.1660249999999
 30
0.0
 40
24.463778
100
AcDbArc
 50
90.0
 51
270.0
  0
ARC
  5
129
330
18
100
AcDbEntity
  8
BYLAYER
100
AcDbCircle
 10
198.9091009999999
 20
535.5580029999999
 30
0.0
 40
15.144244
100
AcDbArc
 50
270.0
 51
90.0
  0
ARC
  5
12A
330
18
100
AcDbEntity
  8
BYLAYER
100
AcDbCircle
 10
199.6868389999999
 20
535.1696889999999
 30
0.0
 40
24.852092
100
AcDbArc
 50
270.0
 51
90.0
  0
ARC
  5
12B
330
18
100
AcDbEntity
  8
BYLAYER
100
AcDbCircle
 10
79.915287
 20
495.173354
 30
0.0
 40
15.144244
100
AcDbArc
 50
90.0
 51
270.0
  0
ARC
  5
12C
330
18
100
AcDbEntity
  8
BYLAYER
100
AcDbCircle
 10
79.915287
 20
495.949982
 30
0.0
 40
24.463778
100
AcDbArc
 50
90.0
 51
270.0
  0
LWPOLYLINE
  5
12D
330
18
100
AcDbEntity
  8
BYLAYER
100
AcDbPolyline
 90
        4
 70
     1
 43
0.0
 10
240.9069169999999
 20
599.6298019999999
 10
259.572612
 20
599.6298019999999
 10
259.572612
 20
591.086896
 10
240.9069169999999
 20
591.086896
  0
LWPOLYLINE
  5
12E
330
18
100
AcDbEntity
  8
BYLAYER
100
AcDbPolyline
 90
        4
 70
     1
 43
0.0
 10
240.9069169999999
 20
480.0291099999999
 10
259.572612
 20
480.0291099999999
 10
259.572612
 20
471.4862039999999
 10
240.9069169999999
 20
471.4862039999999
  0
LWPOLYLINE
  5
12F
330
18
100
AcDbEntity
  8
BYLAYER
100
AcDbPolyline
 90
        4
 70
     1
 43
0.0
 10
50.361269
 20
609.7259639999999
 10
240.9069169999999
 20
609.7259639999999
 10
240.9069169999999
 20
460.613413
 10
50.361269
 20
460.613413
  0
ELLIPSE
  5
130
330
18
100
AcDbEntity
  8
BYLAYER
100
AcDbEllipse
 10
334.2353979999999
 20
534.393062
 30
0.0
 11
0.0
 21
-55.91720657560291
 31
0.0
210
0.0
220
0.0
230
1.0
 40
0.055635
 41
0.0
 42
6.283185307179585
  0
LWPOLYLINE
  5
131
330
18
100
AcDbEntity
  8
BYLAYER
100
AcDbPolyline
 90
        4
 70
     1
 43
0.0
 10
320.2361259999999
 20
599.6298019999999
 10
349.790144
 20
599.6298019999999
 10
349.790144
 20
471.4862039999999
 10
320.2361259999999
 20
471.4862039999999
  0
LINE
  5
132
330
18
100
AcDbEntity
  8
BYLAYER
100
AcDbLine
 10
324.902549
 20
599.6298019999999
 30
0.0
 11
324.902549
 21
471.4862039999999
 31
0.0
  0
LINE
  5
133
330
18
100
AcDbEntity
  8
BYLAYER
100
AcDbLine
 10
345.1237209999999
 20
599.6298019999999
 30
0.0
 11
345.1237209999999
 21
471.4862039999999
 31
0.0
  0
LWPOLYLINE
  5
134
330
18
100
AcDbEntity
  8
BYLAYER
100
AcDbPolyline
 90
        4
 70
     1
 43
0.0
 10
16.140826
 20
539.8294559999999
 10
394.1211739999999
 20
539.8294559999999
 10
394.1211739999999
 20
538.2762
 10
16.140826
 20
538.2762
  0
LWPOLYLINE
  5
135
330
18
100
AcDbEntity
  8
BYLAYER
100
AcDbPolyline
 90
        4
 70
     1
 43
0.0
 10
205.1309999999999
 20
644.674219
 10
206.686473
 20
644.674219
 10
206.686473
 20
425.6651589999999
 10
205.1309999999999
 20
425.6651589999999
  0
LWPOLYLINE
  5
136
330
18
100
AcDbEntity
  8
BYLAYER
100
AcDbPolyline
 90
        4
 70
     1
 43
0.0
 10
412.7868689999999
 20
588.757013
 10
429.897091
 20
588.757013
 10
429.897091
 20
480.0291099999999
 10
412.7868689999999
 20
480.0291099999999
  0
LWPOLYLINE
  5
139
330
18
100
AcDbEntity
  8
BYLAYER
100
AcDbPolyline
 90
        4
 70
     1
 43
0.0
 10
1.363814999999999
 20
588.757013
 10
-18.857356
 20
588.757013
 10
-18.857356
 20
480.0291099999999
 10
1.363814999999999
 20
480.0291099999999
  0
ARC
  5
13A
330
18
100
AcDbEntity
  8
BYLAYER
100
AcDbCircle
 10
388.440108
 20
636.430976
 30
0.0
 40
23.569024
100
AcDbArc
 50
0.0
 51
90.0
  0
DIMENSION
  5
147
330
18
100
AcDbEntity
  8
BYLAYER
100
AcDbDimension
  2
*D2
 10
459.6066559999999
 20
420.2287639999998
 30
0.0
 11
452.5359499999999
 21
534.3930610000001
 31
0.0
 70
    32
  1
225
 71
     5
 42
228.3285940000001
  3
STANDARD_WS
100
AcDbAlignedDimension
 13
381.0551849999999
 23
648.557358
 33
0.0
 14
381.0551849999999
 24
420.2287639999999
 34
0.0
 50
90.0
100
AcDbRotatedDimension
  0
DIMENSION
  5
154
330
18
100
AcDbEntity
  8
BYLAYER
100
AcDbDimension
  2
*D3
 10
489.938412
 20
410.132602
 30
0.0
 11
482.867706
 21
534.7813755000002
 31
0.0
 70
    32
  1
252
 71
     5
 42
249.297547
  3
STANDARD_WS
100
AcDbAlignedDimension
 13
392.721246
 23
659.430149
 33
0.0
 14
392.721246
 24
410.132602
 34
0.0
 50
90.0
100
AcDbRotatedDimension
  0
DIMENSION
  5
161
330
18
100
AcDbEntity
  8
BYLAYER
100
AcDbDimension
  2
*D4
 10
398.787597
 20
380.3877529999999
 30
0.0
 11
205.5198675
 21
387.4584589999999
 31
0.0
 70
    32
  1
394
 71
     5
 42
386.5354589999999
  3
STANDARD_WS
100
AcDbAlignedDimension
 13
12.252138
 23
440.1881
 33
0.0
 14
398.787597
 24
440.1881
 34
0.0
100
AcDbRotatedDimension
  0
DIMENSION
  5
16E
330
18
100
AcDbEntity
  8
BYLAYER
100
AcDbDimension
  2
*D5
 10
412.009131
 20
349.3226379999999
 30
0.0
 11
206.297604
 21
356.3933439999999
 31
0.0
 70
    32
  1
422
 71
     5
 42
411.423054
  3
STANDARD_WS
100
AcDbAlignedDimension
 13
0.5860770000000001
 23
427.7620549999999
 33
0.0
 14
412.009131
 24
427.7620549999999
 34
0.0
100
AcDbRotatedDimension
  0
LINE
  5
1A6
330
18
100
AcDbEntity
  8
BYLAYER
100
AcDbLine
 10
1.901638
 20
279.000775
 30
0.0
 11
410.991481
 21
279.000775
 31
0.0
  0
LINE
  5
1A7
330
18
100
AcDbEntity
  8
BYLAYER
100
AcDbLine
 10
1.901638
 20
268.904611
 30
0.0
 11
410.991481
 21
268.904611
 31
0.0
  0
LINE
  5
1A8
330
18
100
AcDbEntity
  8
BYLAYER
100
AcDbLine
 10
410.991481
 20
268.904611
 30
0.0
 11
410.991481
 21
112.427712
 31
0.0
  0
LINE
  5
1AA
330
18
100
AcDbEntity
  8
BYLAYER
100
AcDbLine
 10
1.901638
 20
112.129221
 30
0.0
 11
1.901638
 21
268.519924
 31
0.0
  0
LINE
  5
1AB
330
18
100
AcDbEntity
  8
BYLAYER
100
AcDbLine
 10
400.880896
 20
112.129221
 30
0.0
 11
394.658997
 21
95.87078100000001
 31
0.0
  0
LINE
  5
1AC
330
18
100
AcDbEntity
  8
BYLAYER
100
AcDbLine
 10
394.658997
 20
95.87078100000001
 30
0.0
 11
377.5487749999999
 21
95.87078100000001
 31
0.0
  0
LINE
  5
1AD
330
18
100
AcDbEntity
  8
BYLAYER
100
AcDbLine
 10
377.5487749999999
 20
95.87078100000001
 30
0.0
 11
371.3268759999999
 21
112.129221
 31
0.0
  0
LINE
  5
1B4
330
18
100
AcDbEntity
  8
BYLAYER
100
AcDbLine
 10
35.344346
 20
95.09656899999999
 30
0.0
 11
18.23412399999999
 21
95.09656899999999
 31
0.0
  0
LINE
  5
1B5
330
18
100
AcDbEntity
  8
BYLAYER
100
AcDbLine
 10
18.23412399999999
 20
95.09656899999999
 30
0.0
 11
12.012225
 21
111.355009
 31
0.0
  0
LINE
  5
1B6
330
18
100
AcDbEntity
  8
BYLAYER
100
AcDbLine
 10
41.566245
 20
111.355009
 30
0.0
 11
35.344346
 21
95.09656899999999
 31
0.0
  0
LINE
  5
1B7
330
18
100
AcDbEntity
  8
BYLAYER
100
AcDbLine
 10
411.217023
 20
269.106534
 30
0.0
 11
431.360421
 21
269.106534
 31
0.0
  0
LINE
  5
1B8
330
18
100
AcDbEntity
  8
BYLAYER
100
AcDbLine
 10
431.360421
 20
269.106534
 30
0.0
 11
431.360421
 21
258.777385
 31
0.0
  0
LINE
  5
1B9
330
18
100
AcDbEntity
  8
BYLAYER
100
AcDbLine
 10
431.360421
 20
258.777385
 30
0.0
 11
427.5495069999999
 21
258.777385
 31
0.0
  0
LINE
  5
1BA
330
18
100
AcDbEntity
  8
BYLAYER
100
AcDbLine
 10
427.5495069999999
 20
258.777385
 30
0.0
 11
427.5495069999999
 21
265.8446979999999
 31
0.0
  0
LINE
  5
1BB
330
18
100
AcDbEntity
  8
BYLAYER
100
AcDbLine
 10
427.5495069999999
 20
265.8446979999999
 30
0.0
 11
411.217023
 21
265.8446979999999
 31
0.0
  0
LINE
  5
1BC
330
18
100
AcDbEntity
  8
BYLAYER
100
AcDbLine
 10
2.347027999999999
 20
269.106534
 30
0.0
 11
-17.782713
 21
269.106534
 31
0.0
  0
LINE
  5
1BD
330
18
100
AcDbEntity
  8
BYLAYER
100
AcDbLine
 10
-17.782713
 20
269.106534
 30
0.0
 11
-17.782713
 21
259.864664
 31
0.0
  0
LINE
  5
1BE
330
18
100
AcDbEntity
  8
BYLAYER
100
AcDbLine
 10
-17.782713
 20
259.864664
 30
0.0
 11
-13.430335
 21
259.864664
 31
0.0
  0
LINE
  5
1BF
330
18
100
AcDbEntity
  8
BYLAYER
100
AcDbLine
 10
-13.430335
 20
259.864664
 30
0.0
 11
-13.430335
 21
265.3010569999999
 31
0.0
  0
LINE
  5
1C0
330
18
100
AcDbEntity
  8
BYLAYER
100
AcDbLine
 10
-13.430335
 20
265.3010569999999
 30
0.0
 11
2.347027999999999
 21
265.3010569999999
 31
0.0
  0
ARC
  5
1C1
330
18
100
AcDbEntity
  8
BYLAYER
100
AcDbCircle
 10
11.423083
 20
270.465633
 30
0.0
 40
9.17725
100
AcDbArc
 50
113.337829
 51
188.516508
  0
ARC
  5
1C2
330
18
100
AcDbEntity
  8
BYLAYER
100
AcDbCircle
 10
402.034549
 20
270.465633
 30
0.0
 40
9.174813999999999
100
AcDbArc
 50
351.481214
 51
66.69745899999999
  0
LINE
  5
1C3
330
18
100
AcDbEntity
  8
BYLAYER
100
AcDbLine
 10
410.672606
 20
278.892047
 30
0.0
 11
425.3718429999999
 21
278.892047
 31
0.0
  0
LINE
  5
1C4
330
18
100
AcDbEntity
  8
BYLAYER
100
AcDbLine
 10
425.3718429999999
 20
278.892047
 30
0.0
 11
431.360421
 21
284.3284399999999
 31
0.0
  0
LINE
  5
1C5
330
18
100
AcDbEntity
  8
BYLAYER
100
AcDbLine
 10
431.360421
 20
284.3284399999999
 30
0.0
 11
431.360421
 21
322.926847
 31
0.0
  0
LINE
  5
1C6
330
18
100
AcDbEntity
  8
BYLAYER
100
AcDbLine
 10
431.360421
 20
322.926847
 30
0.0
 11
425.3718429999999
 21
328.9068809999999
 31
0.0
  0
LINE
  5
1C7
330
18
100
AcDbEntity
  8
BYLAYER
100
AcDbLine
 10
425.3718429999999
 20
328.9068809999999
 30
0.0
 11
212.6354609999999
 21
328.9068809999999
 31
0.0
  0
LINE
  5
1C8
330
18
100
AcDbEntity
  8
BYLAYER
100
AcDbLine
 10
-12.342243
 20
328.9068809999999
 30
0.0
 11
-16.69461799999999
 21
323.4704849999999
 31
0.0
  0
LINE
  5
1C9
330
18
100
AcDbEntity
  8
BYLAYER
100
AcDbLine
 10
-16.69461799999999
 20
323.4704849999999
 30
0.0
 11
-16.69461799999999
 21
285.4157189999999
 31
0.0
  0
LINE
  5
1CA
330
18
100
AcDbEntity
  8
BYLAYER
100
AcDbLine
 10
-16.69461799999999
 20
285.4157189999999
 30
0.0
 11
-12.342243
 21
278.892047
 31
0.0
  0
LINE
  5
1CB
330
18
100
AcDbEntity
  8
BYLAYER
100
AcDbLine
 10
-12.342243
 20
278.892047
 30
0.0
 11
9.419639
 21
278.892047
 31
0.0
  0
LINE
  5
1CC
330
18
100
AcDbEntity
  8
BYLAYER
100
AcDbLine
 10
430.5982379999999
 20
293.5703129999999
 30
0.0
 11
425.154077
 21
299.006708
 31
0.0
  0
LINE
  5
1CD
330
18
100
AcDbEntity
  8
BYLAYER
100
AcDbLine
 10
425.154077
 20
299.006708
 30
0.0
 11
212.3709899999999
 21
299.006708
 31
0.0
  0
LINE
  5
1CE
330
18
100
AcDbEntity
  8
BYLAYER
100
AcDbLine
 10
-11.817553
 20
299.006708
 30
0.0
 11
-16.711939
 21
294.113953
 31
0.0
  0
LINE
  5
1D0
330
18
100
AcDbEntity
  8
BYLAYER
100
AcDbLine
 10
206.5944029999999
 20
322.874439
 30
0.0
 11
206.5944029999999
 21
299.006708
 31
0.0
  0
LINE
  5
1D1
330
18
100
AcDbEntity
  8
BYLAYER
100
AcDbLine
 10
206.5944029999999
 20
322.874439
 30
0.0
 11
212.7680799999999
 21
329.039311
 31
0.0
  0
LINE
  5
1D2
330
18
100
AcDbEntity
  8
BYLAYER
100
AcDbLine
 10
206.5944029999999
 20
322.874439
 30
0.0
 11
200.420722
 21
329.039311
 31
0.0
  0
LINE
  5
1D3
330
18
100
AcDbEntity
  8
BYLAYER
100
AcDbLine
 10
206.5944029999999
 20
293.283053
 30
0.0
 11
212.150714
 21
298.8314369999999
 31
0.0
  0
LINE
  5
1D4
330
18
100
AcDbEntity
  8
BYLAYER
100
AcDbLine
 10
206.5944029999999
 20
293.899539
 30
0.0
 11
201.655458
 21
298.8314369999999
 31
0.0
  0
LINE
  5
1D5
330
18
100
AcDbEntity
  8
BYLAYER
100
AcDbLine
 10
200.5533419999999
 20
328.9068809999999
 30
0.0
 11
-12.342243
 21
328.9068809999999
 31
0.0
  0
LINE
  5
1D6
330
18
100
AcDbEntity
  8
BYLAYER
100
AcDbLine
 10
179.434946
 20
299.006708
 30
0.0
 11
-11.817553
 21
299.006708
 31
0.0
  0
LINE
  5
1D7
330
18
100
AcDbEntity
  8
BYLAYER
100
AcDbLine
 10
206.5944029999999
 20
293.899539
 30
0.0
 11
206.5944029999999
 21
279.000775
 31
0.0
  0
LINE
  5
1D8
330
18
100
AcDbEntity
  8
BYLAYER
100
AcDbLine
 10
178.6631299999999
 20
298.877674
 30
0.0
 11
201.2773179999999
 21
298.877674
 31
0.0
  0
LINE
  5
1D9
330
18
100
AcDbEntity
  8
BYLAYER
100
AcDbLine
 10
211.2138529999999
 20
297.851222
 30
0.0
 11
212.3709899999999
 21
299.006708
 31
0.0
  0
ARC
  5
1DB
330
18
100
AcDbEntity
  8
BYLAYER
100
AcDbCircle
 10
5.767221
 20
270.65078
 30
0.0
 40
10.42406699999999
100
AcDbArc
 50
350.9879509999999
 51
51.55553400000001
  0
ARC
  5
1DD
330
18
100
AcDbEntity
  8
BYLAYER
100
AcDbCircle
 10
403.765641
 20
270.922922
 30
0.0
 40
8.116125999999999
100
AcDbArc
 50
103.4931379999999
 51
193.5749209999999
  0
LINE
  5
1DE
330
18
100
AcDbEntity
  8
BYLAYER
100
AcDbLine
 10
395.8762479999999
 20
268.8002189999999
 30
0.0
 11
382.791843
 21
188.95403
 31
0.0
  0
LINE
  5
1DF
330
18
100
AcDbEntity
  8
BYLAYER
100
AcDbLine
 10
16.034278
 20
268.8002189999999
 30
0.0
 11
29.616489
 21
188.8194889999999
 31
0.0
  0
LINE
  5
1E0
330
18
100
AcDbEntity
  8
BYLAYER
100
AcDbLine
 10
52.85284499999999
 20
169.1964299999999
 30
0.0
 11
359.533039
 21
169.1964299999999
 31
0.0
  0
ARC
  5
1E1
330
18
100
AcDbEntity
  8
BYLAYER
100
AcDbCircle
 10
52.85284499999999
 20
192.765453
 30
0.0
 40
23.569024
100
AcDbArc
 50
189.6379409999999
 51
270.0
  0
ARC
  5
1E2
330
18
100
AcDbEntity
  8
BYLAYER
100
AcDbCircle
 10
359.533039
 20
192.765453
 30
0.0
 40
23.569024
100
AcDbArc
 50
270.0
 51
350.6936469999999
  0
LINE
  5
1E3
330
18
100
AcDbEntity
  8
BYLAYER
100
AcDbLine
 10
395.658227
 20
272.6102009999999
 30
0.0
 11
16.62311899999999
 21
272.6102009999999
 31
0.0
  0
LINE
  5
1E4
330
18
100
AcDbEntity
  8
BYLAYER
100
AcDbLine
 10
206.5944029999999
 20
272.6102009999999
 30
0.0
 11
206.5944029999999
 21
169.1964299999999
 31
0.0
  0
CIRCLE
  5
1E5
330
18
100
AcDbEntity
  8
HIDDEN2
  6
HIDDEN2
100
AcDbCircle
 10
296.5662179999999
 20
218.726183
 30
0.0
 40
22.878061
  0
CIRCLE
  5
1E6
330
18
100
AcDbEntity
  8
HIDDEN2
  6
HIDDEN2
100
AcDbCircle
 10
120.838697
 20
218.726183
 30
0.0
 40
22.581834
  0
LWPOLYLINE
  5
1E7
330
18
100
AcDbEntity
  8
HIDDEN2
  6
HIDDEN2
100
AcDbPolyline
 90
        4
 70
     1
 43
0.0
 10
61.427097
 20
169.1964299999999
 10
271.275408
 20
169.1964299999999
 10
271.275408
 20
163.209317
 10
61.427097
 20
163.209317
  0
LINE
  5
1E8
330
18
100
AcDbEntity
  8
HIDDEN2
  6
HIDDEN2
100
AcDbLine
 10
71.23818599999999
 20
163.7536
 30
0.0
 11
71.23818599999999
 21
158.855053
 31
0.0
  0
LINE
  5
1E9
330
18
100
AcDbEntity
  8
HIDDEN2
  6
HIDDEN2
100
AcDbLine
 10
71.23818599999999
 20
158.855053
 30
0.0
 11
2.015497
 21
158.855053
 31
0.0
  0
LINE
  5
1EC
330
18
100
AcDbEntity
  8
HIDDEN2
  6
HIDDEN2
100
AcDbLine
 10
261.682342
 20
163.209317
 30
0.0
 11
261.682342
 21
158.855053
 31
0.0
  0
LINE
  5
1ED
330
18
100
AcDbEntity
  8
HIDDEN2
  6
HIDDEN2
100
AcDbLine
 10
261.682342
 20
158.855053
 30
0.0
 11
411.0289329999999
 21
158.855053
 31
0.0
  0
LINE
  5
1F0
330
18
100
AcDbEntity
  8
BYLAYER
100
AcDbLine
 10
1.906484
 20
112.427712
 30
0.0
 11
410.991481
 21
112.427712
 31
0.0
  0
LINE
  5
1F1
330
18
100
AcDbEntity
  8
HIDDEN2
  6
HIDDEN2
100
AcDbLine
 10
91.40542700000001
 20
161.9574649999999
 30
0.0
 11
245.6575629999999
 21
161.9574649999999
 31
0.0
  0
LINE
  5
1F2
330
18
100
AcDbEntity
  8
HIDDEN2
  6
HIDDEN2
100
AcDbLine
 10
91.40542700000001
 20
154.3375029999999
 30
0.0
 11
245.6575629999999
 21
154.3375029999999
 31
0.0
  0
ARC
  5
1F3
330
18
100
AcDbEntity
  8
HIDDEN2
  6
HIDDEN2
100
AcDbCircle
 10
91.40542700000001
 20
158.147484
 30
0.0
 40
3.809980999999999
100
AcDbArc
 50
90.0
 51
270.0
  0
LINE
  5
1F4
330
18
100
AcDbEntity
  8
HIDDEN2
  6
HIDDEN2
100
AcDbLine
 10
61.427097
 20
158.691766
 30
0.0
 11
61.427097
 21
145.0846919999999
 31
0.0
  0
LINE
  5
1F5
330
18
100
AcDbEntity
  8
HIDDEN2
  6
HIDDEN2
100
AcDbLine
 10
61.427097
 20
145.0846919999999
 30
0.0
 11
271.275408
 21
145.0846919999999
 31
0.0
  0
LINE
  5
1F6
330
18
100
AcDbEntity
  8
HIDDEN2
  6
HIDDEN2
100
AcDbLine
 10
271.275408
 20
145.0846919999999
 30
0.0
 11
271.275408
 21
158.691766
 31
0.0
  0
LINE
  5
1F7
330
18
100
AcDbEntity
  8
HIDDEN2
  6
HIDDEN2
100
AcDbLine
 10
246.2026229999999
 20
154.3375029999999
 30
0.0
 11
274.545771
 21
145.0846919999999
 31
0.0
  0
LINE
  5
1FA
330
18
100
AcDbEntity
  8
HIDDEN2
  6
HIDDEN2
100
AcDbLine
 10
246.2026229999999
 20
161.9574649999999
 30
0.0
 11
277.2710739999999
 21
149.9832379999999
 31
0.0
  0
LINE
  5
1FB
330
18
100
AcDbEntity
  8
HIDDEN2
  6
HIDDEN2
100
AcDbLine
 10
277.2710739999999
 20
149.9832379999999
 30
0.0
 11
274.545771
 21
145.0846919999999
 31
0.0
  0
LINE
  5
1FC
330
18
100
AcDbEntity
  8
HIDDEN2
  6
HIDDEN2
100
AcDbLine
 10
304.96015
 20
158.691766
 30
0.0
 11
304.96015
 21
161.9574649999999
 31
0.0
  0
LINE
  5
200
330
18
100
AcDbEntity
  8
HIDDEN2
  6
HIDDEN2
100
AcDbLine
 10
304.96015
 20
161.413182
 30
0.0
 11
316.9514819999999
 21
161.413182
 31
0.0
  0
LINE
  5
201
330
18
100
AcDbEntity
  8
HIDDEN2
  6
HIDDEN2
100
AcDbLine
 10
316.9514819999999
 20
161.413182
 30
0.0
 11
316.9514819999999
 21
167.4002959999999
 31
0.0
  0
LINE
  5
202
330
18
100
AcDbEntity
  8
HIDDEN2
  6
HIDDEN2
100
AcDbLine
 10
316.9514819999999
 20
167.4002959999999
 30
0.0
 11
331.6681179999999
 21
167.4002959999999
 31
0.0
  0
LINE
  5
203
330
18
100
AcDbEntity
  8
HIDDEN2
  6
HIDDEN2
100
AcDbLine
 10
331.6681179999999
 20
167.4002959999999
 30
0.0
 11
331.6681179999999
 21
161.9574649999999
 31
0.0
  0
LINE
  5
204
330
18
100
AcDbEntity
  8
HIDDEN2
  6
HIDDEN2
100
AcDbLine
 10
331.6681179999999
 20
161.9574649999999
 30
0.0
 11
345.2946299999999
 21
161.9574649999999
 31
0.0
  0
LINE
  5
205
330
18
100
AcDbEntity
  8
HIDDEN2
  6
HIDDEN2
100
AcDbLine
 10
345.2946299999999
 20
161.9574649999999
 30
0.0
 11
345.2946299999999
 21
158.691766
 31
0.0
  0
CIRCLE
  5
206
330
18
100
AcDbEntity
  8
HIDDEN2
  6
HIDDEN2
100
AcDbCircle
 10
324.037269
 20
163.046031
 30
0.0
 40
3.270363
  0
LINE
  5
207
330
18
100
AcDbEntity
  8
BYLAYER
100
AcDbLine
 10
410.7018959999999
 20
119.50339
 30
0.0
 11
418.332745
 21
127.123353
 31
0.0
  0
LINE
  5
208
330
18
100
AcDbEntity
  8
BYLAYER
100
AcDbLine
 10
418.332745
 20
127.123353
 30
0.0
 11
418.332745
 21
141.8189939999999
 31
0.0
  0
LINE
  5
209
330
18
100
AcDbEntity
  8
BYLAYER
100
AcDbLine
 10
418.332745
 20
141.8189939999999
 30
0.0
 11
410.7018959999999
 21
149.4389549999999
 31
0.0
  0
LINE
  5
20A
330
18
100
AcDbEntity
  8
BYLAYER
100
AcDbLine
 10
418.332745
 20
141.2747109999999
 30
0.0
 11
430.869137
 21
141.2747109999999
 31
0.0
  0
LINE
  5
20C
330
18
100
AcDbEntity
  8
BYLAYER
100
AcDbLine
 10
430.869137
 20
141.2747109999999
 30
0.0
 11
430.869137
 21
127.123353
 31
0.0
  0
LINE
  5
20D
330
18
100
AcDbEntity
  8
BYLAYER
100
AcDbLine
 10
430.869137
 20
127.123353
 30
0.0
 11
418.332745
 21
127.123353
 31
0.0
  0
DIMENSION
  5
21A
330
18
100
AcDbEntity
  8
BYLAYER
100
AcDbDimension
  2
*D6
 10
459.6066559999999
 20
278.892047
 30
0.0
 11
452.5359499999999
 21
303.9887420000001
 31
0.0
 70
    32
  1
48
 71
     5
 42
50.19338999999996
  3
STANDARD_WS
100
AcDbAlignedDimension
 13
420.7999299999999
 23
329.085437
 33
0.0
 14
425.3718429999999
 24
278.892047
 34
0.0
 50
90.0
100
AcDbRotatedDimension
  0
DIMENSION
  5
227
330
18
100
AcDbEntity
  8
BYLAYER
100
AcDbDimension
  2
*D7
 10
489.938412
 20
112.4277119999999
 30
0.0
 11
482.867706
 21
195.6598795000001
 31
0.0
 70
    32
  1
180
 71
     5
 42
166.464335
  3
STANDARD_WS
100
AcDbAlignedDimension
 13
425.3718429999999
 23
278.892047
 33
0.0
 14
410.991481
 24
112.427712
 34
0.0
 50
90.0
100
AcDbRotatedDimension
  0
DIMENSION
  5
234
330
18
100
AcDbEntity
  8
BYLAYER
100
AcDbDimension
  2
*D8
 10
520.270168
 20
96.74190899999995
 30
0.0
 11
513.199462
 21
187.8169780000001
 31
0.0
 70
    32
  1
200
 71
     5
 42
182.150138
  3
STANDARD_WS
100
AcDbAlignedDimension
 13
425.3718429999999
 23
278.892047
 33
0.0
 14
394.517311
 24
96.74190899999999
 34
0.0
 50
90.0
100
AcDbRotatedDimension
  0
DIMENSION
  5
250
330
18
100
AcDbEntity
  8
BYLAYER
100
AcDbDimension
  2
*D9
 10
489.938412
 20
96.74190899999997
 30
0.0
 11
489.938412
 21
104.5848105
 31
0.0
 70
   160
  1
20
 71
     5
 42
15.68580300000002
  3
STANDARD_WS
100
AcDbAlignedDimension
 13
410.991481
 23
112.427712
 33
0.0
 14
393.462916412951
 24
96.74190899999999
 34
0.0
 50
90.0
100
AcDbRotatedDimension
  0
DIMENSION
  5
25D
330
18
100
AcDbEntity
  8
BYLAYER
100
AcDbDimension
  2
*D10
 10
410.691231
 20
70.804362
 30
0.0
 11
206.495495
 21
77.875069
 31
0.0
 12
1.315560999999999
 22
28.931176
 32
0.0
 70
    32
  1
405
 71
     5
 42
-1.0
  3
STANDARD_WS
100
AcDbAlignedDimension
 13
2.29976
 23
113.125329
 33
0.0
 14
410.691231
 24
112.117687
 34
0.0
100
AcDbRotatedDimension
  0
LINE
  5
296
330
18
100
AcDbEntity
  8
BYLAYER
100
AcDbLine
 10
561.227198
 20
274.054041
 30
0.0
 11
561.227198
 21
114.4019139999999
 31
0.0
  0
LINE
  5
297
330
18
100
AcDbEntity
  8
BYLAYER
100
AcDbLine
 10
561.227198
 20
114.4019139999999
 30
0.0
 11
801.3319459999999
 21
114.4019139999999
 31
0.0
  0
LINE
  5
298
330
18
100
AcDbEntity
  8
BYLAYER
100
AcDbLine
 10
801.3319459999999
 20
114.4019139999999
 30
0.0
 11
801.3319459999999
 21
274.054041
 31
0.0
  0
LINE
  5
299
330
18
100
AcDbEntity
  8
BYLAYER
100
AcDbLine
 10
542.5580098047634
 20
274.054041
 30
0.0
 11
819.7292108069156
 21
274.054041
 31
0.0
  0
LINE
  5
2A0
330
18
100
AcDbEntity
  8
BYLAYER
100
AcDbLine
 10
541.782307
 20
284.337938
 30
0.0
 11
541.782307
 21
294.40609
 31
0.0
  0
LINE
  5
2A1
330
18
100
AcDbEntity
  8
BYLAYER
100
AcDbLine
 10
541.782307
 20
294.40609
 30
0.0
 11
551.144661
 21
303.7550879999999
 31
0.0
  0
LINE
  5
2A2
330
18
100
AcDbEntity
  8
BYLAYER
100
AcDbLine
 10
551.144661
 20
303.7550879999999
 30
0.0
 11
811.130033
 21
303.7550879999999
 31
0.0
  0
LINE
  5
2A3
330
18
100
AcDbEntity
  8
BYLAYER
100
AcDbLine
 10
811.130033
 20
303.7550879999999
 30
0.0
 11
820.492386
 21
294.40609
 31
0.0
  0
LINE
  5
2A4
330
18
100
AcDbEntity
  8
BYLAYER
100
AcDbLine
 10
820.492386
 20
294.40609
 30
0.0
 11
820.492386
 21
283.618784
 31
0.0
  0
LINE
  5
2A5
330
18
100
AcDbEntity
  8
BYLAYER
100
AcDbLine
 10
820.492386
 20
283.618784
 30
0.0
 11
541.782307
 21
283.618784
 31
0.0
  0
ARC
  5
2A6
330
18
100
AcDbEntity
  8
BYLAYER
100
AcDbCircle
 10
549.935461
 20
276.06767
 30
0.0
 40
7.647319
100
AcDbArc
 50
80.902167
 51
195.266661210143
  0
ARC
  5
2A7
330
18
100
AcDbEntity
  8
BYLAYER
100
AcDbCircle
 10
811.992075
 20
275.708093
 30
0.0
 40
7.911963
100
AcDbArc
 50
347.9328986688887
 51
91.02737199999999
  0
ARC
  5
2A8
330
18
100
AcDbEntity
  8
BYLAYER
100
AcDbCircle
 10
573.350251
 20
275.708093
 30
0.0
 40
8.169624
100
AcDbArc
 50
349.859909
 51
104.463842
  0
ARC
  5
2A9
330
18
100
AcDbEntity
  8
BYLAYER
100
AcDbCircle
 10
788.9244429999999
 20
275.708093
 30
0.0
 40
8.169624
100
AcDbArc
 50
75.53615800000001
 51
190.1400909999999
  0
LINE
  5
2AA
330
18
100
AcDbEntity
  8
BYLAYER
100
AcDbLine
 10
581.2482309999999
 20
274.197871
 30
0.0
 11
590.1111559999999
 21
195.1774979999999
 31
0.0
  0
LINE
  5
2AB
330
18
100
AcDbEntity
  8
BYLAYER
100
AcDbLine
 10
780.7383909999999
 20
274.197871
 30
0.0
 11
771.8754650000001
 21
195.1774969999999
 31
0.0
  0
LINE
  5
2AC
330
18
100
AcDbEntity
  8
BYLAYER
100
AcDbLine
 10
613.533316
 20
174.2355039999999
 30
0.0
 11
748.453305
 21
174.2355039999999
 31
0.0
  0
ARC
  5
2AD
330
18
100
AcDbEntity
  8
BYLAYER
100
AcDbCircle
 10
613.533316
 20
197.804527
 30
0.0
 40
23.569024
100
AcDbArc
 50
186.3995479999999
 51
270.0
  0
ARC
  5
2AE
330
18
100
AcDbEntity
  8
BYLAYER
100
AcDbCircle
 10
748.453305
 20
197.804527
 30
0.0
 40
23.569024
100
AcDbArc
 50
270.0
 51
353.60045
  0
LINE
  5
2AF
330
18
100
AcDbEntity
  8
BYLAYER
100
AcDbLine
 10
581.2482309999999
 20
277.7936389999999
 30
0.0
 11
780.7383909999999
 21
277.7936389999999
 31
0.0
  0
LINE
  5
2B1
330
18
100
AcDbEntity
  8
HIDDEN2
  6
HIDDEN2
100
AcDbLine
 10
681.3534009999999
 20
274.197871
 30
0.0
 11
681.3534009999999
 21
174.2355039999999
 31
0.0
  0
CIRCLE
  5
2B2
330
18
100
AcDbEntity
  8
HIDDEN2
  6
HIDDEN2
100
AcDbCircle
 10
635.1177769999999
 20
220.261341
 30
0.0
 40
21.76301099999999
  0
CIRCLE
  5
2B3
330
18
100
AcDbEntity
  8
HIDDEN2
  6
HIDDEN2
100
AcDbCircle
 10
726.004628
 20
220.261341
 30
0.0
 40
20.88525199999999
  0
LWPOLYLINE
  5
2B4
330
18
100
AcDbEntity
  8
BYLAYER
100
AcDbPolyline
 90
        4
 70
     1
 43
0.0
 10
641.0232599999999
 20
273.478717
 10
720.2431799999999
 20
273.478717
 10
720.2431799999999
 20
259.0956429999999
 10
641.0232599999999
 20
259.0956429999999
  0
LINE
  5
2B5
330
18
100
AcDbEntity
  8
BYLAYER
100
AcDbLine
 10
591.330766
 20
303.683173
 30
0.0
 11
591.330766
 21
328.853554
 31
0.0
  0
LINE
  5
2B6
330
18
100
AcDbEntity
  8
BYLAYER
100
AcDbLine
 10
591.330766
 20
328.853554
 30
0.0
 11
601.4133000000001
 21
333.8876289999999
 31
0.0
  0
LINE
  5
2B7
330
18
100
AcDbEntity
  8
BYLAYER
100
AcDbLine
 10
601.4133000000001
 20
333.8876289999999
 30
0.0
 11
620.858191
 21
333.8876289999999
 31
0.0
  0
LINE
  5
2B8
330
18
100
AcDbEntity
  8
BYLAYER
100
AcDbLine
 10
620.858191
 20
333.8876289999999
 30
0.0
 11
630.9407259999999
 21
329.5727059999999
 31
0.0
  0
LINE
  5
2B9
330
18
100
AcDbEntity
  8
BYLAYER
100
AcDbLine
 10
630.9407259999999
 20
329.5727059999999
 30
0.0
 11
630.9407259999999
 21
303.683173
 31
0.0
  0
LINE
  5
2BB
330
18
100
AcDbEntity
  8
BYLAYER
100
AcDbLine
 10
771.034673
 20
303.683173
 30
0.0
 11
771.034673
 21
328.853554
 31
0.0
  0
LINE
  5
2BC
330
18
100
AcDbEntity
  8
BYLAYER
100
AcDbLine
 10
771.034673
 20
328.853554
 30
0.0
 11
760.9539039999999
 21
333.8876289999999
 31
0.0
  0
LINE
  5
2BD
330
18
100
AcDbEntity
  8
BYLAYER
100
AcDbLine
 10
760.9539039999999
 20
333.8876289999999
 30
0.0
 11
741.51242
 21
333.8876289999999
 31
0.0
  0
LINE
  5
2BE
330
18
100
AcDbEntity
  8
BYLAYER
100
AcDbLine
 10
741.51242
 20
333.8876289999999
 30
0.0
 11
731.43165
 21
329.5727059999999
 31
0.0
  0
LINE
  5
2BF
330
18
100
AcDbEntity
  8
BYLAYER
100
AcDbLine
 10
731.43165
 20
329.5727059999999
 30
0.0
 11
731.43165
 21
303.683173
 31
0.0
  0
LINE
  5
2C0
330
18
100
AcDbEntity
  8
BYLAYER
100
AcDbLine
 10
594.8689139999999
 20
96.816074
 30
0.0
 11
577.758693
 21
96.816074
 31
0.0
  0
LINE
  5
2C1
330
18
100
AcDbEntity
  8
BYLAYER
100
AcDbLine
 10
577.758693
 20
96.816074
 30
0.0
 11
571.536793
 21
113.0745139999999
 31
0.0
  0
LINE
  5
2C2
330
18
100
AcDbEntity
  8
BYLAYER
100
AcDbLine
 10
601.090813
 20
113.0745139999999
 30
0.0
 11
594.8689139999999
 21
96.816074
 31
0.0
  0
LINE
  5
2C3
330
18
100
AcDbEntity
  8
BYLAYER
100
AcDbLine
 10
783.556357
 20
96.816074
 30
0.0
 11
766.4461349999998
 21
96.816074
 31
0.0
  0
LINE
  5
2C4
330
18
100
AcDbEntity
  8
BYLAYER
100
AcDbLine
 10
766.4461349999998
 20
96.816074
 30
0.0
 11
760.2242359999999
 21
113.0745139999999
 31
0.0
  0
LINE
  5
2C5
330
18
100
AcDbEntity
  8
BYLAYER
100
AcDbLine
 10
789.7782559999999
 20
113.0745139999999
 30
0.0
 11
783.556357
 21
96.816074
 31
0.0
  0
LINE
  5
2C6
330
18
100
AcDbEntity
  8
HIDDEN2
  6
HIDDEN2
100
AcDbLine
 10
621.5783719999999
 20
174.0916719999999
 30
0.0
 11
621.5783719999999
 21
169.0575969999999
 31
0.0
  0
LINE
  5
2C7
330
18
100
AcDbEntity
  8
HIDDEN2
  6
HIDDEN2
100
AcDbLine
 10
621.5783719999999
 20
169.0575969999999
 30
0.0
 11
741.128432
 21
169.0575969999999
 31
0.0
  0
LINE
  5
2C8
330
18
100
AcDbEntity
  8
HIDDEN2
  6
HIDDEN2
100
AcDbLine
 10
741.128432
 20
169.0575969999999
 30
0.0
 11
741.128432
 21
174.0916719999999
 31
0.0
  0
LINE
  5
2C9
330
18
100
AcDbEntity
  8
HIDDEN2
  6
HIDDEN2
100
AcDbLine
 10
561.0831599999999
 20
163.3043669999999
 30
0.0
 11
631.6609059999999
 21
163.3043669999999
 31
0.0
  0
LINE
  5
2CA
330
18
100
AcDbEntity
  8
HIDDEN2
  6
HIDDEN2
100
AcDbLine
 10
631.6609059999999
 20
163.3043669999999
 30
0.0
 11
631.6609059999999
 21
169.0575969999999
 31
0.0
  0
LINE
  5
2CB
330
18
100
AcDbEntity
  8
HIDDEN2
  6
HIDDEN2
100
AcDbLine
 10
800.9034599999999
 20
164.0235209999999
 30
0.0
 11
731.045895
 21
164.0235209999999
 31
0.0
  0
LINE
  5
2CC
330
18
100
AcDbEntity
  8
HIDDEN2
  6
HIDDEN2
100
AcDbLine
 10
731.045895
 20
164.0235209999999
 30
0.0
 11
731.045895
 21
169.0575969999999
 31
0.0
  0
LINE
  5
2CD
330
18
100
AcDbEntity
  8
HIDDEN2
  6
HIDDEN2
100
AcDbLine
 10
621.5783719999999
 20
164.0235209999999
 30
0.0
 11
621.5783719999999
 21
148.2021389999999
 31
0.0
  0
LINE
  5
2CE
330
18
100
AcDbEntity
  8
HIDDEN2
  6
HIDDEN2
100
AcDbLine
 10
621.5783719999999
 20
148.2021389999999
 30
0.0
 11
741.128432
 21
148.2021389999999
 31
0.0
  0
LINE
  5
2CF
330
18
100
AcDbEntity
  8
HIDDEN2
  6
HIDDEN2
100
AcDbLine
 10
741.128432
 20
148.2021389999999
 30
0.0
 11
741.128432
 21
164.0235209999999
 31
0.0
  0
CIRCLE
  5
2D0
330
18
100
AcDbEntity
  8
HIDDEN2
  6
HIDDEN2
100
AcDbCircle
 10
650.3856139999999
 20
164.0235209999999
 30
0.0
 40
4.380522
  0
CIRCLE
  5
2D1
330
18
100
AcDbEntity
  8
HIDDEN2
  6
HIDDEN2
100
AcDbCircle
 10
671.270866
 20
163.3043669999999
 30
0.0
 40
4.380522
  0
CIRCLE
  5
2D2
330
18
100
AcDbEntity
  8
HIDDEN2
  6
HIDDEN2
100
AcDbCircle
 10
692.156118
 20
164.0235209999999
 30
0.0
 40
4.380522
  0
CIRCLE
  5
2D4
330
18
100
AcDbEntity
  8
HIDDEN2
  6
HIDDEN2
100
AcDbCircle
 10
710.160645
 20
164.0235209999999
 30
0.0
 40
4.380522
  0
CIRCLE
  5
2D5
330
18
100
AcDbEntity
  8
BYLAYER
100
AcDbCircle
 10
607.174751
 20
127.346681
 30
0.0
 40
5.041266999999999
  0
CIRCLE
  5
2D6
330
18
100
AcDbEntity
  8
BYLAYER
100
AcDbCircle
 10
607.174751
 20
128.065836
 30
0.0
 40
10.108149
  0
CIRCLE
  5
2D7
330
18
100
AcDbEntity
  8
BYLAYER
100
AcDbCircle
 10
641.0232599999999
 20
128.065836
 30
0.0
 40
7.344033
  0
CIRCLE
  5
2D8
330
18
100
AcDbEntity
  8
BYLAYER
100
AcDbCircle
 10
747.6100599999999
 20
127.346681
 30
0.0
 40
5.806157999999999
  0
CIRCLE
  5
2D9
330
18
100
AcDbEntity
  8
BYLAYER
100
AcDbCircle
 10
746.8898799999999
 20
128.065836
 30
0.0
 40
11.61231699999999
  0
LINE
  5
2DA
330
18
100
AcDbEntity
  8
BYLAYER
100
AcDbLine
 10
741.8486119999999
 20
124.4700659999999
 30
0.0
 11
736.0871639999999
 21
121.593452
 31
0.0
  0
DIMENSION
  5
2E7
330
18
100
AcDbEntity
  8
BYLAYER
100
AcDbDimension
  2
*D11
 10
800.9034599999999
 20
75.567614
 30
0.0
 11
680.9933099999999
 21
82.638321
 31
0.0
 12
1.315137
 22
34.19139099999999
 32
0.0
 70
    32
 71
     5
 42
-1.0
  3
STANDARD_WS
100
AcDbAlignedDimension
 13
561.0831599999999
 23
114.4019139999999
 33
0.0
 14
800.9034599999999
 24
115.1210689999999
 34
0.0
100
AcDbRotatedDimension
  0
MTEXT
  5
2E9
330
18
100
AcDbEntity
  8
BYLAYER
100
AcDbMText
 10
654.7067009999999
 20
110.806146
 30
0.0
 40
9.0
 41
19.0
 71
     1
 72
     5
  1
\U+246A
 73
     1
 44
1.0
  0
MTEXT
  5
2EA
330
18
100
AcDbEntity
  8
BYLAYER
100
AcDbMText
 10
617.977466
 20
103.614609
 30
0.0
 40
9.0
 41
19.0
 71
     1
 72
     5
  1
\U+2469
 73
     1
 44
1.0
  0
MTEXT
  5
2EB
330
18
100
AcDbEntity
  8
BYLAYER
100
AcDbMText
 10
718.082638
 20
107.210377
 30
0.0
 40
9.0
 41
18.0
 71
     1
 72
     5
  1
\U+246B
 73
     1
 44
1.0
  0
LINE
  5
2EC
330
18
100
AcDbEntity
  8
BYLAYER
100
AcDbLine
 10
619.4178299999999
 20
103.614609
 30
0.0
 11
607.174751
 21
128.065836
 31
0.0
  0
LINE
  5
2ED
330
18
100
AcDbEntity
  8
BYLAYER
100
AcDbLine
 10
655.4268839999999
 20
110.806146
 30
0.0
 11
641.0232599999999
 21
127.346681
 31
0.0
  0
LINE
  5
2EE
330
18
100
AcDbEntity
  8
BYLAYER
100
AcDbLine
 10
727.4449909999999
 20
106.4912239999999
 30
0.0
 11
749.050422
 21
126.6275269999999
 31
0.0
  0
MTEXT
  5
2EF
330
18
100
AcDbEntity
  8
BYLAYER
100
AcDbMText
 10
48.042212
 20
96.916085
 30
0.0
 40
9.0
 41
20.0
 71
     1
 72
     5
  1
\U+246C
 73
     1
 44
1.0
  0
LINE
  5
2F0
330
18
100
AcDbEntity
  8
BYLAYER
100
AcDbLine
 10
48.042212
 20
94.75862300000001
 30
0.0
 11
28.605751
 21
103.3884699999999
 31
0.0
  0
MTEXT
  5
2F1
330
18
100
AcDbEntity
  8
BYLAYER
100
AcDbMText
 10
-22.504941
 20
124.9630809999999
 30
0.0
 40
9.0
 41
16.0
 71
     1
 72
     5
  1
\U+2466
 73
     1
 44
1.0
  0
MTEXT
  5
2F2
330
18
100
AcDbEntity
  8
BYLAYER
100
AcDbMText
 10
-21.065204
 20
145.099384
 30
0.0
 40
9.0
 41
14.0
 71
     1
 72
     5
  1
\U+2465
 73
     1
 44
1.0
  0
MTEXT
  5
2F3
330
18
100
AcDbEntity
  8
BYLAYER
100
AcDbMText
 10
-21.065204
 20
163.797382
 30
0.0
 40
9.0
 41
14.0
 71
     1
 72
     5
  1
\U+2462
 73
     1
 44
1.0
  0
LINE
  5
2F4
330
18
100
AcDbEntity
  8
BYLAYER
100
AcDbLine
 10
-12.426776
 20
121.367312
 30
0.0
 11
75.397233
 21
149.414306
 31
0.0
  0
LINE
  5
2F5
330
18
100
AcDbEntity
  8
BYLAYER
100
AcDbLine
 10
-10.267171
 20
142.941923
 30
0.0
 11
93.393955
 21
158.0441509999999
 31
0.0
  0
LINE
  5
2F6
330
18
100
AcDbEntity
  8
BYLAYER
100
AcDbLine
 10
-10.267171
 20
159.48246
 30
0.0
 11
71.07801999999999
 21
167.3931499999999
 31
0.0
  0
MTEXT
  5
2F7
330
18
100
AcDbEntity
  8
BYLAYER
100
AcDbMText
 10
290.6380439999999
 20
99.79269999999999
 30
0.0
 40
9.0
 41
17.0
 71
     1
 72
     5
  1
\U+2467
 73
     1
 44
1.0
  0
LINE
  5
2F8
330
18
100
AcDbEntity
  8
BYLAYER
100
AcDbLine
 10
297.8367319999999
 20
100.511854
 30
0.0
 11
323.752014
 21
163.797382
 31
0.0
  0
MTEXT
  5
2F9
330
18
100
AcDbEntity
  8
BYLAYER
100
AcDbMText
 10
-21.065204
 20
191.844377
 30
0.0
 40
9.0
 41
15.0
 71
     1
 72
     5
  1
\U+2460
 73
     1
 44
1.0
  0
MTEXT
  5
2FA
330
18
100
AcDbEntity
  8
BYLAYER
100
AcDbMText
 10
-19.625467
 20
227.0829089999999
 30
0.0
 40
9.0
 41
14.0
 71
     1
 72
     5
  1
\U+2461
 73
     1
 44
1.0
  0
LINE
  5
2FB
330
18
100
AcDbEntity
  8
BYLAYER
100
AcDbLine
 10
-10.987039
 20
187.529454
 30
0.0
 11
17.08784999999999
 21
197.597606
 31
0.0
  0
LINE
  5
2FC
330
18
100
AcDbEntity
  8
BYLAYER
100
AcDbLine
 10
-9.547299999999999
 20
224.2062939999999
 30
0.0
 11
21.407063
 21
242.185137
 31
0.0
  0
MTEXT
  5
2FD
330
18
100
AcDbEntity
  8
BYLAYER
100
AcDbMText
 10
-39.781797
 20
350.41777
 30
0.0
 40
9.0
 41
17.0
 71
     1
 72
     5
  1
\U+2464
 73
     1
 44
1.0
  0
LINE
  5
2FE
330
18
100
AcDbEntity
  8
BYLAYER
100
AcDbLine
 10
-30.4235
 20
341.0687709999999
 30
0.0
 11
9.889160999999999
 21
314.4600849999999
 31
0.0
  0
MTEXT
  5
2FF
330
18
100
AcDbEntity
  8
BYLAYER
100
AcDbMText
 10
30.889535
 20
685.822235
 30
0.0
 40
9.0
 41
22.0
 71
     1
 72
     5
  1
\U+2463
 73
     1
 44
1.0
  0
MTEXT
  5
300
330
18
100
AcDbEntity
  8
BYLAYER
100
AcDbMText
 10
111.514855
 20
680.797313
 30
0.0
 40
9.0
 41
24.0
 71
     1
 72
     5
  1
\U+2465
 73
     1
 44
1.0
  0
MTEXT
  5
301
330
18
100
AcDbEntity
  8
BYLAYER
100
AcDbMText
 10
264.8469379999999
 20
681.5151599999999
 30
0.0
 40
9.0
 41
17.0
 71
     1
 72
     5
  1
\U+2467
 73
     1
 44
1.0
  0
MTEXT
  5
302
330
18
100
AcDbEntity
  8
BYLAYER
100
AcDbMText
 10
317.3973689999999
 20
680.797313
 30
0.0
 40
9.0
 41
18.0
 71
     1
 72
     5
  1
\U+2468
 73
     1
 44
1.0
  0
LINE
  5
303
330
18
100
AcDbEntity
  8
BYLAYER
100
AcDbLine
 10
38.088226
 20
675.0545449999999
 30
0.0
 11
71.202196
 21
539.381651
 31
0.0
  0
LINE
  5
304
330
18
100
AcDbEntity
  8
BYLAYER
100
AcDbLine
 10
118.7135459999999
 20
670.029624
 30
0.0
 11
150.3877789999999
 21
594.6557939999999
 31
0.0
  0
LINE
  5
305
330
18
100
AcDbEntity
  8
BYLAYER
100
AcDbLine
 10
272.045627
 20
670.747469
 30
0.0
 11
333.954354
 21
556.609955
 31
0.0
  0
LINE
  5
306
330
18
100
AcDbEntity
  8
BYLAYER
100
AcDbLine
 10
323.87619
 20
670.029624
 30
0.0
 11
346.911995
 21
592.5022539999999
 31
0.0
  0
CIRCLE
  5
307
330
18
100
AcDbEntity
  8
BYLAYER
100
AcDbCircle
 10
520.3020999999999
 20
559.526475
 30
0.0
 40
2.880723
  0
CIRCLE
  5
308
330
18
100
AcDbEntity
  8
BYLAYER
100
AcDbCircle
 10
520.3020999999999
 20
539.390171
 30
0.0
 40
2.969132
  0
LINE
  5
309
330
18
100
AcDbEntity
  8
BYLAYER
100
AcDbLine
 10
523.1828230000001
 20
560.245628
 30
0.0
 11
540.4671689999999
 21
560.245628
 31
0.0
  0
LINE
  5
30A
330
18
100
AcDbEntity
  8
BYLAYER
100
AcDbLine
 10
540.4671689999999
 20
560.245628
 30
0.0
 11
540.4671689999999
 21
600.5182369999999
 31
0.0
  0
LINE
  5
30B
330
18
100
AcDbEntity
  8
BYLAYER
100
AcDbLine
 10
540.4671689999999
 20
600.5182369999999
 30
0.0
 11
560.632241
 21
600.5182369999999
 31
0.0
  0
LINE
  5
30C
330
18
100
AcDbEntity
  8
BYLAYER
100
AcDbLine
 10
560.632241
 20
600.5182369999999
 30
0.0
 11
577.196404
 21
609.8672339999999
 31
0.0
  0
LINE
  5
30D
330
18
100
AcDbEntity
  8
BYLAYER
100
AcDbLine
 10
580.7973099999999
 20
599.7990829999999
 30
0.0
 11
621.2948686275304
 21
599.7990829999999
 31
0.0
  0
LINE
  5
30E
330
18
100
AcDbEntity
  8
BYLAYER
100
AcDbLine
 10
621.2948686275304
 20
599.7990829999999
 30
0.0
 11
636.4186706275303
 21
607.709773
 31
0.0
  0
LINE
  5
30F
330
18
100
AcDbEntity
  8
BYLAYER
100
AcDbLine
 10
640.7397566275303
 20
599.7990829999999
 30
0.0
 11
663.8065051048464
 21
599.7990829999999
 31
0.0
  0
LINE
  5
310
330
18
100
AcDbEntity
  8
BYLAYER
100
AcDbLine
 10
663.8065051048464
 20
599.7990829999999
 30
0.0
 11
663.8065051048463
 21
500.5558699999999
 31
0.0
  0
LINE
  5
311
330
18
100
AcDbEntity
  8
BYLAYER
100
AcDbLine
 10
523.903004
 20
540.109325
 30
0.0
 11
540.4671689999999
 21
540.109325
 31
0.0
  0
LINE
  5
312
330
18
100
AcDbEntity
  8
BYLAYER
100
AcDbLine
 10
540.4671689999999
 20
540.109325
 30
0.0
 11
540.4671689999999
 21
499.8367159999999
 31
0.0
  0
LINE
  5
313
330
18
100
AcDbEntity
  8
BYLAYER
100
AcDbLine
 10
540.4671689999999
 20
499.8367159999999
 30
0.0
 11
600.9623809999999
 21
499.8367159999999
 31
0.0
  0
LINE
  5
314
330
18
100
AcDbEntity
  8
BYLAYER
100
AcDbLine
 10
600.9623809999999
 20
499.8367159999999
 30
0.0
 11
600.9623809999999
 21
540.109325
 31
0.0
  0
LINE
  5
315
330
18
100
AcDbEntity
  8
BYLAYER
100
AcDbLine
 10
600.9623809999999
 20
599.7990829999999
 30
0.0
 11
600.9623809999999
 21
559.526475
 31
0.0
  0
LINE
  5
316
330
18
100
AcDbEntity
  8
BYLAYER
100
AcDbLine
 10
596.641295
 20
559.526475
 30
0.0
 11
604.563287
 21
559.526475
 31
0.0
  0
LINE
  5
317
330
18
100
AcDbEntity
  8
BYLAYER
100
AcDbLine
 10
595.9211139999999
 20
540.109325
 30
0.0
 11
606.0036489999999
 21
540.109325
 31
0.0
  0
CIRCLE
  5
318
330
18
100
AcDbEntity
  8
BYLAYER
100
AcDbCircle
 10
600.9623809999999
 20
550.1774759999999
 30
0.0
 40
13.68344
  0
CIRCLE
  5
319
330
18
100
AcDbEntity
  8
BYLAYER
100
AcDbCircle
 10
631.3774026275304
 20
599.7990829999999
 30
0.0
 40
13.141565
  0
LINE
  5
31A
330
18
100
AcDbEntity
  8
BYLAYER
100
AcDbLine
 10
600.9623809999999
 20
499.8367159999999
 30
0.0
 11
619.687089
 21
499.8367159999999
 31
0.0
  0
LINE
  5
31B
330
18
100
AcDbEntity
  8
BYLAYER
100
AcDbLine
 10
619.687089
 20
499.8367159999999
 30
0.0
 11
624.7283559999999
 21
504.870792
 31
0.0
  0
LINE
  5
31C
330
18
100
AcDbEntity
  8
BYLAYER
100
AcDbLine
 10
624.7283559999999
 20
504.870792
 30
0.0
 11
629.0494429999999
 21
496.240948
 31
0.0
  0
LINE
  5
31D
330
18
100
AcDbEntity
  8
BYLAYER
100
AcDbLine
 10
629.0494429999999
 20
496.240948
 30
0.0
 11
637.691616
 21
504.870792
 31
0.0
  0
LINE
  5
31E
330
18
100
AcDbEntity
  8
BYLAYER
100
AcDbLine
 10
637.691616
 20
504.870792
 30
0.0
 11
642.732883
 21
495.5217929999999
 31
0.0
  0
LINE
  5
31F
330
18
100
AcDbEntity
  8
BYLAYER
100
AcDbLine
 10
642.732883
 20
495.5217929999999
 30
0.0
 11
645.613608
 21
500.55587
 31
0.0
  0
LINE
  5
320
330
18
100
AcDbEntity
  8
BYLAYER
100
AcDbLine
 10
645.613608
 20
500.55587
 30
0.0
 11
663.8065051048463
 21
500.5558699999999
 31
0.0
  0
MTEXT
  5
321
330
18
100
AcDbEntity
  8
BYLAYER
100
AcDbMText
 10
505.1782959999999
 20
578.943625
 30
0.0
 40
9.0
 41
30.0
 71
     1
 72
     5
  1
電源
 73
     1
 44
1.0
  0
MTEXT
  5
322
330
18
100
AcDbEntity
  8
BYLAYER
100
AcDbMText
 10
545.9476757001647
 20
624.969464
 30
0.0
 40
9.0
 41
56.894304
 71
     1
 72
     5
  1
電源ｽｲｯﾁ
 73
     1
 44
1.0
  0
MTEXT
  5
323
330
18
100
AcDbEntity
  8
BYLAYER
100
AcDbMText
 10
622.9509930332725
 20
625.688616
 30
0.0
 40
9.0
 41
63.082535
 71
     1
 72
     5
  1
温度調節器
 73
     1
 44
1.0
  0
MTEXT
  5
324
330
18
100
AcDbEntity
  8
BYLAYER
100
AcDbMText
 10
620.3503220452735
 20
554.404816441412
 30
0.0
 40
7.0
 41
57.29816719744031
 71
     1
 72
     5
  1
パイロット\Pランプ
 73
     1
 44
1.0
  0
MTEXT
  5
325
330
18
100
AcDbEntity
  8
BYLAYER
100
AcDbMText
 10
619.8655523346974
 20
490.9251061413717
 30
0.0
 40
9.0
 41
53.0
 71
     1
 72
     5
  1
発熱体
 73
     1
 44
1.0
  0
LINE
  5
336
330
18
100
AcDbEntity
  8
BYLAYER
100
AcDbLine
 10
98.93188399999999
 20
660.027962
 30
0.0
 11
318.8051279999999
 21
660.027962
 31
0.0
  0
LINE
  5
339
330
18
100
AcDbEntity
  8
BYLAYER
100
AcDbLine
 10
344.064439
 20
648.894841
 30
0.0
 11
375.4309759999999
 21
648.894841
 31
0.0
  0
ARC
  5
33A
330
18
100
AcDbEntity
  8
BYLAYER
100
AcDbCircle
 10
375.4309759999999
 20
625.325817
 30
0.0
 40
23.569024
100
AcDbArc
 50
0.0
 51
90.0
  0
LINE
  5
33B
330
18
100
AcDbEntity
  8
BYLAYER
100
AcDbLine
 10
336.963522
 20
648.894841
 30
0.0
 11
348.2414509999999
 21
648.894841
 31
0.0
  0
TEXT
  5
510
330
18
100
AcDbEntity
  8
0
370
     0
100
AcDbText
 10
699.1125214579932
 20
687.5792048726075
 30
0.0
 40
7.411971477099651
  1
No
  7
WMF-ＭＳ Ｐゴシック0
100
AcDbText
  0
TEXT
  5
511
330
18
100
AcDbEntity
  8
0
370
     0
100
AcDbText
 10
752.1754990781382
 20
687.5792048726075
 30
0.0
 40
7.411971477099651
  1
部品名
  7
WMF-ＭＳ Ｐゴシック0
100
AcDbText
  0
TEXT
  5
512
330
18
100
AcDbEntity
  8
0
370
     0
100
AcDbText
 10
825.4529443631007
 20
687.5792048726075
 30
0.0
 40
7.411971477099651
  1
数量
  7
WMF-ＭＳ Ｐゴシック0
100
AcDbText
  0
TEXT
  5
513
330
18
100
AcDbEntity
  8
0
370
     0
100
AcDbText
 10
870.9354966089394
 20
687.5792048726075
 30
0.0
 40
7.411971477099651
  1
材質又は定格
  7
WMF-ＭＳ Ｐゴシック0
100
AcDbText
  0
TEXT
  5
514
330
18
100
AcDbEntity
  8
0
370
     0
100
AcDbText
 10
702.4815994021292
 20
673.2606236100289
 30
0.0
 40
7.411971477099651
  1
1
  7
WMF-ＭＳ Ｐゴシック0
100
AcDbText
  0
TEXT
  5
515
330
18
100
AcDbEntity
  8
0
370
     0
100
AcDbText
 10
718.4847196367761
 20
673.2606236100289
 30
0.0
 40
7.411971477099651
  1
本体
  7
WMF-ＭＳ Ｐゴシック0
100
AcDbText
  0
TEXT
  5
516
330
18
100
AcDbEntity
  8
0
370
     0
100
AcDbText
 10
833.033369737407
 20
673.2606236100289
 30
0.0
 40
7.411971477099651
  1
1
  7
WMF-ＭＳ Ｐゴシック0
100
AcDbText
  0
TEXT
  5
517
330
18
100
AcDbEntity
  8
0
370
     0
100
AcDbText
 10
854.0901068882583
 20
673.2606236100289
 30
0.0
 40
7.411971477099651
  1
ステンレス
  7
WMF-ＭＳ Ｐゴシック0
100
AcDbText
  0
TEXT
  5
518
330
18
100
AcDbEntity
  8
0
370
     0
100
AcDbText
 10
702.4815994021292
 20
658.94204234745
 30
0.0
 40
7.411971477099651
  1
2
  7
WMF-ＭＳ Ｐゴシック0
100
AcDbText
  0
TEXT
  5
519
330
18
100
AcDbEntity
  8
0
370
     0
100
AcDbText
 10
718.4847196367761
 20
658.94204234745
 30
0.0
 40
7.411971477099651
  1
内鍋
  7
WMF-ＭＳ Ｐゴシック0
100
AcDbText
  0
TEXT
  5
51A
330
18
100
AcDbEntity
  8
0
370
     0
100
AcDbText
 10
833.033369737407
 20
658.94204234745
 30
0.0
 40
7.411971477099651
  1
1
  7
WMF-ＭＳ Ｐゴシック0
100
AcDbText
  0
TEXT
  5
51B
330
18
100
AcDbEntity
  8
0
370
     0
100
AcDbText
 10
854.0901068882583
 20
658.94204234745
 30
0.0
 40
7.411971477099651
  1
ステンレス
  7
WMF-ＭＳ Ｐゴシック0
100
AcDbText
  0
TEXT
  5
51C
330
18
100
AcDbEntity
  8
0
370
     0
100
AcDbText
 10
702.4815994021292
 20
644.6234610848709
 30
0.0
 40
7.411971477099651
  1
3
  7
WMF-ＭＳ Ｐゴシック0
100
AcDbText
  0
TEXT
  5
51D
330
18
100
AcDbEntity
  8
0
370
     0
100
AcDbText
 10
718.4847196367761
 20
644.6234610848709
 30
0.0
 40
7.411971477099651
  1
ヒータープレート
  7
WMF-ＭＳ Ｐゴシック0
100
AcDbText
  0
TEXT
  5
51E
330
18
100
AcDbEntity
  8
0
370
     0
100
AcDbText
 10
833.033369737407
 20
644.6234610848709
 30
0.0
 40
7.411971477099651
  1
1
  7
WMF-ＭＳ Ｐゴシック0
100
AcDbText
  0
TEXT
  5
51F
330
18
100
AcDbEntity
  8
0
370
     0
100
AcDbText
 10
854.0901068882583
 20
644.6234610848709
 30
0.0
 40
7.411971477099651
  1
アルミ
  7
WMF-ＭＳ Ｐゴシック0
100
AcDbText
  0
TEXT
  5
520
330
18
100
AcDbEntity
  8
0
370
     0
100
AcDbText
 10
702.4815994021292
 20
630.3048798222922
 30
0.0
 40
7.411971477099651
  1
4
  7
WMF-ＭＳ Ｐゴシック0
100
AcDbText
  0
TEXT
  5
521
330
18
100
AcDbEntity
  8
0
370
     0
100
AcDbText
 10
718.4847196367761
 20
630.3048798222922
 30
0.0
 40
7.411971477099651
  1
仕切板
  7
WMF-ＭＳ Ｐゴシック0
100
AcDbText
  0
TEXT
  5
522
330
18
100
AcDbEntity
  8
0
370
     0
100
AcDbText
 10
833.033369737407
 20
630.3048798222922
 30
0.0
 40
7.411971477099651
  1
1
  7
WMF-ＭＳ Ｐゴシック0
100
AcDbText
  0
TEXT
  5
523
330
18
100
AcDbEntity
  8
0
370
     0
100
AcDbText
 10
854.0901068882583
 20
630.3048798222922
 30
0.0
 40
7.411971477099651
  1
ステンレス　四つ切り
  7
WMF-ＭＳ Ｐゴシック0
100
AcDbText
  0
TEXT
  5
524
330
18
100
AcDbEntity
  8
0
370
     0
100
AcDbText
 10
702.4815994021292
 20
615.1440290736792
 30
0.0
 40
7.411971477099651
  1
5
  7
WMF-ＭＳ Ｐゴシック0
100
AcDbText
  0
TEXT
  5
525
330
18
100
AcDbEntity
  8
0
370
     0
100
AcDbText
 10
718.4847196367761
 20
615.1440290736792
 30
0.0
 40
7.411971477099651
  1
蓋
  7
WMF-ＭＳ Ｐゴシック0
100
AcDbText
  0
TEXT
  5
526
330
18
100
AcDbEntity
  8
0
370
     0
100
AcDbText
 10
833.033369737407
 20
615.1440290736792
 30
0.0
 40
7.411971477099651
  1
1
  7
WMF-ＭＳ Ｐゴシック0
100
AcDbText
  0
TEXT
  5
527
330
18
100
AcDbEntity
  8
0
370
     0
100
AcDbText
 10
854.0901068882583
 20
615.1440290736792
 30
0.0
 40
7.411971477099651
  1
木製
  7
WMF-ＭＳ Ｐゴシック0
100
AcDbText
  0
TEXT
  5
528
330
18
100
AcDbEntity
  8
0
370
     0
100
AcDbText
 10
702.4815994021292
 20
599.9831783250661
 30
0.0
 40
7.411971477099651
  1
6
  7
WMF-ＭＳ Ｐゴシック0
100
AcDbText
  0
TEXT
  5
529
330
18
100
AcDbEntity
  8
0
370
     0
100
AcDbText
 10
718.4847196367761
 20
599.9831783250661
 30
0.0
 40
7.411971477099651
  1
ヒーター
  7
WMF-ＭＳ Ｐゴシック0
100
AcDbText
  0
TEXT
  5
52A
330
18
100
AcDbEntity
  8
0
370
     0
100
AcDbText
 10
833.033369737407
 20
599.9831783250661
 30
0.0
 40
7.411971477099651
  1
1
  7
WMF-ＭＳ Ｐゴシック0
100
AcDbText
  0
TEXT
  5
52B
330
18
100
AcDbEntity
  8
0
370
     0
100
AcDbText
 10
854.0901068882583
 20
599.9831783250661
 30
0.0
 40
7.411971477099651
  1
100V750W
  7
WMF-ＭＳ Ｐゴシック0
100
AcDbText
  0
TEXT
  5
52C
330
18
100
AcDbEntity
  8
0
370
     0
100
AcDbText
 10
702.4815994021292
 20
584.8223275764535
 30
0.0
 40
7.411971477099651
  1
7
  7
WMF-ＭＳ Ｐゴシック0
100
AcDbText
  0
TEXT
  5
52D
330
18
100
AcDbEntity
  8
0
370
     0
100
AcDbText
 10
718.4847196367761
 20
584.8223275764535
 30
0.0
 40
7.411971477099651
  1
ヒーターカバー
  7
WMF-ＭＳ Ｐゴシック0
100
AcDbText
  0
TEXT
  5
52E
330
18
100
AcDbEntity
  8
0
370
     0
100
AcDbText
 10
833.033369737407
 20
584.8223275764535
 30
0.0
 40
7.411971477099651
  1
1
  7
WMF-ＭＳ Ｐゴシック0
100
AcDbText
  0
TEXT
  5
52F
330
18
100
AcDbEntity
  8
0
370
     0
100
AcDbText
 10
854.0901068882583
 20
584.8223275764535
 30
0.0
 40
7.411971477099651
  1
鋼板
  7
WMF-ＭＳ Ｐゴシック0
100
AcDbText
  0
TEXT
  5
530
330
18
100
AcDbEntity
  8
0
370
     0
100
AcDbText
 10
702.4815994021292
 20
569.6614768278406
 30
0.0
 40
7.411971477099651
  1
8
  7
WMF-ＭＳ Ｐゴシック0
100
AcDbText
  0
TEXT
  5
531
330
18
100
AcDbEntity
  8
0
370
     0
100
AcDbText
 10
718.4847196367761
 20
569.6614768278406
 30
0.0
 40
7.411971477099651
  1
温度センサー
  7
WMF-ＭＳ Ｐゴシック0
100
AcDbText
  0
TEXT
  5
532
330
18
100
AcDbEntity
  8
0
370
     0
100
AcDbText
 10
833.033369737407
 20
569.6614768278406
 30
0.0
 40
7.411971477099651
  1
1
  7
WMF-ＭＳ Ｐゴシック0
100
AcDbText
  0
TEXT
  5
533
330
18
100
AcDbEntity
  8
0
370
     0
100
AcDbText
 10
702.4815994021292
 20
554.5006260792274
 30
0.0
 40
7.411971477099651
  1
9
  7
WMF-ＭＳ Ｐゴシック0
100
AcDbText
  0
TEXT
  5
534
330
18
100
AcDbEntity
  8
0
370
     0
100
AcDbText
 10
718.4847196367761
 20
554.5006260792274
 30
0.0
 40
7.411971477099651
  1
温度センサーカバー
  7
WMF-ＭＳ Ｐゴシック0
100
AcDbText
  0
TEXT
  5
535
330
18
100
AcDbEntity
  8
0
370
     0
100
AcDbText
 10
833.033369737407
 20
554.5006260792274
 30
0.0
 40
7.411971477099651
  1
1
  7
WMF-ＭＳ Ｐゴシック0
100
AcDbText
  0
TEXT
  5
536
330
18
100
AcDbEntity
  8
0
370
     0
100
AcDbText
 10
854.0901068882583
 20
554.5006260792274
 30
0.0
 40
7.411971477099651
  1
アルミ
  7
WMF-ＭＳ Ｐゴシック0
100
AcDbText
  0
TEXT
  5
537
330
18
100
AcDbEntity
  8
0
370
     0
100
AcDbText
 10
699.1125214579932
 20
539.3397753306149
 30
0.0
 40
7.411971477099651
  1
10
  7
WMF-ＭＳ Ｐゴシック0
100
AcDbText
  0
TEXT
  5
538
330
18
100
AcDbEntity
  8
0
370
     0
100
AcDbText
 10
718.4847196367761
 20
539.3397753306149
 30
0.0
 40
7.411971477099651
  1
電源スイッチ
  7
WMF-ＭＳ Ｐゴシック0
100
AcDbText
  0
TEXT
  5
539
330
18
100
AcDbEntity
  8
0
370
     0
100
AcDbText
 10
833.033369737407
 20
539.3397753306149
 30
0.0
 40
7.411971477099651
  1
1
  7
WMF-ＭＳ Ｐゴシック0
100
AcDbText
  0
TEXT
  5
53A
330
18
100
AcDbEntity
  8
0
370
     0
100
AcDbText
 10
699.1125214579932
 20
524.1789245820018
 30
0.0
 40
7.411971477099651
  1
11
  7
WMF-ＭＳ Ｐゴシック0
100
AcDbText
  0
TEXT
  5
53B
330
18
100
AcDbEntity
  8
0
370
     0
100
AcDbText
 10
718.4847196367761
 20
524.1789245820018
 30
0.0
 40
7.411971477099651
  1
パイロットランプ
  7
WMF-ＭＳ Ｐゴシック0
100
AcDbText
  0
TEXT
  5
53C
330
18
100
AcDbEntity
  8
0
370
     0
100
AcDbText
 10
833.033369737407
 20
524.1789245820018
 30
0.0
 40
7.411971477099651
  1
1
  7
WMF-ＭＳ Ｐゴシック0
100
AcDbText
  0
TEXT
  5
53E
330
18
100
AcDbEntity
  8
0
370
     0
100
AcDbText
 10
699.1125214579932
 20
509.0180738333888
 30
0.0
 40
7.411971477099651
  1
12
  7
WMF-ＭＳ Ｐゴシック0
100
AcDbText
  0
TEXT
  5
53F
330
18
100
AcDbEntity
  8
0
370
     0
100
AcDbText
 10
718.4847196367761
 20
509.0180738333888
 30
0.0
 40
7.411971477099651
  1
温度調節器
  7
WMF-ＭＳ Ｐゴシック0
100
AcDbText
  0
TEXT
  5
540
330
18
100
AcDbEntity
  8
0
370
     0
100
AcDbText
 10
833.033369737407
 20
509.0180738333888
 30
0.0
 40
7.411971477099651
  1
1
  7
WMF-ＭＳ Ｐゴシック0
100
AcDbText
  0
TEXT
  5
542
330
18
100
AcDbEntity
  8
0
370
     0
100
AcDbText
 10
699.1125214579932
 20
493.8572230847758
 30
0.0
 40
7.411971477099651
  1
13
  7
WMF-ＭＳ Ｐゴシック0
100
AcDbText
  0
TEXT
  5
543
330
18
100
AcDbEntity
  8
0
370
     0
100
AcDbText
 10
718.4847196367761
 20
493.8572230847758
 30
0.0
 40
7.411971477099651
  1
ゴム脚
  7
WMF-ＭＳ Ｐゴシック0
100
AcDbText
  0
TEXT
  5
544
330
18
100
AcDbEntity
  8
0
370
     0
100
AcDbText
 10
833.033369737407
 20
493.8572230847758
 30
0.0
 40
7.411971477099651
  1
1
  7
WMF-ＭＳ Ｐゴシック0
100
AcDbText
  0
TEXT
  5
545
330
18
100
AcDbEntity
  8
0
370
     0
100
AcDbText
 10
854.0901068882583
 20
493.8572230847758
 30
0.0
 40
7.411971477099651
  1
合成ゴム
  7
WMF-ＭＳ Ｐゴシック0
100
AcDbText
  0
TEXT
  5
5CC
330
18
100
AcDbEntity
  8
0
370
     0
100
AcDbText
 10
705.9146795868456
 20
465.2774399118695
 30
0.0
 40
8.253728945209065
  1
電　　　源
  7
WMF-ＭＳ Ｐゴシック0
100
AcDbText
  0
TEXT
  5
5CD
330
18
100
AcDbEntity
  8
0
370
     0
100
AcDbText
 10
767.8176466759138
 20
465.2774399118695
 30
0.0
 40
8.253728945209065
  1
100Ｖ　50/60Ｈｚ
  7
WMF-ＭＳ Ｐゴシック0
100
AcDbText
  0
TEXT
  5
5CE
330
18
100
AcDbEntity
  8
0
370
     0
100
AcDbText
 10
705.9146795868456
 20
450.9921398143923
 30
0.0
 40
8.253728945209065
  1
消費電力
  7
WMF-ＭＳ Ｐゴシック0
100
AcDbText
  0
TEXT
  5
5CF
330
18
100
AcDbEntity
  8
0
370
     0
100
AcDbText
 10
767.8176466759138
 20
450.9921398143923
 30
0.0
 40
8.253728945209065
  1
750Ｗ
  7
WMF-ＭＳ Ｐゴシック0
100
AcDbText
  0
TEXT
  5
5D0
330
18
100
AcDbEntity
  8
0
370
     0
100
AcDbText
 10
705.9146795868456
 20
436.706839716915
 30
0.0
 40
8.253728945209065
  1
温度調節
  7
WMF-ＭＳ Ｐゴシック0
100
AcDbText
  0
TEXT
  5
5D1
330
18
100
AcDbEntity
  8
0
370
     0
100
AcDbText
 10
767.8176466759138
 20
436.706839716915
 30
0.0
 40
8.253728945209065
  1
可変式サーモスタット
  7
WMF-ＭＳ Ｐゴシック0
100
AcDbText
  0
TEXT
  5
5D2
330
18
100
AcDbEntity
  8
0
370
     0
100
AcDbText
 10
712.2637018523911
 20
422.4215396194378
 30
0.0
 40
8.253728945209065
  1
内容積
  7
WMF-ＭＳ Ｐゴシック0
100
AcDbText
  0
TEXT
  5
5D3
330
18
100
AcDbEntity
  8
0
370
     0
100
AcDbText
 10
767.8176466759138
 20
422.4215396194378
 30
0.0
 40
8.253728945209065
  1
8Ｌ
  7
WMF-ＭＳ Ｐゴシック0
100
AcDbText
  0
TEXT
  5
5D4
330
18
100
AcDbEntity
  8
0
370
     0
100
AcDbText
 10
705.9146795868456
 20
408.1362395219606
 30
0.0
 40
8.253728945209065
  1
質　　　量
  7
WMF-ＭＳ Ｐゴシック0
100
AcDbText
  0
TEXT
  5
5D5
330
18
100
AcDbEntity
  8
0
370
     0
100
AcDbText
 10
767.8176466759138
 20
408.1362395219606
 30
0.0
 40
8.253728945209065
  1
6Kg
  7
WMF-ＭＳ Ｐゴシック0
100
AcDbText
  0
POLYLINE
  5
5FB
330
18
100
AcDbEntity
  8
0
370
     0
100
AcDb2dPolyline
 66
     1
 10
0.0
 20
0.0
 30
0.0
  0
VERTEX
  5
5FC
330
5FB
100
AcDbEntity
  8
0
370
     0
100
AcDbVertex
100
AcDb2dVertex
 10
693.2166350557547
 20
477.9754844429604
 30
0.0
  0
VERTEX
  5
5FD
330
5FB
100
AcDbEntity
  8
0
370
     0
100
AcDbVertex
100
AcDb2dVertex
 10
954.3201757263105
 20
477.9754844429604
 30
0.0
  0
SEQEND
  5
5FE
330
5FB
100
AcDbEntity
  8
0
370
     0
  0
POLYLINE
  5
5FF
330
18
100
AcDbEntity
  8
0
370
     0
100
AcDb2dPolyline
 66
     1
 10
0.0
 20
0.0
 30
0.0
  0
VERTEX
  5
600
330
5FF
100
AcDbEntity
  8
0
370
     0
100
AcDbVertex
100
AcDb2dVertex
 10
693.2166350557547
 20
463.6901843454833
 30
0.0
  0
VERTEX
  5
601
330
5FF
100
AcDbEntity
  8
0
370
     0
100
AcDbVertex
100
AcDb2dVertex
 10
954.3201757263105
 20
463.6901843454833
 30
0.0
  0
SEQEND
  5
602
330
5FF
100
AcDbEntity
  8
0
370
     0
  0
POLYLINE
  5
603
330
18
100
AcDbEntity
  8
0
370
     0
100
AcDb2dPolyline
 66
     1
 10
0.0
 20
0.0
 30
0.0
  0
VERTEX
  5
604
330
603
100
AcDbEntity
  8
0
370
     0
100
AcDbVertex
100
AcDb2dVertex
 10
693.2166350557547
 20
449.4048842480057
 30
0.0
  0
VERTEX
  5
605
330
603
100
AcDbEntity
  8
0
370
     0
100
AcDbVertex
100
AcDb2dVertex
 10
954.3201757263105
 20
449.4048842480057
 30
0.0
  0
SEQEND
  5
606
330
603
100
AcDbEntity
  8
0
370
     0
  0
POLYLINE
  5
607
330
18
100
AcDbEntity
  8
0
370
     0
100
AcDb2dPolyline
 66
     1
 10
0.0
 20
0.0
 30
0.0
  0
VERTEX
  5
608
330
607
100
AcDbEntity
  8
0
370
     0
100
AcDbVertex
100
AcDb2dVertex
 10
693.2166350557547
 20
435.1195841505286
 30
0.0
  0
VERTEX
  5
609
330
607
100
AcDbEntity
  8
0
370
     0
100
AcDbVertex
100
AcDb2dVertex
 10
954.3201757263105
 20
435.1195841505288
 30
0.0
  0
SEQEND
  5
60A
330
607
100
AcDbEntity
  8
0
370
     0
  0
POLYLINE
  5
60B
330
18
100
AcDbEntity
  8
0
370
     0
100
AcDb2dPolyline
 66
     1
 10
0.0
 20
0.0
 30
0.0
  0
VERTEX
  5
60C
330
60B
100
AcDbEntity
  8
0
370
     0
100
AcDbVertex
100
AcDb2dVertex
 10
693.2166350557547
 20
420.8342840530514
 30
0.0
  0
VERTEX
  5
60D
330
60B
100
AcDbEntity
  8
0
370
     0
100
AcDbVertex
100
AcDb2dVertex
 10
954.3201757263105
 20
420.8342840530516
 30
0.0
  0
SEQEND
  5
60E
330
60B
100
AcDbEntity
  8
0
370
     0
  0
POLYLINE
  5
60F
330
18
100
AcDbEntity
  8
0
370
     0
100
AcDb2dPolyline
 66
     1
 10
0.0
 20
0.0
 30
0.0
  0
VERTEX
  5
610
330
60F
100
AcDbEntity
  8
0
370
     0
100
AcDbVertex
100
AcDb2dVertex
 10
693.2166350557547
 20
406.5489839555742
 30
0.0
  0
VERTEX
  5
611
330
60F
100
AcDbEntity
  8
0
370
     0
100
AcDbVertex
100
AcDb2dVertex
 10
954.3201757263105
 20
406.5489839555742
 30
0.0
  0
SEQEND
  5
612
330
60F
100
AcDbEntity
  8
0
370
     0
  0
POLYLINE
  5
613
330
18
100
AcDbEntity
  8
0
370
     0
100
AcDb2dPolyline
 66
     1
 10
0.0
 20
0.0
 30
0.0
  0
VERTEX
  5
614
330
613
100
AcDbEntity
  8
0
370
     0
100
AcDbVertex
100
AcDb2dVertex
 10
954.3201757263105
 20
477.9754844429604
 30
0.0
  0
VERTEX
  5
615
330
613
100
AcDbEntity
  8
0
370
     0
100
AcDbVertex
100
AcDb2dVertex
 10
954.3201757263105
 20
406.5489839555742
 30
0.0
  0
SEQEND
  5
616
330
613
100
AcDbEntity
  8
0
370
     0
  0
POLYLINE
  5
617
330
18
100
AcDbEntity
  8
0
370
     0
100
AcDb2dPolyline
 66
     1
 10
0.0
 20
0.0
 30
0.0
  0
VERTEX
  5
618
330
617
100
AcDbEntity
  8
0
370
     0
100
AcDbVertex
100
AcDb2dVertex
 10
765.4367633263339
 20
477.9754844429604
 30
0.0
  0
VERTEX
  5
619
330
617
100
AcDbEntity
  8
0
370
     0
100
AcDbVertex
100
AcDb2dVertex
 10
765.4367633263339
 20
406.5489839555742
 30
0.0
  0
SEQEND
  5
61A
330
617
100
AcDbEntity
  8
0
370
     0
  0
POLYLINE
  5
61B
330
18
100
AcDbEntity
  8
0
370
     0
100
AcDb2dPolyline
 66
     1
 10
0.0
 20
0.0
 30
0.0
  0
VERTEX
  5
61C
330
61B
100
AcDbEntity
  8
0
370
     0
100
AcDbVertex
100
AcDb2dVertex
 10
693.2166350557547
 20
477.9754844429604
 30
0.0
  0
VERTEX
  5
61D
330
61B
100
AcDbEntity
  8
0
370
     0
100
AcDbVertex
100
AcDb2dVertex
 10
693.2166350557549
 20
406.548983955574
 30
0.0
  0
SEQEND
  5
61E
330
61B
100
AcDbEntity
  8
0
370
     0
  0
POLYLINE
  5
61F
330
18
100
AcDbEntity
  8
0
370
     0
100
AcDb2dPolyline
 66
     1
 10
0.0
 20
0.0
 30
0.0
  0
VERTEX
  5
620
330
61F
100
AcDbEntity
  8
0
370
     0
100
AcDbVertex
100
AcDb2dVertex
 10
693.2166350557547
 20
492.172684112708
 30
0.0
  0
VERTEX
  5
621
330
61F
100
AcDbEntity
  8
0
370
     0
100
AcDbVertex
100
AcDb2dVertex
 10
954.3201757263105
 20
492.172684112708
 30
0.0
  0
SEQEND
  5
622
330
61F
100
AcDbEntity
  8
0
370
     0
  0
POLYLINE
  5
623
330
18
100
AcDbEntity
  8
0
370
     0
100
AcDb2dPolyline
 66
     1
 10
0.0
 20
0.0
 30
0.0
  0
VERTEX
  5
624
330
623
100
AcDbEntity
  8
0
370
     0
100
AcDbVertex
100
AcDb2dVertex
 10
693.2166350557547
 20
507.3335348613206
 30
0.0
  0
VERTEX
  5
625
330
623
100
AcDbEntity
  8
0
370
     0
100
AcDbVertex
100
AcDb2dVertex
 10
954.3201757263105
 20
507.3335348613206
 30
0.0
  0
SEQEND
  5
626
330
623
100
AcDbEntity
  8
0
370
     0
  0
POLYLINE
  5
627
330
18
100
AcDbEntity
  8
0
370
     0
100
AcDb2dPolyline
 66
     1
 10
0.0
 20
0.0
 30
0.0
  0
VERTEX
  5
628
330
627
100
AcDbEntity
  8
0
370
     0
100
AcDbVertex
100
AcDb2dVertex
 10
693.2166350557547
 20
522.4943856099335
 30
0.0
  0
VERTEX
  5
629
330
627
100
AcDbEntity
  8
0
370
     0
100
AcDbVertex
100
AcDb2dVertex
 10
954.3201757263105
 20
522.4943856099335
 30
0.0
  0
SEQEND
  5
62A
330
627
100
AcDbEntity
  8
0
370
     0
  0
POLYLINE
  5
62B
330
18
100
AcDbEntity
  8
0
370
     0
100
AcDb2dPolyline
 66
     1
 10
0.0
 20
0.0
 30
0.0
  0
VERTEX
  5
62C
330
62B
100
AcDbEntity
  8
0
370
     0
100
AcDbVertex
100
AcDb2dVertex
 10
693.2166350557547
 20
537.6552363585465
 30
0.0
  0
VERTEX
  5
62D
330
62B
100
AcDbEntity
  8
0
370
     0
100
AcDbVertex
100
AcDb2dVertex
 10
954.3201757263105
 20
537.6552363585466
 30
0.0
  0
SEQEND
  5
62E
330
62B
100
AcDbEntity
  8
0
370
     0
  0
POLYLINE
  5
62F
330
18
100
AcDbEntity
  8
0
370
     0
100
AcDb2dPolyline
 66
     1
 10
0.0
 20
0.0
 30
0.0
  0
VERTEX
  5
630
330
62F
100
AcDbEntity
  8
0
370
     0
100
AcDbVertex
100
AcDb2dVertex
 10
693.2166350557547
 20
552.8160871071595
 30
0.0
  0
VERTEX
  5
631
330
62F
100
AcDbEntity
  8
0
370
     0
100
AcDbVertex
100
AcDb2dVertex
 10
954.3201757263105
 20
552.8160871071596
 30
0.0
  0
SEQEND
  5
632
330
62F
100
AcDbEntity
  8
0
370
     0
  0
POLYLINE
  5
633
330
18
100
AcDbEntity
  8
0
370
     0
100
AcDb2dPolyline
 66
     1
 10
0.0
 20
0.0
 30
0.0
  0
VERTEX
  5
634
330
633
100
AcDbEntity
  8
0
370
     0
100
AcDbVertex
100
AcDb2dVertex
 10
693.2166350557547
 20
567.9769378557723
 30
0.0
  0
VERTEX
  5
635
330
633
100
AcDbEntity
  8
0
370
     0
100
AcDbVertex
100
AcDb2dVertex
 10
954.3201757263105
 20
567.9769378557723
 30
0.0
  0
SEQEND
  5
636
330
633
100
AcDbEntity
  8
0
370
     0
  0
POLYLINE
  5
637
330
18
100
AcDbEntity
  8
0
370
     0
100
AcDb2dPolyline
 66
     1
 10
0.0
 20
0.0
 30
0.0
  0
VERTEX
  5
638
330
637
100
AcDbEntity
  8
0
370
     0
100
AcDbVertex
100
AcDb2dVertex
 10
693.2166350557547
 20
583.1377886043854
 30
0.0
  0
VERTEX
  5
639
330
637
100
AcDbEntity
  8
0
370
     0
100
AcDbVertex
100
AcDb2dVertex
 10
954.3201757263105
 20
583.1377886043854
 30
0.0
  0
SEQEND
  5
63A
330
637
100
AcDbEntity
  8
0
370
     0
  0
POLYLINE
  5
63B
330
18
100
AcDbEntity
  8
0
370
     0
100
AcDb2dPolyline
 66
     1
 10
0.0
 20
0.0
 30
0.0
  0
VERTEX
  5
63C
330
63B
100
AcDbEntity
  8
0
370
     0
100
AcDbVertex
100
AcDb2dVertex
 10
693.2166350557547
 20
598.2986393529984
 30
0.0
  0
VERTEX
  5
63D
330
63B
100
AcDbEntity
  8
0
370
     0
100
AcDbVertex
100
AcDb2dVertex
 10
954.3201757263105
 20
598.2986393529984
 30
0.0
  0
SEQEND
  5
63E
330
63B
100
AcDbEntity
  8
0
370
     0
  0
POLYLINE
  5
63F
330
18
100
AcDbEntity
  8
0
370
     0
100
AcDb2dPolyline
 66
     1
 10
0.0
 20
0.0
 30
0.0
  0
VERTEX
  5
640
330
63F
100
AcDbEntity
  8
0
370
     0
100
AcDbVertex
100
AcDb2dVertex
 10
693.2166350557547
 20
613.4594901016111
 30
0.0
  0
VERTEX
  5
641
330
63F
100
AcDbEntity
  8
0
370
     0
100
AcDbVertex
100
AcDb2dVertex
 10
954.3201757263105
 20
613.4594901016111
 30
0.0
  0
SEQEND
  5
642
330
63F
100
AcDbEntity
  8
0
370
     0
  0
POLYLINE
  5
643
330
18
100
AcDbEntity
  8
0
370
     0
100
AcDb2dPolyline
 66
     1
 10
0.0
 20
0.0
 30
0.0
  0
VERTEX
  5
644
330
643
100
AcDbEntity
  8
0
370
     0
100
AcDbVertex
100
AcDb2dVertex
 10
693.2166350557547
 20
628.6203408502238
 30
0.0
  0
VERTEX
  5
645
330
643
100
AcDbEntity
  8
0
370
     0
100
AcDbVertex
100
AcDb2dVertex
 10
954.3201757263105
 20
628.620340850224
 30
0.0
  0
SEQEND
  5
646
330
643
100
AcDbEntity
  8
0
370
     0
  0
POLYLINE
  5
647
330
18
100
AcDbEntity
  8
0
370
     0
100
AcDb2dPolyline
 66
     1
 10
0.0
 20
0.0
 30
0.0
  0
VERTEX
  5
648
330
647
100
AcDbEntity
  8
0
370
     0
100
AcDbVertex
100
AcDb2dVertex
 10
693.2166350557547
 20
642.9389221128031
 30
0.0
  0
VERTEX
  5
649
330
647
100
AcDbEntity
  8
0
370
     0
100
AcDbVertex
100
AcDb2dVertex
 10
954.3201757263105
 20
642.9389221128031
 30
0.0
  0
SEQEND
  5
64A
330
647
100
AcDbEntity
  8
0
370
     0
  0
POLYLINE
  5
64B
330
18
100
AcDbEntity
  8
0
370
     0
100
AcDb2dPolyline
 66
     1
 10
0.0
 20
0.0
 30
0.0
  0
VERTEX
  5
64C
330
64B
100
AcDbEntity
  8
0
370
     0
100
AcDbVertex
100
AcDb2dVertex
 10
693.2166350557547
 20
657.2575033753818
 30
0.0
  0
VERTEX
  5
64D
330
64B
100
AcDbEntity
  8
0
370
     0
100
AcDbVertex
100
AcDb2dVertex
 10
954.3201757263105
 20
657.2575033753818
 30
0.0
  0
SEQEND
  5
64E
330
64B
100
AcDbEntity
  8
0
370
     0
  0
POLYLINE
  5
64F
330
18
100
AcDbEntity
  8
0
370
     0
100
AcDb2dPolyline
 66
     1
 10
0.0
 20
0.0
 30
0.0
  0
VERTEX
  5
650
330
64F
100
AcDbEntity
  8
0
370
     0
100
AcDbVertex
100
AcDb2dVertex
 10
693.2166350557547
 20
671.5760846379606
 30
0.0
  0
VERTEX
  5
651
330
64F
100
AcDbEntity
  8
0
370
     0
100
AcDbVertex
100
AcDb2dVertex
 10
954.3201757263105
 20
671.5760846379606
 30
0.0
  0
SEQEND
  5
652
330
64F
100
AcDbEntity
  8
0
370
     0
  0
POLYLINE
  5
653
330
18
100
AcDbEntity
  8
0
370
     0
100
AcDb2dPolyline
 66
     1
 10
0.0
 20
0.0
 30
0.0
  0
VERTEX
  5
654
330
653
100
AcDbEntity
  8
0
370
     0
100
AcDbVertex
100
AcDb2dVertex
 10
693.2166350557547
 20
685.8946659005396
 30
0.0
  0
VERTEX
  5
655
330
653
100
AcDbEntity
  8
0
370
     0
100
AcDbVertex
100
AcDb2dVertex
 10
954.3201757263105
 20
685.8946659005397
 30
0.0
  0
SEQEND
  5
656
330
653
100
AcDbEntity
  8
0
370
     0
  0
POLYLINE
  5
657
330
18
100
AcDbEntity
  8
0
370
     0
100
AcDb2dPolyline
 66
     1
 10
0.0
 20
0.0
 30
0.0
  0
VERTEX
  5
658
330
657
100
AcDbEntity
  8
0
370
     0
100
AcDbVertex
100
AcDb2dVertex
 10
693.2166350557547
 20
700.2132471631185
 30
0.0
  0
VERTEX
  5
659
330
657
100
AcDbEntity
  8
0
370
     0
100
AcDbVertex
100
AcDb2dVertex
 10
954.3201757263105
 20
700.2132471631185
 30
0.0
  0
SEQEND
  5
65A
330
657
100
AcDbEntity
  8
0
370
     0
  0
POLYLINE
  5
65B
330
18
100
AcDbEntity
  8
0
370
     0
100
AcDb2dPolyline
 66
     1
 10
0.0
 20
0.0
 30
0.0
  0
VERTEX
  5
65C
330
65B
100
AcDbEntity
  8
0
370
     0
100
AcDbVertex
100
AcDb2dVertex
 10
715.9579111786739
 20
700.2132471631185
 30
0.0
  0
VERTEX
  5
65D
330
65B
100
AcDbEntity
  8
0
370
     0
100
AcDbVertex
100
AcDb2dVertex
 10
715.9579111786738
 20
492.172684112708
 30
0.0
  0
SEQEND
  5
65E
330
65B
100
AcDbEntity
  8
0
370
     0
  0
POLYLINE
  5
65F
330
18
100
AcDbEntity
  8
0
370
     0
100
AcDb2dPolyline
 66
     1
 10
0.0
 20
0.0
 30
0.0
  0
VERTEX
  5
660
330
65F
100
AcDbEntity
  8
0
370
     0
100
AcDbVertex
100
AcDb2dVertex
 10
693.2166350557547
 20
700.2132471631185
 30
0.0
  0
VERTEX
  5
661
330
65F
100
AcDbEntity
  8
0
370
     0
100
AcDbVertex
100
AcDb2dVertex
 10
693.2166350557548
 20
492.172684112708
 30
0.0
  0
SEQEND
  5
662
330
65F
100
AcDbEntity
  8
0
370
     0
  0
POLYLINE
  5
663
330
18
100
AcDbEntity
  8
0
370
     0
100
AcDb2dPolyline
 66
     1
 10
0.0
 20
0.0
 30
0.0
  0
VERTEX
  5
664
330
663
100
AcDbEntity
  8
0
370
     0
100
AcDbVertex
100
AcDb2dVertex
 10
819.5570579608624
 20
700.2132471631185
 30
0.0
  0
VERTEX
  5
665
330
663
100
AcDbEntity
  8
0
370
     0
100
AcDbVertex
100
AcDb2dVertex
 10
819.5570579608624
 20
492.172684112708
 30
0.0
  0
SEQEND
  5
666
330
663
100
AcDbEntity
  8
0
370
     0
  0
POLYLINE
  5
667
330
18
100
AcDbEntity
  8
0
370
     0
100
AcDb2dPolyline
 66
     1
 10
0.0
 20
0.0
 30
0.0
  0
VERTEX
  5
668
330
667
100
AcDbEntity
  8
0
370
     0
100
AcDbVertex
100
AcDb2dVertex
 10
851.5632984301563
 20
700.2132471631185
 30
0.0
  0
VERTEX
  5
669
330
667
100
AcDbEntity
  8
0
370
     0
100
AcDbVertex
100
AcDb2dVertex
 10
851.5632984301563
 20
492.172684112708
 30
0.0
  0
SEQEND
  5
66A
330
667
100
AcDbEntity
  8
0
370
     0
  0
POLYLINE
  5
66B
330
18
100
AcDbEntity
  8
0
370
     0
100
AcDb2dPolyline
 66
     1
 10
0.0
 20
0.0
 30
0.0
  0
VERTEX
  5
66C
330
66B
100
AcDbEntity
  8
0
370
     0
100
AcDbVertex
100
AcDb2dVertex
 10
954.3201757263105
 20
700.2132471631185
 30
0.0
  0
VERTEX
  5
66D
330
66B
100
AcDbEntity
  8
0
370
     0
100
AcDbVertex
100
AcDb2dVertex
 10
954.3201757263105
 20
492.172684112708
 30
0.0
  0
SEQEND
  5
66E
330
66B
100
AcDbEntity
  8
0
370
     0
  0
TEXT
  5
890
330
18
100
AcDbEntity
  8
0
 62
     7
370
     0
100
AcDbText
 10
539.9647603192065
 20
42.39172013247759
 30
0.0
 40
6.121159545786768
  1
精
  7
WMF-ＭＳ Ｐゴシック0
100
AcDbText
  0
TEXT
  5
891
330
18
100
AcDbEntity
  8
0
 62
     7
370
     0
100
AcDbText
 10
557.0333782834193
 20
42.39172013247759
 30
0.0
 40
6.121159545786768
  1
中
  7
WMF-ＭＳ Ｐゴシック0
100
AcDbText
  0
TEXT
  5
892
330
18
100
AcDbEntity
  8
0
 62
     7
370
     0
100
AcDbText
 10
574.1019962476326
 20
42.39172013247759
 30
0.0
 40
6.121159545786768
  1
粗
  7
WMF-ＭＳ Ｐゴシック0
100
AcDbText
  0
TEXT
  5
893
330
18
100
AcDbEntity
  8
0
 62
     7
370
     0
100
AcDbText
 10
640.0221759714902
 20
42.39172013247759
 30
0.0
 40
6.121159545786768
  1
尺度
  7
WMF-ＭＳ Ｐゴシック0
100
AcDbText
  0
TEXT
  5
894
330
18
100
AcDbEntity
  8
0
 62
     7
370
     0
100
AcDbText
 10
670.0394006671752
 20
42.39172013247759
 30
0.0
 40
6.121159545786768
  1
～
  7
WMF-ＭＳ Ｐゴシック0
100
AcDbText
  0
TEXT
  5
895
330
18
100
AcDbEntity
  8
0
 62
     7
370
     0
100
AcDbText
 10
689.4623107643833
 20
42.39172013247759
 30
0.0
 40
6.121159545786768
  1
材質
  7
WMF-ＭＳ Ｐゴシック0
100
AcDbText
  0
TEXT
  5
896
330
18
100
AcDbEntity
  8
0
 62
     7
370
     0
100
AcDbText
 10
750.0853331890024
 20
42.39172013247759
 30
0.0
 40
6.121159545786768
  1
重量
  7
WMF-ＭＳ Ｐゴシック0
100
AcDbText
  0
TEXT
  5
897
330
18
100
AcDbEntity
  8
0
 62
     7
370
     0
100
AcDbText
 10
796.5826028156516
 20
42.39172013247759
 30
0.0
 40
6.121159545786768
  1
Kg
  7
WMF-ＭＳ Ｐゴシック0
100
AcDbText
  0
TEXT
  5
898
330
18
100
AcDbEntity
  8
0
 62
     7
370
     0
100
AcDbText
 10
813.6512207798649
 20
42.39172013247759
 30
0.0
 40
6.121159545786768
  1
処理
  7
WMF-ＭＳ Ｐゴシック0
100
AcDbText
  0
TEXT
  5
899
330
18
100
AcDbEntity
  8
0
 62
     7
370
     0
100
AcDbText
 10
901.937175767174
 20
42.39172013247759
 30
0.0
 40
6.121159545786768
  1
個数
  7
WMF-ＭＳ Ｐゴシック0
100
AcDbText
  0
TEXT
  5
89A
330
18
100
AcDbEntity
  8
0
 62
     7
370
     0
100
AcDbText
 10
937.8401307953463
 20
42.39172013247759
 30
0.0
 40
6.121159545786768
  1
1
  7
WMF-ＭＳ Ｐゴシック0
100
AcDbText
  0
TEXT
  5
89B
330
18
100
AcDbEntity
  8
0
 62
     7
370
     0
100
AcDbText
 10
449.3245131989024
 20
31.79740553400044
 30
0.0
 40
6.121159545786768
  1
設計
  7
WMF-ＭＳ Ｐゴシック0
100
AcDbText
  0
TEXT
  5
89C
330
18
100
AcDbEntity
  8
0
 62
     7
370
     0
100
AcDbText
 10
592.3477602783432
 20
31.79740553400044
 30
0.0
 40
6.121159545786768
  1
区
  7
WMF-ＭＳ Ｐゴシック0
100
AcDbText
  0
TEXT
  5
89D
330
18
100
AcDbEntity
  8
0
 62
     7
370
     0
100
AcDbText
 10
694.1708950303731
 20
31.79740553400044
 30
0.0
 40
6.121159545786768
  1
品
  7
WMF-ＭＳ Ｐゴシック0
100
AcDbText
  0
TEXT
  5
89E
330
18
100
AcDbEntity
  8
0
 62
     7
370
     0
100
AcDbText
 10
449.3245131989024
 20
21.20309093552328
 30
0.0
 40
6.121159545786768
  1
製図
  7
WMF-ＭＳ Ｐゴシック0
100
AcDbText
  0
TEXT
  5
89F
330
18
100
AcDbEntity
  8
0
 62
     7
370
     0
100
AcDbText
 10
502.296086191288
 20
21.20309093552328
 30
0.0
 40
6.121159545786768
  1
A・S
  7
WMF-ＭＳ Ｐゴシック0
100
AcDbText
  0
TEXT
  5
8A0
330
18
100
AcDbEntity
  8
0
 62
     7
370
     0
100
AcDbText
 10
592.3477602783432
 20
21.20309093552328
 30
0.0
 40
6.121159545786768
  1
分
  7
WMF-ＭＳ Ｐゴシック0
100
AcDbText
  0
TEXT
  5
8A1
330
18
100
AcDbEntity
  8
0
 62
     7
370
     0
100
AcDbText
 10
694.1708950303731
 20
21.20309093552328
 30
0.0
 40
6.121159545786768
  1
名
  7
WMF-ＭＳ Ｐゴシック0
100
AcDbText
  0
TEXT
  5
8A2
330
18
100
AcDbEntity
  8
0
 62
     7
370
     0
100
AcDbText
 10
817.7712320126058
 20
21.20309093552328
 30
0.0
 40
6.121159545786768
  1
図
  7
WMF-ＭＳ Ｐゴシック0
100
AcDbText
  0
TEXT
  5
8A3
330
18
100
AcDbEntity
  8
0
 62
     7
370
     0
100
AcDbText
 10
449.3245131989024
 20
10.60877633704625
 30
0.0
 40
6.121159545786768
  1
検図
  7
WMF-ＭＳ Ｐゴシック0
100
AcDbText
  0
TEXT
  5
8A4
330
18
100
AcDbEntity
  8
0
 62
     7
370
     0
100
AcDbText
 10
501.7075131580393
 20
10.60877633704625
 30
0.0
 40
6.121159545786768
  1
G・Y
  7
WMF-ＭＳ Ｐゴシック0
100
AcDbText
  0
TEXT
  5
8A5
330
18
100
AcDbEntity
  8
0
 62
     7
370
     0
100
AcDbText
 10
817.7712320126058
 20
10.60877633704625
 30
0.0
 40
6.121159545786768
  1
番
  7
WMF-ＭＳ Ｐゴシック0
100
AcDbText
  0
TEXT
  5
8A6
330
18
100
AcDbEntity
  8
0
 62
     7
370
     0
100
AcDbText
 10
449.3245131989024
 20
0.0144617385690935
 30
0.0
 40
6.121159545786768
  1
承認
  7
WMF-ＭＳ Ｐゴシック0
100
AcDbText
  0
TEXT
  5
8A7
330
18
100
AcDbEntity
  8
0
 62
     7
370
     0
100
AcDbText
 10
717.7138163603221
 20
21.79166396877207
 30
0.0
 40
9.888026958578626
  1
電気おでん鍋
  7
WMF-ＭＳ Ｐゴシック0
100
AcDbText
  0
TEXT
  5
8A8
330
18
100
AcDbEntity
  8
0
 62
     7
370
     0
100
AcDbText
 10
553.5019400839273
 20
21.20309093552328
 30
0.0
 40
6.121159545786768
  1
・　・
  7
WMF-ＭＳ Ｐゴシック0
100
AcDbText
  0
TEXT
  5
8A9
330
18
100
AcDbEntity
  8
0
 62
     7
370
     0
100
AcDbText
 10
553.5019400839273
 20
31.79740553400044
 30
0.0
 40
6.121159545786768
  1
・　・
  7
WMF-ＭＳ Ｐゴシック0
100
AcDbText
  0
TEXT
  5
8AA
330
18
100
AcDbEntity
  8
0
 62
     7
370
     0
100
AcDbText
 10
870.7428050049914
 20
11.19734937029491
 30
0.0
 40
7.533734825583713
  1
NW-201H
  7
WMF-ＭＳ Ｐゴシック1
100
AcDbText
  0
TEXT
  5
8AB
330
18
100
AcDbEntity
  8
0
 62
     7
370
     0
100
AcDbText
 10
553.5019400839273
 20
10.60877633704625
 30
0.0
 40
6.121159545786768
  1
・　・
  7
WMF-ＭＳ Ｐゴシック0
100
AcDbText
  0
TEXT
  5
8AC
330
18
100
AcDbEntity
  8
0
 62
     7
370
     0
100
AcDbText
 10
632.3707265392565
 20
1.191607805066546
 30
0.0
 40
10.82974381177659
  1
株式会社　アンナカ
  7
WMF-ＭＳ Ｐゴシック0
100
AcDbText
  0
TEXT
  5
8AD
330
18
100
AcDbEntity
  8
0
 62
     7
370
     0
100
AcDbText
 10
553.5019400839273
 20
0.0144617385690935
 30
0.0
 40
6.121159545786768
  1
・　・
  7
WMF-ＭＳ Ｐゴシック0
100
AcDbText
  0
TEXT
  5
8AE
330
18
100
AcDbEntity
  8
0
 62
     7
370
     0
100
AcDbText
 10
622.953558007277
 20
22.38023700202072
 30
0.0
 40
10.82974381177659
  1
承認図
  7
WMF-ＭＳ Ｐゴシック0
100
AcDbText
  0
TEXT
  5
8AF
330
18
100
AcDbEntity
  8
0
 62
     7
370
     0
100
AcDbText
 10
446.3816480326588
 20
42.39172013247759
 30
0.0
 40
6.121159545786768
  1
寸法差(JIS B 0405)
  7
WMF-ＭＳ Ｐゴシック0
100
AcDbText
  0
TEXT
  5
8B0
330
18
100
AcDbEntity
  8
0
 62
     7
370
     0
100
AcDbText
 10
595.290625444587
 20
42.39172013247759
 30
0.0
 40
6.121159545786768
  1
第３角法
  7
WMF-ＭＳ Ｐゴシック0
100
AcDbText
  0
POLYLINE
  5
8D5
330
18
100
AcDbEntity
  8
0
 62
     7
370
     0
100
AcDb2dPolyline
 66
     1
 10
0.0
 20
0.0
 30
0.0
  0
VERTEX
  5
8D6
330
8D5
100
AcDbEntity
  8
0
 62
     7
370
     0
100
AcDbVertex
100
AcDb2dVertex
 10
431.6673222014405
 20
20.02594486902583
 30
0.0
  0
VERTEX
  5
8D7
330
8D5
100
AcDbEntity
  8
0
 62
     7
370
     0
100
AcDbVertex
100
AcDb2dVertex
 10
807.7654904473776
 20
20.02594486902583
 30
0.0
  0
SEQEND
  5
8D8
330
8D5
100
AcDbEntity
  8
0
 62
     7
370
     0
  0
POLYLINE
  5
93E
330
18
100
AcDbEntity
  8
0
 62
     7
370
     0
100
AcDb2dPolyline
 66
     1
 10
0.0
 20
0.0
 30
0.0
  0
VERTEX
  5
93F
330
93E
100
AcDbEntity
  8
0
 62
     7
370
     0
100
AcDbVertex
100
AcDb2dVertex
 10
431.6673222014405
 20
51.80888866445718
 30
0.0
  0
VERTEX
  5
940
330
93E
100
AcDbEntity
  8
0
 62
     7
370
     0
100
AcDbVertex
100
AcDb2dVertex
 10
954.3201757263105
 20
51.8088886644573
 30
0.0
  0
SEQEND
  5
941
330
93E
100
AcDbEntity
  8
0
 62
     7
370
     0
  0
POLYLINE
  5
942
330
18
100
AcDbEntity
  8
0
 62
     7
370
     0
100
AcDb2dPolyline
 66
     1
 10
0.0
 20
0.0
 30
0.0
  0
VERTEX
  5
943
330
942
100
AcDbEntity
  8
0
 62
     7
370
     0
100
AcDbVertex
100
AcDb2dVertex
 10
431.6673222014405
 20
41.21457406598001
 30
0.0
  0
VERTEX
  5
944
330
942
100
AcDbEntity
  8
0
 62
     7
370
     0
100
AcDbVertex
100
AcDb2dVertex
 10
954.3201757263105
 20
41.21457406598001
 30
0.0
  0
SEQEND
  5
945
330
942
100
AcDbEntity
  8
0
 62
     7
370
     0
  0
POLYLINE
  5
946
330
18
100
AcDbEntity
  8
0
 62
     7
370
     0
100
AcDb2dPolyline
 66
     1
 10
0.0
 20
0.0
 30
0.0
  0
VERTEX
  5
947
330
946
100
AcDbEntity
  8
0
 62
     7
370
     0
100
AcDbVertex
100
AcDb2dVertex
 10
431.6673222014405
 20
-1.162684327928346
 30
0.0
  0
VERTEX
  5
948
330
946
100
AcDbEntity
  8
0
 62
     7
370
     0
100
AcDbVertex
100
AcDb2dVertex
 10
954.3201757263105
 20
-1.162684327928218
 30
0.0
  0
SEQEND
  5
949
330
946
100
AcDbEntity
  8
0
 62
     7
370
     0
  0
POLYLINE
  5
958
330
18
100
AcDbEntity
  8
0
 62
     7
370
     0
100
AcDb2dPolyline
 66
     1
 10
0.0
 20
0.0
 30
0.0
  0
VERTEX
  5
959
330
958
100
AcDbEntity
  8
0
 62
     7
370
     0
100
AcDbVertex
100
AcDb2dVertex
 10
954.3201757263105
 20
51.8088886644573
 30
0.0
  0
VERTEX
  5
95A
330
958
100
AcDbEntity
  8
0
 62
     7
370
     0
100
AcDbVertex
100
AcDb2dVertex
 10
954.3201757263107
 20
-1.162684327928218
 30
0.0
  0
SEQEND
  5
95B
330
958
100
AcDbEntity
  8
0
 62
     7
370
     0
  0
POLYLINE
  5
95C
330
18
100
AcDbEntity
  8
0
 62
     7
370
     0
100
AcDb2dPolyline
 66
     1
 10
0.0
 20
0.0
 30
0.0
  0
VERTEX
  5
95D
330
95C
100
AcDbEntity
  8
0
 62
     7
370
     0
100
AcDbVertex
100
AcDb2dVertex
 10
431.6673222014405
 20
51.80888866445718
 30
0.0
  0
VERTEX
  5
95E
330
95C
100
AcDbEntity
  8
0
 62
     7
370
     0
100
AcDbVertex
100
AcDb2dVertex
 10
431.6673222014405
 20
-1.162684327928346
 30
0.0
  0
SEQEND
  5
95F
330
95C
100
AcDbEntity
  8
0
 62
     7
370
     0
  0
POLYLINE
  5
960
330
18
100
AcDbEntity
  8
0
 62
     7
370
     0
100
AcDb2dPolyline
 66
     1
 10
0.0
 20
0.0
 30
0.0
  0
VERTEX
  5
961
330
960
100
AcDbEntity
  8
0
 62
     7
370
     0
100
AcDbVertex
100
AcDb2dVertex
 10
483.4617491273285
 20
41.21457406598
 30
0.0
  0
VERTEX
  5
962
330
960
100
AcDbEntity
  8
0
 62
     7
370
     0
100
AcDbVertex
100
AcDb2dVertex
 10
483.4617491273285
 20
-1.162684327928333
 30
0.0
  0
SEQEND
  5
963
330
960
100
AcDbEntity
  8
0
 62
     7
370
     0
  0
POLYLINE
  5
964
330
18
100
AcDbEntity
  8
0
 62
     7
370
     0
100
AcDb2dPolyline
 66
     1
 10
0.0
 20
0.0
 30
0.0
  0
VERTEX
  5
965
330
964
100
AcDbEntity
  8
0
 62
     7
370
     0
100
AcDbVertex
100
AcDb2dVertex
 10
535.2561760532167
 20
51.80888866445721
 30
0.0
  0
VERTEX
  5
966
330
964
100
AcDbEntity
  8
0
 62
     7
370
     0
100
AcDbVertex
100
AcDb2dVertex
 10
535.2561760532167
 20
-1.16268432792832
 30
0.0
  0
SEQEND
  5
967
330
964
100
AcDbEntity
  8
0
 62
     7
370
     0
  0
POLYLINE
  5
968
330
18
100
AcDbEntity
  8
0
 62
     7
370
     0
100
AcDb2dPolyline
 66
     1
 10
0.0
 20
0.0
 30
0.0
  0
VERTEX
  5
969
330
968
100
AcDbEntity
  8
0
 62
     7
370
     0
100
AcDbVertex
100
AcDb2dVertex
 10
586.4620299458561
 20
51.80888866445722
 30
0.0
  0
VERTEX
  5
96A
330
968
100
AcDbEntity
  8
0
 62
     7
370
     0
100
AcDbVertex
100
AcDb2dVertex
 10
586.4620299458561
 20
-1.162684327928308
 30
0.0
  0
SEQEND
  5
96B
330
968
100
AcDbEntity
  8
0
 62
     7
370
     0
  0
POLYLINE
  5
96C
330
18
100
AcDbEntity
  8
0
 62
     7
370
     0
100
AcDb2dPolyline
 66
     1
 10
0.0
 20
0.0
 30
0.0
  0
VERTEX
  5
96D
330
96C
100
AcDbEntity
  8
0
 62
     7
370
     0
100
AcDbVertex
100
AcDb2dVertex
 10
569.3934119816429
 20
51.80888866445721
 30
0.0
  0
VERTEX
  5
96E
330
96C
100
AcDbEntity
  8
0
 62
     7
370
     0
100
AcDbVertex
100
AcDb2dVertex
 10
569.3934119816429
 20
41.21457406598
 30
0.0
  0
SEQEND
  5
96F
330
96C
100
AcDbEntity
  8
0
 62
     7
370
     0
  0
POLYLINE
  5
970
330
18
100
AcDbEntity
  8
0
 62
     7
370
     0
100
AcDb2dPolyline
 66
     1
 10
0.0
 20
0.0
 30
0.0
  0
VERTEX
  5
971
330
970
100
AcDbEntity
  8
0
 62
     7
370
     0
100
AcDbVertex
100
AcDb2dVertex
 10
552.3247940174297
 20
51.80888866445721
 30
0.0
  0
VERTEX
  5
972
330
970
100
AcDbEntity
  8
0
 62
     7
370
     0
100
AcDbVertex
100
AcDb2dVertex
 10
552.3247940174297
 20
41.21457406598
 30
0.0
  0
SEQEND
  5
973
330
970
100
AcDbEntity
  8
0
 62
     7
370
     0
  0
POLYLINE
  5
974
330
18
100
AcDbEntity
  8
0
 62
     7
370
     0
100
AcDb2dPolyline
 66
     1
 10
0.0
 20
0.0
 30
0.0
  0
VERTEX
  5
975
330
974
100
AcDbEntity
  8
0
 62
     7
370
     0
100
AcDbVertex
100
AcDb2dVertex
 10
605.8849400430639
 20
41.21457406598001
 30
0.0
  0
VERTEX
  5
976
330
974
100
AcDbEntity
  8
0
 62
     7
370
     0
100
AcDbVertex
100
AcDb2dVertex
 10
605.8849400430637
 20
20.02594486902583
 30
0.0
  0
SEQEND
  5
977
330
974
100
AcDbEntity
  8
0
 62
     7
370
     0
  0
POLYLINE
  5
978
330
18
100
AcDbEntity
  8
0
 62
     7
370
     0
100
AcDb2dPolyline
 66
     1
 10
0.0
 20
0.0
 30
0.0
  0
VERTEX
  5
979
330
978
100
AcDbEntity
  8
0
 62
     7
370
     0
100
AcDbVertex
100
AcDb2dVertex
 10
431.6673222014405
 20
9.431630270548819
 30
0.0
  0
VERTEX
  5
97A
330
978
100
AcDbEntity
  8
0
 62
     7
370
     0
100
AcDbVertex
100
AcDb2dVertex
 10
586.4620299458561
 20
9.431630270548815
 30
0.0
  0
SEQEND
  5
97B
330
978
100
AcDbEntity
  8
0
 62
     7
370
     0
  0
POLYLINE
  5
97C
330
18
100
AcDbEntity
  8
0
 62
     7
370
     0
100
AcDb2dPolyline
 66
     1
 10
0.0
 20
0.0
 30
0.0
  0
VERTEX
  5
97D
330
97C
100
AcDbEntity
  8
0
 62
     7
370
     0
100
AcDbVertex
100
AcDb2dVertex
 10
635.3135917055003
 20
51.80888866445723
 30
0.0
  0
VERTEX
  5
97E
330
97C
100
AcDbEntity
  8
0
 62
     7
370
     0
100
AcDbVertex
100
AcDb2dVertex
 10
635.3135917055003
 20
41.21457406598001
 30
0.0
  0
SEQEND
  5
97F
330
97C
100
AcDbEntity
  8
0
 62
     7
370
     0
  0
POLYLINE
  5
980
330
18
100
AcDbEntity
  8
0
 62
     7
370
     0
100
AcDb2dPolyline
 66
     1
 10
0.0
 20
0.0
 30
0.0
  0
VERTEX
  5
981
330
980
100
AcDbEntity
  8
0
 62
     7
370
     0
100
AcDbVertex
100
AcDb2dVertex
 10
661.2108051684442
 20
51.80888866445723
 30
0.0
  0
VERTEX
  5
982
330
980
100
AcDbEntity
  8
0
 62
     7
370
     0
100
AcDbVertex
100
AcDb2dVertex
 10
661.2108051684442
 20
41.21457406598001
 30
0.0
  0
SEQEND
  5
983
330
980
100
AcDbEntity
  8
0
 62
     7
370
     0
  0
POLYLINE
  5
984
330
18
100
AcDbEntity
  8
0
 62
     7
370
     0
100
AcDb2dPolyline
 66
     1
 10
0.0
 20
0.0
 30
0.0
  0
VERTEX
  5
985
330
984
100
AcDbEntity
  8
0
 62
     7
370
     0
100
AcDbVertex
100
AcDb2dVertex
 10
686.5194455981396
 20
51.80888866445723
 30
0.0
  0
VERTEX
  5
986
330
984
100
AcDbEntity
  8
0
 62
     7
370
     0
100
AcDbVertex
100
AcDb2dVertex
 10
686.5194455981396
 20
20.02594486902583
 30
0.0
  0
SEQEND
  5
987
330
984
100
AcDbEntity
  8
0
 62
     7
370
     0
  0
POLYLINE
  5
988
330
18
100
AcDbEntity
  8
0
 62
     7
370
     0
100
AcDb2dPolyline
 66
     1
 10
0.0
 20
0.0
 30
0.0
  0
VERTEX
  5
989
330
988
100
AcDbEntity
  8
0
 62
     7
370
     0
100
AcDbVertex
100
AcDb2dVertex
 10
709.47379389484
 20
51.80888866445724
 30
0.0
  0
VERTEX
  5
98A
330
988
100
AcDbEntity
  8
0
 62
     7
370
     0
100
AcDbVertex
100
AcDb2dVertex
 10
709.47379389484
 20
20.02594486902583
 30
0.0
  0
SEQEND
  5
98B
330
988
100
AcDbEntity
  8
0
 62
     7
370
     0
  0
POLYLINE
  5
98C
330
18
100
AcDbEntity
  8
0
 62
     7
370
     0
100
AcDb2dPolyline
 66
     1
 10
0.0
 20
0.0
 30
0.0
  0
VERTEX
  5
98D
330
98C
100
AcDbEntity
  8
0
 62
     7
370
     0
100
AcDbVertex
100
AcDb2dVertex
 10
770.0968163194588
 20
51.80888866445727
 30
0.0
  0
VERTEX
  5
98E
330
98C
100
AcDbEntity
  8
0
 62
     7
370
     0
100
AcDbVertex
100
AcDb2dVertex
 10
770.0968163194588
 20
41.21457406598001
 30
0.0
  0
SEQEND
  5
98F
330
98C
100
AcDbEntity
  8
0
 62
     7
370
     0
  0
POLYLINE
  5
990
330
18
100
AcDbEntity
  8
0
 62
     7
370
     0
100
AcDb2dPolyline
 66
     1
 10
0.0
 20
0.0
 30
0.0
  0
VERTEX
  5
991
330
990
100
AcDbEntity
  8
0
 62
     7
370
     0
100
AcDbVertex
100
AcDb2dVertex
 10
747.1424680227586
 20
51.80888866445726
 30
0.0
  0
VERTEX
  5
992
330
990
100
AcDbEntity
  8
0
 62
     7
370
     0
100
AcDbVertex
100
AcDb2dVertex
 10
747.1424680227586
 20
41.21457406598001
 30
0.0
  0
SEQEND
  5
993
330
990
100
AcDbEntity
  8
0
 62
     7
370
     0
  0
POLYLINE
  5
994
330
18
100
AcDbEntity
  8
0
 62
     7
370
     0
100
AcDb2dPolyline
 66
     1
 10
0.0
 20
0.0
 30
0.0
  0
VERTEX
  5
995
330
994
100
AcDbEntity
  8
0
 62
     7
370
     0
100
AcDbVertex
100
AcDb2dVertex
 10
836.605569076565
 20
51.80888866445727
 30
0.0
  0
VERTEX
  5
996
330
994
100
AcDbEntity
  8
0
 62
     7
370
     0
100
AcDbVertex
100
AcDb2dVertex
 10
836.6055690765652
 20
-1.162684327928247
 30
0.0
  0
SEQEND
  5
997
330
994
100
AcDbEntity
  8
0
 62
     7
370
     0
  0
POLYLINE
  5
998
330
18
100
AcDbEntity
  8
0
 62
     7
370
     0
100
AcDb2dPolyline
 66
     1
 10
0.0
 20
0.0
 30
0.0
  0
VERTEX
  5
999
330
998
100
AcDbEntity
  8
0
 62
     7
370
     0
100
AcDbVertex
100
AcDb2dVertex
 10
807.1769174141287
 20
51.80888866445727
 30
0.0
  0
VERTEX
  5
99A
330
998
100
AcDbEntity
  8
0
 62
     7
370
     0
100
AcDbVertex
100
AcDb2dVertex
 10
807.1769174141287
 20
-1.162684327928254
 30
0.0
  0
SEQEND
  5
99B
330
998
100
AcDbEntity
  8
0
 62
     7
370
     0
  0
POLYLINE
  5
99C
330
18
100
AcDbEntity
  8
0
 62
     7
370
     0
100
AcDb2dPolyline
 66
     1
 10
0.0
 20
0.0
 30
0.0
  0
VERTEX
  5
99D
330
99C
100
AcDbEntity
  8
0
 62
     7
370
     0
100
AcDbVertex
100
AcDb2dVertex
 10
895.4628724014382
 20
51.80888866445729
 30
0.0
  0
VERTEX
  5
99E
330
99C
100
AcDbEntity
  8
0
 62
     7
370
     0
100
AcDbVertex
100
AcDb2dVertex
 10
895.4628724014382
 20
41.21457406598001
 30
0.0
  0
SEQEND
  5
99F
330
99C
100
AcDbEntity
  8
0
 62
     7
370
     0
  0
POLYLINE
  5
9A0
330
18
100
AcDbEntity
  8
0
 62
     7
370
     0
100
AcDb2dPolyline
 66
     1
 10
0.0
 20
0.0
 30
0.0
  0
VERTEX
  5
9A1
330
9A0
100
AcDbEntity
  8
0
 62
     7
370
     0
100
AcDbVertex
100
AcDb2dVertex
 10
924.8915240638741
 20
51.8088886644573
 30
0.0
  0
VERTEX
  5
9A2
330
9A0
100
AcDbEntity
  8
0
 62
     7
370
     0
100
AcDbVertex
100
AcDb2dVertex
 10
924.8915240638744
 20
41.21457406598001
 30
0.0
  0
SEQEND
  5
9A3
330
9A0
100
AcDbEntity
  8
0
 62
     7
370
     0
  0
POLYLINE
  5
9A6
330
18
100
AcDbEntity
  8
0
 62
     7
370
     0
100
AcDb2dPolyline
 66
     1
 10
0.0
 20
0.0
 30
0.0
  0
VERTEX
  5
9A7
330
9A6
100
AcDbEntity
  8
0
 62
     7
370
     0
100
AcDbVertex
100
AcDb2dVertex
 10
431.6673222014405
 20
30.62025946750299
 30
0.0
  0
VERTEX
  5
9A8
330
9A6
100
AcDbEntity
  8
0
 62
     7
370
     0
100
AcDbVertex
100
AcDb2dVertex
 10
586.4620299458561
 20
30.62025946750299
 30
0.0
  0
SEQEND
  5
9A9
330
9A6
100
AcDbEntity
  8
0
 62
     7
370
     0
  0
DIMENSION
  5
A41
330
18
100
AcDbEntity
  8
BYLAYER
100
AcDbDimension
  2
*D17
 10
429.897091
 20
690.4904110315128
 30
0.0
 11
205.5198675
 21
697.5611170315128
 31
0.0
 70
    32
  1
455
 71
     5
 42
448.7544469999999
  3
STANDARD_WS
100
AcDbAlignedDimension
 13
-18.857356
 23
588.757013
 33
0.0
 14
429.897091
 24
588.757013
 34
0.0
100
AcDbRotatedDimension
  0
DIMENSION
  5
AB4
330
18
100
AcDbEntity
  8
0
100
AcDbDimension
  2
*D18
 10
459.6066559999999
 20
278.8920467651529
 30
0.0
 11
452.5359499999999
 21
224.0442383825765
 31
0.0
 70
    32
  1
100
 71
     5
 42
109.6956167651529
  3
STANDARD_WS
100
AcDbAlignedDimension
 13
359.533039
 23
169.1964299999999
 33
0.0
 14
405.6639791195969
 24
278.8920467651529
 34
0.0
 50
90.0
100
AcDbRotatedDimension
  0
VIEWPORT
  5
36
330
15
100
AcDbEntity
 67
     1
  8
0
100
AcDbViewport
 10
260.0705281839117
 20
221.6477121596475
 30
0.0
 40
146.0017552727649
 41
122.8858087857726
 68
     1
 69
     1
 12
260.0705281839117
 22
221.6477121596475
 13
0.0
 23
0.0
 14
10.0
 24
10.0
 15
20.0
 25
20.0
 16
0.0
 26
0.0
 36
1.0
 17
0.0
 27
0.0
 37
0.0
 42
50.0
 43
0.0
 44
0.0
 45
122.8858087857726
 50
0.0
 51
0.0
 72
   100
 90
    32800
  1

281
     0
 71
     1
 74
     0
110
0.0
120
0.0
130
0.0
111
1.0
121
0.0
131
0.0
112
0.0
122
1.0
132
0.0
 79
     0
146
0.0
  0
VIEWPORT
  5
D4
330
15
100
AcDbEntity
 67
     1
  8
VIEWPORT
100
AcDbViewport
 10
210.006409
 20
148.754532
 30
0.0
 40
418.012818
 41
292.509064
 68
     2
 69
     2
 12
450.0
 22
350.0
 13
0.0
 23
0.0
 14
1.0
 24
1.0
 15
20.0
 25
20.0
 16
0.0
 26
0.0
 36
1.0
 17
0.0
 27
0.0
 37
0.0
 42
50.0
 43
0.0
 44
0.0
 45
714.0
 50
0.0
 51
0.0
 72
   100
 90
    33312
  1

281
     0
 71
     1
 74
     0
110
0.0
120
0.0
130
0.0
111
1.0
121
0.0
131
0.0
112
0.0
122
1.0
132
0.0
 79
     0
146
0.0
  0
ENDSEC
  0
SECTION
  2
OBJECTS
  0
DICTIONARY
  5
C
330
0
100
AcDbDictionary
281
     1
  3
ACAD_GROUP
350
D
  3
ACAD_LAYOUT
350
360
  3
ACAD_MLINESTYLE
350
1B
  3
ACAD_PLOTSETTINGS
350
361
  3
ACAD_PLOTSTYLENAME
350
35E
  3
ACDBVARIABLEDICTIONARY
350
D5
  3
CONTENTDICTIONARY
350
23
  0
DICTIONARY
  5
D
102
{ACAD_REACTORS
330
C
102
}
330
C
100
AcDbDictionary
281
     1
  3
*A1
350
482
  3
*A2
350
7DB
  0
DICTIONARY
  5
360
102
{ACAD_REACTORS
330
C
102
}
330
C
100
AcDbDictionary
281
     1
  3
Model
350
362
  3
ﾚｲｱｳﾄ1
350
363
  0
DICTIONARY
  5
1B
102
{ACAD_REACTORS
330
C
102
}
330
C
100
AcDbDictionary
281
     1
  3
STANDARD
350
1C
  0
DICTIONARY
  5
361
102
{ACAD_REACTORS
330
C
102
}
330
C
100
AcDbDictionary
281
     1
  0
ACDBDICTIONARYWDFLT
  5
35E
102
{ACAD_REACTORS
330
C
102
}
330
C
100
AcDbDictionary
281
     1
  3
Normal
350
35F
100
AcDbDictionaryWithDefault
340
35F
  0
DICTIONARY
  5
D5
102
{ACAD_REACTORS
330
C
102
}
330
C
100
AcDbDictionary
281
     1
  3
DIMADEC
350
D6
  0
DICTIONARY
  5
23
102
{ACAD_REACTORS
330
C
102
}
330
C
100
AcDbDictionary
281
     1
  0
GROUP
  5
482
102
{ACAD_REACTORS
330
D
102
}
330
D
100
AcDbGroup
300

 70
     1
 71
     1
  0
GROUP
  5
7DB
102
{ACAD_REACTORS
330
D
102
}
330
D
100
AcDbGroup
300

 70
     1
 71
     1
  0
LAYOUT
  5
362
102
{ACAD_REACTORS
330
360
102
}
330
360
100
AcDbPlotSettings
  1

  2
RICOH imagio MP C4000 RPCS
  4
A4
  6

 40
5.873749732971191
 41
5.873747825622558
 42
5.873748779296875
 43
5.873748779296875
 44
209.9733276367187
 45
296.9259948730469
 46
0.0
 47
0.0
 48
0.0
 49
0.0
140
0.0
141
0.0
142
1.0
143
1.0
 70
 11952
 72
     1
 73
     1
 74
     0
  7

 75
     0
147
1.0
148
-332.9316547889745
149
193.4273843753326
100
AcDbLayout
  1
Model
 70
     1
 71
     0
 10
0.0
 20
0.0
 11
12.0
 21
9.0
 12
0.0
 22
0.0
 32
0.0
 14
0.0
 24
0.0
 34
0.0
 15
0.0
 25
0.0
 35
0.0
146
0.0
 13
0.0
 23
0.0
 33
0.0
 16
1.0
 26
0.0
 36
0.0
 17
0.0
 27
1.0
 37
0.0
 76
     0
330
18
  0
LAYOUT
  5
363
102
{ACAD_REACTORS
330
360
102
}
330
360
100
AcDbPlotSettings
  1

  2
PrimoPDF
  4
A4
  6

 40
3.174999952316284
 41
3.174999952316284
 42
3.175003051757812
 43
3.17498779296875
 44
210.0156707763671
 45
297.0106506347656
 46
4.32
 47
5.98
 48
0.0
 49
0.0
140
0.0
141
0.0
142
1.0
143
1.5
 70
   676
 72
     1
 73
     1
 74
     1
  7

 75
     0
147
0.6666666666666666
148
-0.976927487544799
149
-2.495837633482437
100
AcDbLayout
  1
ﾚｲｱｳﾄ1
 70
     1
 71
     1
 10
-7.668216935080479
 20
-6.170828937969053
 11
430.5128483089034
 21
303.6920256632912
 12
0.0
 22
0.0
 32
0.0
 14
0.976927487544799
 24
2.495837633482437
 34
-0.000000000000013
 15
419.0261081339705
 25
295.0253605347511
 35
0.0000000000000023
146
0.0
 13
0.0
 23
0.0
 33
0.0
 16
1.0
 26
0.0
 36
0.0
 17
0.0
 27
1.0
 37
0.0
 76
     0
330
15
331
36
  0
MLINESTYLE
  5
1C
102
{ACAD_REACTORS
330
1B
102
}
330
1B
100
AcDbMlineStyle
  2
STANDARD
 70
     0
  3

 62
   256
 51
90.0
 52
90.0
 71
     2
 49
0.5
 62
   256
  6
BYLAYER
 49
-0.5
 62
   256
  6
BYLAYER
  0
ACDBPLACEHOLDER
  5
35F
102
{ACAD_REACTORS
330
35E
102
}
330
35E
  0
DICTIONARYVAR
  5
D6
102
{ACAD_REACTORS
330
D5
102
}
330
D5
100
DictionaryVariables
280
     0
  1
0
  0
ENDSEC
  0
EOF
