  0
SECTION
  2
HEADER
  9
$ACADVER
  1
AC1015
  9
$ACADMAINTVER
 70
     6
  9
$DWGCODEPAGE
  3
ANSI_932
  9
$INSBASE
 10
0.0
 20
0.0
 30
0.0
  9
$EXTMIN
 10
-4.546936892708345
 20
-37.52746912959753
 30
-0.0015258207003583
  9
$EXTMAX
 10
425.0970258932717
 20
636.7433266850754
 30
0.0000000349246037
  9
$LIMMIN
 10
0.0
 20
0.0
  9
$LIMMAX
 10
420.0
 20
297.0
  9
$ORTHOMODE
 70
     1
  9
$REGENMODE
 70
     1
  9
$FILLMODE
 70
     1
  9
$QTEXTMODE
 70
     0
  9
$MIRRTEXT
 70
     1
  9
$LTSCALE
 40
1.0
  9
$ATTMODE
 70
     1
  9
$TEXTSIZE
 40
3.0
  9
$TRACEWID
 40
1.0
  9
$TEXTSTYLE
  7
STANDARD
  9
$CLAYER
  8
0
  9
$CELTYPE
  6
BYLAYER
  9
$CECOLOR
 62
   256
  9
$CELTSCALE
 40
1.0
  9
$DISPSILH
 70
     0
  9
$DIMSCALE
 40
1.0
  9
$DIMASZ
 40
3.0
  9
$DIMEXO
 40
2.0
  9
$DIMDLI
 40
4.0
  9
$DIMRND
 40
0.0
  9
$DIMDLE
 40
0.0
  9
$DIMEXE
 40
2.0
  9
$DIMTP
 40
0.0
  9
$DIMTM
 40
0.0
  9
$DIMTXT
 40
2.5
  9
$DIMCEN
 40
3.0
  9
$DIMTSZ
 40
0.0
  9
$DIMTOL
 70
     0
  9
$DIMLIM
 70
     0
  9
$DIMTIH
 70
     0
  9
$DIMTOH
 70
     1
  9
$DIMSE1
 70
     0
  9
$DIMSE2
 70
     0
  9
$DIMTAD
 70
     1
  9
$DIMZIN
 70
     8
  9
$DIMBLK
  1

  9
$DIMASO
 70
     1
  9
$DIMSHO
 70
     1
  9
$DIMPOST
  1

  9
$DIMAPOST
  1

  9
$DIMALT
 70
     0
  9
$DIMALTD
 70
     4
  9
$DIMALTF
 40
0.0394
  9
$DIMLFAC
 40
1.0
  9
$DIMTOFL
 70
     1
  9
$DIMTVP
 40
0.0
  9
$DIMTIX
 70
     0
  9
$DIMSOXD
 70
     0
  9
$DIMSAH
 70
     0
  9
$DIMBLK1
  1

  9
$DIMBLK2
  1

  9
$DIMSTYLE
  2
STANDARD_WS
  9
$DIMCLRD
 70
     0
  9
$DIMCLRE
 70
     0
  9
$DIMCLRT
 70
     0
  9
$DIMTFAC
 40
1.0
  9
$DIMGAP
 40
1.0
  9
$DIMJUST
 70
     0
  9
$DIMSD1
 70
     0
  9
$DIMSD2
 70
     0
  9
$DIMTOLJ
 70
     1
  9
$DIMTZIN
 70
     0
  9
$DIMALTZ
 70
     0
  9
$DIMALTTZ
 70
     0
  9
$DIMUPT
 70
     0
  9
$DIMDEC
 70
     0
  9
$DIMTDEC
 70
     0
  9
$DIMALTU
 70
     8
  9
$DIMALTTD
 70
     4
  9
$DIMTXSTY
  7
STANDARD
  9
$DIMAUNIT
 70
     0
  9
$DIMADEC
 70
     0
  9
$DIMALTRND
 40
0.0
  9
$DIMAZIN
 70
     0
  9
$DIMDSEP
 70
    46
  9
$DIMATFIT
 70
     3
  9
$DIMFRAC
 70
     0
  9
$DIMLDRBLK
  1

  9
$DIMLUNIT
 70
     2
  9
$DIMLWD
 70
    -2
  9
$DIMLWE
 70
    -2
  9
$DIMTMOVE
 70
     0
  9
$LUNITS
 70
     2
  9
$LUPREC
 70
     0
  9
$SKETCHINC
 40
1.0
  9
$FILLETRAD
 40
10.0
  9
$AUNITS
 70
     0
  9
$AUPREC
 70
     0
  9
$MENU
  1
acad
  9
$ELEVATION
 40
0.0
  9
$PELEVATION
 40
0.0
  9
$THICKNESS
 40
0.0
  9
$LIMCHECK
 70
     0
  9
$CHAMFERA
 40
10.0
  9
$CHAMFERB
 40
10.0
  9
$CHAMFERC
 40
20.0
  9
$CHAMFERD
 40
0.0
  9
$SKPOLY
 70
     0
  9
$TDCREATE
 40
2451705.472354861
  9
$TDUCREATE
 40
2451705.097354861
  9
$TDUPDATE
 40
2459383.405474502
  9
$TDUUPDATE
 40
2459383.030474502
  9
$TDINDWG
 40
1.0476078588
  9
$TDUSRTIMER
 40
1.0476064120
  9
$USRTIMER
 70
     1
  9
$ANGBASE
 50
0.0
  9
$ANGDIR
 70
     0
  9
$PDMODE
 70
     0
  9
$PDSIZE
 40
0.0
  9
$PLINEWID
 40
0.0
  9
$SPLFRAME
 70
     0
  9
$SPLINETYPE
 70
     6
  9
$SPLINESEGS
 70
     8
  9
$HANDSEED
  5
1BD3
  9
$SURFTAB1
 70
     6
  9
$SURFTAB2
 70
     6
  9
$SURFTYPE
 70
     6
  9
$SURFU
 70
     6
  9
$SURFV
 70
     6
  9
$UCSBASE
  2

  9
$UCSNAME
  2

  9
$UCSORG
 10
0.0
 20
0.0
 30
0.0
  9
$UCSXDIR
 10
1.0
 20
0.0
 30
0.0
  9
$UCSYDIR
 10
0.0
 20
1.0
 30
0.0
  9
$UCSORTHOREF
  2

  9
$UCSORTHOVIEW
 70
     0
  9
$UCSORGTOP
 10
0.0
 20
0.0
 30
0.0
  9
$UCSORGBOTTOM
 10
0.0
 20
0.0
 30
0.0
  9
$UCSORGLEFT
 10
0.0
 20
0.0
 30
0.0
  9
$UCSORGRIGHT
 10
0.0
 20
0.0
 30
0.0
  9
$UCSORGFRONT
 10
0.0
 20
0.0
 30
0.0
  9
$UCSORGBACK
 10
0.0
 20
0.0
 30
0.0
  9
$PUCSBASE
  2

  9
$PUCSNAME
  2

  9
$PUCSORG
 10
0.0
 20
0.0
 30
0.0
  9
$PUCSXDIR
 10
1.0
 20
0.0
 30
0.0
  9
$PUCSYDIR
 10
0.0
 20
1.0
 30
0.0
  9
$PUCSORTHOREF
  2

  9
$PUCSORTHOVIEW
 70
     0
  9
$PUCSORGTOP
 10
0.0
 20
0.0
 30
0.0
  9
$PUCSORGBOTTOM
 10
0.0
 20
0.0
 30
0.0
  9
$PUCSORGLEFT
 10
0.0
 20
0.0
 30
0.0
  9
$PUCSORGRIGHT
 10
0.0
 20
0.0
 30
0.0
  9
$PUCSORGFRONT
 10
0.0
 20
0.0
 30
0.0
  9
$PUCSORGBACK
 10
0.0
 20
0.0
 30
0.0
  9
$USERI1
 70
     0
  9
$USERI2
 70
     0
  9
$USERI3
 70
     0
  9
$USERI4
 70
     0
  9
$USERI5
 70
     0
  9
$USERR1
 40
0.0
  9
$USERR2
 40
0.0
  9
$USERR3
 40
0.0
  9
$USERR4
 40
0.0
  9
$USERR5
 40
0.0
  9
$WORLDVIEW
 70
     1
  9
$SHADEDGE
 70
     3
  9
$SHADEDIF
 70
    70
  9
$TILEMODE
 70
     1
  9
$MAXACTVP
 70
    48
  9
$PINSBASE
 10
0.0
 20
0.0
 30
0.0
  9
$PLIMCHECK
 70
     0
  9
$PEXTMIN
 10
0.9998200220350099
 20
2.497209426507311
 30
-0.0015258207003583
  9
$PEXTMAX
 10
419.0322293466493
 20
295.0239887061757
 30
0.0000000349246037
  9
$PLIMMIN
 10
-3.5664937800347
 20
-2.069121863313562
  9
$PLIMMAX
 10
423.5985606364702
 20
299.9784823009688
  9
$UNITMODE
 70
     0
  9
$VISRETAIN
 70
     1
  9
$PLINEGEN
 70
     0
  9
$PSLTSCALE
 70
     1
  9
$TREEDEPTH
 70
  3020
  9
$CMLSTYLE
  2
STANDARD
  9
$CMLJUST
 70
     0
  9
$CMLSCALE
 40
20.0
  9
$PROXYGRAPHICS
 70
     1
  9
$MEASUREMENT
 70
     1
  9
$CELWEIGHT
370
    -1
  9
$ENDCAPS
280
     0
  9
$JOINSTYLE
280
     0
  9
$LWDISPLAY
290
     1
  9
$INSUNITS
 70
     0
  9
$HYPERLINKBASE
  1

  9
$STYLESHEET
  1
monochrome.ctb
  9
$XEDIT
290
     1
  9
$CEPSNTYPE
380
     0
  9
$PSTYLEMODE
290
     1
  9
$FINGERPRINTGUID
  2
{FF098352-3FB8-491D-8CC6-B3F7BA7D0424}
  9
$VERSIONGUID
  2
{7E7217E0-E281-489C-817A-2A35D0CB6118}
  9
$EXTNAMES
290
     1
  9
$PSVPSCALE
 40
0.0
  9
$OLESTARTUP
290
     0
  0
ENDSEC
  0
SECTION
  2
CLASSES
  0
CLASS
  1
DICTIONARYVAR
  2
AcDbDictionaryVar
  3
AutoCAD 2000
 90
        0
280
     0
281
     0
  0
CLASS
  1
LWPOLYLINE
  2
AcDbPolyline
  3
AutoCAD 2000
 90
    32768
280
     0
281
     1
  0
CLASS
  1
ACDBDICTIONARYWDFLT
  2
AcDbDictionaryWithDefault
  3
AutoCAD 2000
 90
        0
280
     0
281
     0
  0
CLASS
  1
ACDBPLACEHOLDER
  2
AcDbPlaceHolder
  3
AutoCAD 2000
 90
        0
280
     0
281
     0
  0
CLASS
  1
LAYOUT
  2
AcDbLayout
  3
AutoCAD 2000
 90
        0
280
     0
281
     0
  0
ENDSEC
  0
SECTION
  2
TABLES
  0
TABLE
  2
VPORT
  5
8
330
0
100
AcDbSymbolTable
 70
     5
  0
VPORT
  5
1BD2
330
8
100
AcDbSymbolTableRecord
100
AcDbViewportTableRecord
  2
*Active
 70
     0
 10
0.0
 20
0.0
 11
1.0
 21
1.0
 12
203.288340283386
 22
144.3497372094857
 13
0.0
 23
0.0
 14
10.0
 24
10.0
 15
10.0
 25
10.0
 16
0.0
 26
0.0
 36
1.0
 17
0.0
 27
0.0
 37
0.0
 40
422.6715891543792
 41
1.46679499518768
 42
50.0
 43
0.0
 44
0.0
 50
0.0
 51
0.0
 71
     0
 72
   100
 73
     1
 74
     1
 75
     0
 76
     0
 77
     0
 78
     0
281
     0
 65
     1
110
0.0
120
0.0
130
0.0
111
1.0
121
0.0
131
0.0
112
0.0
122
1.0
132
0.0
 79
     0
146
0.0
  0
ENDTAB
  0
TABLE
  2
LTYPE
  5
5
330
0
100
AcDbSymbolTable
 70
     3
  0
LTYPE
  5
12
330
5
100
AcDbSymbolTableRecord
100
AcDbLinetypeTableRecord
  2
BYBLOCK
 70
     0
  3

 72
    65
 73
     0
 40
0.0
  0
LTYPE
  5
13
330
5
100
AcDbSymbolTableRecord
100
AcDbLinetypeTableRecord
  2
BYLAYER
 70
     0
  3

 72
    65
 73
     0
 40
0.0
  0
LTYPE
  5
14
330
5
100
AcDbSymbolTableRecord
100
AcDbLinetypeTableRecord
  2
CONTINUOUS
 70
     0
  3
Solid line
 72
    65
 73
     0
 40
0.0
  0
LTYPE
  5
195
330
5
100
AcDbSymbolTableRecord
100
AcDbLinetypeTableRecord
  2
CENTER
 70
     0
  3
Center ____ _ ____ _ ____ _ ____ _ ____ _ ____
 72
    65
 73
     4
 40
50.8
 49
31.75
 74
     0
 49
-6.349999999999999
 74
     0
 49
6.349999999999999
 74
     0
 49
-6.349999999999999
 74
     0
  0
LTYPE
  5
196
330
5
100
AcDbSymbolTableRecord
100
AcDbLinetypeTableRecord
  2
HIDDEN2
 70
     0
  3
Hidden (.5x) _ _ _ _ _ _ _ _ _ _ _ _ _ _ _ _ _
 72
    65
 73
     2
 40
4.7625
 49
3.174999999999999
 74
     0
 49
-1.587499999999999
 74
     0
  0
ENDTAB
  0
TABLE
  2
LAYER
  5
2
330
0
100
AcDbSymbolTable
 70
     8
  0
LAYER
  5
E
330
2
100
AcDbSymbolTableRecord
100
AcDbLayerTableRecord
  2
0
 70
     0
 62
     7
  6
CONTINUOUS
370
    -3
390
137C
  0
LAYER
  5
38
330
2
100
AcDbSymbolTableRecord
100
AcDbLayerTableRecord
  2
DEFPOINTS
 70
     0
 62
     7
  6
CONTINUOUS
290
     0
370
    -3
390
137C
  0
LAYER
  5
39
330
2
100
AcDbSymbolTableRecord
100
AcDbLayerTableRecord
  2
OBJECT
 70
     0
 62
     7
  6
CONTINUOUS
370
    -3
390
137C
  0
LAYER
  5
D2
330
2
100
AcDbSymbolTableRecord
100
AcDbLayerTableRecord
  2
VIEWPORT
 70
     0
 62
     7
  6
CONTINUOUS
370
    -3
390
137C
  0
LAYER
  5
197
330
2
100
AcDbSymbolTableRecord
100
AcDbLayerTableRecord
  2
1
 70
     0
 62
     4
  6
CONTINUOUS
370
    -3
390
137C
  0
LAYER
  5
198
330
2
100
AcDbSymbolTableRecord
100
AcDbLayerTableRecord
  2
2
 70
     0
 62
     3
  6
HIDDEN2
370
    -3
390
137C
  0
LAYER
  5
199
330
2
100
AcDbSymbolTableRecord
100
AcDbLayerTableRecord
  2
3
 70
     0
 62
     1
  6
CENTER
370
    -3
390
137C
  0
LAYER
  5
207
330
2
100
AcDbSymbolTableRecord
100
AcDbLayerTableRecord
  2
4
 70
     0
 62
     7
  6
CONTINUOUS
370
    -3
390
137C
  0
ENDTAB
  0
TABLE
  2
STYLE
  5
3
330
0
100
AcDbSymbolTable
 70
     4
  0
STYLE
  5
F
330
3
100
AcDbSymbolTableRecord
100
AcDbTextStyleTableRecord
  2
STANDARD
 70
     0
 40
3.0
 41
1.0
 50
0.0
 71
     0
 42
3.0
  3
txt.shx
  4
bigfont.shx
  0
STYLE
  5
3A
330
3
100
AcDbSymbolTableRecord
100
AcDbTextStyleTableRecord
  2
ADESK1
 70
     0
 40
0.0
 41
1.0
 50
0.0
 71
     0
 42
5.0
  3
romans
  4
bigfont
  0
STYLE
  5
194
330
3
100
AcDbSymbolTableRecord
100
AcDbTextStyleTableRecord
  2

 70
     1
 40
0.0
 41
1.0
 50
0.0
 71
     0
 42
3.0
  3
ltypeshp.shx
  4

  0
STYLE
  5
166E
330
3
100
AcDbSymbolTableRecord
100
AcDbTextStyleTableRecord
  2
ED_VECTOR
 70
     0
 40
0.0
 41
1.0
 50
0.0
 71
     0
 42
0.2
  3
MONOTXT.SHX
  4
BIGFONT.SHX
  0
ENDTAB
  0
TABLE
  2
VIEW
  5
6
330
0
100
AcDbSymbolTable
 70
     0
  0
ENDTAB
  0
TABLE
  2
UCS
  5
7
330
0
100
AcDbSymbolTable
 70
     0
  0
ENDTAB
  0
TABLE
  2
APPID
  5
9
330
0
100
AcDbSymbolTable
 70
     3
  0
APPID
  5
10
330
9
100
AcDbSymbolTableRecord
100
AcDbRegAppTableRecord
  2
ACAD
 70
     0
  0
APPID
  5
24
330
9
100
AcDbSymbolTableRecord
100
AcDbRegAppTableRecord
  2
CONTENTTABDATA
 70
     0
  0
APPID
  5
25
330
9
100
AcDbSymbolTableRecord
100
AcDbRegAppTableRecord
  2
CONTENTCURRENTTAB
 70
     0
  0
ENDTAB
  0
TABLE
  2
DIMSTYLE
  5
A
330
0
100
AcDbSymbolTable
 70
     4
100
AcDbDimStyleTable
 71
     0
  0
DIMSTYLE
105
1D
330
A
100
AcDbSymbolTableRecord
100
AcDbDimStyleTableRecord
  2
STANDARD
 70
     0
340
F
  0
DIMSTYLE
105
3B
330
A
100
AcDbSymbolTableRecord
100
AcDbDimStyleTableRecord
  2
JIS
 70
     0
 41
2.5
 42
1.0
 43
7.0
 44
1.0
 73
     0
 74
     0
 77
     1
 78
     8
140
2.5
141
0.0
143
0.0394
147
0.0
172
     1
174
     1
175
     1
340
F
  0
DIMSTYLE
105
D7
102
{ACAD_REACTORS
330
1009
330
1014
330
1031
330
106C
330
1079
330
1088
330
1097
330
10B4
330
10C3
330
1128
330
1137
330
1162
330
116F
330
11E0
330
11ED
330
11FC
330
1297
330
12B1
330
12DE
330
13AA
330
1512
330
1805
330
1804
330
1803
330
180F
330
180E
330
180C
330
185A
330
1859
330
1854
330
1849
330
18D7
330
18D6
330
1911
330
18E2
330
1919
330
1918
330
193F
330
1912
330
1975
330
1978
330
1986
102
}
330
A
100
AcDbSymbolTableRecord
100
AcDbDimStyleTableRecord
  2
STANDARD_WS
 70
     0
 41
3.0
 42
2.0
 43
4.0
 44
2.0
 73
     0
 77
     1
 78
     8
140
2.5
141
3.0
143
0.0394
147
1.0
171
     4
172
     1
271
     0
272
     0
273
     8
274
     4
340
F
  0
DIMSTYLE
105
1767
330
A
100
AcDbSymbolTableRecord
100
AcDbDimStyleTableRecord
  2
DIM1
 70
     0
 41
4.0
 42
1.0
 43
30.0
 44
1.0
 73
     0
 74
     0
 77
     1
 78
     8
140
6.0
141
0.0
146
0.5
147
1.5
172
     1
173
     1
176
     3
177
     3
284
     8
288
     1
340
F
341
1761
342
1761
343
1761
344
1761
  0
ENDTAB
  0
TABLE
  2
BLOCK_RECORD
  5
1
330
0
100
AcDbSymbolTable
 70
    46
  0
BLOCK_RECORD
  5
18
330
1
100
AcDbSymbolTableRecord
100
AcDbBlockTableRecord
  2
*MODEL_SPACE
340
137F
  0
BLOCK_RECORD
  5
15
330
1
100
AcDbSymbolTableRecord
100
AcDbBlockTableRecord
  2
*PAPER_SPACE
340
1380
  0
BLOCK_RECORD
  5
3C
330
1
100
AcDbSymbolTableRecord
100
AcDbBlockTableRecord
  2
TITLE_BLOCK
340
0
  0
BLOCK_RECORD
  5
FFF
330
1
100
AcDbSymbolTableRecord
100
AcDbBlockTableRecord
  2
*D1
340
0
  0
BLOCK_RECORD
  5
100A
330
1
100
AcDbSymbolTableRecord
100
AcDbBlockTableRecord
  2
*D2
340
0
  0
BLOCK_RECORD
  5
1027
330
1
100
AcDbSymbolTableRecord
100
AcDbBlockTableRecord
  2
*D3
340
0
  0
BLOCK_RECORD
  5
1060
330
1
100
AcDbSymbolTableRecord
100
AcDbBlockTableRecord
  2
*D4
340
0
  0
BLOCK_RECORD
  5
106D
330
1
100
AcDbSymbolTableRecord
100
AcDbBlockTableRecord
  2
*D5
340
0
  0
BLOCK_RECORD
  5
107A
330
1
100
AcDbSymbolTableRecord
100
AcDbBlockTableRecord
  2
*D6
340
0
  0
BLOCK_RECORD
  5
1089
330
1
100
AcDbSymbolTableRecord
100
AcDbBlockTableRecord
  2
*D7
340
0
  0
BLOCK_RECORD
  5
10A8
330
1
100
AcDbSymbolTableRecord
100
AcDbBlockTableRecord
  2
*D8
340
0
  0
BLOCK_RECORD
  5
10B5
330
1
100
AcDbSymbolTableRecord
100
AcDbBlockTableRecord
  2
*D9
340
0
  0
BLOCK_RECORD
  5
111C
330
1
100
AcDbSymbolTableRecord
100
AcDbBlockTableRecord
  2
*D10
340
0
  0
BLOCK_RECORD
  5
1129
330
1
100
AcDbSymbolTableRecord
100
AcDbBlockTableRecord
  2
*D11
340
0
  0
BLOCK_RECORD
  5
1154
330
1
100
AcDbSymbolTableRecord
100
AcDbBlockTableRecord
  2
*D12
340
0
  0
BLOCK_RECORD
  5
1163
330
1
100
AcDbSymbolTableRecord
100
AcDbBlockTableRecord
  2
*D13
340
0
  0
BLOCK_RECORD
  5
11D4
330
1
100
AcDbSymbolTableRecord
100
AcDbBlockTableRecord
  2
*D14
340
0
  0
BLOCK_RECORD
  5
11E1
330
1
100
AcDbSymbolTableRecord
100
AcDbBlockTableRecord
  2
*D15
340
0
  0
BLOCK_RECORD
  5
11EE
330
1
100
AcDbSymbolTableRecord
100
AcDbBlockTableRecord
  2
*D16
340
0
  0
BLOCK_RECORD
  5
1289
330
1
100
AcDbSymbolTableRecord
100
AcDbBlockTableRecord
  2
*D17
340
0
  0
BLOCK_RECORD
  5
12A5
330
1
100
AcDbSymbolTableRecord
100
AcDbBlockTableRecord
  2
*D18
340
0
  0
BLOCK_RECORD
  5
12D0
330
1
100
AcDbSymbolTableRecord
100
AcDbBlockTableRecord
  2
*D19
340
0
  0
BLOCK_RECORD
  5
13AB
330
1
100
AcDbSymbolTableRecord
100
AcDbBlockTableRecord
  2
*D20
340
0
  0
BLOCK_RECORD
  5
1513
330
1
100
AcDbSymbolTableRecord
100
AcDbBlockTableRecord
  2
*D21
340
0
  0
BLOCK_RECORD
  5
1761
330
1
100
AcDbSymbolTableRecord
100
AcDbBlockTableRecord
  2
_OPEN
340
0
  0
BLOCK_RECORD
  5
1768
330
1
100
AcDbSymbolTableRecord
100
AcDbBlockTableRecord
  2
A$C4AE13D6C
340
0
  0
BLOCK_RECORD
  5
1779
330
1
100
AcDbSymbolTableRecord
100
AcDbBlockTableRecord
  2
A$C18BE6784
340
0
  0
BLOCK_RECORD
  5
19CC
330
1
100
AcDbSymbolTableRecord
100
AcDbBlockTableRecord
  2
*D25
340
0
  0
BLOCK_RECORD
  5
19D6
330
1
100
AcDbSymbolTableRecord
100
AcDbBlockTableRecord
  2
*D26
340
0
  0
BLOCK_RECORD
  5
19E0
330
1
100
AcDbSymbolTableRecord
100
AcDbBlockTableRecord
  2
*D27
340
0
  0
BLOCK_RECORD
  5
19EA
330
1
100
AcDbSymbolTableRecord
100
AcDbBlockTableRecord
  2
*D28
340
0
  0
BLOCK_RECORD
  5
19F6
330
1
100
AcDbSymbolTableRecord
100
AcDbBlockTableRecord
  2
*D29
340
0
  0
BLOCK_RECORD
  5
1A02
330
1
100
AcDbSymbolTableRecord
100
AcDbBlockTableRecord
  2
*D30
340
0
  0
BLOCK_RECORD
  5
1A11
330
1
100
AcDbSymbolTableRecord
100
AcDbBlockTableRecord
  2
*D31
340
0
  0
BLOCK_RECORD
  5
1A1F
330
1
100
AcDbSymbolTableRecord
100
AcDbBlockTableRecord
  2
*D32
340
0
  0
BLOCK_RECORD
  5
1A2B
330
1
100
AcDbSymbolTableRecord
100
AcDbBlockTableRecord
  2
*D33
340
0
  0
BLOCK_RECORD
  5
1A39
330
1
100
AcDbSymbolTableRecord
100
AcDbBlockTableRecord
  2
*D34
340
0
  0
BLOCK_RECORD
  5
1A45
330
1
100
AcDbSymbolTableRecord
100
AcDbBlockTableRecord
  2
*D35
340
0
  0
BLOCK_RECORD
  5
1A53
330
1
100
AcDbSymbolTableRecord
100
AcDbBlockTableRecord
  2
*D36
340
0
  0
BLOCK_RECORD
  5
1A5F
330
1
100
AcDbSymbolTableRecord
100
AcDbBlockTableRecord
  2
*D37
340
0
  0
BLOCK_RECORD
  5
1A6B
330
1
100
AcDbSymbolTableRecord
100
AcDbBlockTableRecord
  2
*D38
340
0
  0
BLOCK_RECORD
  5
1A77
330
1
100
AcDbSymbolTableRecord
100
AcDbBlockTableRecord
  2
*D39
340
0
  0
BLOCK_RECORD
  5
1A83
330
1
100
AcDbSymbolTableRecord
100
AcDbBlockTableRecord
  2
*D40
340
0
  0
BLOCK_RECORD
  5
1A91
330
1
100
AcDbSymbolTableRecord
100
AcDbBlockTableRecord
  2
*D41
340
0
  0
BLOCK_RECORD
  5
1A9F
330
1
100
AcDbSymbolTableRecord
100
AcDbBlockTableRecord
  2
*D42
340
0
  0
BLOCK_RECORD
  5
1AAB
330
1
100
AcDbSymbolTableRecord
100
AcDbBlockTableRecord
  2
*D43
340
0
  0
BLOCK_RECORD
  5
1AB9
330
1
100
AcDbSymbolTableRecord
100
AcDbBlockTableRecord
  2
*D44
340
0
  0
BLOCK_RECORD
  5
1AC5
330
1
100
AcDbSymbolTableRecord
100
AcDbBlockTableRecord
  2
*D45
340
0
  0
ENDTAB
  0
ENDSEC
  0
SECTION
  2
BLOCKS
  0
BLOCK
  5
19
330
18
100
AcDbEntity
  8
0
100
AcDbBlockBegin
  2
*MODEL_SPACE
 70
     0
 10
0.0
 20
0.0
 30
0.0
  3
*MODEL_SPACE
  1

  0
ENDBLK
  5
1A
330
18
100
AcDbEntity
  8
0
100
AcDbBlockEnd
  0
BLOCK
  5
16
330
15
100
AcDbEntity
 67
     1
  8
0
100
AcDbBlockBegin
  2
*PAPER_SPACE
 70
     0
 10
0.0
 20
0.0
 30
0.0
  3
*PAPER_SPACE
  1

  0
ENDBLK
  5
17
330
15
100
AcDbEntity
 67
     1
  8
0
100
AcDbBlockEnd
  0
BLOCK
  5
C9
330
3C
100
AcDbEntity
  8
0
100
AcDbBlockBegin
  2
TITLE_BLOCK
 70
     2
 10
0.0
 20
0.0
 30
0.0
  3
TITLE_BLOCK
  1

  0
LINE
  5
3D
330
3C
100
AcDbEntity
  8
0
100
AcDbLine
 10
0.0
 20
0.0
 30
0.0
 11
0.0
 21
10.0
 31
0.0
  0
LINE
  5
3E
330
3C
100
AcDbEntity
  8
0
100
AcDbLine
 10
0.0
 20
297.0
 30
0.0
 11
25.0
 21
297.0
 31
0.0
  0
LINE
  5
3F
330
3C
100
AcDbEntity
  8
0
100
AcDbLine
 10
420.0
 20
297.0
 30
0.0
 11
420.0
 21
287.0
 31
0.0
  0
LINE
  5
40
330
3C
100
AcDbEntity
  8
0
100
AcDbLine
 10
420.0
 20
0.0
 30
0.0
 11
410.0
 21
0.0
 31
0.0
  0
LINE
  5
41
330
3C
100
AcDbEntity
  8
0
100
AcDbLine
 10
25.0
 20
10.0
 30
0.0
 11
25.0
 21
287.0
 31
0.0
  0
LINE
  5
42
330
3C
100
AcDbEntity
  8
0
100
AcDbLine
 10
410.0
 20
10.0
 30
0.0
 11
25.0
 21
10.0
 31
0.0
  0
LINE
  5
43
330
3C
100
AcDbEntity
  8
0
100
AcDbLine
 10
410.0
 20
287.0
 30
0.0
 11
410.0
 21
10.0
 31
0.0
  0
LINE
  5
44
330
3C
100
AcDbEntity
  8
0
100
AcDbLine
 10
25.0
 20
287.0
 30
0.0
 11
410.0
 21
287.0
 31
0.0
  0
LINE
  5
45
330
3C
100
AcDbEntity
  8
0
100
AcDbLine
 10
0.0
 20
287.0
 30
0.0
 11
0.0
 21
297.0
 31
0.0
  0
LINE
  5
46
330
3C
100
AcDbEntity
  8
0
100
AcDbLine
 10
25.0
 20
0.0
 30
0.0
 11
0.0
 21
0.0
 31
0.0
  0
LINE
  5
47
330
3C
100
AcDbEntity
  8
0
100
AcDbLine
 10
420.0
 20
10.0
 30
0.0
 11
420.0
 21
0.0
 31
0.0
  0
LINE
  5
48
330
3C
100
AcDbEntity
  8
0
100
AcDbLine
 10
410.0
 20
297.0
 30
0.0
 11
420.0
 21
297.0
 31
0.0
  0
ATTDEF
  5
49
330
3C
100
AcDbEntity
  8
0
 62
     0
100
AcDbText
 10
19.0
 20
10.0
 30
0.0
 40
3.0
  1

 50
90.0
  7
ADESK1
100
AcDbAttributeDefinition
  3

  2
USER
 70
     8
  0
ATTDEF
  5
4A
330
3C
100
AcDbEntity
  8
0
 62
     0
100
AcDbText
 10
19.0
 20
70.0
 30
0.0
 40
3.0
  1

 50
90.0
  7
ADESK1
100
AcDbAttributeDefinition
  3

  2
REVDATE
 70
     8
  0
ATTDEF
  5
4B
330
3C
100
AcDbEntity
  8
0
 62
     0
100
AcDbText
 10
19.0
 20
118.0
 30
0.0
 40
3.0
  1

 50
90.0
  7
ADESK1
100
AcDbAttributeDefinition
  3

  2
FNAME
 70
     8
  0
LINE
  5
4C
330
3C
100
AcDbEntity
  8
OBJECT
100
AcDbLine
 10
130.0
 20
16.0
 30
0.0
 11
25.0
 21
16.0
 31
0.0
  0
LINE
  5
4D
330
3C
100
AcDbEntity
  8
OBJECT
100
AcDbLine
 10
130.0
 20
22.0
 30
0.0
 11
25.0
 21
22.0
 31
0.0
  0
LINE
  5
4E
330
3C
100
AcDbEntity
  8
OBJECT
100
AcDbLine
 10
130.0
 20
28.0
 30
0.0
 11
25.0
 21
28.0
 31
0.0
  0
LINE
  5
4F
330
3C
100
AcDbEntity
  8
OBJECT
100
AcDbLine
 10
130.0
 20
34.0
 30
0.0
 11
25.0
 21
34.0
 31
0.0
  0
LINE
  5
50
330
3C
100
AcDbEntity
  8
OBJECT
100
AcDbLine
 10
130.0
 20
40.0
 30
0.0
 11
25.0
 21
40.0
 31
0.0
  0
LINE
  5
51
330
3C
100
AcDbEntity
  8
OBJECT
100
AcDbLine
 10
28.0
 20
11.53589799999999
 30
0.0
 11
30.0
 21
15.0
 31
0.0
  0
LINE
  5
52
330
3C
100
AcDbEntity
  8
OBJECT
100
AcDbLine
 10
32.0
 20
11.53589799999999
 30
0.0
 11
30.0
 21
15.0
 31
0.0
  0
LINE
  5
53
330
3C
100
AcDbEntity
  8
OBJECT
100
AcDbLine
 10
35.0
 20
10.0
 30
0.0
 11
35.0
 21
40.0
 31
0.0
  0
LINE
  5
54
330
3C
100
AcDbEntity
  8
OBJECT
100
AcDbLine
 10
50.0
 20
10.0
 30
0.0
 11
50.0
 21
40.0
 31
0.0
  0
LINE
  5
55
330
3C
100
AcDbEntity
  8
OBJECT
100
AcDbLine
 10
80.0
 20
10.0
 30
0.0
 11
80.0
 21
40.0
 31
0.0
  0
LINE
  5
56
330
3C
100
AcDbEntity
  8
OBJECT
100
AcDbLine
 10
28.0
 20
11.53589799999999
 30
0.0
 11
32.0
 21
11.53589799999999
 31
0.0
  0
LINE
  5
57
330
3C
100
AcDbEntity
  8
OBJECT
100
AcDbLine
 10
39.5
 20
13.0
 30
0.0
 11
40.49999999999999
 21
13.0
 31
0.0
  0
LINE
  5
58
330
3C
100
AcDbEntity
  8
OBJECT
100
AcDbLine
 10
44.5
 20
13.0
 30
0.0
 11
45.49999999999999
 21
13.0
 31
0.0
  0
LINE
  5
59
330
3C
100
AcDbEntity
  8
OBJECT
100
AcDbLine
 10
32.0
 20
17.535898
 30
0.0
 11
30.0
 21
21.0
 31
0.0
  0
LINE
  5
5A
330
3C
100
AcDbEntity
  8
OBJECT
100
AcDbLine
 10
28.0
 20
17.535898
 30
0.0
 11
32.0
 21
17.535898
 31
0.0
  0
LINE
  5
5B
330
3C
100
AcDbEntity
  8
OBJECT
100
AcDbLine
 10
28.0
 20
17.535898
 30
0.0
 11
30.0
 21
21.0
 31
0.0
  0
LINE
  5
5C
330
3C
100
AcDbEntity
  8
OBJECT
100
AcDbLine
 10
32.0
 20
23.53589799999999
 30
0.0
 11
30.0
 21
27.0
 31
0.0
  0
LINE
  5
5D
330
3C
100
AcDbEntity
  8
OBJECT
100
AcDbLine
 10
28.0
 20
23.53589799999999
 30
0.0
 11
32.0
 21
23.53589799999999
 31
0.0
  0
LINE
  5
5E
330
3C
100
AcDbEntity
  8
OBJECT
100
AcDbLine
 10
28.0
 20
23.53589799999999
 30
0.0
 11
30.0
 21
27.0
 31
0.0
  0
LINE
  5
5F
330
3C
100
AcDbEntity
  8
OBJECT
100
AcDbLine
 10
28.0
 20
35.53589799999999
 30
0.0
 11
30.0
 21
39.0
 31
0.0
  0
LINE
  5
60
330
3C
100
AcDbEntity
  8
OBJECT
100
AcDbLine
 10
32.0
 20
35.53589799999999
 30
0.0
 11
30.0
 21
39.0
 31
0.0
  0
LINE
  5
61
330
3C
100
AcDbEntity
  8
OBJECT
100
AcDbLine
 10
28.0
 20
35.53589799999999
 30
0.0
 11
32.0
 21
35.53589799999999
 31
0.0
  0
LINE
  5
62
330
3C
100
AcDbEntity
  8
OBJECT
100
AcDbLine
 10
32.0
 20
29.53589799999999
 30
0.0
 11
30.0
 21
33.0
 31
0.0
  0
LINE
  5
63
330
3C
100
AcDbEntity
  8
OBJECT
100
AcDbLine
 10
28.0
 20
29.53589799999999
 30
0.0
 11
32.0
 21
29.53589799999999
 31
0.0
  0
LINE
  5
64
330
3C
100
AcDbEntity
  8
OBJECT
100
AcDbLine
 10
28.0
 20
29.53589799999999
 30
0.0
 11
30.0
 21
33.0
 31
0.0
  0
LINE
  5
65
330
3C
100
AcDbEntity
  8
OBJECT
100
AcDbLine
 10
39.5
 20
19.0
 30
0.0
 11
40.49999999999999
 21
19.0
 31
0.0
  0
LINE
  5
66
330
3C
100
AcDbEntity
  8
OBJECT
100
AcDbLine
 10
44.5
 20
19.0
 30
0.0
 11
45.49999999999999
 21
19.0
 31
0.0
  0
LINE
  5
67
330
3C
100
AcDbEntity
  8
OBJECT
100
AcDbLine
 10
39.5
 20
25.0
 30
0.0
 11
40.49999999999999
 21
25.0
 31
0.0
  0
LINE
  5
68
330
3C
100
AcDbEntity
  8
OBJECT
100
AcDbLine
 10
44.5
 20
25.0
 30
0.0
 11
45.49999999999999
 21
25.0
 31
0.0
  0
LINE
  5
69
330
3C
100
AcDbEntity
  8
OBJECT
100
AcDbLine
 10
39.5
 20
31.0
 30
0.0
 11
40.49999999999999
 21
31.0
 31
0.0
  0
LINE
  5
6A
330
3C
100
AcDbEntity
  8
OBJECT
100
AcDbLine
 10
39.5
 20
37.0
 30
0.0
 11
40.49999999999999
 21
37.0
 31
0.0
  0
LINE
  5
6B
330
3C
100
AcDbEntity
  8
OBJECT
100
AcDbLine
 10
44.5
 20
31.0
 30
0.0
 11
45.49999999999999
 21
31.0
 31
0.0
  0
LINE
  5
6C
330
3C
100
AcDbEntity
  8
OBJECT
100
AcDbLine
 10
44.5
 20
37.0
 30
0.0
 11
45.49999999999999
 21
37.0
 31
0.0
  0
LINE
  5
6D
330
3C
100
AcDbEntity
  8
OBJECT
100
AcDbLine
 10
120.0
 20
10.0
 30
0.0
 11
120.0
 21
40.0
 31
0.0
  0
LINE
  5
6E
330
3C
100
AcDbEntity
  8
OBJECT
100
AcDbLine
 10
130.0
 20
40.0
 30
0.0
 11
130.0
 21
10.0
 31
0.0
  0
LINE
  5
6F
330
3C
100
AcDbEntity
  8
0
100
AcDbLine
 10
217.5
 20
10.0
 30
0.0
 11
217.5
 21
0.0
 31
0.0
  0
LINE
  5
70
330
3C
100
AcDbEntity
  8
0
100
AcDbLine
 10
217.5
 20
287.0
 30
0.0
 11
217.5
 21
297.0
 31
0.0
  0
LINE
  5
71
330
3C
100
AcDbEntity
  8
0
100
AcDbLine
 10
410.0
 20
148.5
 30
0.0
 11
420.0
 21
148.5
 31
0.0
  0
LINE
  5
72
330
3C
100
AcDbEntity
  8
0
100
AcDbLine
 10
25.0
 20
148.5
 30
0.0
 11
0.0
 21
148.5
 31
0.0
  0
TEXT
  5
73
330
3C
100
AcDbEntity
  8
0
100
AcDbText
 10
1.0
 20
1.0
 30
0.0
 40
3.0
  1
この図枠はサンプルです。社内の規格やプロッタの出力範囲に合わせて適当に変更してご利用ください。
  7
ADESK1
100
AcDbText
  0
LINE
  5
74
330
3C
100
AcDbEntity
  8
0
100
AcDbLine
 10
25.0
 20
240.833333
 30
0.0
 11
20.0
 21
240.833333
 31
0.0
  0
LINE
  5
75
330
3C
100
AcDbEntity
  8
0
100
AcDbLine
 10
25.0
 20
194.6666669999999
 30
0.0
 11
20.0
 21
194.6666669999999
 31
0.0
  0
LINE
  5
76
330
3C
100
AcDbEntity
  8
0
100
AcDbLine
 10
25.0
 20
148.5
 30
0.0
 11
20.0
 21
148.5
 31
0.0
  0
LINE
  5
77
330
3C
100
AcDbEntity
  8
0
100
AcDbLine
 10
25.0
 20
102.333333
 30
0.0
 11
20.0
 21
102.333333
 31
0.0
  0
LINE
  5
78
330
3C
100
AcDbEntity
  8
0
100
AcDbLine
 10
25.0
 20
56.166667
 30
0.0
 11
20.0
 21
56.166667
 31
0.0
  0
LINE
  5
79
330
3C
100
AcDbEntity
  8
0
100
AcDbLine
 10
410.0
 20
56.166667
 30
0.0
 11
415.0
 21
56.166667
 31
0.0
  0
LINE
  5
7A
330
3C
100
AcDbEntity
  8
0
100
AcDbLine
 10
410.0
 20
102.333333
 30
0.0
 11
415.0
 21
102.333333
 31
0.0
  0
LINE
  5
7B
330
3C
100
AcDbEntity
  8
0
100
AcDbLine
 10
410.0
 20
148.5
 30
0.0
 11
415.0
 21
148.5
 31
0.0
  0
LINE
  5
7C
330
3C
100
AcDbEntity
  8
0
100
AcDbLine
 10
410.0
 20
194.6666669999999
 30
0.0
 11
415.0
 21
194.6666669999999
 31
0.0
  0
LINE
  5
7D
330
3C
100
AcDbEntity
  8
0
100
AcDbLine
 10
410.0
 20
240.833333
 30
0.0
 11
415.0
 21
240.833333
 31
0.0
  0
LINE
  5
7E
330
3C
100
AcDbEntity
  8
0
100
AcDbLine
 10
73.125
 20
10.0
 30
0.0
 11
73.125
 21
5.0
 31
0.0
  0
LINE
  5
7F
330
3C
100
AcDbEntity
  8
0
100
AcDbLine
 10
121.25
 20
10.0
 30
0.0
 11
121.25
 21
5.0
 31
0.0
  0
LINE
  5
80
330
3C
100
AcDbEntity
  8
0
100
AcDbLine
 10
169.375
 20
10.0
 30
0.0
 11
169.375
 21
5.0
 31
0.0
  0
LINE
  5
81
330
3C
100
AcDbEntity
  8
0
100
AcDbLine
 10
217.5
 20
10.0
 30
0.0
 11
217.5
 21
5.0
 31
0.0
  0
LINE
  5
82
330
3C
100
AcDbEntity
  8
0
100
AcDbLine
 10
265.625
 20
10.0
 30
0.0
 11
265.625
 21
5.0
 31
0.0
  0
LINE
  5
83
330
3C
100
AcDbEntity
  8
0
100
AcDbLine
 10
313.75
 20
10.0
 30
0.0
 11
313.75
 21
5.0
 31
0.0
  0
LINE
  5
84
330
3C
100
AcDbEntity
  8
0
100
AcDbLine
 10
361.8749999999999
 20
10.0
 30
0.0
 11
361.8749999999999
 21
5.0
 31
0.0
  0
LINE
  5
85
330
3C
100
AcDbEntity
  8
0
100
AcDbLine
 10
361.8749999999999
 20
287.0
 30
0.0
 11
361.8749999999999
 21
292.0
 31
0.0
  0
LINE
  5
86
330
3C
100
AcDbEntity
  8
0
100
AcDbLine
 10
313.75
 20
287.0
 30
0.0
 11
313.75
 21
292.0
 31
0.0
  0
LINE
  5
87
330
3C
100
AcDbEntity
  8
0
100
AcDbLine
 10
265.625
 20
287.0
 30
0.0
 11
265.625
 21
292.0
 31
0.0
  0
LINE
  5
88
330
3C
100
AcDbEntity
  8
0
100
AcDbLine
 10
217.5
 20
287.0
 30
0.0
 11
217.5
 21
292.0
 31
0.0
  0
LINE
  5
89
330
3C
100
AcDbEntity
  8
0
100
AcDbLine
 10
169.375
 20
287.0
 30
0.0
 11
169.375
 21
292.0
 31
0.0
  0
LINE
  5
8A
330
3C
100
AcDbEntity
  8
0
100
AcDbLine
 10
121.25
 20
287.0
 30
0.0
 11
121.25
 21
292.0
 31
0.0
  0
LINE
  5
8B
330
3C
100
AcDbEntity
  8
0
100
AcDbLine
 10
73.125
 20
287.0
 30
0.0
 11
73.125
 21
292.0
 31
0.0
  0
TEXT
  5
8C
330
3C
100
AcDbEntity
  8
0
100
AcDbText
 10
47.84821428571429
 20
288.0
 30
0.0
 40
3.0
  1
1
  7
ADESK1
 72
     1
 11
49.0625
 21
288.0
 31
0.0
100
AcDbText
  0
TEXT
  5
8D
330
3C
100
AcDbEntity
  8
0
100
AcDbText
 10
21.32144671428571
 20
263.916667
 30
0.0
 40
3.0
  1
A
  7
ADESK1
 72
     1
 11
22.60716099999999
 21
263.916667
 31
0.0
100
AcDbText
  0
TEXT
  5
8E
330
3C
100
AcDbEntity
  8
0
100
AcDbText
 10
95.75892857142857
 20
288.0
 30
0.0
 40
3.0
  1
2
  7
ADESK1
 72
     1
 11
97.1875
 21
288.0
 31
0.0
100
AcDbText
  0
TEXT
  5
8F
330
3C
100
AcDbEntity
  8
0
100
AcDbText
 10
143.8839285714285
 20
288.0
 30
0.0
 40
3.0
  1
3
  7
ADESK1
 72
     1
 11
145.3125
 21
288.0
 31
0.0
100
AcDbText
  0
TEXT
  5
90
330
3C
100
AcDbEntity
  8
0
100
AcDbText
 10
191.9375
 20
288.0
 30
0.0
 40
3.0
  1
4
  7
ADESK1
 72
     1
 11
193.4375
 21
288.0
 31
0.0
100
AcDbText
  0
TEXT
  5
91
330
3C
100
AcDbEntity
  8
0
100
AcDbText
 10
240.1339285714285
 20
288.0
 30
0.0
 40
3.0
  1
5
  7
ADESK1
 72
     1
 11
241.5624999999999
 21
288.0
 31
0.0
100
AcDbText
  0
TEXT
  5
92
330
3C
100
AcDbEntity
  8
0
100
AcDbText
 10
288.1874999999999
 20
288.0
 30
0.0
 40
3.0
  1
6
  7
ADESK1
 72
     1
 11
289.6875
 21
288.0
 31
0.0
100
AcDbText
  0
TEXT
  5
93
330
3C
100
AcDbEntity
  8
0
100
AcDbText
 10
336.3839285714285
 20
288.0
 30
0.0
 40
3.0
  1
7
  7
ADESK1
 72
     1
 11
337.8125
 21
288.0
 31
0.0
100
AcDbText
  0
TEXT
  5
94
330
3C
100
AcDbEntity
  8
0
100
AcDbText
 10
384.5089285714285
 20
288.0
 30
0.0
 40
3.0
  1
8
  7
ADESK1
 72
     1
 11
385.9375
 21
288.0
 31
0.0
100
AcDbText
  0
TEXT
  5
95
330
3C
100
AcDbEntity
  8
0
100
AcDbText
 10
21.03573242857142
 20
217.75
 30
0.0
 40
3.0
  1
B
  7
ADESK1
 72
     1
 11
22.60716099999999
 21
217.75
 31
0.0
100
AcDbText
  0
TEXT
  5
96
330
3C
100
AcDbEntity
  8
0
100
AcDbText
 10
21.10716099999999
 20
171.583333
 30
0.0
 40
3.0
  1
C
  7
ADESK1
 72
     1
 11
22.60716099999999
 21
171.583333
 31
0.0
100
AcDbText
  0
TEXT
  5
97
330
3C
100
AcDbEntity
  8
0
100
AcDbText
 10
21.03573242857142
 20
125.4166669999999
 30
0.0
 40
3.0
  1
D
  7
ADESK1
 72
     1
 11
22.60716099999999
 21
125.4166669999999
 31
0.0
100
AcDbText
  0
TEXT
  5
98
330
3C
100
AcDbEntity
  8
0
100
AcDbText
 10
21.10716099999999
 20
79.25
 30
0.0
 40
3.0
  1
E
  7
ADESK1
 72
     1
 11
22.60716099999999
 21
79.25
 31
0.0
100
AcDbText
  0
TEXT
  5
99
330
3C
100
AcDbEntity
  8
0
100
AcDbText
 10
21.10716099999999
 20
33.083333
 30
0.0
 40
3.0
  1
F
  7
ADESK1
 72
     1
 11
22.60716099999999
 21
33.083333
 31
0.0
100
AcDbText
  0
TEXT
  5
9A
330
3C
100
AcDbEntity
  8
0
100
AcDbText
 10
47.84821428571429
 20
6.019997
 30
0.0
 40
3.0
  1
1
  7
ADESK1
 72
     1
 11
49.0625
 21
6.019997
 31
0.0
100
AcDbText
  0
TEXT
  5
9B
330
3C
100
AcDbEntity
  8
0
100
AcDbText
 10
95.75892857142857
 20
6.019997
 30
0.0
 40
3.0
  1
2
  7
ADESK1
 72
     1
 11
97.1875
 21
6.019997
 31
0.0
100
AcDbText
  0
TEXT
  5
9C
330
3C
100
AcDbEntity
  8
0
100
AcDbText
 10
143.8839285714285
 20
6.019997
 30
0.0
 40
3.0
  1
3
  7
ADESK1
 72
     1
 11
145.3125
 21
6.019997
 31
0.0
100
AcDbText
  0
TEXT
  5
9D
330
3C
100
AcDbEntity
  8
0
100
AcDbText
 10
191.9375
 20
6.019997
 30
0.0
 40
3.0
  1
4
  7
ADESK1
 72
     1
 11
193.4375
 21
6.019997
 31
0.0
100
AcDbText
  0
TEXT
  5
9E
330
3C
100
AcDbEntity
  8
0
100
AcDbText
 10
240.1339285714285
 20
6.019997
 30
0.0
 40
3.0
  1
5
  7
ADESK1
 72
     1
 11
241.5624999999999
 21
6.019997
 31
0.0
100
AcDbText
  0
TEXT
  5
9F
330
3C
100
AcDbEntity
  8
0
100
AcDbText
 10
288.1874999999999
 20
6.019997
 30
0.0
 40
3.0
  1
6
  7
ADESK1
 72
     1
 11
289.6875
 21
6.019997
 31
0.0
100
AcDbText
  0
TEXT
  5
A0
330
3C
100
AcDbEntity
  8
0
100
AcDbText
 10
336.3839285714285
 20
6.019997
 30
0.0
 40
3.0
  1
7
  7
ADESK1
 72
     1
 11
337.8125
 21
6.019997
 31
0.0
100
AcDbText
  0
TEXT
  5
A1
330
3C
100
AcDbEntity
  8
0
100
AcDbText
 10
384.5089285714285
 20
6.019997
 30
0.0
 40
3.0
  1
8
  7
ADESK1
 72
     1
 11
385.9375
 21
6.019997
 31
0.0
100
AcDbText
  0
TEXT
  5
A2
330
3C
100
AcDbEntity
  8
0
100
AcDbText
 10
411.5851107142857
 20
263.916667
 30
0.0
 40
3.0
  1
A
  7
ADESK1
 72
     1
 11
412.870825
 21
263.916667
 31
0.0
100
AcDbText
  0
TEXT
  5
A3
330
3C
100
AcDbEntity
  8
0
100
AcDbText
 10
411.2993964285714
 20
217.75
 30
0.0
 40
3.0
  1
B
  7
ADESK1
 72
     1
 11
412.870825
 21
217.75
 31
0.0
100
AcDbText
  0
TEXT
  5
A4
330
3C
100
AcDbEntity
  8
0
100
AcDbText
 10
411.370825
 20
171.583333
 30
0.0
 40
3.0
  1
C
  7
ADESK1
 72
     1
 11
412.870825
 21
171.583333
 31
0.0
100
AcDbText
  0
TEXT
  5
A5
330
3C
100
AcDbEntity
  8
0
100
AcDbText
 10
411.2993964285714
 20
125.4166669999999
 30
0.0
 40
3.0
  1
D
  7
ADESK1
 72
     1
 11
412.870825
 21
125.4166669999999
 31
0.0
100
AcDbText
  0
TEXT
  5
A6
330
3C
100
AcDbEntity
  8
0
100
AcDbText
 10
411.370825
 20
79.25
 30
0.0
 40
3.0
  1
E
  7
ADESK1
 72
     1
 11
412.870825
 21
79.25
 31
0.0
100
AcDbText
  0
TEXT
  5
A7
330
3C
100
AcDbEntity
  8
0
100
AcDbText
 10
411.370825
 20
33.083333
 30
0.0
 40
3.0
  1
F
  7
ADESK1
 72
     1
 11
412.870825
 21
33.083333
 31
0.0
100
AcDbText
  0
LINE
  5
A8
330
3C
100
AcDbEntity
  8
0
 62
     0
100
AcDbLine
 10
280.297872
 20
49.0
 30
0.0
 11
410.0
 21
49.0
 31
0.0
  0
LINE
  5
A9
330
3C
100
AcDbEntity
  8
0
 62
     0
100
AcDbLine
 10
280.297872
 20
13.0
 30
0.0
 11
410.0
 21
13.0
 31
0.0
  0
LINE
  5
AA
330
3C
100
AcDbEntity
  8
0
 62
     0
100
AcDbLine
 10
280.297872
 20
37.0
 30
0.0
 11
410.0
 21
37.0
 31
0.0
  0
LINE
  5
AB
330
3C
100
AcDbEntity
  8
0
 62
     0
100
AcDbLine
 10
318.1276599999999
 20
22.0
 30
0.0
 11
410.0
 21
22.0
 31
0.0
  0
LINE
  5
AC
330
3C
100
AcDbEntity
  8
0
 62
     0
100
AcDbLine
 10
280.297872
 20
10.0
 30
0.0
 11
410.0
 21
10.0
 31
0.0
  0
LINE
  5
AD
330
3C
100
AcDbEntity
  8
0
 62
     0
100
AcDbLine
 10
410.0
 20
49.0
 30
0.0
 11
280.297872
 21
49.0
 31
0.0
  0
LINE
  5
AE
330
3C
100
AcDbEntity
  8
0
 62
     0
100
AcDbLine
 10
303.716312
 20
37.0
 30
0.0
 11
303.716312
 21
10.0
 31
0.0
  0
LINE
  5
AF
330
3C
100
AcDbEntity
  8
0
 62
     0
100
AcDbLine
 10
285.7021279999999
 20
37.0
 30
0.0
 11
285.7021279999999
 21
10.0
 31
0.0
  0
LINE
  5
B0
330
3C
100
AcDbEntity
  8
0
 62
     0
100
AcDbLine
 10
312.723404
 20
37.0
 30
0.0
 11
312.723404
 21
10.0
 31
0.0
  0
LINE
  5
B1
330
3C
100
AcDbEntity
  8
0
 62
     0
100
AcDbLine
 10
318.1276599999999
 20
25.0
 30
0.0
 11
318.1276599999999
 21
10.0
 31
0.0
  0
LINE
  5
B2
330
3C
100
AcDbEntity
  8
0
 62
     0
100
AcDbLine
 10
280.297872
 20
49.0
 30
0.0
 11
280.297872
 21
10.0
 31
0.0
  0
LINE
  5
B3
330
3C
100
AcDbEntity
  8
0
 62
     0
100
AcDbLine
 10
348.751773
 20
49.0
 30
0.0
 11
348.751773
 21
10.0
 31
0.0
  0
LINE
  5
B4
330
3C
100
AcDbEntity
  8
0
 62
     0
100
AcDbLine
 10
328.7659569999999
 20
22.0
 30
0.0
 11
328.7659569999999
 21
10.0
 31
0.0
  0
LINE
  5
B5
330
3C
100
AcDbEntity
  8
0
 62
     0
100
AcDbLine
 10
339.4042549999999
 20
22.0
 30
0.0
 11
339.4042549999999
 21
10.0
 31
0.0
  0
LINE
  5
B6
330
3C
100
AcDbEntity
  8
0
 62
     0
100
AcDbLine
 10
280.297872
 20
16.0
 30
0.0
 11
318.1276599999999
 21
16.0
 31
0.0
  0
LINE
  5
B7
330
3C
100
AcDbEntity
  8
0
 62
     0
100
AcDbLine
 10
280.297872
 20
10.0
 30
0.0
 11
280.297872
 21
13.0
 31
0.0
  0
TEXT
  5
B8
330
3C
100
AcDbEntity
  8
0
 62
     0
100
AcDbText
 10
321.7174935333333
 20
10.48329
 30
0.0
 40
1.791674
  1
製図
  7
ADESK1
 72
     1
 11
323.5688899999999
 21
10.48329
 31
0.0
100
AcDbText
  0
TEXT
  5
B9
330
3C
100
AcDbEntity
  8
0
 62
     0
100
AcDbText
 10
332.2960690666666
 20
10.48329
 30
0.0
 40
1.791674
  1
設計
  7
ADESK1
 72
     1
 11
334.2071879999999
 21
10.48329
 31
0.0
100
AcDbText
  0
TEXT
  5
BA
330
3C
100
AcDbEntity
  8
0
 62
     0
100
AcDbText
 10
342.2447160666667
 20
10.552201
 30
0.0
 40
1.791674
  1
照査
  7
ADESK1
 72
     1
 11
344.155835
 21
10.552201
 31
0.0
100
AcDbText
  0
LINE
  5
BB
330
3C
100
AcDbEntity
  8
0
 62
     0
100
AcDbLine
 10
280.297872
 20
25.0
 30
0.0
 11
318.1276599999999
 21
25.0
 31
0.0
  0
LINE
  5
BC
330
3C
100
AcDbEntity
  8
0
 62
     0
100
AcDbLine
 10
280.297872
 20
22.0
 30
0.0
 11
318.1276599999999
 21
22.0
 31
0.0
  0
LINE
  5
BD
330
3C
100
AcDbEntity
  8
0
 62
     0
100
AcDbLine
 10
280.297872
 20
19.0
 30
0.0
 11
318.1276599999999
 21
19.0
 31
0.0
  0
LINE
  5
BE
330
3C
100
AcDbEntity
  8
0
 62
     0
100
AcDbLine
 10
280.297872
 20
34.0
 30
0.0
 11
348.751773
 21
34.0
 31
0.0
  0
LINE
  5
BF
330
3C
100
AcDbEntity
  8
0
 62
     0
100
AcDbLine
 10
280.297872
 20
31.0
 30
0.0
 11
348.751773
 21
31.0
 31
0.0
  0
LINE
  5
C0
330
3C
100
AcDbEntity
  8
0
 62
     0
100
AcDbLine
 10
280.297872
 20
28.0
 30
0.0
 11
348.751773
 21
28.0
 31
0.0
  0
LINE
  5
C1
330
3C
100
AcDbEntity
  8
0
 62
     0
100
AcDbLine
 10
318.1276599999999
 20
25.0
 30
0.0
 11
348.751773
 21
25.0
 31
0.0
  0
LINE
  5
C2
330
3C
100
AcDbEntity
  8
0
 62
     0
100
AcDbLine
 10
318.1276599999999
 20
49.0
 30
0.0
 11
318.1276599999999
 21
25.0
 31
0.0
  0
LINE
  5
C3
330
3C
100
AcDbEntity
  8
0
 62
     0
100
AcDbLine
 10
325.3333329999999
 20
37.0
 30
0.0
 11
325.3333329999999
 21
25.0
 31
0.0
  0
LINE
  5
C4
330
3C
100
AcDbEntity
  8
0
 62
     0
100
AcDbLine
 10
336.141844
 20
49.0
 30
0.0
 11
336.141844
 21
22.0
 31
0.0
  0
LINE
  5
C5
330
3C
100
AcDbEntity
  8
0
 62
     0
100
AcDbLine
 10
402.7943259999999
 20
22.0
 30
0.0
 11
402.7943259999999
 21
10.0
 31
0.0
  0
LINE
  5
C6
330
3C
100
AcDbEntity
  8
0
 62
     0
100
AcDbLine
 10
410.0
 20
49.0
 30
0.0
 11
410.0
 21
10.0
 31
0.0
  0
LINE
  5
C7
330
3C
100
AcDbEntity
  8
0
 62
     0
100
AcDbLine
 10
410.0
 20
10.0
 30
0.0
 11
410.0
 21
49.0
 31
0.0
  0
LINE
  5
C8
330
3C
100
AcDbEntity
  8
0
 62
     0
100
AcDbLine
 10
402.7943259999999
 20
16.0
 30
0.0
 11
410.0
 21
16.0
 31
0.0
  0
ENDBLK
  5
CA
330
3C
100
AcDbEntity
  8
0
100
AcDbBlockEnd
  0
BLOCK
  5
1015
330
FFF
100
AcDbEntity
  8
0
100
AcDbBlockBegin
  2
*D1
 70
     1
 10
0.0
 20
0.0
 30
0.0
  3
*D1
  1

  0
LINE
  5
15D0
330
FFF
100
AcDbEntity
  8
4
 62
     0
370
    -2
100
AcDbLine
 10
86.66276600000001
 20
119.3348107406919
 30
0.0
 11
167.246407
 21
119.3348107406919
 31
0.0
  0
SOLID
  5
15D1
330
FFF
100
AcDbEntity
  8
4
 62
     0
100
AcDbTrace
 10
86.66276600000001
 20
119.8348107406919
 30
0.0
 11
86.66276600000001
 21
118.8348107406919
 31
0.0
 12
83.662766
 22
119.3348107406919
 32
0.0
 13
83.662766
 23
119.3348107406919
 33
0.0
  0
SOLID
  5
15D2
330
FFF
100
AcDbEntity
  8
4
 62
     0
100
AcDbTrace
 10
167.246407
 20
119.8348107406919
 30
0.0
 11
167.246407
 21
118.8348107406919
 31
0.0
 12
170.2464069999999
 22
119.3348107406919
 32
0.0
 13
170.2464069999999
 23
119.3348107406919
 33
0.0
  0
MTEXT
  5
15D3
330
FFF
100
AcDbEntity
  8
4
 62
     0
100
AcDbMText
 10
126.9545864999999
 20
121.834810740692
 30
0.0
 40
3.0
 41
0.0
 71
     5
 72
     1
  1
\A1;350
 73
     1
 44
1.0
  0
POINT
  5
15D4
330
FFF
100
AcDbEntity
  8
DEFPOINTS
 62
     0
100
AcDbPoint
 10
83.662766
 20
119.3348107406919
 30
0.0
  0
POINT
  5
15D5
330
FFF
100
AcDbEntity
  8
DEFPOINTS
 62
     0
100
AcDbPoint
 10
170.2464069999999
 20
119.3348107406919
 30
0.0
  0
POINT
  5
15D6
330
FFF
100
AcDbEntity
  8
DEFPOINTS
 62
     0
100
AcDbPoint
 10
170.2464069999999
 20
119.3348107406919
 30
0.0
  0
ENDBLK
  5
101D
330
FFF
100
AcDbEntity
  8
0
100
AcDbBlockEnd
  0
BLOCK
  5
101E
330
100A
100
AcDbEntity
  8
0
100
AcDbBlockBegin
  2
*D2
 70
     1
 10
0.0
 20
0.0
 30
0.0
  3
*D2
  1

  0
LINE
  5
15AC
330
100A
100
AcDbEntity
  8
4
 62
     0
370
    -2
100
AcDbLine
 10
154.130473
 20
192.3901897406919
 30
0.0
 11
154.130473
 21
104.3466087406919
 31
0.0
  0
SOLID
  5
15AD
330
100A
100
AcDbEntity
  8
4
 62
     0
100
AcDbTrace
 10
153.630473
 20
192.3901897406919
 30
0.0
 11
154.630473
 21
192.3901897406919
 31
0.0
 12
154.130473
 22
195.3901897406919
 32
0.0
 13
154.130473
 23
195.3901897406919
 33
0.0
  0
SOLID
  5
15AE
330
100A
100
AcDbEntity
  8
4
 62
     0
100
AcDbTrace
 10
153.6304729999999
 20
104.3466087406919
 30
0.0
 11
154.6304729999999
 21
104.3466087406919
 31
0.0
 12
154.130473
 22
101.3466087406919
 32
0.0
 13
154.130473
 23
101.3466087406919
 33
0.0
  0
MTEXT
  5
15AF
330
100A
100
AcDbEntity
  8
4
 62
     0
100
AcDbMText
 10
151.6304729999999
 20
148.3683992406919
 30
0.0
 40
3.0
 41
0.0
 71
     5
 72
     1
  1
\A1;376
 11
0.0000000000000001
 21
1.0
 31
0.0
 73
     1
 44
1.0
  0
POINT
  5
15B0
330
100A
100
AcDbEntity
  8
DEFPOINTS
 62
     0
100
AcDbPoint
 10
154.130473
 20
195.3901897406919
 30
0.0
  0
POINT
  5
15B1
330
100A
100
AcDbEntity
  8
DEFPOINTS
 62
     0
100
AcDbPoint
 10
154.130473
 20
101.3466087406919
 30
0.0
  0
POINT
  5
15B2
330
100A
100
AcDbEntity
  8
DEFPOINTS
 62
     0
100
AcDbPoint
 10
154.130473
 20
101.3466087406919
 30
0.0
  0
ENDBLK
  5
1026
330
100A
100
AcDbEntity
  8
0
100
AcDbBlockEnd
  0
BLOCK
  5
1032
330
1027
100
AcDbEntity
  8
0
100
AcDbBlockBegin
  2
*D3
 70
     1
 10
0.0
 20
0.0
 30
0.0
  3
*D3
  1

  0
LINE
  5
161D
330
1027
100
AcDbEntity
  8
4
 62
     0
370
    -2
100
AcDbLine
 10
262.9268339999999
 20
119.019227740692
 30
0.0
 11
313.806598
 21
119.019227740692
 31
0.0
  0
SOLID
  5
161E
330
1027
100
AcDbEntity
  8
4
 62
     0
100
AcDbTrace
 10
262.9268339999999
 20
119.5192277406919
 30
0.0
 11
262.9268339999999
 21
118.5192277406919
 31
0.0
 12
259.926834
 22
119.019227740692
 32
0.0
 13
259.926834
 23
119.019227740692
 33
0.0
  0
SOLID
  5
161F
330
1027
100
AcDbEntity
  8
4
 62
     0
100
AcDbTrace
 10
313.806598
 20
119.5192277406919
 30
0.0
 11
313.806598
 21
118.5192277406919
 31
0.0
 12
316.806598
 22
119.019227740692
 32
0.0
 13
316.806598
 23
119.019227740692
 33
0.0
  0
MTEXT
  5
1620
330
1027
100
AcDbEntity
  8
4
 62
     0
100
AcDbMText
 10
288.3667159999999
 20
121.5192277406919
 30
0.0
 40
3.0
 41
0.0
 71
     5
 72
     1
  1
\A1;230
 73
     1
 44
1.0
  0
POINT
  5
1621
330
1027
100
AcDbEntity
  8
DEFPOINTS
 62
     0
100
AcDbPoint
 10
259.926834
 20
119.019227740692
 30
0.0
  0
POINT
  5
1622
330
1027
100
AcDbEntity
  8
DEFPOINTS
 62
     0
100
AcDbPoint
 10
316.806598
 20
119.019227740692
 30
0.0
  0
POINT
  5
1623
330
1027
100
AcDbEntity
  8
DEFPOINTS
 62
     0
100
AcDbPoint
 10
316.806598
 20
119.019227740692
 30
0.0
  0
ENDBLK
  5
103A
330
1027
100
AcDbEntity
  8
0
100
AcDbBlockEnd
  0
BLOCK
  5
1104
330
1060
100
AcDbEntity
  8
0
100
AcDbBlockBegin
  2
*D4
 70
     1
 10
0.0
 20
0.0
 30
0.0
  3
*D4
  1

  0
LINE
  5
159A
330
1060
100
AcDbEntity
  8
4
 62
     0
370
    -2
100
AcDbLine
 10
185.1679569999999
 20
213.1836517406919
 30
0.0
 11
195.86651
 21
213.1836517406919
 31
0.0
  0
LINE
  5
159B
330
1060
100
AcDbEntity
  8
4
 62
     0
370
    -2
100
AcDbLine
 10
184.3975638090673
 20
82.35365511546772
 30
0.0
 11
195.86651
 21
82.35365511546772
 31
0.0
  0
LINE
  5
159C
330
1060
100
AcDbEntity
  8
4
 62
     0
370
    -2
100
AcDbLine
 10
193.86651
 20
210.1836517406919
 30
0.0
 11
193.86651
 21
85.35365511546773
 31
0.0
  0
SOLID
  5
159D
330
1060
100
AcDbEntity
  8
4
 62
     0
100
AcDbTrace
 10
193.36651
 20
210.1836517406919
 30
0.0
 11
194.36651
 21
210.1836517406919
 31
0.0
 12
193.86651
 22
213.1836517406919
 32
0.0
 13
193.86651
 23
213.1836517406919
 33
0.0
  0
SOLID
  5
159E
330
1060
100
AcDbEntity
  8
4
 62
     0
100
AcDbTrace
 10
193.3665099999999
 20
85.35365511546773
 30
0.0
 11
194.36651
 21
85.35365511546773
 31
0.0
 12
193.86651
 22
82.35365511546772
 32
0.0
 13
193.86651
 23
82.35365511546772
 33
0.0
  0
MTEXT
  5
159F
330
1060
100
AcDbEntity
  8
4
 62
     0
100
AcDbMText
 10
191.3665099999999
 20
147.7686534280798
 30
0.0
 40
3.0
 41
0.0
 71
     5
 72
     1
  1
\A1;524
 11
0.0000000000000001
 21
1.0
 31
0.0
 73
     1
 44
1.0
  0
POINT
  5
15A0
330
1060
100
AcDbEntity
  8
DEFPOINTS
 62
     0
100
AcDbPoint
 10
183.167957
 20
213.1836517406919
 30
0.0
  0
POINT
  5
15A1
330
1060
100
AcDbEntity
  8
DEFPOINTS
 62
     0
100
AcDbPoint
 10
182.3975638090673
 20
82.35365511546772
 30
0.0
  0
POINT
  5
15A2
330
1060
100
AcDbEntity
  8
DEFPOINTS
 62
     0
100
AcDbPoint
 10
193.86651
 20
82.35365511546772
 30
0.0
  0
ENDBLK
  5
110E
330
1060
100
AcDbEntity
  8
0
100
AcDbBlockEnd
  0
BLOCK
  5
110F
330
106D
100
AcDbEntity
  8
0
100
AcDbBlockBegin
  2
*D5
 70
     1
 10
0.0
 20
0.0
 30
0.0
  3
*D5
  1

  0
LINE
  5
1BB7
330
106D
100
AcDbEntity
  8
4
 62
     0
370
    -2
100
AcDbLine
 10
185.1679569999999
 20
213.1836517406919
 30
0.0
 11
206.947152
 21
213.1836517406919
 31
0.0
  0
LINE
  5
1BB8
330
106D
100
AcDbEntity
  8
4
 62
     0
370
    -2
100
AcDbLine
 10
180.7174249999999
 20
77.97885974069197
 30
0.0
 11
206.947152
 21
77.97885974069197
 31
0.0
  0
LINE
  5
1BB9
330
106D
100
AcDbEntity
  8
4
 62
     0
370
    -2
100
AcDbLine
 10
204.9471519999999
 20
210.1836517406919
 30
0.0
 11
204.9471519999999
 21
80.97885974069198
 31
0.0
  0
SOLID
  5
1BBA
330
106D
100
AcDbEntity
  8
4
 62
     0
100
AcDbTrace
 10
204.447152
 20
210.1836517406919
 30
0.0
 11
205.447152
 21
210.1836517406919
 31
0.0
 12
204.9471519999999
 22
213.1836517406919
 32
0.0
 13
204.9471519999999
 23
213.1836517406919
 33
0.0
  0
SOLID
  5
1BBB
330
106D
100
AcDbEntity
  8
4
 62
     0
100
AcDbTrace
 10
204.447152
 20
80.97885974069198
 30
0.0
 11
205.4471519999999
 21
80.97885974069198
 31
0.0
 12
204.9471519999999
 22
77.97885974069197
 32
0.0
 13
204.9471519999999
 23
77.97885974069197
 33
0.0
  0
MTEXT
  5
1BBC
330
106D
100
AcDbEntity
  8
4
 62
     0
100
AcDbMText
 10
202.4471519999999
 20
145.581255740692
 30
0.0
 40
3.0
 41
0.0
 71
     5
 72
     1
  1
\A1;539
 11
0.0000000000000001
 21
1.0
 31
0.0
 73
     1
 44
1.0
  0
POINT
  5
1BBD
330
106D
100
AcDbEntity
  8
DEFPOINTS
 62
     0
100
AcDbPoint
 10
183.167957
 20
213.1836517406919
 30
0.0
  0
POINT
  5
1BBE
330
106D
100
AcDbEntity
  8
DEFPOINTS
 62
     0
100
AcDbPoint
 10
178.7174249999999
 20
77.97885974069197
 30
0.0
  0
POINT
  5
1BBF
330
106D
100
AcDbEntity
  8
DEFPOINTS
 62
     0
100
AcDbPoint
 10
204.9471519999999
 20
77.97885974069197
 30
0.0
  0
ENDBLK
  5
1119
330
106D
100
AcDbEntity
  8
0
100
AcDbBlockEnd
  0
BLOCK
  5
10F6
330
107A
100
AcDbEntity
  8
0
100
AcDbBlockBegin
  2
*D6
 70
     1
 10
0.0
 20
0.0
 30
0.0
  3
*D6
  1

  0
LINE
  5
15ED
330
107A
100
AcDbEntity
  8
4
 62
     0
370
    -2
100
AcDbLine
 10
184.3975638090673
 20
82.35365511546772
 30
0.0
 11
195.86651
 21
82.35365511546772
 31
0.0
  0
LINE
  5
15EE
330
107A
100
AcDbEntity
  8
4
 62
     0
370
    -2
100
AcDbLine
 10
180.7174249999999
 20
77.97885974069197
 30
0.0
 11
195.86651
 21
77.97885974069197
 31
0.0
  0
LINE
  5
15EF
330
107A
100
AcDbEntity
  8
4
 62
     0
370
    -2
100
AcDbLine
 10
193.86651
 20
85.35365511546773
 30
0.0
 11
193.86651
 21
88.35365511546774
 31
0.0
  0
LINE
  5
15F0
330
107A
100
AcDbEntity
  8
4
 62
     0
370
    -2
100
AcDbLine
 10
193.86651
 20
74.97885974069197
 30
0.0
 11
193.86651
 21
71.97885974069198
 31
0.0
  0
LINE
  5
15F1
330
107A
100
AcDbEntity
  8
4
 62
     0
370
    -2
100
AcDbLine
 10
193.86651
 20
71.97885974069198
 30
0.0
 11
188.86651
 21
71.97885974069198
 31
0.0
  0
LINE
  5
15F2
330
107A
100
AcDbEntity
  8
4
 62
     0
370
    -2
100
AcDbLine
 10
193.86651
 20
82.35365511546772
 30
0.0
 11
193.86651
 21
77.97885974069197
 31
0.0
  0
SOLID
  5
15F3
330
107A
100
AcDbEntity
  8
4
 62
     0
100
AcDbTrace
 10
193.3665099999999
 20
85.35365511546773
 30
0.0
 11
194.36651
 21
85.35365511546773
 31
0.0
 12
193.86651
 22
82.35365511546772
 32
0.0
 13
193.86651
 23
82.35365511546772
 33
0.0
  0
SOLID
  5
15F4
330
107A
100
AcDbEntity
  8
4
 62
     0
100
AcDbTrace
 10
193.3665099999999
 20
74.97885974069197
 30
0.0
 11
194.36651
 21
74.97885974069197
 31
0.0
 12
193.86651
 22
77.97885974069197
 32
0.0
 13
193.86651
 23
77.97885974069197
 33
0.0
  0
MTEXT
  5
15F5
330
107A
100
AcDbEntity
  8
4
 62
     0
100
AcDbMText
 10
190.8665099999999
 20
74.478859740692
 30
0.0
 40
3.0
 41
0.0
 71
     5
 72
     1
  1
\A1;15
 73
     1
 44
1.0
  0
POINT
  5
15F6
330
107A
100
AcDbEntity
  8
DEFPOINTS
 62
     0
100
AcDbPoint
 10
182.3975638090673
 20
82.35365511546772
 30
0.0
  0
POINT
  5
15F7
330
107A
100
AcDbEntity
  8
DEFPOINTS
 62
     0
100
AcDbPoint
 10
178.7174249999999
 20
77.97885974069197
 30
0.0
  0
POINT
  5
15F8
330
107A
100
AcDbEntity
  8
DEFPOINTS
 62
     0
100
AcDbPoint
 10
193.86651
 20
77.97885974069197
 30
0.0
  0
ENDBLK
  5
1103
330
107A
100
AcDbEntity
  8
0
100
AcDbBlockEnd
  0
BLOCK
  5
10DC
330
1089
100
AcDbEntity
  8
0
100
AcDbBlockBegin
  2
*D7
 70
     1
 10
0.0
 20
0.0
 30
0.0
  3
*D7
  1

  0
LINE
  5
15D7
330
1089
100
AcDbEntity
  8
4
 62
     0
370
    -2
100
AcDbLine
 10
175.6153529999999
 20
75.96416474069198
 30
0.0
 11
175.6153529999999
 21
66.65532874069199
 31
0.0
  0
LINE
  5
15D8
330
1089
100
AcDbEntity
  8
4
 62
     0
370
    -2
100
AcDbLine
 10
183.168457
 20
80.90599974069197
 30
0.0
 11
183.168457
 21
66.65532874069199
 31
0.0
  0
LINE
  5
15D9
330
1089
100
AcDbEntity
  8
4
 62
     0
370
    -2
100
AcDbLine
 10
172.6153529999999
 20
68.65532874069199
 30
0.0
 11
169.615353
 21
68.65532874069199
 31
0.0
  0
LINE
  5
15DA
330
1089
100
AcDbEntity
  8
4
 62
     0
370
    -2
100
AcDbLine
 10
186.168457
 20
68.65532874069199
 30
0.0
 11
189.168457
 21
68.65532874069199
 31
0.0
  0
LINE
  5
15DB
330
1089
100
AcDbEntity
  8
4
 62
     0
370
    -2
100
AcDbLine
 10
175.6153529999999
 20
68.65532874069199
 30
0.0
 11
183.168457
 21
68.65532874069199
 31
0.0
  0
SOLID
  5
15DC
330
1089
100
AcDbEntity
  8
4
 62
     0
100
AcDbTrace
 10
172.6153529999999
 20
69.15532874069199
 30
0.0
 11
172.6153529999999
 21
68.15532874069198
 31
0.0
 12
175.6153529999999
 22
68.65532874069199
 32
0.0
 13
175.6153529999999
 23
68.65532874069199
 33
0.0
  0
SOLID
  5
15DD
330
1089
100
AcDbEntity
  8
4
 62
     0
100
AcDbTrace
 10
186.168457
 20
69.15532874069199
 30
0.0
 11
186.168457
 21
68.15532874069198
 31
0.0
 12
183.168457
 22
68.65532874069199
 32
0.0
 13
183.168457
 23
68.65532874069199
 33
0.0
  0
MTEXT
  5
15DE
330
1089
100
AcDbEntity
  8
4
 62
     0
100
AcDbMText
 10
179.391905
 20
71.15532874069199
 30
0.0
 40
3.0
 41
0.0
 71
     5
 72
     1
  1
\A1;20
 73
     1
 44
1.0
  0
POINT
  5
15DF
330
1089
100
AcDbEntity
  8
DEFPOINTS
 62
     0
100
AcDbPoint
 10
175.6153529999999
 20
77.96416474069198
 30
0.0
  0
POINT
  5
15E0
330
1089
100
AcDbEntity
  8
DEFPOINTS
 62
     0
100
AcDbPoint
 10
183.168457
 20
82.90599974069198
 30
0.0
  0
POINT
  5
15E1
330
1089
100
AcDbEntity
  8
DEFPOINTS
 62
     0
100
AcDbPoint
 10
183.168457
 20
68.65532874069199
 30
0.0
  0
ENDBLK
  5
10E8
330
1089
100
AcDbEntity
  8
0
100
AcDbBlockEnd
  0
BLOCK
  5
10D1
330
10A8
100
AcDbEntity
  8
0
100
AcDbBlockBegin
  2
*D8
 70
     1
 10
0.0
 20
0.0
 30
0.0
  3
*D8
  1

  0
LINE
  5
1BC0
330
10A8
100
AcDbEntity
  8
4
 62
     0
370
    -2
100
AcDbLine
 10
69.92760768281705
 20
81.18217242985128
 30
0.0
 11
69.92760768281705
 21
59.08349648890136
 31
0.0
  0
LINE
  5
1BC1
330
10A8
100
AcDbEntity
  8
4
 62
     0
370
    -2
100
AcDbLine
 10
183.168457
 20
80.90599974069197
 30
0.0
 11
183.168457
 21
59.08349648890136
 31
0.0
  0
LINE
  5
1BC2
330
10A8
100
AcDbEntity
  8
4
 62
     0
370
    -2
100
AcDbLine
 10
72.92760768281706
 20
61.08349648890136
 30
0.0
 11
180.168457
 21
61.08349648890136
 31
0.0
  0
SOLID
  5
1BC3
330
10A8
100
AcDbEntity
  8
4
 62
     0
100
AcDbTrace
 10
72.92760768281706
 20
61.58349648890136
 30
0.0
 11
72.92760768281706
 21
60.58349648890136
 31
0.0
 12
69.92760768281705
 22
61.08349648890136
 32
0.0
 13
69.92760768281705
 23
61.08349648890136
 33
0.0
  0
SOLID
  5
1BC4
330
10A8
100
AcDbEntity
  8
4
 62
     0
100
AcDbTrace
 10
180.168457
 20
61.58349648890136
 30
0.0
 11
180.168457
 21
60.58349648890136
 31
0.0
 12
183.168457
 22
61.08349648890136
 32
0.0
 13
183.168457
 23
61.08349648890136
 33
0.0
  0
MTEXT
  5
1BC5
330
10A8
100
AcDbEntity
  8
4
 62
     0
100
AcDbMText
 10
126.5480323414085
 20
63.58349648890136
 30
0.0
 40
3.0
 41
0.0
 71
     5
 72
     1
  1
\A1;450
 73
     1
 44
1.0
  0
POINT
  5
1BC6
330
10A8
100
AcDbEntity
  8
DEFPOINTS
 62
     0
100
AcDbPoint
 10
69.92760768281705
 20
83.18217242985127
 30
0.0
  0
POINT
  5
1BC7
330
10A8
100
AcDbEntity
  8
DEFPOINTS
 62
     0
100
AcDbPoint
 10
183.168457
 20
82.90599974069198
 30
0.0
  0
POINT
  5
1BC8
330
10A8
100
AcDbEntity
  8
DEFPOINTS
 62
     0
100
AcDbPoint
 10
183.168457
 20
61.08349648890136
 30
0.0
  0
ENDBLK
  5
10DB
330
10A8
100
AcDbEntity
  8
0
100
AcDbBlockEnd
  0
BLOCK
  5
10E9
330
10B5
100
AcDbEntity
  8
0
100
AcDbBlockBegin
  2
*D9
 70
     1
 10
0.0
 20
0.0
 30
0.0
  3
*D9
  1

  0
LINE
  5
15E2
330
10B5
100
AcDbEntity
  8
4
 62
     0
370
    -2
100
AcDbLine
 10
183.168457
 20
81.07134348063937
 30
0.0
 11
183.168457
 21
59.08349648890136
 31
0.0
  0
LINE
  5
15E3
330
10B5
100
AcDbEntity
  8
4
 62
     0
370
    -2
100
AcDbLine
 10
185.391154
 20
89.81389774069198
 30
0.0
 11
185.391154
 21
59.08349648890136
 31
0.0
  0
LINE
  5
15E4
330
10B5
100
AcDbEntity
  8
4
 62
     0
370
    -2
100
AcDbLine
 10
180.168457
 20
61.08349648890136
 30
0.0
 11
177.168457
 21
61.08349648890136
 31
0.0
  0
LINE
  5
15E5
330
10B5
100
AcDbEntity
  8
4
 62
     0
370
    -2
100
AcDbLine
 10
188.3911539999999
 20
61.08349648890136
 30
0.0
 11
195.391154
 21
61.08349648890136
 31
0.0
  0
LINE
  5
15E6
330
10B5
100
AcDbEntity
  8
4
 62
     0
370
    -2
100
AcDbLine
 10
183.168457
 20
61.08349648890136
 30
0.0
 11
185.391154
 21
61.08349648890136
 31
0.0
  0
SOLID
  5
15E7
330
10B5
100
AcDbEntity
  8
4
 62
     0
100
AcDbTrace
 10
180.168457
 20
61.58349648890136
 30
0.0
 11
180.168457
 21
60.58349648890136
 31
0.0
 12
183.168457
 22
61.08349648890136
 32
0.0
 13
183.168457
 23
61.08349648890136
 33
0.0
  0
SOLID
  5
15E8
330
10B5
100
AcDbEntity
  8
4
 62
     0
100
AcDbTrace
 10
188.3911539999999
 20
61.58349648890136
 30
0.0
 11
188.3911539999999
 21
60.58349648890136
 31
0.0
 12
185.391154
 22
61.08349648890136
 32
0.0
 13
185.391154
 23
61.08349648890136
 33
0.0
  0
MTEXT
  5
15E9
330
10B5
100
AcDbEntity
  8
4
 62
     0
100
AcDbMText
 10
193.391154
 20
63.58349648890136
 30
0.0
 40
3.0
 41
0.0
 71
     5
 72
     1
  1
\A1;7
 73
     1
 44
1.0
  0
POINT
  5
15EA
330
10B5
100
AcDbEntity
  8
DEFPOINTS
 62
     0
100
AcDbPoint
 10
183.168457
 20
83.07134348063938
 30
0.0
  0
POINT
  5
15EB
330
10B5
100
AcDbEntity
  8
DEFPOINTS
 62
     0
100
AcDbPoint
 10
185.391154
 20
91.81389774069199
 30
0.0
  0
POINT
  5
15EC
330
10B5
100
AcDbEntity
  8
DEFPOINTS
 62
     0
100
AcDbPoint
 10
185.391154
 20
61.08349648890136
 30
0.0
  0
ENDBLK
  5
10F5
330
10B5
100
AcDbEntity
  8
0
100
AcDbBlockEnd
  0
BLOCK
  5
1199
330
111C
100
AcDbEntity
  8
0
100
AcDbBlockBegin
  2
*D10
 70
     1
 10
0.0
 20
0.0
 30
0.0
  3
*D10
  1

  0
LINE
  5
1624
330
111C
100
AcDbEntity
  8
4
 62
     0
370
    -2
100
AcDbLine
 10
249.9335679178762
 20
83.97385617364166
 30
0.0
 11
249.9335679178762
 21
59.08349648890136
 31
0.0
  0
LINE
  5
1625
330
111C
100
AcDbEntity
  8
4
 62
     0
370
    -2
100
AcDbLine
 10
259.9615009999999
 20
80.33166374069198
 30
0.0
 11
259.9615009999999
 21
59.08349648890136
 31
0.0
  0
LINE
  5
1626
330
111C
100
AcDbEntity
  8
4
 62
     0
370
    -2
100
AcDbLine
 10
252.9335679178763
 20
61.08349648890136
 30
0.0
 11
256.961501
 21
61.08349648890136
 31
0.0
  0
SOLID
  5
1627
330
111C
100
AcDbEntity
  8
4
 62
     0
100
AcDbTrace
 10
252.9335679178763
 20
61.58349648890136
 30
0.0
 11
252.9335679178763
 21
60.58349648890136
 31
0.0
 12
249.9335679178762
 22
61.08349648890136
 32
0.0
 13
249.9335679178762
 23
61.08349648890136
 33
0.0
  0
SOLID
  5
1628
330
111C
100
AcDbEntity
  8
4
 62
     0
100
AcDbTrace
 10
256.961501
 20
61.58349648890136
 30
0.0
 11
256.961501
 21
60.58349648890136
 31
0.0
 12
259.9615009999999
 22
61.08349648890136
 32
0.0
 13
259.9615009999999
 23
61.08349648890136
 33
0.0
  0
MTEXT
  5
1629
330
111C
100
AcDbEntity
  8
4
 62
     0
100
AcDbMText
 10
254.9475344589381
 20
63.58349648890136
 30
0.0
 40
3.0
 41
0.0
 71
     5
 72
     1
  1
\A1;40
 73
     1
 44
1.0
  0
POINT
  5
162A
330
111C
100
AcDbEntity
  8
DEFPOINTS
 62
     0
100
AcDbPoint
 10
249.9335679178762
 20
85.97385617364166
 30
0.0
  0
POINT
  5
162B
330
111C
100
AcDbEntity
  8
DEFPOINTS
 62
     0
100
AcDbPoint
 10
259.9615009999999
 20
82.33166374069197
 30
0.0
  0
POINT
  5
162C
330
111C
100
AcDbEntity
  8
DEFPOINTS
 62
     0
100
AcDbPoint
 10
259.9615009999999
 20
61.08349648890136
 30
0.0
  0
ENDBLK
  5
11A3
330
111C
100
AcDbEntity
  8
0
100
AcDbBlockEnd
  0
BLOCK
  5
117F
330
1129
100
AcDbEntity
  8
0
100
AcDbBlockBegin
  2
*D11
 70
     1
 10
0.0
 20
0.0
 30
0.0
  3
*D11
  1

  0
LINE
  5
162D
330
1129
100
AcDbEntity
  8
4
 62
     0
370
    -2
100
AcDbLine
 10
259.9615009999999
 20
80.33166374069198
 30
0.0
 11
259.9615009999999
 21
66.65532874069199
 31
0.0
  0
LINE
  5
162E
330
1129
100
AcDbEntity
  8
4
 62
     0
370
    -2
100
AcDbLine
 10
267.644298
 20
75.96416474069198
 30
0.0
 11
267.644298
 21
66.65532874069199
 31
0.0
  0
LINE
  5
162F
330
1129
100
AcDbEntity
  8
4
 62
     0
370
    -2
100
AcDbLine
 10
256.961501
 20
68.65532874069199
 30
0.0
 11
253.9615009999999
 21
68.65532874069199
 31
0.0
  0
LINE
  5
1630
330
1129
100
AcDbEntity
  8
4
 62
     0
370
    -2
100
AcDbLine
 10
270.6442979999999
 20
68.65532874069199
 30
0.0
 11
273.644298
 21
68.65532874069199
 31
0.0
  0
LINE
  5
1631
330
1129
100
AcDbEntity
  8
4
 62
     0
370
    -2
100
AcDbLine
 10
259.9615009999999
 20
68.65532874069199
 30
0.0
 11
267.644298
 21
68.65532874069199
 31
0.0
  0
SOLID
  5
1632
330
1129
100
AcDbEntity
  8
4
 62
     0
100
AcDbTrace
 10
256.961501
 20
69.15532874069199
 30
0.0
 11
256.961501
 21
68.15532874069198
 31
0.0
 12
259.9615009999999
 22
68.65532874069199
 32
0.0
 13
259.9615009999999
 23
68.65532874069199
 33
0.0
  0
SOLID
  5
1633
330
1129
100
AcDbEntity
  8
4
 62
     0
100
AcDbTrace
 10
270.6442979999999
 20
69.15532874069199
 30
0.0
 11
270.6442979999999
 21
68.15532874069198
 31
0.0
 12
267.644298
 22
68.65532874069199
 32
0.0
 13
267.644298
 23
68.65532874069199
 33
0.0
  0
MTEXT
  5
1634
330
1129
100
AcDbEntity
  8
4
 62
     0
100
AcDbMText
 10
263.8028994999999
 20
71.15532874069199
 30
0.0
 40
3.0
 41
0.0
 71
     5
 72
     1
  1
\A1;25
 73
     1
 44
1.0
  0
POINT
  5
1635
330
1129
100
AcDbEntity
  8
DEFPOINTS
 62
     0
100
AcDbPoint
 10
259.9615009999999
 20
82.33166374069197
 30
0.0
  0
POINT
  5
1636
330
1129
100
AcDbEntity
  8
DEFPOINTS
 62
     0
100
AcDbPoint
 10
267.644298
 20
77.96416474069198
 30
0.0
  0
POINT
  5
1637
330
1129
100
AcDbEntity
  8
DEFPOINTS
 62
     0
100
AcDbPoint
 10
267.644298
 20
68.65532874069199
 30
0.0
  0
ENDBLK
  5
118B
330
1129
100
AcDbEntity
  8
0
100
AcDbBlockEnd
  0
BLOCK
  5
11AF
330
1154
100
AcDbEntity
  8
0
100
AcDbBlockBegin
  2
*D12
 70
     1
 10
0.0
 20
0.0
 30
0.0
  3
*D12
  1

  0
LINE
  5
160B
330
1154
100
AcDbEntity
  8
4
 62
     0
370
    -2
100
AcDbLine
 10
241.6663365437835
 20
156.7961235164702
 30
0.0
 11
241.6663365437835
 21
51.51166423711074
 31
0.0
  0
LINE
  5
160C
330
1154
100
AcDbEntity
  8
4
 62
     0
370
    -2
100
AcDbLine
 10
249.9335679178762
 20
83.97385617364166
 30
0.0
 11
249.9335679178762
 21
51.51166423711074
 31
0.0
  0
LINE
  5
160D
330
1154
100
AcDbEntity
  8
4
 62
     0
370
    -2
100
AcDbLine
 10
244.6663365437835
 20
53.51166423711074
 30
0.0
 11
246.9335679178763
 21
53.51166423711074
 31
0.0
  0
SOLID
  5
160E
330
1154
100
AcDbEntity
  8
4
 62
     0
100
AcDbTrace
 10
244.6663365437835
 20
54.01166423711074
 30
0.0
 11
244.6663365437835
 21
53.01166423711073
 31
0.0
 12
241.6663365437835
 22
53.51166423711074
 32
0.0
 13
241.6663365437835
 23
53.51166423711074
 33
0.0
  0
SOLID
  5
160F
330
1154
100
AcDbEntity
  8
4
 62
     0
100
AcDbTrace
 10
246.9335679178763
 20
54.01166423711074
 30
0.0
 11
246.9335679178763
 21
53.01166423711073
 31
0.0
 12
249.9335679178762
 22
53.51166423711074
 32
0.0
 13
249.9335679178762
 23
53.51166423711074
 33
0.0
  0
MTEXT
  5
1610
330
1154
100
AcDbEntity
  8
4
 62
     0
100
AcDbMText
 10
245.7999522308299
 20
56.01166423711074
 30
0.0
 40
3.0
 41
0.0
 71
     5
 72
     1
  1
\A1;27
 73
     1
 44
1.0
  0
POINT
  5
1611
330
1154
100
AcDbEntity
  8
DEFPOINTS
 62
     0
100
AcDbPoint
 10
241.6663365437835
 20
158.7961235164702
 30
0.0
  0
POINT
  5
1612
330
1154
100
AcDbEntity
  8
DEFPOINTS
 62
     0
100
AcDbPoint
 10
249.9335679178762
 20
85.97385617364166
 30
0.0
  0
POINT
  5
1613
330
1154
100
AcDbEntity
  8
DEFPOINTS
 62
     0
100
AcDbPoint
 10
249.9335679178762
 20
53.51166423711074
 30
0.0
  0
ENDBLK
  5
11BB
330
1154
100
AcDbEntity
  8
0
100
AcDbBlockEnd
  0
BLOCK
  5
11BC
330
1163
100
AcDbEntity
  8
0
100
AcDbBlockBegin
  2
*D13
 70
     1
 10
0.0
 20
0.0
 30
0.0
  3
*D13
  1

  0
LINE
  5
1BC9
330
1163
100
AcDbEntity
  8
4
 62
     0
370
    -2
100
AcDbLine
 10
249.9335679178762
 20
83.97385617364166
 30
0.0
 11
249.9335679178762
 21
51.51166423711074
 31
0.0
  0
LINE
  5
1BCA
330
1163
100
AcDbEntity
  8
4
 62
     0
370
    -2
100
AcDbLine
 10
334.941422
 20
80.33166374069196
 30
0.0
 11
334.941422
 21
51.51166423711074
 31
0.0
  0
LINE
  5
1BCB
330
1163
100
AcDbEntity
  8
4
 62
     0
370
    -2
100
AcDbLine
 10
252.9335679178763
 20
53.51166423711074
 30
0.0
 11
331.941422
 21
53.51166423711074
 31
0.0
  0
SOLID
  5
1BCC
330
1163
100
AcDbEntity
  8
4
 62
     0
100
AcDbTrace
 10
252.9335679178763
 20
54.01166423711074
 30
0.0
 11
252.9335679178763
 21
53.01166423711073
 31
0.0
 12
249.9335679178762
 22
53.51166423711074
 32
0.0
 13
249.9335679178762
 23
53.51166423711074
 33
0.0
  0
SOLID
  5
1BCD
330
1163
100
AcDbEntity
  8
4
 62
     0
100
AcDbTrace
 10
331.941422
 20
54.01166423711074
 30
0.0
 11
331.941422
 21
53.01166423711073
 31
0.0
 12
334.941422
 22
53.51166423711074
 32
0.0
 13
334.941422
 23
53.51166423711074
 33
0.0
  0
MTEXT
  5
1BCE
330
1163
100
AcDbEntity
  8
4
 62
     0
100
AcDbMText
 10
287.1134940513485
 20
56.01166423711074
 30
0.0
 40
3.0
 41
0.0
 71
     5
 72
     1
  1
\A1;340
 73
     1
 44
1.0
  0
POINT
  5
1BCF
330
1163
100
AcDbEntity
  8
DEFPOINTS
 62
     0
100
AcDbPoint
 10
249.9335679178762
 20
85.97385617364166
 30
0.0
  0
POINT
  5
1BD0
330
1163
100
AcDbEntity
  8
DEFPOINTS
 62
     0
100
AcDbPoint
 10
334.941422
 20
82.33166374069197
 30
0.0
  0
POINT
  5
1BD1
330
1163
100
AcDbEntity
  8
DEFPOINTS
 62
     0
100
AcDbPoint
 10
334.941422
 20
53.51166423711074
 30
0.0
  0
ENDBLK
  5
11C6
330
1163
100
AcDbEntity
  8
0
100
AcDbBlockEnd
  0
BLOCK
  5
1208
330
11D4
100
AcDbEntity
  8
0
100
AcDbBlockBegin
  2
*D14
 70
     1
 10
0.0
 20
0.0
 30
0.0
  3
*D14
  1

  0
LINE
  5
1657
330
11D4
100
AcDbEntity
  8
4
 62
     0
370
    -2
100
AcDbLine
 10
249.706893
 20
215.130006740692
 30
0.0
 11
249.706893
 21
224.8836247406919
 31
0.0
  0
LINE
  5
1658
330
11D4
100
AcDbEntity
  8
4
 62
     0
370
    -2
100
AcDbLine
 10
259.987399
 20
215.130006740692
 30
0.0
 11
259.987399
 21
224.8836247406919
 31
0.0
  0
LINE
  5
1659
330
11D4
100
AcDbEntity
  8
4
 62
     0
370
    -2
100
AcDbLine
 10
252.7068929999999
 20
222.8836247406919
 30
0.0
 11
256.987399
 21
222.8836247406919
 31
0.0
  0
SOLID
  5
165A
330
11D4
100
AcDbEntity
  8
4
 62
     0
100
AcDbTrace
 10
252.7068929999999
 20
223.3836247406919
 30
0.0
 11
252.7068929999999
 21
222.3836247406919
 31
0.0
 12
249.706893
 22
222.8836247406919
 32
0.0
 13
249.706893
 23
222.8836247406919
 33
0.0
  0
SOLID
  5
165B
330
11D4
100
AcDbEntity
  8
4
 62
     0
100
AcDbTrace
 10
256.987399
 20
223.3836247406919
 30
0.0
 11
256.987399
 21
222.3836247406919
 31
0.0
 12
259.987399
 22
222.8836247406919
 32
0.0
 13
259.987399
 23
222.8836247406919
 33
0.0
  0
MTEXT
  5
165C
330
11D4
100
AcDbEntity
  8
4
 62
     0
100
AcDbMText
 10
254.847146
 20
225.3836247406919
 30
0.0
 40
3.0
 41
0.0
 71
     5
 72
     1
  1
\A1;44
 73
     1
 44
1.0
  0
POINT
  5
165D
330
11D4
100
AcDbEntity
  8
DEFPOINTS
 62
     0
100
AcDbPoint
 10
249.706893
 20
213.130006740692
 30
0.0
  0
POINT
  5
165E
330
11D4
100
AcDbEntity
  8
DEFPOINTS
 62
     0
100
AcDbPoint
 10
259.987399
 20
213.130006740692
 30
0.0
  0
POINT
  5
165F
330
11D4
100
AcDbEntity
  8
DEFPOINTS
 62
     0
100
AcDbPoint
 10
259.987399
 20
222.8836247406919
 30
0.0
  0
ENDBLK
  5
1212
330
11D4
100
AcDbEntity
  8
0
100
AcDbBlockEnd
  0
BLOCK
  5
11FD
330
11E1
100
AcDbEntity
  8
0
100
AcDbBlockBegin
  2
*D15
 70
     1
 10
0.0
 20
0.0
 30
0.0
  3
*D15
  1

  0
LINE
  5
164E
330
11E1
100
AcDbEntity
  8
4
 62
     0
370
    -2
100
AcDbLine
 10
259.987399
 20
215.130006740692
 30
0.0
 11
259.987399
 21
224.8836247406919
 31
0.0
  0
LINE
  5
164F
330
11E1
100
AcDbEntity
  8
4
 62
     0
370
    -2
100
AcDbLine
 10
334.778082
 20
215.130006740692
 30
0.0
 11
334.778082
 21
224.8836247406919
 31
0.0
  0
LINE
  5
1650
330
11E1
100
AcDbEntity
  8
4
 62
     0
370
    -2
100
AcDbLine
 10
262.987399
 20
222.8836247406919
 30
0.0
 11
331.7780819999999
 21
222.8836247406919
 31
0.0
  0
SOLID
  5
1651
330
11E1
100
AcDbEntity
  8
4
 62
     0
100
AcDbTrace
 10
262.987399
 20
223.3836247406919
 30
0.0
 11
262.987399
 21
222.3836247406919
 31
0.0
 12
259.987399
 22
222.8836247406919
 32
0.0
 13
259.987399
 23
222.8836247406919
 33
0.0
  0
SOLID
  5
1652
330
11E1
100
AcDbEntity
  8
4
 62
     0
100
AcDbTrace
 10
331.7780819999999
 20
223.3836247406919
 30
0.0
 11
331.7780819999999
 21
222.3836247406919
 31
0.0
 12
334.778082
 22
222.8836247406919
 32
0.0
 13
334.778082
 23
222.8836247406919
 33
0.0
  0
MTEXT
  5
1653
330
11E1
100
AcDbEntity
  8
4
 62
     0
100
AcDbMText
 10
297.3827405
 20
225.3836247406919
 30
0.0
 40
3.0
 41
0.0
 71
     5
 72
     1
  1
\A1;300
 73
     1
 44
1.0
  0
POINT
  5
1654
330
11E1
100
AcDbEntity
  8
DEFPOINTS
 62
     0
100
AcDbPoint
 10
259.987399
 20
213.130006740692
 30
0.0
  0
POINT
  5
1655
330
11E1
100
AcDbEntity
  8
DEFPOINTS
 62
     0
100
AcDbPoint
 10
334.778082
 20
213.130006740692
 30
0.0
  0
POINT
  5
1656
330
11E1
100
AcDbEntity
  8
DEFPOINTS
 62
     0
100
AcDbPoint
 10
334.778082
 20
222.8836247406919
 30
0.0
  0
ENDBLK
  5
1207
330
11E1
100
AcDbEntity
  8
0
100
AcDbBlockEnd
  0
BLOCK
  5
1213
330
11EE
100
AcDbEntity
  8
0
100
AcDbBlockBegin
  2
*D16
 70
     1
 10
0.0
 20
0.0
 30
0.0
  3
*D16
  1

  0
LINE
  5
1643
330
11EE
100
AcDbEntity
  8
4
 62
     0
370
    -2
100
AcDbLine
 10
334.778082
 20
215.130006740692
 30
0.0
 11
334.778082
 21
224.8836247406919
 31
0.0
  0
LINE
  5
1644
330
11EE
100
AcDbEntity
  8
4
 62
     0
370
    -2
100
AcDbLine
 10
336.8341829999999
 20
211.7932427406919
 30
0.0
 11
336.8341829999999
 21
224.8836247406919
 31
0.0
  0
LINE
  5
1645
330
11EE
100
AcDbEntity
  8
4
 62
     0
370
    -2
100
AcDbLine
 10
331.7780819999999
 20
222.8836247406919
 30
0.0
 11
328.778082
 21
222.8836247406919
 31
0.0
  0
LINE
  5
1646
330
11EE
100
AcDbEntity
  8
4
 62
     0
370
    -2
100
AcDbLine
 10
339.834183
 20
222.8836247406919
 30
0.0
 11
350.8341829999999
 21
222.8836247406919
 31
0.0
  0
LINE
  5
1647
330
11EE
100
AcDbEntity
  8
4
 62
     0
370
    -2
100
AcDbLine
 10
334.778082
 20
222.8836247406919
 30
0.0
 11
336.8341829999999
 21
222.8836247406919
 31
0.0
  0
SOLID
  5
1648
330
11EE
100
AcDbEntity
  8
4
 62
     0
100
AcDbTrace
 10
331.7780819999999
 20
223.3836247406919
 30
0.0
 11
331.7780819999999
 21
222.3836247406919
 31
0.0
 12
334.778082
 22
222.8836247406919
 32
0.0
 13
334.778082
 23
222.8836247406919
 33
0.0
  0
SOLID
  5
1649
330
11EE
100
AcDbEntity
  8
4
 62
     0
100
AcDbTrace
 10
339.834183
 20
223.3836247406919
 30
0.0
 11
339.834183
 21
222.3836247406919
 31
0.0
 12
336.8341829999999
 22
222.8836247406919
 32
0.0
 13
336.8341829999999
 23
222.8836247406919
 33
0.0
  0
MTEXT
  5
164A
330
11EE
100
AcDbEntity
  8
4
 62
     0
100
AcDbMText
 10
346.8341829999999
 20
225.3836247406919
 30
0.0
 40
3.0
 41
0.0
 71
     5
 72
     1
  1
\A1;3.5
 73
     1
 44
1.0
  0
POINT
  5
164B
330
11EE
100
AcDbEntity
  8
DEFPOINTS
 62
     0
100
AcDbPoint
 10
334.778082
 20
213.130006740692
 30
0.0
  0
POINT
  5
164C
330
11EE
100
AcDbEntity
  8
DEFPOINTS
 62
     0
100
AcDbPoint
 10
336.8341829999999
 20
209.7932427406919
 30
0.0
  0
POINT
  5
164D
330
11EE
100
AcDbEntity
  8
DEFPOINTS
 62
     0
100
AcDbPoint
 10
336.8341829999999
 20
222.8836247406919
 30
0.0
  0
ENDBLK
  5
121F
330
11EE
100
AcDbEntity
  8
0
100
AcDbBlockEnd
  0
BLOCK
  5
1298
330
1289
100
AcDbEntity
  8
0
100
AcDbBlockBegin
  2
*D17
 70
     1
 10
0.0
 20
0.0
 30
0.0
  3
*D17
  1

  0
LINE
  5
15C5
330
1289
100
AcDbEntity
  8
4
 62
     0
370
    -2
100
AcDbLine
 10
69.92760768281705
 20
81.18217242985128
 30
0.0
 11
69.92760768281705
 21
66.62929874069198
 31
0.0
  0
LINE
  5
15C6
330
1289
100
AcDbEntity
  8
4
 62
     0
370
    -2
100
AcDbLine
 10
76.70186300000001
 20
75.99084874069197
 30
0.0
 11
76.70186300000001
 21
66.62929874069198
 31
0.0
  0
LINE
  5
15C7
330
1289
100
AcDbEntity
  8
4
 62
     0
370
    -2
100
AcDbLine
 10
66.92760768281705
 20
68.62929874069198
 30
0.0
 11
63.92760768281705
 21
68.62929874069198
 31
0.0
  0
LINE
  5
15C8
330
1289
100
AcDbEntity
  8
4
 62
     0
370
    -2
100
AcDbLine
 10
79.701863
 20
68.62929874069198
 30
0.0
 11
82.701863
 21
68.62929874069198
 31
0.0
  0
LINE
  5
15C9
330
1289
100
AcDbEntity
  8
4
 62
     0
370
    -2
100
AcDbLine
 10
69.92760768281705
 20
68.62929874069198
 30
0.0
 11
76.70186300000001
 21
68.62929874069198
 31
0.0
  0
SOLID
  5
15CA
330
1289
100
AcDbEntity
  8
4
 62
     0
100
AcDbTrace
 10
66.92760768281705
 20
69.12929874069198
 30
0.0
 11
66.92760768281705
 21
68.12929874069197
 31
0.0
 12
69.92760768281705
 22
68.62929874069198
 32
0.0
 13
69.92760768281705
 23
68.62929874069198
 33
0.0
  0
SOLID
  5
15CB
330
1289
100
AcDbEntity
  8
4
 62
     0
100
AcDbTrace
 10
79.701863
 20
69.12929874069198
 30
0.0
 11
79.701863
 21
68.12929874069197
 31
0.0
 12
76.70186300000001
 22
68.62929874069198
 32
0.0
 13
76.70186300000001
 23
68.62929874069198
 33
0.0
  0
MTEXT
  5
15CC
330
1289
100
AcDbEntity
  8
4
 62
     0
100
AcDbMText
 10
73.31473534140852
 20
71.12929874069198
 30
0.0
 40
3.0
 41
0.0
 71
     5
 72
     1
  1
\A1;20
 73
     1
 44
1.0
  0
POINT
  5
15CD
330
1289
100
AcDbEntity
  8
DEFPOINTS
 62
     0
100
AcDbPoint
 10
69.92760768281705
 20
83.18217242985127
 30
0.0
  0
POINT
  5
15CE
330
1289
100
AcDbEntity
  8
DEFPOINTS
 62
     0
100
AcDbPoint
 10
76.70186300000001
 20
77.99084874069198
 30
0.0
  0
POINT
  5
15CF
330
1289
100
AcDbEntity
  8
DEFPOINTS
 62
     0
100
AcDbPoint
 10
76.70186300000001
 20
68.62929874069198
 30
0.0
  0
ENDBLK
  5
12A4
330
1289
100
AcDbEntity
  8
0
100
AcDbBlockEnd
  0
BLOCK
  5
12DF
330
12A5
100
AcDbEntity
  8
0
100
AcDbBlockBegin
  2
*D18
 70
     1
 10
0.0
 20
0.0
 30
0.0
  3
*D18
  1

  0
LINE
  5
1614
330
12A5
100
AcDbEntity
  8
4
 62
     0
370
    -2
100
AcDbLine
 10
259.9615009999999
 20
80.33166374069198
 30
0.0
 11
259.9615009999999
 21
59.08349648890136
 31
0.0
  0
LINE
  5
1615
330
12A5
100
AcDbEntity
  8
4
 62
     0
370
    -2
100
AcDbLine
 10
334.941422
 20
80.33166374069198
 30
0.0
 11
334.941422
 21
59.08349648890136
 31
0.0
  0
LINE
  5
1616
330
12A5
100
AcDbEntity
  8
4
 62
     0
370
    -2
100
AcDbLine
 10
262.961501
 20
61.08349648890136
 30
0.0
 11
331.941422
 21
61.08349648890136
 31
0.0
  0
SOLID
  5
1617
330
12A5
100
AcDbEntity
  8
4
 62
     0
100
AcDbTrace
 10
262.961501
 20
61.58349648890136
 30
0.0
 11
262.961501
 21
60.58349648890136
 31
0.0
 12
259.9615009999999
 22
61.08349648890136
 32
0.0
 13
259.9615009999999
 23
61.08349648890136
 33
0.0
  0
SOLID
  5
1618
330
12A5
100
AcDbEntity
  8
4
 62
     0
100
AcDbTrace
 10
331.941422
 20
61.58349648890136
 30
0.0
 11
331.941422
 21
60.58349648890136
 31
0.0
 12
334.941422
 22
61.08349648890136
 32
0.0
 13
334.941422
 23
61.08349648890136
 33
0.0
  0
MTEXT
  5
1619
330
12A5
100
AcDbEntity
  8
4
 62
     0
100
AcDbMText
 10
287.3350752240156
 20
63.58349648890136
 30
0.0
 40
3.0
 41
0.0
 71
     5
 72
     1
  1
\A1;300
 73
     1
 44
1.0
  0
POINT
  5
161A
330
12A5
100
AcDbEntity
  8
DEFPOINTS
 62
     0
100
AcDbPoint
 10
259.9615009999999
 20
82.33166374069197
 30
0.0
  0
POINT
  5
161B
330
12A5
100
AcDbEntity
  8
DEFPOINTS
 62
     0
100
AcDbPoint
 10
334.941422
 20
82.33166374069197
 30
0.0
  0
POINT
  5
161C
330
12A5
100
AcDbEntity
  8
DEFPOINTS
 62
     0
100
AcDbPoint
 10
334.941422
 20
61.08349648890136
 30
0.0
  0
ENDBLK
  5
12E9
330
12A5
100
AcDbEntity
  8
0
100
AcDbBlockEnd
  0
BLOCK
  5
12EA
330
12D0
100
AcDbEntity
  8
0
100
AcDbBlockBegin
  2
*D19
 70
     1
 10
0.0
 20
0.0
 30
0.0
  3
*D19
  1

  0
LINE
  5
1638
330
12D0
100
AcDbEntity
  8
4
 62
     0
370
    -2
100
AcDbLine
 10
328.1796249999999
 20
75.99084874069197
 30
0.0
 11
328.1796249999999
 21
66.65532874069199
 31
0.0
  0
LINE
  5
1639
330
12D0
100
AcDbEntity
  8
4
 62
     0
370
    -2
100
AcDbLine
 10
334.941422
 20
80.33166374069196
 30
0.0
 11
334.941422
 21
66.65532874069199
 31
0.0
  0
LINE
  5
163A
330
12D0
100
AcDbEntity
  8
4
 62
     0
370
    -2
100
AcDbLine
 10
325.1796249999999
 20
68.65532874069199
 30
0.0
 11
322.179625
 21
68.65532874069199
 31
0.0
  0
LINE
  5
163B
330
12D0
100
AcDbEntity
  8
4
 62
     0
370
    -2
100
AcDbLine
 10
337.941422
 20
68.65532874069199
 30
0.0
 11
340.941422
 21
68.65532874069199
 31
0.0
  0
LINE
  5
163C
330
12D0
100
AcDbEntity
  8
4
 62
     0
370
    -2
100
AcDbLine
 10
328.1796249999999
 20
68.65532874069199
 30
0.0
 11
334.941422
 21
68.65532874069199
 31
0.0
  0
SOLID
  5
163D
330
12D0
100
AcDbEntity
  8
4
 62
     0
100
AcDbTrace
 10
325.1796249999999
 20
69.15532874069199
 30
0.0
 11
325.1796249999999
 21
68.15532874069198
 31
0.0
 12
328.1796249999999
 22
68.65532874069199
 32
0.0
 13
328.1796249999999
 23
68.65532874069199
 33
0.0
  0
SOLID
  5
163E
330
12D0
100
AcDbEntity
  8
4
 62
     0
100
AcDbTrace
 10
337.941422
 20
69.15532874069199
 30
0.0
 11
337.941422
 21
68.15532874069198
 31
0.0
 12
334.941422
 22
68.65532874069199
 32
0.0
 13
334.941422
 23
68.65532874069199
 33
0.0
  0
MTEXT
  5
163F
330
12D0
100
AcDbEntity
  8
4
 62
     0
100
AcDbMText
 10
331.5605235
 20
71.15532874069199
 30
0.0
 40
3.0
 41
0.0
 71
     5
 72
     1
  1
\A1;20
 73
     1
 44
1.0
  0
POINT
  5
1640
330
12D0
100
AcDbEntity
  8
DEFPOINTS
 62
     0
100
AcDbPoint
 10
328.1796249999999
 20
77.99084874069198
 30
0.0
  0
POINT
  5
1641
330
12D0
100
AcDbEntity
  8
DEFPOINTS
 62
     0
100
AcDbPoint
 10
334.941422
 20
82.33166374069197
 30
0.0
  0
POINT
  5
1642
330
12D0
100
AcDbEntity
  8
DEFPOINTS
 62
     0
100
AcDbPoint
 10
334.941422
 20
68.65532874069199
 30
0.0
  0
ENDBLK
  5
12F6
330
12D0
100
AcDbEntity
  8
0
100
AcDbBlockEnd
  0
BLOCK
  5
13B5
330
13AB
100
AcDbEntity
  8
0
100
AcDbBlockBegin
  2
*D20
 70
     1
 10
0.0
 20
0.0
 30
0.0
  3
*D20
  1

  0
LINE
  5
15B3
330
13AB
100
AcDbEntity
  8
4
 62
     0
370
    -2
100
AcDbLine
 10
69.92760768281705
 20
71.10948784472731
 30
0.0
 11
69.92760768281705
 21
51.51166423711074
 31
0.0
  0
LINE
  5
15B4
330
13AB
100
AcDbEntity
  8
4
 62
     0
370
    -2
100
AcDbLine
 10
185.396268
 20
89.81176274069197
 30
0.0
 11
185.396268
 21
51.51166423711074
 31
0.0
  0
LINE
  5
15B5
330
13AB
100
AcDbEntity
  8
4
 62
     0
370
    -2
100
AcDbLine
 10
72.92760768281706
 20
53.51166423711074
 30
0.0
 11
182.396268
 21
53.51166423711074
 31
0.0
  0
SOLID
  5
15B6
330
13AB
100
AcDbEntity
  8
4
 62
     0
100
AcDbTrace
 10
72.92760768281706
 20
54.01166423711074
 30
0.0
 11
72.92760768281706
 21
53.01166423711073
 31
0.0
 12
69.92760768281705
 22
53.51166423711074
 32
0.0
 13
69.92760768281705
 23
53.51166423711074
 33
0.0
  0
SOLID
  5
15B7
330
13AB
100
AcDbEntity
  8
4
 62
     0
100
AcDbTrace
 10
182.396268
 20
54.01166423711074
 30
0.0
 11
182.396268
 21
53.01166423711073
 31
0.0
 12
185.396268
 22
53.51166423711074
 32
0.0
 13
185.396268
 23
53.51166423711074
 33
0.0
  0
MTEXT
  5
15B8
330
13AB
100
AcDbEntity
  8
4
 62
     0
100
AcDbMText
 10
126.6092650065583
 20
56.01166423711074
 30
0.0
 40
3.0
 41
0.0
 71
     5
 72
     1
  1
\A1;457
 73
     1
 44
1.0
  0
POINT
  5
15B9
330
13AB
100
AcDbEntity
  8
DEFPOINTS
 62
     0
100
AcDbPoint
 10
69.92760768281705
 20
73.10948784472731
 30
0.0
  0
POINT
  5
15BA
330
13AB
100
AcDbEntity
  8
DEFPOINTS
 62
     0
100
AcDbPoint
 10
185.396268
 20
91.81176274069198
 30
0.0
  0
POINT
  5
15BB
330
13AB
100
AcDbEntity
  8
DEFPOINTS
 62
     0
100
AcDbPoint
 10
185.396268
 20
53.51166423711074
 30
0.0
  0
ENDBLK
  5
13B6
330
13AB
100
AcDbEntity
  8
0
100
AcDbBlockEnd
  0
BLOCK
  5
151D
330
1513
100
AcDbEntity
  8
0
100
AcDbBlockBegin
  2
*D21
 70
     1
 10
0.0
 20
0.0
 30
0.0
  3
*D21
  1

  0
LINE
  5
1602
330
1513
100
AcDbEntity
  8
4
 62
     0
370
    -2
100
AcDbLine
 10
241.666336
 20
156.7961227406919
 30
0.0
 11
241.666336
 21
43.93983198532011
 31
0.0
  0
LINE
  5
1603
330
1513
100
AcDbEntity
  8
4
 62
     0
370
    -2
100
AcDbLine
 10
336.5561969999999
 20
86.62924374069197
 30
0.0
 11
336.5561969999999
 21
43.93983198532011
 31
0.0
  0
LINE
  5
1604
330
1513
100
AcDbEntity
  8
4
 62
     0
370
    -2
100
AcDbLine
 10
244.666336
 20
45.9398319853201
 30
0.0
 11
333.5561969999999
 21
45.9398319853201
 31
0.0
  0
SOLID
  5
1605
330
1513
100
AcDbEntity
  8
4
 62
     0
100
AcDbTrace
 10
244.666336
 20
46.43983198532011
 30
0.0
 11
244.666336
 21
45.43983198532011
 31
0.0
 12
241.666336
 22
45.9398319853201
 32
0.0
 13
241.666336
 23
45.9398319853201
 33
0.0
  0
SOLID
  5
1606
330
1513
100
AcDbEntity
  8
4
 62
     0
100
AcDbTrace
 10
333.5561969999999
 20
46.43983198532011
 30
0.0
 11
333.5561969999999
 21
45.43983198532011
 31
0.0
 12
336.5561969999999
 22
45.9398319853201
 32
0.0
 13
336.5561969999999
 23
45.9398319853201
 33
0.0
  0
MTEXT
  5
1607
330
1513
100
AcDbEntity
  8
4
 62
     0
100
AcDbMText
 10
289.1112664999999
 20
48.43983198532011
 30
0.0
 40
3.0
 41
0.0
 71
     5
 72
     1
  1
\A1;370.5
 73
     1
 44
1.0
  0
POINT
  5
1608
330
1513
100
AcDbEntity
  8
DEFPOINTS
 62
     0
100
AcDbPoint
 10
241.666336
 20
158.7961227406919
 30
0.0
  0
POINT
  5
1609
330
1513
100
AcDbEntity
  8
DEFPOINTS
 62
     0
100
AcDbPoint
 10
336.5561969999999
 20
88.62924374069198
 30
0.0
  0
POINT
  5
160A
330
1513
100
AcDbEntity
  8
DEFPOINTS
 62
     0
100
AcDbPoint
 10
336.5561969999999
 20
45.9398319853201
 30
0.0
  0
ENDBLK
  5
151E
330
1513
100
AcDbEntity
  8
0
100
AcDbBlockEnd
  0
BLOCK
  5
1765
330
1761
100
AcDbEntity
  8
0
100
AcDbBlockBegin
  2
_OPEN
 70
     0
 10
0.0
 20
0.0
 30
0.0
  3
_OPEN
  1

  0
LINE
  5
1762
330
1761
100
AcDbEntity
  8
0
  6
ByBlock
 62
     0
100
AcDbLine
 10
-1.0
 20
0.1667
 30
0.0
 11
0.0
 21
0.0
 31
0.0
  0
LINE
  5
1763
330
1761
100
AcDbEntity
  8
0
  6
ByBlock
 62
     0
100
AcDbLine
 10
0.0
 20
0.0
 30
0.0
 11
-1.0
 21
-0.1667
 31
0.0
  0
LINE
  5
1764
330
1761
100
AcDbEntity
  8
0
  6
ByBlock
 62
     0
100
AcDbLine
 10
0.0
 20
0.0
 30
0.0
 11
-1.0
 21
0.0
 31
0.0
  0
ENDBLK
  5
1766
330
1761
100
AcDbEntity
  8
0
100
AcDbBlockEnd
  0
BLOCK
  5
176C
330
1768
100
AcDbEntity
  8
0
100
AcDbBlockBegin
  2
A$C4AE13D6C
 70
     0
 10
0.0
 20
0.0
 30
0.0
  3
A$C4AE13D6C
  1

  0
LINE
  5
1769
330
1768
100
AcDbEntity
  8
0
  6
Continuous
 62
     3
370
    -3
100
AcDbLine
 10
0.0000000821887625
 20
22.50000017202228
 30
0.0
 11
187.5000000821887
 21
22.50000017202228
 31
0.0
  0
TEXT
  5
176A
330
1768
100
AcDbEntity
  8
0
  6
Continuous
 62
     6
370
    -3
100
AcDbText
 10
47.34236242153156
 20
24.95718467202221
 30
0.0
 40
6.0
  1
定格及び材質の修正
 41
0.9768950156855446
 72
     5
 11
109.0821274128579
 21
24.95718467202221
 31
0.0
100
AcDbText
  0
LINE
  5
176B
330
1768
100
AcDbEntity
  8
0
  6
Continuous
 62
     3
370
    -3
100
AcDbLine
 10
45.00000008218876
 20
48.75000017202228
 30
0.0
 11
45.00000008218876
 21
0.0000001720222826
 31
0.0
  0
ENDBLK
  5
176D
330
1768
100
AcDbEntity
  8
0
100
AcDbBlockEnd
  0
BLOCK
  5
177D
330
1779
100
AcDbEntity
  8
0
100
AcDbBlockBegin
  2
A$C18BE6784
 70
     0
 10
0.0
 20
0.0
 30
0.0
  3
A$C18BE6784
  1

  0
LINE
  5
177A
330
1779
100
AcDbEntity
  8
0
 62
     0
100
AcDbLine
 10
-0.0000003520705718
 20
5.625000249374977
 30
0.0
 11
93.74999964792943
 21
5.625000249374977
 31
0.0
  0
LINE
  5
177B
330
1779
100
AcDbEntity
  8
0
 62
     0
100
AcDbLine
 10
22.49999964792942
 20
18.75000024937497
 30
0.0
 11
22.49999964792942
 21
0.0000002493749776
 31
0.0
  0
TEXT
  5
177C
330
1779
100
AcDbEntity
  8
0
 62
     0
100
AcDbText
 10
23.67118081760082
 20
6.85359249937494
 30
0.0
 40
3.0
  1
定格及び材質の修正
 41
0.9626041056262165
 72
     5
 11
54.08947055538925
 21
6.85359249937494
 31
0.0
100
AcDbText
  0
ENDBLK
  5
177E
330
1779
100
AcDbEntity
  8
0
100
AcDbBlockEnd
  0
BLOCK
  5
19D4
330
19CC
100
AcDbEntity
  8
0
100
AcDbBlockBegin
  2
*D25
 70
     1
 10
0.0
 20
0.0
 30
0.0
  3
*D25
  1

  0
LINE
  5
1AD1
330
19CC
100
AcDbEntity
  8
4
 62
     0
370
    -2
100
AcDbLine
 10
86.66276600000001
 20
459.1181688013371
 30
0.0
 11
167.246407
 21
459.1181688013371
 31
0.0
  0
SOLID
  5
1AD2
330
19CC
100
AcDbEntity
  8
4
 62
     0
100
AcDbTrace
 10
86.66276600000001
 20
459.6181688013371
 30
0.0
 11
86.66276600000001
 21
458.6181688013371
 31
0.0
 12
83.662766
 22
459.1181688013371
 32
0.0
 13
83.662766
 23
459.1181688013371
 33
0.0
  0
SOLID
  5
1AD3
330
19CC
100
AcDbEntity
  8
4
 62
     0
100
AcDbTrace
 10
167.246407
 20
459.6181688013371
 30
0.0
 11
167.246407
 21
458.6181688013371
 31
0.0
 12
170.2464069999999
 22
459.1181688013371
 32
0.0
 13
170.2464069999999
 23
459.1181688013371
 33
0.0
  0
MTEXT
  5
1AD4
330
19CC
100
AcDbEntity
  8
4
 62
     0
100
AcDbMText
 10
126.9545864999999
 20
461.618168801337
 30
0.0
 40
3.0
 41
0.0
 71
     5
 72
     1
  1
\A1;350
 73
     1
 44
1.0
  0
POINT
  5
1AD5
330
19CC
100
AcDbEntity
  8
DEFPOINTS
 62
     0
100
AcDbPoint
 10
83.662766
 20
459.1181688013371
 30
0.0
  0
POINT
  5
1AD6
330
19CC
100
AcDbEntity
  8
DEFPOINTS
 62
     0
100
AcDbPoint
 10
170.2464069999999
 20
459.1181688013371
 30
0.0
  0
POINT
  5
1AD7
330
19CC
100
AcDbEntity
  8
DEFPOINTS
 62
     0
100
AcDbPoint
 10
170.2464069999999
 20
459.1181688013371
 30
0.0
  0
ENDBLK
  5
19D5
330
19CC
100
AcDbEntity
  8
0
100
AcDbBlockEnd
  0
BLOCK
  5
19DE
330
19D6
100
AcDbEntity
  8
0
100
AcDbBlockBegin
  2
*D26
 70
     1
 10
0.0
 20
0.0
 30
0.0
  3
*D26
  1

  0
LINE
  5
1AD8
330
19D6
100
AcDbEntity
  8
4
 62
     0
370
    -2
100
AcDbLine
 10
154.130473
 20
532.1735478013371
 30
0.0
 11
154.130473
 21
444.129966801337
 31
0.0
  0
SOLID
  5
1AD9
330
19D6
100
AcDbEntity
  8
4
 62
     0
100
AcDbTrace
 10
153.630473
 20
532.1735478013371
 30
0.0
 11
154.630473
 21
532.1735478013371
 31
0.0
 12
154.130473
 22
535.1735478013371
 32
0.0
 13
154.130473
 23
535.1735478013371
 33
0.0
  0
SOLID
  5
1ADA
330
19D6
100
AcDbEntity
  8
4
 62
     0
100
AcDbTrace
 10
153.6304729999999
 20
444.129966801337
 30
0.0
 11
154.6304729999999
 21
444.129966801337
 31
0.0
 12
154.130473
 22
441.1299668013371
 32
0.0
 13
154.130473
 23
441.1299668013371
 33
0.0
  0
MTEXT
  5
1ADB
330
19D6
100
AcDbEntity
  8
4
 62
     0
100
AcDbMText
 10
151.6304729999999
 20
488.1517573013371
 30
0.0
 40
3.0
 41
0.0
 71
     5
 72
     1
  1
\A1;376
 11
0.0000000000000001
 21
1.0
 31
0.0
 73
     1
 44
1.0
  0
POINT
  5
1ADC
330
19D6
100
AcDbEntity
  8
DEFPOINTS
 62
     0
100
AcDbPoint
 10
154.130473
 20
535.1735478013371
 30
0.0
  0
POINT
  5
1ADD
330
19D6
100
AcDbEntity
  8
DEFPOINTS
 62
     0
100
AcDbPoint
 10
154.130473
 20
441.1299668013371
 30
0.0
  0
POINT
  5
1ADE
330
19D6
100
AcDbEntity
  8
DEFPOINTS
 62
     0
100
AcDbPoint
 10
154.130473
 20
441.1299668013371
 30
0.0
  0
ENDBLK
  5
19DF
330
19D6
100
AcDbEntity
  8
0
100
AcDbBlockEnd
  0
BLOCK
  5
19E8
330
19E0
100
AcDbEntity
  8
0
100
AcDbBlockBegin
  2
*D27
 70
     1
 10
0.0
 20
0.0
 30
0.0
  3
*D27
  1

  0
LINE
  5
1ADF
330
19E0
100
AcDbEntity
  8
4
 62
     0
370
    -2
100
AcDbLine
 10
262.9268339999999
 20
458.8025858013371
 30
0.0
 11
313.806598
 21
458.8025858013371
 31
0.0
  0
SOLID
  5
1AE0
330
19E0
100
AcDbEntity
  8
4
 62
     0
100
AcDbTrace
 10
262.9268339999999
 20
459.3025858013371
 30
0.0
 11
262.9268339999999
 21
458.302585801337
 31
0.0
 12
259.926834
 22
458.8025858013371
 32
0.0
 13
259.926834
 23
458.8025858013371
 33
0.0
  0
SOLID
  5
1AE1
330
19E0
100
AcDbEntity
  8
4
 62
     0
100
AcDbTrace
 10
313.806598
 20
459.3025858013371
 30
0.0
 11
313.806598
 21
458.302585801337
 31
0.0
 12
316.806598
 22
458.8025858013371
 32
0.0
 13
316.806598
 23
458.8025858013371
 33
0.0
  0
MTEXT
  5
1AE2
330
19E0
100
AcDbEntity
  8
4
 62
     0
100
AcDbMText
 10
288.3667159999999
 20
461.302585801337
 30
0.0
 40
3.0
 41
0.0
 71
     5
 72
     1
  1
\A1;230
 73
     1
 44
1.0
  0
POINT
  5
1AE3
330
19E0
100
AcDbEntity
  8
DEFPOINTS
 62
     0
100
AcDbPoint
 10
259.926834
 20
458.8025858013371
 30
0.0
  0
POINT
  5
1AE4
330
19E0
100
AcDbEntity
  8
DEFPOINTS
 62
     0
100
AcDbPoint
 10
316.806598
 20
458.8025858013371
 30
0.0
  0
POINT
  5
1AE5
330
19E0
100
AcDbEntity
  8
DEFPOINTS
 62
     0
100
AcDbPoint
 10
316.806598
 20
458.8025858013371
 30
0.0
  0
ENDBLK
  5
19E9
330
19E0
100
AcDbEntity
  8
0
100
AcDbBlockEnd
  0
BLOCK
  5
19F4
330
19EA
100
AcDbEntity
  8
0
100
AcDbBlockBegin
  2
*D28
 70
     1
 10
0.0
 20
0.0
 30
0.0
  3
*D28
  1

  0
LINE
  5
1AE6
330
19EA
100
AcDbEntity
  8
4
 62
     0
370
    -2
100
AcDbLine
 10
185.1679569999999
 20
552.9670098013371
 30
0.0
 11
195.86651
 21
552.9670098013371
 31
0.0
  0
LINE
  5
1AE7
330
19EA
100
AcDbEntity
  8
4
 62
     0
370
    -2
100
AcDbLine
 10
184.3975638090673
 20
422.1370131761128
 30
0.0
 11
195.86651
 21
422.1370131761128
 31
0.0
  0
LINE
  5
1AE8
330
19EA
100
AcDbEntity
  8
4
 62
     0
370
    -2
100
AcDbLine
 10
193.86651
 20
549.967009801337
 30
0.0
 11
193.86651
 21
425.1370131761128
 31
0.0
  0
SOLID
  5
1AE9
330
19EA
100
AcDbEntity
  8
4
 62
     0
100
AcDbTrace
 10
193.36651
 20
549.967009801337
 30
0.0
 11
194.36651
 21
549.967009801337
 31
0.0
 12
193.86651
 22
552.9670098013371
 32
0.0
 13
193.86651
 23
552.9670098013371
 33
0.0
  0
SOLID
  5
1AEA
330
19EA
100
AcDbEntity
  8
4
 62
     0
100
AcDbTrace
 10
193.3665099999999
 20
425.1370131761128
 30
0.0
 11
194.36651
 21
425.1370131761128
 31
0.0
 12
193.86651
 22
422.1370131761128
 32
0.0
 13
193.86651
 23
422.1370131761128
 33
0.0
  0
MTEXT
  5
1AEB
330
19EA
100
AcDbEntity
  8
4
 62
     0
100
AcDbMText
 10
191.3665099999999
 20
487.552011488725
 30
0.0
 40
3.0
 41
0.0
 71
     5
 72
     1
  1
\A1;524
 11
0.0000000000000001
 21
1.0
 31
0.0
 73
     1
 44
1.0
  0
POINT
  5
1AEC
330
19EA
100
AcDbEntity
  8
DEFPOINTS
 62
     0
100
AcDbPoint
 10
183.167957
 20
552.9670098013371
 30
0.0
  0
POINT
  5
1AED
330
19EA
100
AcDbEntity
  8
DEFPOINTS
 62
     0
100
AcDbPoint
 10
182.3975638090673
 20
422.1370131761128
 30
0.0
  0
POINT
  5
1AEE
330
19EA
100
AcDbEntity
  8
DEFPOINTS
 62
     0
100
AcDbPoint
 10
193.86651
 20
422.1370131761128
 30
0.0
  0
ENDBLK
  5
19F5
330
19EA
100
AcDbEntity
  8
0
100
AcDbBlockEnd
  0
BLOCK
  5
1A00
330
19F6
100
AcDbEntity
  8
0
100
AcDbBlockBegin
  2
*D29
 70
     1
 10
0.0
 20
0.0
 30
0.0
  3
*D29
  1

  0
LINE
  5
1AEF
330
19F6
100
AcDbEntity
  8
4
 62
     0
370
    -2
100
AcDbLine
 10
185.1679569999999
 20
552.9670098013371
 30
0.0
 11
206.947152
 21
552.9670098013371
 31
0.0
  0
LINE
  5
1AF0
330
19F6
100
AcDbEntity
  8
4
 62
     0
370
    -2
100
AcDbLine
 10
180.7174249999999
 20
417.762217801337
 30
0.0
 11
206.947152
 21
417.762217801337
 31
0.0
  0
LINE
  5
1AF1
330
19F6
100
AcDbEntity
  8
4
 62
     0
370
    -2
100
AcDbLine
 10
204.9471519999999
 20
549.967009801337
 30
0.0
 11
204.9471519999999
 21
420.762217801337
 31
0.0
  0
SOLID
  5
1AF2
330
19F6
100
AcDbEntity
  8
4
 62
     0
100
AcDbTrace
 10
204.447152
 20
549.967009801337
 30
0.0
 11
205.447152
 21
549.967009801337
 31
0.0
 12
204.9471519999999
 22
552.9670098013371
 32
0.0
 13
204.9471519999999
 23
552.9670098013371
 33
0.0
  0
SOLID
  5
1AF3
330
19F6
100
AcDbEntity
  8
4
 62
     0
100
AcDbTrace
 10
204.447152
 20
420.762217801337
 30
0.0
 11
205.4471519999999
 21
420.762217801337
 31
0.0
 12
204.9471519999999
 22
417.762217801337
 32
0.0
 13
204.9471519999999
 23
417.762217801337
 33
0.0
  0
MTEXT
  5
1AF4
330
19F6
100
AcDbEntity
  8
4
 62
     0
100
AcDbMText
 10
202.4471519999999
 20
485.364613801337
 30
0.0
 40
3.0
 41
0.0
 71
     5
 72
     1
  1
\A1;539
 11
0.0000000000000001
 21
1.0
 31
0.0
 73
     1
 44
1.0
  0
POINT
  5
1AF5
330
19F6
100
AcDbEntity
  8
DEFPOINTS
 62
     0
100
AcDbPoint
 10
183.167957
 20
552.9670098013371
 30
0.0
  0
POINT
  5
1AF6
330
19F6
100
AcDbEntity
  8
DEFPOINTS
 62
     0
100
AcDbPoint
 10
178.7174249999999
 20
417.762217801337
 30
0.0
  0
POINT
  5
1AF7
330
19F6
100
AcDbEntity
  8
DEFPOINTS
 62
     0
100
AcDbPoint
 10
204.9471519999999
 20
417.762217801337
 30
0.0
  0
ENDBLK
  5
1A01
330
19F6
100
AcDbEntity
  8
0
100
AcDbBlockEnd
  0
BLOCK
  5
1A0F
330
1A02
100
AcDbEntity
  8
0
100
AcDbBlockBegin
  2
*D30
 70
     1
 10
0.0
 20
0.0
 30
0.0
  3
*D30
  1

  0
LINE
  5
1AF8
330
1A02
100
AcDbEntity
  8
4
 62
     0
370
    -2
100
AcDbLine
 10
184.3975638090673
 20
422.1370131761128
 30
0.0
 11
195.86651
 21
422.1370131761128
 31
0.0
  0
LINE
  5
1AF9
330
1A02
100
AcDbEntity
  8
4
 62
     0
370
    -2
100
AcDbLine
 10
180.7174249999999
 20
417.762217801337
 30
0.0
 11
195.86651
 21
417.762217801337
 31
0.0
  0
LINE
  5
1AFA
330
1A02
100
AcDbEntity
  8
4
 62
     0
370
    -2
100
AcDbLine
 10
193.86651
 20
425.1370131761128
 30
0.0
 11
193.86651
 21
428.1370131761129
 31
0.0
  0
LINE
  5
1AFB
330
1A02
100
AcDbEntity
  8
4
 62
     0
370
    -2
100
AcDbLine
 10
193.86651
 20
414.7622178013371
 30
0.0
 11
193.86651
 21
411.7622178013371
 31
0.0
  0
LINE
  5
1AFC
330
1A02
100
AcDbEntity
  8
4
 62
     0
370
    -2
100
AcDbLine
 10
193.86651
 20
411.7622178013371
 30
0.0
 11
188.86651
 21
411.7622178013371
 31
0.0
  0
LINE
  5
1AFD
330
1A02
100
AcDbEntity
  8
4
 62
     0
370
    -2
100
AcDbLine
 10
193.86651
 20
422.1370131761128
 30
0.0
 11
193.86651
 21
417.762217801337
 31
0.0
  0
SOLID
  5
1AFE
330
1A02
100
AcDbEntity
  8
4
 62
     0
100
AcDbTrace
 10
193.3665099999999
 20
425.1370131761128
 30
0.0
 11
194.36651
 21
425.1370131761128
 31
0.0
 12
193.86651
 22
422.1370131761128
 32
0.0
 13
193.86651
 23
422.1370131761128
 33
0.0
  0
SOLID
  5
1AFF
330
1A02
100
AcDbEntity
  8
4
 62
     0
100
AcDbTrace
 10
193.3665099999999
 20
414.7622178013371
 30
0.0
 11
194.36651
 21
414.7622178013371
 31
0.0
 12
193.86651
 22
417.762217801337
 32
0.0
 13
193.86651
 23
417.762217801337
 33
0.0
  0
MTEXT
  5
1B00
330
1A02
100
AcDbEntity
  8
4
 62
     0
100
AcDbMText
 10
190.8665099999999
 20
414.2622178013371
 30
0.0
 40
3.0
 41
0.0
 71
     5
 72
     1
  1
\A1;15
 73
     1
 44
1.0
  0
POINT
  5
1B01
330
1A02
100
AcDbEntity
  8
DEFPOINTS
 62
     0
100
AcDbPoint
 10
182.3975638090673
 20
422.1370131761128
 30
0.0
  0
POINT
  5
1B02
330
1A02
100
AcDbEntity
  8
DEFPOINTS
 62
     0
100
AcDbPoint
 10
178.7174249999999
 20
417.762217801337
 30
0.0
  0
POINT
  5
1B03
330
1A02
100
AcDbEntity
  8
DEFPOINTS
 62
     0
100
AcDbPoint
 10
193.86651
 20
417.762217801337
 30
0.0
  0
ENDBLK
  5
1A10
330
1A02
100
AcDbEntity
  8
0
100
AcDbBlockEnd
  0
BLOCK
  5
1A1D
330
1A11
100
AcDbEntity
  8
0
100
AcDbBlockBegin
  2
*D31
 70
     1
 10
0.0
 20
0.0
 30
0.0
  3
*D31
  1

  0
LINE
  5
1B04
330
1A11
100
AcDbEntity
  8
4
 62
     0
370
    -2
100
AcDbLine
 10
175.6153529999999
 20
415.7475228013371
 30
0.0
 11
175.6153529999999
 21
406.4386868013371
 31
0.0
  0
LINE
  5
1B05
330
1A11
100
AcDbEntity
  8
4
 62
     0
370
    -2
100
AcDbLine
 10
183.168457
 20
420.6893578013371
 30
0.0
 11
183.168457
 21
406.4386868013371
 31
0.0
  0
LINE
  5
1B06
330
1A11
100
AcDbEntity
  8
4
 62
     0
370
    -2
100
AcDbLine
 10
172.6153529999999
 20
408.438686801337
 30
0.0
 11
169.615353
 21
408.438686801337
 31
0.0
  0
LINE
  5
1B07
330
1A11
100
AcDbEntity
  8
4
 62
     0
370
    -2
100
AcDbLine
 10
186.168457
 20
408.438686801337
 30
0.0
 11
189.168457
 21
408.438686801337
 31
0.0
  0
LINE
  5
1B08
330
1A11
100
AcDbEntity
  8
4
 62
     0
370
    -2
100
AcDbLine
 10
175.6153529999999
 20
408.438686801337
 30
0.0
 11
183.168457
 21
408.438686801337
 31
0.0
  0
SOLID
  5
1B09
330
1A11
100
AcDbEntity
  8
4
 62
     0
100
AcDbTrace
 10
172.6153529999999
 20
408.938686801337
 30
0.0
 11
172.6153529999999
 21
407.938686801337
 31
0.0
 12
175.6153529999999
 22
408.438686801337
 32
0.0
 13
175.6153529999999
 23
408.438686801337
 33
0.0
  0
SOLID
  5
1B0A
330
1A11
100
AcDbEntity
  8
4
 62
     0
100
AcDbTrace
 10
186.168457
 20
408.938686801337
 30
0.0
 11
186.168457
 21
407.938686801337
 31
0.0
 12
183.168457
 22
408.438686801337
 32
0.0
 13
183.168457
 23
408.438686801337
 33
0.0
  0
MTEXT
  5
1B0B
330
1A11
100
AcDbEntity
  8
4
 62
     0
100
AcDbMText
 10
179.391905
 20
410.9386868013371
 30
0.0
 40
3.0
 41
0.0
 71
     5
 72
     1
  1
\A1;20
 73
     1
 44
1.0
  0
POINT
  5
1B0C
330
1A11
100
AcDbEntity
  8
DEFPOINTS
 62
     0
100
AcDbPoint
 10
175.6153529999999
 20
417.7475228013371
 30
0.0
  0
POINT
  5
1B0D
330
1A11
100
AcDbEntity
  8
DEFPOINTS
 62
     0
100
AcDbPoint
 10
183.168457
 20
422.689357801337
 30
0.0
  0
POINT
  5
1B0E
330
1A11
100
AcDbEntity
  8
DEFPOINTS
 62
     0
100
AcDbPoint
 10
183.168457
 20
408.438686801337
 30
0.0
  0
ENDBLK
  5
1A1E
330
1A11
100
AcDbEntity
  8
0
100
AcDbBlockEnd
  0
BLOCK
  5
1A29
330
1A1F
100
AcDbEntity
  8
0
100
AcDbBlockBegin
  2
*D32
 70
     1
 10
0.0
 20
0.0
 30
0.0
  3
*D32
  1

  0
LINE
  5
1B0F
330
1A1F
100
AcDbEntity
  8
4
 62
     0
370
    -2
100
AcDbLine
 10
69.92760768281705
 20
420.9655304904964
 30
0.0
 11
69.92760768281705
 21
398.8668545495464
 31
0.0
  0
LINE
  5
1B10
330
1A1F
100
AcDbEntity
  8
4
 62
     0
370
    -2
100
AcDbLine
 10
183.168457
 20
420.6893578013371
 30
0.0
 11
183.168457
 21
398.8668545495464
 31
0.0
  0
LINE
  5
1B11
330
1A1F
100
AcDbEntity
  8
4
 62
     0
370
    -2
100
AcDbLine
 10
72.92760768281706
 20
400.8668545495464
 30
0.0
 11
180.168457
 21
400.8668545495464
 31
0.0
  0
SOLID
  5
1B12
330
1A1F
100
AcDbEntity
  8
4
 62
     0
100
AcDbTrace
 10
72.92760768281706
 20
401.3668545495464
 30
0.0
 11
72.92760768281706
 21
400.3668545495465
 31
0.0
 12
69.92760768281705
 22
400.8668545495464
 32
0.0
 13
69.92760768281705
 23
400.8668545495464
 33
0.0
  0
SOLID
  5
1B13
330
1A1F
100
AcDbEntity
  8
4
 62
     0
100
AcDbTrace
 10
180.168457
 20
401.3668545495464
 30
0.0
 11
180.168457
 21
400.3668545495465
 31
0.0
 12
183.168457
 22
400.8668545495464
 32
0.0
 13
183.168457
 23
400.8668545495464
 33
0.0
  0
MTEXT
  5
1B14
330
1A1F
100
AcDbEntity
  8
4
 62
     0
100
AcDbMText
 10
126.5480323414085
 20
403.3668545495464
 30
0.0
 40
3.0
 41
0.0
 71
     5
 72
     1
  1
\A1;450
 73
     1
 44
1.0
  0
POINT
  5
1B15
330
1A1F
100
AcDbEntity
  8
DEFPOINTS
 62
     0
100
AcDbPoint
 10
69.92760768281705
 20
422.9655304904964
 30
0.0
  0
POINT
  5
1B16
330
1A1F
100
AcDbEntity
  8
DEFPOINTS
 62
     0
100
AcDbPoint
 10
183.168457
 20
422.689357801337
 30
0.0
  0
POINT
  5
1B17
330
1A1F
100
AcDbEntity
  8
DEFPOINTS
 62
     0
100
AcDbPoint
 10
183.168457
 20
400.8668545495464
 30
0.0
  0
ENDBLK
  5
1A2A
330
1A1F
100
AcDbEntity
  8
0
100
AcDbBlockEnd
  0
BLOCK
  5
1A37
330
1A2B
100
AcDbEntity
  8
0
100
AcDbBlockBegin
  2
*D33
 70
     1
 10
0.0
 20
0.0
 30
0.0
  3
*D33
  1

  0
LINE
  5
1B18
330
1A2B
100
AcDbEntity
  8
4
 62
     0
370
    -2
100
AcDbLine
 10
183.168457
 20
420.8547015412845
 30
0.0
 11
183.168457
 21
398.8668545495464
 31
0.0
  0
LINE
  5
1B19
330
1A2B
100
AcDbEntity
  8
4
 62
     0
370
    -2
100
AcDbLine
 10
185.391154
 20
429.5972558013371
 30
0.0
 11
185.391154
 21
398.8668545495464
 31
0.0
  0
LINE
  5
1B1A
330
1A2B
100
AcDbEntity
  8
4
 62
     0
370
    -2
100
AcDbLine
 10
180.168457
 20
400.8668545495464
 30
0.0
 11
177.168457
 21
400.8668545495464
 31
0.0
  0
LINE
  5
1B1B
330
1A2B
100
AcDbEntity
  8
4
 62
     0
370
    -2
100
AcDbLine
 10
188.3911539999999
 20
400.8668545495464
 30
0.0
 11
195.391154
 21
400.8668545495464
 31
0.0
  0
LINE
  5
1B1C
330
1A2B
100
AcDbEntity
  8
4
 62
     0
370
    -2
100
AcDbLine
 10
183.168457
 20
400.8668545495464
 30
0.0
 11
185.391154
 21
400.8668545495464
 31
0.0
  0
SOLID
  5
1B1D
330
1A2B
100
AcDbEntity
  8
4
 62
     0
100
AcDbTrace
 10
180.168457
 20
401.3668545495464
 30
0.0
 11
180.168457
 21
400.3668545495465
 31
0.0
 12
183.168457
 22
400.8668545495464
 32
0.0
 13
183.168457
 23
400.8668545495464
 33
0.0
  0
SOLID
  5
1B1E
330
1A2B
100
AcDbEntity
  8
4
 62
     0
100
AcDbTrace
 10
188.3911539999999
 20
401.3668545495464
 30
0.0
 11
188.3911539999999
 21
400.3668545495465
 31
0.0
 12
185.391154
 22
400.8668545495464
 32
0.0
 13
185.391154
 23
400.8668545495464
 33
0.0
  0
MTEXT
  5
1B1F
330
1A2B
100
AcDbEntity
  8
4
 62
     0
100
AcDbMText
 10
193.391154
 20
403.3668545495464
 30
0.0
 40
3.0
 41
0.0
 71
     5
 72
     1
  1
\A1;7
 73
     1
 44
1.0
  0
POINT
  5
1B20
330
1A2B
100
AcDbEntity
  8
DEFPOINTS
 62
     0
100
AcDbPoint
 10
183.168457
 20
422.8547015412845
 30
0.0
  0
POINT
  5
1B21
330
1A2B
100
AcDbEntity
  8
DEFPOINTS
 62
     0
100
AcDbPoint
 10
185.391154
 20
431.597255801337
 30
0.0
  0
POINT
  5
1B22
330
1A2B
100
AcDbEntity
  8
DEFPOINTS
 62
     0
100
AcDbPoint
 10
185.391154
 20
400.8668545495464
 30
0.0
  0
ENDBLK
  5
1A38
330
1A2B
100
AcDbEntity
  8
0
100
AcDbBlockEnd
  0
BLOCK
  5
1A43
330
1A39
100
AcDbEntity
  8
0
100
AcDbBlockBegin
  2
*D34
 70
     1
 10
0.0
 20
0.0
 30
0.0
  3
*D34
  1

  0
LINE
  5
1B23
330
1A39
100
AcDbEntity
  8
4
 62
     0
370
    -2
100
AcDbLine
 10
249.9335679178762
 20
423.7572142342868
 30
0.0
 11
249.9335679178762
 21
398.8668545495464
 31
0.0
  0
LINE
  5
1B24
330
1A39
100
AcDbEntity
  8
4
 62
     0
370
    -2
100
AcDbLine
 10
259.9615009999999
 20
420.1150218013371
 30
0.0
 11
259.9615009999999
 21
398.8668545495464
 31
0.0
  0
LINE
  5
1B25
330
1A39
100
AcDbEntity
  8
4
 62
     0
370
    -2
100
AcDbLine
 10
252.9335679178763
 20
400.8668545495464
 30
0.0
 11
256.961501
 21
400.8668545495464
 31
0.0
  0
SOLID
  5
1B26
330
1A39
100
AcDbEntity
  8
4
 62
     0
100
AcDbTrace
 10
252.9335679178763
 20
401.3668545495464
 30
0.0
 11
252.9335679178763
 21
400.3668545495465
 31
0.0
 12
249.9335679178762
 22
400.8668545495464
 32
0.0
 13
249.9335679178762
 23
400.8668545495464
 33
0.0
  0
SOLID
  5
1B27
330
1A39
100
AcDbEntity
  8
4
 62
     0
100
AcDbTrace
 10
256.961501
 20
401.3668545495464
 30
0.0
 11
256.961501
 21
400.3668545495465
 31
0.0
 12
259.9615009999999
 22
400.8668545495464
 32
0.0
 13
259.9615009999999
 23
400.8668545495464
 33
0.0
  0
MTEXT
  5
1B28
330
1A39
100
AcDbEntity
  8
4
 62
     0
100
AcDbMText
 10
254.9475344589381
 20
403.3668545495464
 30
0.0
 40
3.0
 41
0.0
 71
     5
 72
     1
  1
\A1;40
 73
     1
 44
1.0
  0
POINT
  5
1B29
330
1A39
100
AcDbEntity
  8
DEFPOINTS
 62
     0
100
AcDbPoint
 10
249.9335679178762
 20
425.7572142342867
 30
0.0
  0
POINT
  5
1B2A
330
1A39
100
AcDbEntity
  8
DEFPOINTS
 62
     0
100
AcDbPoint
 10
259.9615009999999
 20
422.115021801337
 30
0.0
  0
POINT
  5
1B2B
330
1A39
100
AcDbEntity
  8
DEFPOINTS
 62
     0
100
AcDbPoint
 10
259.9615009999999
 20
400.8668545495464
 30
0.0
  0
ENDBLK
  5
1A44
330
1A39
100
AcDbEntity
  8
0
100
AcDbBlockEnd
  0
BLOCK
  5
1A51
330
1A45
100
AcDbEntity
  8
0
100
AcDbBlockBegin
  2
*D35
 70
     1
 10
0.0
 20
0.0
 30
0.0
  3
*D35
  1

  0
LINE
  5
1B2C
330
1A45
100
AcDbEntity
  8
4
 62
     0
370
    -2
100
AcDbLine
 10
259.9615009999999
 20
420.1150218013371
 30
0.0
 11
259.9615009999999
 21
406.4386868013371
 31
0.0
  0
LINE
  5
1B2D
330
1A45
100
AcDbEntity
  8
4
 62
     0
370
    -2
100
AcDbLine
 10
267.644298
 20
415.7475228013371
 30
0.0
 11
267.644298
 21
406.4386868013371
 31
0.0
  0
LINE
  5
1B2E
330
1A45
100
AcDbEntity
  8
4
 62
     0
370
    -2
100
AcDbLine
 10
256.961501
 20
408.438686801337
 30
0.0
 11
253.9615009999999
 21
408.438686801337
 31
0.0
  0
LINE
  5
1B2F
330
1A45
100
AcDbEntity
  8
4
 62
     0
370
    -2
100
AcDbLine
 10
270.6442979999999
 20
408.438686801337
 30
0.0
 11
273.644298
 21
408.438686801337
 31
0.0
  0
LINE
  5
1B30
330
1A45
100
AcDbEntity
  8
4
 62
     0
370
    -2
100
AcDbLine
 10
259.9615009999999
 20
408.438686801337
 30
0.0
 11
267.644298
 21
408.438686801337
 31
0.0
  0
SOLID
  5
1B31
330
1A45
100
AcDbEntity
  8
4
 62
     0
100
AcDbTrace
 10
256.961501
 20
408.938686801337
 30
0.0
 11
256.961501
 21
407.938686801337
 31
0.0
 12
259.9615009999999
 22
408.438686801337
 32
0.0
 13
259.9615009999999
 23
408.438686801337
 33
0.0
  0
SOLID
  5
1B32
330
1A45
100
AcDbEntity
  8
4
 62
     0
100
AcDbTrace
 10
270.6442979999999
 20
408.938686801337
 30
0.0
 11
270.6442979999999
 21
407.938686801337
 31
0.0
 12
267.644298
 22
408.438686801337
 32
0.0
 13
267.644298
 23
408.438686801337
 33
0.0
  0
MTEXT
  5
1B33
330
1A45
100
AcDbEntity
  8
4
 62
     0
100
AcDbMText
 10
263.8028994999999
 20
410.9386868013371
 30
0.0
 40
3.0
 41
0.0
 71
     5
 72
     1
  1
\A1;25
 73
     1
 44
1.0
  0
POINT
  5
1B34
330
1A45
100
AcDbEntity
  8
DEFPOINTS
 62
     0
100
AcDbPoint
 10
259.9615009999999
 20
422.115021801337
 30
0.0
  0
POINT
  5
1B35
330
1A45
100
AcDbEntity
  8
DEFPOINTS
 62
     0
100
AcDbPoint
 10
267.644298
 20
417.7475228013371
 30
0.0
  0
POINT
  5
1B36
330
1A45
100
AcDbEntity
  8
DEFPOINTS
 62
     0
100
AcDbPoint
 10
267.644298
 20
408.438686801337
 30
0.0
  0
ENDBLK
  5
1A52
330
1A45
100
AcDbEntity
  8
0
100
AcDbBlockEnd
  0
BLOCK
  5
1A5D
330
1A53
100
AcDbEntity
  8
0
100
AcDbBlockBegin
  2
*D36
 70
     1
 10
0.0
 20
0.0
 30
0.0
  3
*D36
  1

  0
LINE
  5
1B37
330
1A53
100
AcDbEntity
  8
4
 62
     0
370
    -2
100
AcDbLine
 10
241.6663365437835
 20
496.5794815771153
 30
0.0
 11
241.6663365437835
 21
391.2950222977558
 31
0.0
  0
LINE
  5
1B38
330
1A53
100
AcDbEntity
  8
4
 62
     0
370
    -2
100
AcDbLine
 10
249.9335679178762
 20
423.7572142342868
 30
0.0
 11
249.9335679178762
 21
391.2950222977558
 31
0.0
  0
LINE
  5
1B39
330
1A53
100
AcDbEntity
  8
4
 62
     0
370
    -2
100
AcDbLine
 10
244.6663365437835
 20
393.2950222977558
 30
0.0
 11
246.9335679178763
 21
393.2950222977558
 31
0.0
  0
SOLID
  5
1B3A
330
1A53
100
AcDbEntity
  8
4
 62
     0
100
AcDbTrace
 10
244.6663365437835
 20
393.7950222977558
 30
0.0
 11
244.6663365437835
 21
392.7950222977558
 31
0.0
 12
241.6663365437835
 22
393.2950222977558
 32
0.0
 13
241.6663365437835
 23
393.2950222977558
 33
0.0
  0
SOLID
  5
1B3B
330
1A53
100
AcDbEntity
  8
4
 62
     0
100
AcDbTrace
 10
246.9335679178763
 20
393.7950222977558
 30
0.0
 11
246.9335679178763
 21
392.7950222977558
 31
0.0
 12
249.9335679178762
 22
393.2950222977558
 32
0.0
 13
249.9335679178762
 23
393.2950222977558
 33
0.0
  0
MTEXT
  5
1B3C
330
1A53
100
AcDbEntity
  8
4
 62
     0
100
AcDbMText
 10
245.7999522308299
 20
395.7950222977558
 30
0.0
 40
3.0
 41
0.0
 71
     5
 72
     1
  1
\A1;27
 73
     1
 44
1.0
  0
POINT
  5
1B3D
330
1A53
100
AcDbEntity
  8
DEFPOINTS
 62
     0
100
AcDbPoint
 10
241.6663365437835
 20
498.5794815771153
 30
0.0
  0
POINT
  5
1B3E
330
1A53
100
AcDbEntity
  8
DEFPOINTS
 62
     0
100
AcDbPoint
 10
249.9335679178762
 20
425.7572142342867
 30
0.0
  0
POINT
  5
1B3F
330
1A53
100
AcDbEntity
  8
DEFPOINTS
 62
     0
100
AcDbPoint
 10
249.9335679178762
 20
393.2950222977558
 30
0.0
  0
ENDBLK
  5
1A5E
330
1A53
100
AcDbEntity
  8
0
100
AcDbBlockEnd
  0
BLOCK
  5
1A69
330
1A5F
100
AcDbEntity
  8
0
100
AcDbBlockBegin
  2
*D37
 70
     1
 10
0.0
 20
0.0
 30
0.0
  3
*D37
  1

  0
LINE
  5
1B40
330
1A5F
100
AcDbEntity
  8
4
 62
     0
370
    -2
100
AcDbLine
 10
249.9335679178762
 20
423.7572142342868
 30
0.0
 11
249.9335679178762
 21
391.2950222977558
 31
0.0
  0
LINE
  5
1B41
330
1A5F
100
AcDbEntity
  8
4
 62
     0
370
    -2
100
AcDbLine
 10
334.941422
 20
420.1150218013371
 30
0.0
 11
334.941422
 21
391.2950222977558
 31
0.0
  0
LINE
  5
1B42
330
1A5F
100
AcDbEntity
  8
4
 62
     0
370
    -2
100
AcDbLine
 10
252.9335679178763
 20
393.2950222977558
 30
0.0
 11
331.941422
 21
393.2950222977558
 31
0.0
  0
SOLID
  5
1B43
330
1A5F
100
AcDbEntity
  8
4
 62
     0
100
AcDbTrace
 10
252.9335679178763
 20
393.7950222977558
 30
0.0
 11
252.9335679178763
 21
392.7950222977558
 31
0.0
 12
249.9335679178762
 22
393.2950222977558
 32
0.0
 13
249.9335679178762
 23
393.2950222977558
 33
0.0
  0
SOLID
  5
1B44
330
1A5F
100
AcDbEntity
  8
4
 62
     0
100
AcDbTrace
 10
331.941422
 20
393.7950222977558
 30
0.0
 11
331.941422
 21
392.7950222977558
 31
0.0
 12
334.941422
 22
393.2950222977558
 32
0.0
 13
334.941422
 23
393.2950222977558
 33
0.0
  0
MTEXT
  5
1B45
330
1A5F
100
AcDbEntity
  8
4
 62
     0
100
AcDbMText
 10
287.1134940513485
 20
395.7950222977558
 30
0.0
 40
3.0
 41
0.0
 71
     5
 72
     1
  1
\A1;340
 73
     1
 44
1.0
  0
POINT
  5
1B46
330
1A5F
100
AcDbEntity
  8
DEFPOINTS
 62
     0
100
AcDbPoint
 10
249.9335679178762
 20
425.7572142342867
 30
0.0
  0
POINT
  5
1B47
330
1A5F
100
AcDbEntity
  8
DEFPOINTS
 62
     0
100
AcDbPoint
 10
334.941422
 20
422.115021801337
 30
0.0
  0
POINT
  5
1B48
330
1A5F
100
AcDbEntity
  8
DEFPOINTS
 62
     0
100
AcDbPoint
 10
334.941422
 20
393.2950222977558
 30
0.0
  0
ENDBLK
  5
1A6A
330
1A5F
100
AcDbEntity
  8
0
100
AcDbBlockEnd
  0
BLOCK
  5
1A75
330
1A6B
100
AcDbEntity
  8
0
100
AcDbBlockBegin
  2
*D38
 70
     1
 10
0.0
 20
0.0
 30
0.0
  3
*D38
  1

  0
LINE
  5
1B49
330
1A6B
100
AcDbEntity
  8
4
 62
     0
370
    -2
100
AcDbLine
 10
249.706893
 20
554.9133648013371
 30
0.0
 11
249.706893
 21
564.666982801337
 31
0.0
  0
LINE
  5
1B4A
330
1A6B
100
AcDbEntity
  8
4
 62
     0
370
    -2
100
AcDbLine
 10
259.987399
 20
554.9133648013371
 30
0.0
 11
259.987399
 21
564.666982801337
 31
0.0
  0
LINE
  5
1B4B
330
1A6B
100
AcDbEntity
  8
4
 62
     0
370
    -2
100
AcDbLine
 10
252.7068929999999
 20
562.6669828013371
 30
0.0
 11
256.987399
 21
562.6669828013371
 31
0.0
  0
SOLID
  5
1B4C
330
1A6B
100
AcDbEntity
  8
4
 62
     0
100
AcDbTrace
 10
252.7068929999999
 20
563.1669828013371
 30
0.0
 11
252.7068929999999
 21
562.1669828013371
 31
0.0
 12
249.706893
 22
562.6669828013371
 32
0.0
 13
249.706893
 23
562.6669828013371
 33
0.0
  0
SOLID
  5
1B4D
330
1A6B
100
AcDbEntity
  8
4
 62
     0
100
AcDbTrace
 10
256.987399
 20
563.1669828013371
 30
0.0
 11
256.987399
 21
562.1669828013371
 31
0.0
 12
259.987399
 22
562.6669828013371
 32
0.0
 13
259.987399
 23
562.6669828013371
 33
0.0
  0
MTEXT
  5
1B4E
330
1A6B
100
AcDbEntity
  8
4
 62
     0
100
AcDbMText
 10
254.847146
 20
565.166982801337
 30
0.0
 40
3.0
 41
0.0
 71
     5
 72
     1
  1
\A1;44
 73
     1
 44
1.0
  0
POINT
  5
1B4F
330
1A6B
100
AcDbEntity
  8
DEFPOINTS
 62
     0
100
AcDbPoint
 10
249.706893
 20
552.9133648013371
 30
0.0
  0
POINT
  5
1B50
330
1A6B
100
AcDbEntity
  8
DEFPOINTS
 62
     0
100
AcDbPoint
 10
259.987399
 20
552.9133648013371
 30
0.0
  0
POINT
  5
1B51
330
1A6B
100
AcDbEntity
  8
DEFPOINTS
 62
     0
100
AcDbPoint
 10
259.987399
 20
562.6669828013371
 30
0.0
  0
ENDBLK
  5
1A76
330
1A6B
100
AcDbEntity
  8
0
100
AcDbBlockEnd
  0
BLOCK
  5
1A81
330
1A77
100
AcDbEntity
  8
0
100
AcDbBlockBegin
  2
*D39
 70
     1
 10
0.0
 20
0.0
 30
0.0
  3
*D39
  1

  0
LINE
  5
1B52
330
1A77
100
AcDbEntity
  8
4
 62
     0
370
    -2
100
AcDbLine
 10
259.987399
 20
554.9133648013371
 30
0.0
 11
259.987399
 21
564.666982801337
 31
0.0
  0
LINE
  5
1B53
330
1A77
100
AcDbEntity
  8
4
 62
     0
370
    -2
100
AcDbLine
 10
334.778082
 20
554.9133648013371
 30
0.0
 11
334.778082
 21
564.666982801337
 31
0.0
  0
LINE
  5
1B54
330
1A77
100
AcDbEntity
  8
4
 62
     0
370
    -2
100
AcDbLine
 10
262.987399
 20
562.6669828013371
 30
0.0
 11
331.7780819999999
 21
562.6669828013371
 31
0.0
  0
SOLID
  5
1B55
330
1A77
100
AcDbEntity
  8
4
 62
     0
100
AcDbTrace
 10
262.987399
 20
563.1669828013371
 30
0.0
 11
262.987399
 21
562.1669828013371
 31
0.0
 12
259.987399
 22
562.6669828013371
 32
0.0
 13
259.987399
 23
562.6669828013371
 33
0.0
  0
SOLID
  5
1B56
330
1A77
100
AcDbEntity
  8
4
 62
     0
100
AcDbTrace
 10
331.7780819999999
 20
563.1669828013371
 30
0.0
 11
331.7780819999999
 21
562.1669828013371
 31
0.0
 12
334.778082
 22
562.6669828013371
 32
0.0
 13
334.778082
 23
562.6669828013371
 33
0.0
  0
MTEXT
  5
1B57
330
1A77
100
AcDbEntity
  8
4
 62
     0
100
AcDbMText
 10
297.3827405
 20
565.166982801337
 30
0.0
 40
3.0
 41
0.0
 71
     5
 72
     1
  1
\A1;300
 73
     1
 44
1.0
  0
POINT
  5
1B58
330
1A77
100
AcDbEntity
  8
DEFPOINTS
 62
     0
100
AcDbPoint
 10
259.987399
 20
552.9133648013371
 30
0.0
  0
POINT
  5
1B59
330
1A77
100
AcDbEntity
  8
DEFPOINTS
 62
     0
100
AcDbPoint
 10
334.778082
 20
552.9133648013371
 30
0.0
  0
POINT
  5
1B5A
330
1A77
100
AcDbEntity
  8
DEFPOINTS
 62
     0
100
AcDbPoint
 10
334.778082
 20
562.6669828013371
 30
0.0
  0
ENDBLK
  5
1A82
330
1A77
100
AcDbEntity
  8
0
100
AcDbBlockEnd
  0
BLOCK
  5
1A8F
330
1A83
100
AcDbEntity
  8
0
100
AcDbBlockBegin
  2
*D40
 70
     1
 10
0.0
 20
0.0
 30
0.0
  3
*D40
  1

  0
LINE
  5
1B5B
330
1A83
100
AcDbEntity
  8
4
 62
     0
370
    -2
100
AcDbLine
 10
334.778082
 20
554.9133648013371
 30
0.0
 11
334.778082
 21
564.666982801337
 31
0.0
  0
LINE
  5
1B5C
330
1A83
100
AcDbEntity
  8
4
 62
     0
370
    -2
100
AcDbLine
 10
336.8341829999999
 20
551.5766008013371
 30
0.0
 11
336.8341829999999
 21
564.666982801337
 31
0.0
  0
LINE
  5
1B5D
330
1A83
100
AcDbEntity
  8
4
 62
     0
370
    -2
100
AcDbLine
 10
331.7780819999999
 20
562.6669828013371
 30
0.0
 11
328.778082
 21
562.6669828013371
 31
0.0
  0
LINE
  5
1B5E
330
1A83
100
AcDbEntity
  8
4
 62
     0
370
    -2
100
AcDbLine
 10
339.834183
 20
562.6669828013371
 30
0.0
 11
350.8341829999999
 21
562.6669828013371
 31
0.0
  0
LINE
  5
1B5F
330
1A83
100
AcDbEntity
  8
4
 62
     0
370
    -2
100
AcDbLine
 10
334.778082
 20
562.6669828013371
 30
0.0
 11
336.8341829999999
 21
562.6669828013371
 31
0.0
  0
SOLID
  5
1B60
330
1A83
100
AcDbEntity
  8
4
 62
     0
100
AcDbTrace
 10
331.7780819999999
 20
563.1669828013371
 30
0.0
 11
331.7780819999999
 21
562.1669828013371
 31
0.0
 12
334.778082
 22
562.6669828013371
 32
0.0
 13
334.778082
 23
562.6669828013371
 33
0.0
  0
SOLID
  5
1B61
330
1A83
100
AcDbEntity
  8
4
 62
     0
100
AcDbTrace
 10
339.834183
 20
563.1669828013371
 30
0.0
 11
339.834183
 21
562.1669828013371
 31
0.0
 12
336.8341829999999
 22
562.6669828013371
 32
0.0
 13
336.8341829999999
 23
562.6669828013371
 33
0.0
  0
MTEXT
  5
1B62
330
1A83
100
AcDbEntity
  8
4
 62
     0
100
AcDbMText
 10
346.8341829999999
 20
565.166982801337
 30
0.0
 40
3.0
 41
0.0
 71
     5
 72
     1
  1
\A1;3.5
 73
     1
 44
1.0
  0
POINT
  5
1B63
330
1A83
100
AcDbEntity
  8
DEFPOINTS
 62
     0
100
AcDbPoint
 10
334.778082
 20
552.9133648013371
 30
0.0
  0
POINT
  5
1B64
330
1A83
100
AcDbEntity
  8
DEFPOINTS
 62
     0
100
AcDbPoint
 10
336.8341829999999
 20
549.5766008013371
 30
0.0
  0
POINT
  5
1B65
330
1A83
100
AcDbEntity
  8
DEFPOINTS
 62
     0
100
AcDbPoint
 10
336.8341829999999
 20
562.6669828013371
 30
0.0
  0
ENDBLK
  5
1A90
330
1A83
100
AcDbEntity
  8
0
100
AcDbBlockEnd
  0
BLOCK
  5
1A9D
330
1A91
100
AcDbEntity
  8
0
100
AcDbBlockBegin
  2
*D41
 70
     1
 10
0.0
 20
0.0
 30
0.0
  3
*D41
  1

  0
LINE
  5
1B66
330
1A91
100
AcDbEntity
  8
4
 62
     0
370
    -2
100
AcDbLine
 10
69.92760768281705
 20
420.9655304904964
 30
0.0
 11
69.92760768281705
 21
406.4126568013371
 31
0.0
  0
LINE
  5
1B67
330
1A91
100
AcDbEntity
  8
4
 62
     0
370
    -2
100
AcDbLine
 10
76.70186300000001
 20
415.774206801337
 30
0.0
 11
76.70186300000001
 21
406.4126568013371
 31
0.0
  0
LINE
  5
1B68
330
1A91
100
AcDbEntity
  8
4
 62
     0
370
    -2
100
AcDbLine
 10
66.92760768281705
 20
408.412656801337
 30
0.0
 11
63.92760768281705
 21
408.412656801337
 31
0.0
  0
LINE
  5
1B69
330
1A91
100
AcDbEntity
  8
4
 62
     0
370
    -2
100
AcDbLine
 10
79.701863
 20
408.412656801337
 30
0.0
 11
82.701863
 21
408.412656801337
 31
0.0
  0
LINE
  5
1B6A
330
1A91
100
AcDbEntity
  8
4
 62
     0
370
    -2
100
AcDbLine
 10
69.92760768281705
 20
408.412656801337
 30
0.0
 11
76.70186300000001
 21
408.412656801337
 31
0.0
  0
SOLID
  5
1B6B
330
1A91
100
AcDbEntity
  8
4
 62
     0
100
AcDbTrace
 10
66.92760768281705
 20
408.912656801337
 30
0.0
 11
66.92760768281705
 21
407.9126568013371
 31
0.0
 12
69.92760768281705
 22
408.412656801337
 32
0.0
 13
69.92760768281705
 23
408.412656801337
 33
0.0
  0
SOLID
  5
1B6C
330
1A91
100
AcDbEntity
  8
4
 62
     0
100
AcDbTrace
 10
79.701863
 20
408.912656801337
 30
0.0
 11
79.701863
 21
407.9126568013371
 31
0.0
 12
76.70186300000001
 22
408.412656801337
 32
0.0
 13
76.70186300000001
 23
408.412656801337
 33
0.0
  0
MTEXT
  5
1B6D
330
1A91
100
AcDbEntity
  8
4
 62
     0
100
AcDbMText
 10
73.31473534140852
 20
410.9126568013371
 30
0.0
 40
3.0
 41
0.0
 71
     5
 72
     1
  1
\A1;20
 73
     1
 44
1.0
  0
POINT
  5
1B6E
330
1A91
100
AcDbEntity
  8
DEFPOINTS
 62
     0
100
AcDbPoint
 10
69.92760768281705
 20
422.9655304904964
 30
0.0
  0
POINT
  5
1B6F
330
1A91
100
AcDbEntity
  8
DEFPOINTS
 62
     0
100
AcDbPoint
 10
76.70186300000001
 20
417.7742068013371
 30
0.0
  0
POINT
  5
1B70
330
1A91
100
AcDbEntity
  8
DEFPOINTS
 62
     0
100
AcDbPoint
 10
76.70186300000001
 20
408.412656801337
 30
0.0
  0
ENDBLK
  5
1A9E
330
1A91
100
AcDbEntity
  8
0
100
AcDbBlockEnd
  0
BLOCK
  5
1AA9
330
1A9F
100
AcDbEntity
  8
0
100
AcDbBlockBegin
  2
*D42
 70
     1
 10
0.0
 20
0.0
 30
0.0
  3
*D42
  1

  0
LINE
  5
1B71
330
1A9F
100
AcDbEntity
  8
4
 62
     0
370
    -2
100
AcDbLine
 10
259.9615009999999
 20
420.1150218013371
 30
0.0
 11
259.9615009999999
 21
398.8668545495464
 31
0.0
  0
LINE
  5
1B72
330
1A9F
100
AcDbEntity
  8
4
 62
     0
370
    -2
100
AcDbLine
 10
334.941422
 20
420.1150218013371
 30
0.0
 11
334.941422
 21
398.8668545495464
 31
0.0
  0
LINE
  5
1B73
330
1A9F
100
AcDbEntity
  8
4
 62
     0
370
    -2
100
AcDbLine
 10
262.961501
 20
400.8668545495464
 30
0.0
 11
331.941422
 21
400.8668545495464
 31
0.0
  0
SOLID
  5
1B74
330
1A9F
100
AcDbEntity
  8
4
 62
     0
100
AcDbTrace
 10
262.961501
 20
401.3668545495464
 30
0.0
 11
262.961501
 21
400.3668545495465
 31
0.0
 12
259.9615009999999
 22
400.8668545495464
 32
0.0
 13
259.9615009999999
 23
400.8668545495464
 33
0.0
  0
SOLID
  5
1B75
330
1A9F
100
AcDbEntity
  8
4
 62
     0
100
AcDbTrace
 10
331.941422
 20
401.3668545495464
 30
0.0
 11
331.941422
 21
400.3668545495465
 31
0.0
 12
334.941422
 22
400.8668545495464
 32
0.0
 13
334.941422
 23
400.8668545495464
 33
0.0
  0
MTEXT
  5
1B76
330
1A9F
100
AcDbEntity
  8
4
 62
     0
100
AcDbMText
 10
287.3350752240156
 20
403.3668545495464
 30
0.0
 40
3.0
 41
0.0
 71
     5
 72
     1
  1
\A1;300
 73
     1
 44
1.0
  0
POINT
  5
1B77
330
1A9F
100
AcDbEntity
  8
DEFPOINTS
 62
     0
100
AcDbPoint
 10
259.9615009999999
 20
422.115021801337
 30
0.0
  0
POINT
  5
1B78
330
1A9F
100
AcDbEntity
  8
DEFPOINTS
 62
     0
100
AcDbPoint
 10
334.941422
 20
422.115021801337
 30
0.0
  0
POINT
  5
1B79
330
1A9F
100
AcDbEntity
  8
DEFPOINTS
 62
     0
100
AcDbPoint
 10
334.941422
 20
400.8668545495464
 30
0.0
  0
ENDBLK
  5
1AAA
330
1A9F
100
AcDbEntity
  8
0
100
AcDbBlockEnd
  0
BLOCK
  5
1AB7
330
1AAB
100
AcDbEntity
  8
0
100
AcDbBlockBegin
  2
*D43
 70
     1
 10
0.0
 20
0.0
 30
0.0
  3
*D43
  1

  0
LINE
  5
1B7A
330
1AAB
100
AcDbEntity
  8
4
 62
     0
370
    -2
100
AcDbLine
 10
328.1796249999999
 20
415.774206801337
 30
0.0
 11
328.1796249999999
 21
406.4386868013371
 31
0.0
  0
LINE
  5
1B7B
330
1AAB
100
AcDbEntity
  8
4
 62
     0
370
    -2
100
AcDbLine
 10
334.941422
 20
420.1150218013371
 30
0.0
 11
334.941422
 21
406.4386868013371
 31
0.0
  0
LINE
  5
1B7C
330
1AAB
100
AcDbEntity
  8
4
 62
     0
370
    -2
100
AcDbLine
 10
325.1796249999999
 20
408.438686801337
 30
0.0
 11
322.179625
 21
408.438686801337
 31
0.0
  0
LINE
  5
1B7D
330
1AAB
100
AcDbEntity
  8
4
 62
     0
370
    -2
100
AcDbLine
 10
337.941422
 20
408.438686801337
 30
0.0
 11
340.941422
 21
408.438686801337
 31
0.0
  0
LINE
  5
1B7E
330
1AAB
100
AcDbEntity
  8
4
 62
     0
370
    -2
100
AcDbLine
 10
328.1796249999999
 20
408.438686801337
 30
0.0
 11
334.941422
 21
408.438686801337
 31
0.0
  0
SOLID
  5
1B7F
330
1AAB
100
AcDbEntity
  8
4
 62
     0
100
AcDbTrace
 10
325.1796249999999
 20
408.938686801337
 30
0.0
 11
325.1796249999999
 21
407.938686801337
 31
0.0
 12
328.1796249999999
 22
408.438686801337
 32
0.0
 13
328.1796249999999
 23
408.438686801337
 33
0.0
  0
SOLID
  5
1B80
330
1AAB
100
AcDbEntity
  8
4
 62
     0
100
AcDbTrace
 10
337.941422
 20
408.938686801337
 30
0.0
 11
337.941422
 21
407.938686801337
 31
0.0
 12
334.941422
 22
408.438686801337
 32
0.0
 13
334.941422
 23
408.438686801337
 33
0.0
  0
MTEXT
  5
1B81
330
1AAB
100
AcDbEntity
  8
4
 62
     0
100
AcDbMText
 10
331.5605235
 20
410.9386868013371
 30
0.0
 40
3.0
 41
0.0
 71
     5
 72
     1
  1
\A1;20
 73
     1
 44
1.0
  0
POINT
  5
1B82
330
1AAB
100
AcDbEntity
  8
DEFPOINTS
 62
     0
100
AcDbPoint
 10
328.1796249999999
 20
417.7742068013371
 30
0.0
  0
POINT
  5
1B83
330
1AAB
100
AcDbEntity
  8
DEFPOINTS
 62
     0
100
AcDbPoint
 10
334.941422
 20
422.115021801337
 30
0.0
  0
POINT
  5
1B84
330
1AAB
100
AcDbEntity
  8
DEFPOINTS
 62
     0
100
AcDbPoint
 10
334.941422
 20
408.438686801337
 30
0.0
  0
ENDBLK
  5
1AB8
330
1AAB
100
AcDbEntity
  8
0
100
AcDbBlockEnd
  0
BLOCK
  5
1AC3
330
1AB9
100
AcDbEntity
  8
0
100
AcDbBlockBegin
  2
*D44
 70
     1
 10
0.0
 20
0.0
 30
0.0
  3
*D44
  1

  0
LINE
  5
1B85
330
1AB9
100
AcDbEntity
  8
4
 62
     0
370
    -2
100
AcDbLine
 10
69.92760768281705
 20
410.8928459053724
 30
0.0
 11
69.92760768281705
 21
391.2950222977558
 31
0.0
  0
LINE
  5
1B86
330
1AB9
100
AcDbEntity
  8
4
 62
     0
370
    -2
100
AcDbLine
 10
185.396268
 20
429.595120801337
 30
0.0
 11
185.396268
 21
391.2950222977558
 31
0.0
  0
LINE
  5
1B87
330
1AB9
100
AcDbEntity
  8
4
 62
     0
370
    -2
100
AcDbLine
 10
72.92760768281706
 20
393.2950222977558
 30
0.0
 11
182.396268
 21
393.2950222977558
 31
0.0
  0
SOLID
  5
1B88
330
1AB9
100
AcDbEntity
  8
4
 62
     0
100
AcDbTrace
 10
72.92760768281706
 20
393.7950222977558
 30
0.0
 11
72.92760768281706
 21
392.7950222977558
 31
0.0
 12
69.92760768281705
 22
393.2950222977558
 32
0.0
 13
69.92760768281705
 23
393.2950222977558
 33
0.0
  0
SOLID
  5
1B89
330
1AB9
100
AcDbEntity
  8
4
 62
     0
100
AcDbTrace
 10
182.396268
 20
393.7950222977558
 30
0.0
 11
182.396268
 21
392.7950222977558
 31
0.0
 12
185.396268
 22
393.2950222977558
 32
0.0
 13
185.396268
 23
393.2950222977558
 33
0.0
  0
MTEXT
  5
1B8A
330
1AB9
100
AcDbEntity
  8
4
 62
     0
100
AcDbMText
 10
126.6092650065583
 20
395.7950222977558
 30
0.0
 40
3.0
 41
0.0
 71
     5
 72
     1
  1
\A1;457
 73
     1
 44
1.0
  0
POINT
  5
1B8B
330
1AB9
100
AcDbEntity
  8
DEFPOINTS
 62
     0
100
AcDbPoint
 10
69.92760768281705
 20
412.8928459053724
 30
0.0
  0
POINT
  5
1B8C
330
1AB9
100
AcDbEntity
  8
DEFPOINTS
 62
     0
100
AcDbPoint
 10
185.396268
 20
431.5951208013371
 30
0.0
  0
POINT
  5
1B8D
330
1AB9
100
AcDbEntity
  8
DEFPOINTS
 62
     0
100
AcDbPoint
 10
185.396268
 20
393.2950222977558
 30
0.0
  0
ENDBLK
  5
1AC4
330
1AB9
100
AcDbEntity
  8
0
100
AcDbBlockEnd
  0
BLOCK
  5
1ACF
330
1AC5
100
AcDbEntity
  8
0
100
AcDbBlockBegin
  2
*D45
 70
     1
 10
0.0
 20
0.0
 30
0.0
  3
*D45
  1

  0
LINE
  5
1B8E
330
1AC5
100
AcDbEntity
  8
4
 62
     0
370
    -2
100
AcDbLine
 10
241.666336
 20
496.5794808013371
 30
0.0
 11
241.666336
 21
383.7231900459652
 31
0.0
  0
LINE
  5
1B8F
330
1AC5
100
AcDbEntity
  8
4
 62
     0
370
    -2
100
AcDbLine
 10
336.5561969999999
 20
426.4126018013371
 30
0.0
 11
336.5561969999999
 21
383.7231900459652
 31
0.0
  0
LINE
  5
1B90
330
1AC5
100
AcDbEntity
  8
4
 62
     0
370
    -2
100
AcDbLine
 10
244.666336
 20
385.7231900459652
 30
0.0
 11
333.5561969999999
 21
385.7231900459652
 31
0.0
  0
SOLID
  5
1B91
330
1AC5
100
AcDbEntity
  8
4
 62
     0
100
AcDbTrace
 10
244.666336
 20
386.2231900459652
 30
0.0
 11
244.666336
 21
385.2231900459652
 31
0.0
 12
241.666336
 22
385.7231900459652
 32
0.0
 13
241.666336
 23
385.7231900459652
 33
0.0
  0
SOLID
  5
1B92
330
1AC5
100
AcDbEntity
  8
4
 62
     0
100
AcDbTrace
 10
333.5561969999999
 20
386.2231900459652
 30
0.0
 11
333.5561969999999
 21
385.2231900459652
 31
0.0
 12
336.5561969999999
 22
385.7231900459652
 32
0.0
 13
336.5561969999999
 23
385.7231900459652
 33
0.0
  0
MTEXT
  5
1B93
330
1AC5
100
AcDbEntity
  8
4
 62
     0
100
AcDbMText
 10
289.1112664999999
 20
388.2231900459652
 30
0.0
 40
3.0
 41
0.0
 71
     5
 72
     1
  1
\A1;370.5
 73
     1
 44
1.0
  0
POINT
  5
1B94
330
1AC5
100
AcDbEntity
  8
DEFPOINTS
 62
     0
100
AcDbPoint
 10
241.666336
 20
498.5794808013371
 30
0.0
  0
POINT
  5
1B95
330
1AC5
100
AcDbEntity
  8
DEFPOINTS
 62
     0
100
AcDbPoint
 10
336.5561969999999
 20
428.4126018013371
 30
0.0
  0
POINT
  5
1B96
330
1AC5
100
AcDbEntity
  8
DEFPOINTS
 62
     0
100
AcDbPoint
 10
336.5561969999999
 20
385.7231900459652
 30
0.0
  0
ENDBLK
  5
1AD0
330
1AC5
100
AcDbEntity
  8
0
100
AcDbBlockEnd
  0
ENDSEC
  0
SECTION
  2
ENTITIES
  0
LWPOLYLINE
  5
D8
330
18
100
AcDbEntity
  8
0
370
    60
100
AcDbPolyline
 90
        4
 70
     1
 43
0.0
 10
18.569816
 20
290.913389
 10
416.8326129999999
 20
290.913389
 10
416.8326129999999
 20
5.537812
 10
18.569816
 20
5.537812
  0
LINE
  5
D9
330
18
100
AcDbEntity
  8
0
100
AcDbLine
 10
68.62770799999999
 20
296.4013799999999
 30
0.0
 11
68.62770799999999
 21
290.913389
 31
0.0
  0
LINE
  5
DA
330
18
100
AcDbEntity
  8
0
100
AcDbLine
 10
118.1355149999999
 20
296.4013799999999
 30
0.0
 11
118.1355149999999
 21
290.913389
 31
0.0
  0
LINE
  5
DB
330
18
100
AcDbEntity
  8
0
100
AcDbLine
 10
168.1934079999999
 20
296.4013799999999
 30
0.0
 11
168.1934079999999
 21
290.913389
 31
0.0
  0
LINE
  5
DC
330
18
100
AcDbEntity
  8
0
100
AcDbLine
 10
217.701214
 20
296.9501799999999
 30
0.0
 11
217.701214
 21
290.913389
 31
0.0
  0
LINE
  5
DD
330
18
100
AcDbEntity
  8
0
100
AcDbLine
 10
267.759108
 20
296.4013799999999
 30
0.0
 11
267.759108
 21
290.913389
 31
0.0
  0
LINE
  5
DE
330
18
100
AcDbEntity
  8
0
100
AcDbLine
 10
317.2669139999999
 20
296.4013799999999
 30
0.0
 11
317.2669139999999
 21
290.913389
 31
0.0
  0
LINE
  5
DF
330
18
100
AcDbEntity
  8
0
100
AcDbLine
 10
366.7747199999999
 20
296.9501799999999
 30
0.0
 11
366.7747199999999
 21
290.913389
 31
0.0
  0
LINE
  5
E0
330
18
100
AcDbEntity
  8
0
100
AcDbLine
 10
13.068948
 20
243.16786
 30
0.0
 11
18.569816
 21
243.16786
 31
0.0
  0
LINE
  5
E1
330
18
100
AcDbEntity
  8
0
100
AcDbLine
 10
13.068948
 20
195.97113
 30
0.0
 11
18.569816
 21
195.97113
 31
0.0
  0
LINE
  5
E2
330
18
100
AcDbEntity
  8
0
100
AcDbLine
 10
-4.533826999999999
 20
148.225601
 30
0.0
 11
18.569816
 21
148.225601
 31
0.0
  0
LINE
  5
E3
330
18
100
AcDbEntity
  8
0
100
AcDbLine
 10
12.518862
 20
100.480071
 30
0.0
 11
18.569816
 21
100.480071
 31
0.0
  0
LINE
  5
E4
330
18
100
AcDbEntity
  8
0
100
AcDbLine
 10
13.619035
 20
53.283341
 30
0.0
 11
18.569816
 21
53.283341
 31
0.0
  0
LINE
  5
E5
330
18
100
AcDbEntity
  8
0
100
AcDbLine
 10
416.8326129999999
 20
243.16786
 30
0.0
 11
421.783394
 21
243.16786
 31
0.0
  0
LINE
  5
E6
330
18
100
AcDbEntity
  8
0
100
AcDbLine
 10
416.8326129999999
 20
195.97113
 30
0.0
 11
423.433654
 21
195.97113
 31
0.0
  0
LINE
  5
E7
330
18
100
AcDbEntity
  8
0
100
AcDbLine
 10
416.8326129999999
 20
148.225601
 30
0.0
 11
425.083914
 21
148.225601
 31
0.0
  0
LINE
  5
E8
330
18
100
AcDbEntity
  8
0
100
AcDbLine
 10
416.8326129999999
 20
100.480071
 30
0.0
 11
422.8835669999999
 21
100.480071
 31
0.0
  0
LINE
  5
E9
330
18
100
AcDbEntity
  8
0
100
AcDbLine
 10
416.8326129999999
 20
53.283341
 30
0.0
 11
422.8835669999999
 21
53.283341
 31
0.0
  0
LINE
  5
EA
330
18
100
AcDbEntity
  8
0
100
AcDbLine
 10
366.7747199999999
 20
5.537812
 30
0.0
 11
366.7747199999999
 21
-0.4989790000000001
 31
0.0
  0
LINE
  5
EB
330
18
100
AcDbEntity
  8
0
100
AcDbLine
 10
317.2669139999999
 20
5.537812
 30
0.0
 11
317.2669139999999
 21
0.04982
 31
0.0
  0
LINE
  5
EC
330
18
100
AcDbEntity
  8
0
100
AcDbLine
 10
267.759108
 20
5.537812
 30
0.0
 11
267.759108
 21
0.59862
 31
0.0
  0
LINE
  5
ED
330
18
100
AcDbEntity
  8
0
100
AcDbLine
 10
217.701214
 20
5.537812
 30
0.0
 11
217.701214
 21
0.04982
 31
0.0
  0
LINE
  5
EE
330
18
100
AcDbEntity
  8
0
100
AcDbLine
 10
168.1934079999999
 20
5.537812
 30
0.0
 11
168.1934079999999
 21
0.04982
 31
0.0
  0
LINE
  5
EF
330
18
100
AcDbEntity
  8
0
100
AcDbLine
 10
118.1355149999999
 20
5.537812
 30
0.0
 11
118.1355149999999
 21
0.04982
 31
0.0
  0
LINE
  5
F0
330
18
100
AcDbEntity
  8
0
100
AcDbLine
 10
68.62770799999999
 20
5.537812
 30
0.0
 11
68.62770799999999
 21
0.04982
 31
0.0
  0
MTEXT
  5
F2
330
18
100
AcDbEntity
  8
0
100
AcDbMText
 10
43.32371699999999
 20
296.401381
 30
0.0
 40
3.0
 41
9.0
 71
     1
 72
     5
  1
1
 73
     1
 44
1.0
  0
MTEXT
  5
F3
330
18
100
AcDbEntity
  8
0
100
AcDbMText
 10
90.631178
 20
296.401381
 30
0.0
 40
3.0
 41
7.0
 71
     1
 72
     5
  1
2
 73
     1
 44
1.0
  0
MTEXT
  5
F4
330
18
100
AcDbEntity
  8
0
100
AcDbMText
 10
141.239157
 20
295.8525819999999
 30
0.0
 40
3.0
 41
8.0
 71
     1
 72
     5
  1
3
 73
     1
 44
1.0
  0
MTEXT
  5
F5
330
18
100
AcDbEntity
  8
0
100
AcDbMText
 10
190.196877
 20
296.401381
 30
0.0
 40
3.0
 41
8.0
 71
     1
 72
     5
  1
4
 73
     1
 44
1.0
  0
MTEXT
  5
F6
330
18
100
AcDbEntity
  8
0
100
AcDbMText
 10
239.154597
 20
296.401381
 30
0.0
 40
3.0
 41
9.0
 71
     1
 72
     5
  1
5
 73
     1
 44
1.0
  0
MTEXT
  5
F7
330
18
100
AcDbEntity
  8
0
100
AcDbMText
 10
289.762577
 20
296.401381
 30
0.0
 40
3.0
 41
9.0
 71
     1
 72
     5
  1
6
 73
     1
 44
1.0
  0
MTEXT
  5
F8
330
18
100
AcDbEntity
  8
0
100
AcDbMText
 10
339.8204699999999
 20
296.401381
 30
0.0
 40
3.0
 41
9.0
 71
     1
 72
     5
  1
7
 73
     1
 44
1.0
  0
MTEXT
  5
F9
330
18
100
AcDbEntity
  8
0
100
AcDbMText
 10
389.328277
 20
296.401381
 30
0.0
 40
3.0
 41
8.0
 71
     1
 72
     5
  1
8
 73
     1
 44
1.0
  0
MTEXT
  5
102
330
18
100
AcDbEntity
  8
0
100
AcDbMText
 10
43.32371699999999
 20
3.832615
 30
0.0
 40
3.0
 41
9.0
 71
     1
 72
     5
  1
1
 73
     1
 44
1.0
  0
MTEXT
  5
103
330
18
100
AcDbEntity
  8
0
100
AcDbMText
 10
141.239157
 20
3.283816
 30
0.0
 40
3.0
 41
8.0
 71
     1
 72
     5
  1
3
 73
     1
 44
1.0
  0
MTEXT
  5
104
330
18
100
AcDbEntity
  8
0
100
AcDbMText
 10
90.631178
 20
3.832615
 30
0.0
 40
3.0
 41
7.0
 71
     1
 72
     5
  1
2
 73
     1
 44
1.0
  0
MTEXT
  5
105
330
18
100
AcDbEntity
  8
0
100
AcDbMText
 10
190.196877
 20
3.832615
 30
0.0
 40
3.0
 41
8.0
 71
     1
 72
     5
  1
4
 73
     1
 44
1.0
  0
MTEXT
  5
106
330
18
100
AcDbEntity
  8
0
100
AcDbMText
 10
239.154597
 20
3.832615
 30
0.0
 40
3.0
 41
9.0
 71
     1
 72
     5
  1
5
 73
     1
 44
1.0
  0
MTEXT
  5
107
330
18
100
AcDbEntity
  8
0
100
AcDbMText
 10
289.762577
 20
3.832615
 30
0.0
 40
3.0
 41
9.0
 71
     1
 72
     5
  1
6
 73
     1
 44
1.0
  0
MTEXT
  5
108
330
18
100
AcDbEntity
  8
0
100
AcDbMText
 10
339.8204699999999
 20
3.832615
 30
0.0
 40
3.0
 41
9.0
 71
     1
 72
     5
  1
7
 73
     1
 44
1.0
  0
MTEXT
  5
109
330
18
100
AcDbEntity
  8
0
100
AcDbMText
 10
389.328277
 20
3.832615
 30
0.0
 40
3.0
 41
8.0
 71
     1
 72
     5
  1
8
 73
     1
 44
1.0
  0
MTEXT
  5
10A
330
18
100
AcDbEntity
  8
0
100
AcDbMText
 10
418.4893999999999
 20
269.5102209999999
 30
0.0
 40
3.0
 41
7.0
 71
     1
 72
     5
  1
A
 73
     1
 44
1.0
  0
MTEXT
  5
10B
330
18
100
AcDbEntity
  8
0
100
AcDbMText
 10
418.4893999999999
 20
222.8622899999999
 30
0.0
 40
3.0
 41
5.0
 71
     1
 72
     5
  1
B
 73
     1
 44
1.0
  0
MTEXT
  5
10C
330
18
100
AcDbEntity
  8
0
100
AcDbMText
 10
418.4893999999999
 20
175.66556
 30
0.0
 40
3.0
 41
5.0
 71
     1
 72
     5
  1
C
 73
     1
 44
1.0
  0
MTEXT
  5
10D
330
18
100
AcDbEntity
  8
0
100
AcDbMText
 10
419.0390029999999
 20
125.724834
 30
0.0
 40
3.0
 41
5.0
 71
     1
 72
     5
  1
D
 73
     1
 44
1.0
  0
MTEXT
  5
10E
330
18
100
AcDbEntity
  8
0
100
AcDbMText
 10
419.0390029999999
 20
77.979304
 30
0.0
 40
3.0
 41
5.0
 71
     1
 72
     5
  1
E
 73
     1
 44
1.0
  0
MTEXT
  5
10F
330
18
100
AcDbEntity
  8
0
100
AcDbMText
 10
418.4893999999999
 20
32.42897199999999
 30
0.0
 40
3.0
 41
5.0
 71
     1
 72
     5
  1
F
 73
     1
 44
1.0
  0
MTEXT
  5
110
330
18
100
AcDbEntity
  8
0
100
AcDbMText
 10
13.62556099999999
 20
32.42897199999999
 30
0.0
 40
3.0
 41
5.0
 71
     1
 72
     5
  1
F
 73
     1
 44
1.0
  0
LINE
  5
111
330
18
100
AcDbEntity
  8
0
100
AcDbLine
 10
11.96877399999999
 20
53.283341
 30
0.0
 11
18.019728
 21
53.283341
 31
0.0
  0
MTEXT
  5
112
330
18
100
AcDbEntity
  8
0
100
AcDbMText
 10
14.175164
 20
77.979304
 30
0.0
 40
3.0
 41
5.0
 71
     1
 72
     5
  1
E
 73
     1
 44
1.0
  0
LINE
  5
113
330
18
100
AcDbEntity
  8
0
100
AcDbLine
 10
11.96877399999999
 20
100.480071
 30
0.0
 11
18.019728
 21
100.480071
 31
0.0
  0
MTEXT
  5
114
330
18
100
AcDbEntity
  8
0
100
AcDbMText
 10
14.175164
 20
125.724834
 30
0.0
 40
3.0
 41
5.0
 71
     1
 72
     5
  1
D
 73
     1
 44
1.0
  0
MTEXT
  5
115
330
18
100
AcDbEntity
  8
0
100
AcDbMText
 10
13.62556099999999
 20
175.66556
 30
0.0
 40
3.0
 41
5.0
 71
     1
 72
     5
  1
C
 73
     1
 44
1.0
  0
LINE
  5
116
330
18
100
AcDbEntity
  8
0
100
AcDbLine
 10
11.96877399999999
 20
195.97113
 30
0.0
 11
18.56981499999999
 21
195.97113
 31
0.0
  0
MTEXT
  5
117
330
18
100
AcDbEntity
  8
0
100
AcDbMText
 10
13.62556099999999
 20
222.8622899999999
 30
0.0
 40
3.0
 41
5.0
 71
     1
 72
     5
  1
B
 73
     1
 44
1.0
  0
LINE
  5
118
330
18
100
AcDbEntity
  8
0
100
AcDbLine
 10
11.96877399999999
 20
243.16786
 30
0.0
 11
16.91955499999999
 21
243.16786
 31
0.0
  0
MTEXT
  5
119
330
18
100
AcDbEntity
  8
0
100
AcDbMText
 10
13.62556099999999
 20
269.5102209999999
 30
0.0
 40
3.0
 41
7.0
 71
     1
 72
     5
  1
A
 73
     1
 44
1.0
  0
LINE
  5
122
330
18
100
AcDbEntity
  8
0
370
    40
100
AcDbLine
 10
18.56981499999999
 20
40.15619599999999
 30
0.0
 11
416.8326129999999
 21
40.15619599999999
 31
0.0
  0
LINE
  5
124
330
18
100
AcDbEntity
  8
0
100
AcDbLine
 10
416.824971
 20
23.529141
 30
0.0
 11
250.00835
 21
23.529141
 31
0.0
  0
LINE
  5
125
330
18
100
AcDbEntity
  8
0
100
AcDbLine
 10
354.943724
 20
5.552904999999999
 30
0.0
 11
354.943724
 21
40.192826
 31
0.0
  0
LINE
  5
126
330
18
100
AcDbEntity
  8
0
100
AcDbLine
 10
350.0308959999999
 20
40.192826
 30
0.0
 11
350.0308959999999
 21
5.552903999999999
 31
0.0
  0
LINE
  5
127
330
18
100
AcDbEntity
  8
0
100
AcDbLine
 10
294.9310549999999
 20
23.529141
 30
0.0
 11
294.9310549999999
 21
40.192826
 31
0.0
  0
LINE
  5
128
330
18
100
AcDbEntity
  8
0
100
AcDbLine
 10
289.6479429999999
 20
5.552903999999999
 30
0.0
 11
289.6479429999999
 21
40.192826
 31
0.0
  0
LINE
  5
129
330
18
100
AcDbEntity
  8
0
100
AcDbLine
 10
250.00835
 20
40.192826
 30
0.0
 11
250.00835
 21
5.552903999999999
 31
0.0
  0
LINE
  5
12A
330
18
100
AcDbEntity
  8
0
100
AcDbLine
 10
269.828146
 20
40.192826
 30
0.0
 11
269.828146
 21
5.552903999999999
 31
0.0
  0
LINE
  5
12B
330
18
100
AcDbEntity
  8
0
100
AcDbLine
 10
250.00835
 20
32.663548
 30
0.0
 11
289.6479429999999
 21
32.663548
 31
0.0
  0
LINE
  5
12C
330
18
100
AcDbEntity
  8
0
100
AcDbLine
 10
250.00835
 20
14.882429
 30
0.0
 11
289.6479429999999
 21
14.882429
 31
0.0
  0
LINE
  5
12F
330
18
100
AcDbEntity
  8
0
100
AcDbLine
 10
239.9924589999999
 20
32.69499
 30
0.0
 11
239.9924589999999
 21
5.690279
 31
0.0
  0
LINE
  5
130
330
18
100
AcDbEntity
  8
0
100
AcDbLine
 10
230.107604
 20
40.144565
 30
0.0
 11
230.107604
 21
5.690279
 31
0.0
  0
LINE
  5
134
330
18
100
AcDbEntity
  8
0
100
AcDbLine
 10
220.0362419999999
 20
10.160024
 30
0.0
 11
250.0638209999999
 21
10.160024
 31
0.0
  0
LINE
  5
135
330
18
100
AcDbEntity
  8
0
100
AcDbLine
 10
220.0362419999999
 20
14.816009
 30
0.0
 11
250.0638209999999
 21
14.816009
 31
0.0
  0
LINE
  5
136
330
18
100
AcDbEntity
  8
0
100
AcDbLine
 10
220.0362419999999
 20
19.285754
 30
0.0
 11
250.0638209999999
 21
19.285754
 31
0.0
  0
LINE
  5
138
330
18
100
AcDbEntity
  8
0
100
AcDbLine
 10
220.0362419999999
 20
23.56926
 30
0.0
 11
250.0638209999999
 21
23.56926
 31
0.0
  0
LINE
  5
139
330
18
100
AcDbEntity
  8
0
100
AcDbLine
 10
220.0362419999999
 20
28.411484
 30
0.0
 11
250.0638209999999
 21
28.411484
 31
0.0
  0
LINE
  5
13A
330
18
100
AcDbEntity
  8
0
100
AcDbLine
 10
220.0362419999999
 20
32.69499
 30
0.0
 11
250.0638209999999
 21
32.69499
 31
0.0
  0
LINE
  5
13C
330
18
100
AcDbEntity
  8
0
100
AcDbLine
 10
184.879728
 20
40.144565
 30
0.0
 11
184.879728
 21
5.690279
 31
0.0
  0
LINE
  5
13D
330
18
100
AcDbEntity
  8
0
100
AcDbLine
 10
199.986772
 20
40.144565
 30
0.0
 11
199.986772
 21
5.690279
 31
0.0
  0
LINE
  5
13E
330
18
100
AcDbEntity
  8
0
100
AcDbLine
 10
219.942989
 20
32.69499
 30
0.0
 11
189.915409
 21
32.69499
 31
0.0
  0
LINE
  5
13F
330
18
100
AcDbEntity
  8
0
100
AcDbLine
 10
219.942989
 20
14.816009
 30
0.0
 11
189.915409
 21
14.816009
 31
0.0
  0
LINE
  5
140
330
18
100
AcDbEntity
  8
0
100
AcDbLine
 10
169.959192
 20
40.144565
 30
0.0
 11
169.959192
 21
5.690279
 31
0.0
  0
LINE
  5
141
330
18
100
AcDbEntity
  8
0
100
AcDbLine
 10
189.915409
 20
32.69499
 30
0.0
 11
169.959192
 21
32.69499
 31
0.0
  0
LINE
  5
143
330
18
100
AcDbEntity
  8
0
100
AcDbLine
 10
219.942989
 20
28.411484
 30
0.0
 11
199.986772
 21
28.411484
 31
0.0
  0
LINE
  5
144
330
18
100
AcDbEntity
  8
0
100
AcDbLine
 10
219.942989
 20
23.56926
 30
0.0
 11
169.959192
 21
23.56926
 31
0.0
  0
LINE
  5
145
330
18
100
AcDbEntity
  8
0
100
AcDbLine
 10
219.942989
 20
19.285754
 30
0.0
 11
199.986772
 21
19.285754
 31
0.0
  0
LINE
  5
146
330
18
100
AcDbEntity
  8
0
100
AcDbLine
 10
189.915409
 20
14.816009
 30
0.0
 11
169.959192
 21
14.816009
 31
0.0
  0
LINE
  5
147
330
18
100
AcDbEntity
  8
0
100
AcDbLine
 10
219.942989
 20
10.160024
 30
0.0
 11
199.986772
 21
10.160024
 31
0.0
  0
MTEXT
  5
14C
330
18
100
AcDbEntity
  8
0
100
AcDbMText
 10
174.136942
 20
37.90969299999999
 30
0.0
 40
3.0
 41
9.0
 71
     1
 72
     5
  1
承認
 73
     1
 44
1.0
  0
MTEXT
  5
14D
330
18
100
AcDbEntity
  8
0
100
AcDbMText
 10
189.4304909999999
 20
37.90969299999999
 30
0.0
 40
3.0
 41
8.0
 71
     1
 72
     5
  1
設計
 73
     1
 44
1.0
  0
MTEXT
  5
14E
330
18
100
AcDbEntity
  8
0
100
AcDbMText
 10
174.323449
 20
20.96190899999999
 30
0.0
 40
3.0
 41
9.0
 71
     1
 72
     5
  1
製図
 73
     1
 44
1.0
  0
MTEXT
  5
14F
330
18
100
AcDbEntity
  8
0
100
AcDbMText
 10
189.243985
 20
20.775669
 30
0.0
 40
3.0
 41
9.0
 71
     1
 72
     5
  1
担当
 73
     1
 44
1.0
  0
MTEXT
  5
150
330
18
100
AcDbEntity
  8
0
100
AcDbMText
 10
211.195825
 20
31.391315
 30
0.0
 40
2.0
 41
11.0
 71
     1
 72
     5
  1
日  付
 73
     1
 44
1.0
  0
MTEXT
  5
151
330
18
100
AcDbEntity
  8
0
100
AcDbMText
 10
211.0093169999999
 20
22.07934499999999
 30
0.0
 40
2.0
 41
9.0
 71
     1
 72
     5
  1
訂  正
 73
     1
 44
1.0
  0
MTEXT
  5
153
330
18
100
AcDbEntity
  8
0
100
AcDbMText
 10
231.040138
 20
8.670109
 30
0.0
 40
2.0
 41
13.0
 71
     1
 72
     5
  1
1000～
 73
     1
 44
1.0
  0
LINE
  5
154
330
18
100
AcDbEntity
  8
0
100
AcDbLine
 10
200.080025
 20
36.233538
 30
0.0
 11
230.107604
 21
36.233538
 31
0.0
  0
MTEXT
  5
155
330
18
100
AcDbEntity
  8
0
100
AcDbMText
 10
211.270427
 20
35.67482
 30
0.0
 40
2.0
 41
9.0
 71
     1
 72
     5
  1
仕  上
 73
     1
 44
1.0
  0
MTEXT
  5
157
330
18
100
AcDbEntity
  8
0
100
AcDbMText
 10
231.9726709999999
 20
13.51233299999999
 30
0.0
 40
2.0
 41
8.952322
 71
     1
 72
     5
  1
315～
 73
     1
 44
1.0
  0
MTEXT
  5
159
330
18
100
AcDbEntity
  8
0
100
AcDbMText
 10
231.9726709999999
 20
18.138131
 30
0.0
 40
2.0
 41
7.0
 71
     1
 72
     5
  1
120～
 73
     1
 44
1.0
  0
MTEXT
  5
15A
330
18
100
AcDbEntity
  8
0
100
AcDbMText
 10
233.4647249999999
 20
22.601435
 30
0.0
 40
2.0
 41
6.0
 71
     1
 72
     5
  1
30～
 73
     1
 44
1.0
  0
MTEXT
  5
15B
330
18
100
AcDbEntity
  8
0
100
AcDbMText
 10
234.5837649999999
 20
26.878769
 30
0.0
 40
2.0
 41
5.035680999999999
 71
     1
 72
     5
  1
６～
 73
     1
 44
1.0
  0
MTEXT
  5
15C
330
18
100
AcDbEntity
  8
0
100
AcDbMText
 10
235.143284
 20
31.342074
 30
0.0
 40
2.0
 41
5.0
 71
     1
 72
     5
  1
0～
 73
     1
 44
1.0
  0
MTEXT
  5
15E
330
18
100
AcDbEntity
  8
0
100
AcDbMText
 10
244.46862
 20
22.043522
 30
0.0
 40
2.0
 41
5.0
 71
     1
 72
     5
  1
･15
 73
     1
 44
1.0
  0
MTEXT
  5
15F
330
18
100
AcDbEntity
  8
0
100
AcDbMText
 10
244.6551279999999
 20
26.878769
 30
0.0
 40
2.0
 41
4.0
 71
     1
 72
     5
  1
･1
 73
     1
 44
1.0
  0
MTEXT
  5
160
330
18
100
AcDbEntity
  8
0
100
AcDbMText
 10
244.46862
 20
17.766188
 30
0.0
 40
2.0
 41
4.0
 71
     1
 72
     5
  1
･2
 73
     1
 44
1.0
  0
MTEXT
  5
161
330
18
100
AcDbEntity
  8
0
100
AcDbMText
 10
244.2821139999999
 20
13.302883
 30
0.0
 40
2.0
 41
4.0
 71
     1
 72
     5
  1
･3
 73
     1
 44
1.0
  0
MTEXT
  5
163
330
18
100
AcDbEntity
  8
0
100
AcDbMText
 10
244.2821139999999
 20
8.839577
 30
0.0
 40
2.0
 41
5.0
 71
     1
 72
     5
  1
･5
 73
     1
 44
1.0
  0
MTEXT
  5
164
330
18
100
AcDbEntity
  8
0
100
AcDbMText
 10
241.111499
 20
31.528045
 30
0.0
 40
2.0
 41
9.0
 71
     1
 72
     5
  1
±0.05
 73
     1
 44
1.0
  0
MTEXT
  5
165
330
18
100
AcDbEntity
  8
0
100
AcDbMText
 10
231.9726709999999
 20
37.29314799999999
 30
0.0
 40
2.0
 41
17.0
 71
     1
 72
     5
  1
寸法差 精(12)
 73
     1
 44
1.0
  0
MTEXT
  5
166
330
18
100
AcDbEntity
  8
0
100
AcDbMText
 10
256.40505
 20
37.851061
 30
0.0
 40
3.0
 41
11.0
 71
     1
 72
     5
  1
尺度
 73
     1
 44
1.0
  0
MTEXT
  5
167
330
18
100
AcDbEntity
  8
0
100
AcDbMText
 10
276.3799169999999
 20
37.66509
 30
0.0
 40
3.0
 41
10.0
 71
     1
 72
     5
  1
材質
 73
     1
 44
1.0
  0
MTEXT
  5
168
330
18
100
AcDbEntity
  8
0
100
AcDbMText
 10
256.2371939999999
 20
20.74172399999999
 30
0.0
 40
3.0
 41
9.0
 71
     1
 72
     5
  1
処理
 73
     1
 44
1.0
  0
MTEXT
  5
169
330
18
100
AcDbEntity
  8
0
100
AcDbMText
 10
276.3799169999999
 20
20.555753
 30
0.0
 40
3.0
 41
10.0
 71
     1
 72
     5
  1
個数
 73
     1
 44
1.0
  0
MTEXT
  5
16B
330
18
100
AcDbEntity
  8
0
100
AcDbMText
 10
290.6290279999999
 20
35.619409
 30
0.0
 40
3.0
 41
4.0
 71
     1
 72
     5
  1
品名
 73
     1
 44
1.0
  0
MTEXT
  5
16C
330
18
100
AcDbEntity
  8
0
100
AcDbMText
 10
350.9160959999999
 20
35.061495
 30
0.0
 40
3.0
 41
4.0
 71
     1
 72
     5
  1
機名
 73
     1
 44
1.0
  0
MTEXT
  5
16D
330
18
100
AcDbEntity
  8
0
100
AcDbMText
 10
350.9160959999999
 20
18.13813
 30
0.0
 40
3.0
 41
3.0
 71
     1
 72
     5
  1
図番
 73
     1
 44
1.0
  0
LINE
  5
1E7
330
18
100
AcDbEntity
  8
0
100
AcDbLine
 10
100.067655
 20
40.158364
 30
0.0
 11
100.067655
 21
5.593396
 31
0.0
  0
LINE
  5
1E8
330
18
100
AcDbEntity
  8
0
100
AcDbLine
 10
169.8661729999999
 20
32.684857
 30
0.0
 11
100.067655
 21
32.684857
 31
0.0
  0
LINE
  5
1E9
330
18
100
AcDbEntity
  8
0
100
AcDbLine
 10
169.8661729999999
 20
23.65437
 30
0.0
 11
100.067655
 21
23.65437
 31
0.0
  0
LINE
  5
1EA
330
18
100
AcDbEntity
  8
0
100
AcDbLine
 10
169.8661729999999
 20
14.93527999999999
 30
0.0
 11
100.067655
 21
14.93527999999999
 31
0.0
  0
LINE
  5
1EB
330
18
100
AcDbEntity
  8
0
100
AcDbLine
 10
120.0100889999999
 20
40.158364
 30
0.0
 11
120.0100889999999
 21
5.593396
 31
0.0
  0
MTEXT
  5
1ED
330
18
100
AcDbEntity
  8
0
100
AcDbMText
 10
103.4952609999999
 20
20.54040899999999
 30
0.0
 40
3.0
 41
17.0
 71
     1
 72
     5
  1
外形寸法
 73
     1
 44
1.0
  0
MTEXT
  5
1EE
330
18
100
AcDbEntity
  8
0
100
AcDbMText
 10
103.4952609999999
 20
29.570896
 30
0.0
 40
3.0
 41
18.0
 71
     1
 72
     5
  1
消費電力
 73
     1
 44
1.0
  0
MTEXT
  5
1F0
330
18
100
AcDbEntity
  8
0
100
AcDbMText
 10
103.18366
 20
12.132715
 30
0.0
 40
3.0
 41
15.0
 71
     1
 72
     5
  1
質    量
 73
     1
 44
1.0
  0
MTEXT
  5
1F1
330
18
100
AcDbEntity
  8
0
100
AcDbMText
 10
103.4952609999999
 20
37.667195
 30
0.0
 40
3.0
 41
16.0
 71
     1
 72
     5
  1
電    源
 73
     1
 44
1.0
  0
MTEXT
  5
353
330
18
100
AcDbEntity
  8
4
100
AcDbMText
 10
123.754504
 20
38.092087
 30
0.0
 40
3.0
 41
42.785
 71
     1
 72
     5
  1
単層　100V50/60Hz
 73
     1
 44
1.0
  0
MTEXT
  5
357
330
18
100
AcDbEntity
  8
4
100
AcDbMText
 10
174.498112
 20
11.81246699999999
 30
0.0
 40
3.0
 41
7.0
 71
     1
 72
     5
  1
A.S
 73
     1
 44
1.0
  0
MTEXT
  5
35C
330
18
100
AcDbEntity
  8
4
100
AcDbMText
 10
255.759691
 20
29.431757
 30
0.0
 40
3.0
 41
13.0
 71
     1
 72
     5
  1
1/4
 73
     1
 44
1.0
  0
MTEXT
  5
35E
330
18
100
AcDbEntity
  8
4
100
AcDbMText
 10
278.7977669999999
 20
11.513834
 30
0.0
 40
3.0
 41
6.0
 71
     1
 72
     5
  1
1
 73
     1
 44
1.0
  0
MTEXT
  5
494
330
18
100
AcDbEntity
  8
3
  6
Continuous
100
AcDbMText
 10
91.122002
 20
110.8754559999999
 30
0.0
 40
3.0
 41
0.0
 71
     4
 72
     1
  1
\A1;
 73
     1
 44
1.0
  0
MTEXT
  5
50B
330
18
100
AcDbEntity
  8
4
100
AcDbMText
 10
76.10342199999999
 20
210.1921277406919
 30
0.0
 40
2.0
 41
16.72893999999999
 71
     1
 72
     5
  1
Towel Pot
 73
     1
 44
1.0
  0
MTEXT
  5
50D
330
18
100
AcDbEntity
  8
4
100
AcDbMText
 10
167.651545
 20
208.5914887406919
 30
0.0
 40
2.0
 41
11.487665
 71
     1
 72
     5
  1
NISSEI
 73
     1
 44
1.0
  0
LWPOLYLINE
  5
50E
330
18
100
AcDbEntity
  8
1
100
AcDbPolyline
 90
        4
 70
     1
 43
0.0
 10
155.7052979999999
 20
210.4328147406919
 10
160.042338
 20
210.4328147406919
 10
160.042338
 20
207.422918740692
 10
155.7052979999999
 20
207.422918740692
  0
LWPOLYLINE
  5
50F
330
18
100
AcDbEntity
  8
1
100
AcDbPolyline
 90
        4
 70
     1
 43
0.0
 10
155.102931
 20
211.034793740692
 10
160.644705
 20
211.034793740692
 10
160.644705
 20
206.8209397406919
 10
155.102931
 20
206.8209397406919
  0
CIRCLE
  5
514
330
18
100
AcDbEntity
  8
1
100
AcDbCircle
 10
144.6217509999999
 20
208.988064740692
 30
0.0
 40
1.445680999999999
  0
CIRCLE
  5
515
330
18
100
AcDbEntity
  8
1
100
AcDbCircle
 10
144.6217509999999
 20
208.988064740692
 30
0.0
 40
1.090924
  0
LWPOLYLINE
  5
527
330
18
100
AcDbEntity
  8
2
  6
HIDDEN2
100
AcDbPolyline
 90
        4
 70
     1
 43
0.0
 10
115.5741479999999
 20
157.4373887406919
 10
135.693194
 20
157.4373887406919
 10
135.693194
 20
147.4445337406919
 10
115.5741479999999
 20
147.4445337406919
  0
CIRCLE
  5
528
330
18
100
AcDbEntity
  8
2
  6
HIDDEN2
100
AcDbCircle
 10
121.5559959999999
 20
152.6215547406919
 30
0.0
 40
2.863500999999999
  0
LWPOLYLINE
  5
529
330
18
100
AcDbEntity
  8
2
  6
HIDDEN2
100
AcDbPolyline
 90
        4
 70
     1
 43
0.0
 10
127.109544
 20
155.3729217406919
 10
128.3025
 20
155.3729217406919
 10
128.3025
 20
149.8093707406919
 10
127.109544
 20
149.8093707406919
  0
LWPOLYLINE
  5
52A
330
18
100
AcDbEntity
  8
2
  6
HIDDEN2
100
AcDbPolyline
 90
        4
 70
     1
 43
0.0
 10
130.9535169999999
 20
155.3729217406919
 10
132.1464729999999
 20
155.3729217406919
 10
132.1464729999999
 20
149.8093707406919
 10
130.9535169999999
 20
149.8093707406919
  0
LWPOLYLINE
  5
52B
330
18
100
AcDbEntity
  8
2
  6
HIDDEN2
100
AcDbPolyline
 90
        2
 70
     0
 43
0.0
 10
131.019791
 20
152.657378740692
 10
128.3025
 20
152.657378740692
  0
LWPOLYLINE
  5
52C
330
18
100
AcDbEntity
  8
2
  6
HIDDEN2
100
AcDbPolyline
 90
        2
 70
     0
 43
0.0
 10
128.3025
 20
151.6638877406919
 10
131.019791
 20
151.6638877406919
  0
LWPOLYLINE
  5
52D
330
18
100
AcDbEntity
  8
2
  6
HIDDEN2
100
AcDbPolyline
 90
        4
 70
     1
 43
0.0
 10
128.3025
 20
149.279508740692
 10
130.9535159999999
 20
149.279508740692
 10
130.9535159999999
 20
148.3522497406919
 10
128.3025
 20
148.3522497406919
  0
ARC
  5
52E
330
18
100
AcDbEntity
  8
2
  6
HIDDEN2
100
AcDbCircle
 10
128.532225
 20
149.5310377406919
 30
0.0
 40
0.626342
100
AcDbArc
 50
153.616402
 51
248.483342
  0
ARC
  5
52F
330
18
100
AcDbEntity
  8
2
  6
HIDDEN2
100
AcDbCircle
 10
128.500842
 20
149.6108947406919
 30
0.0
 40
1.078343999999999
100
AcDbArc
 50
169.393902
 51
259.40111
  0
ARC
  5
532
330
18
100
AcDbEntity
  8
2
  6
HIDDEN2
100
AcDbCircle
 10
130.7769419999999
 20
149.5310377406919
 30
0.0
 40
0.626342
100
AcDbArc
 50
291.516658
 51
26.383598
  0
ARC
  5
533
330
18
100
AcDbEntity
  8
2
  6
HIDDEN2
100
AcDbCircle
 10
130.8083239999999
 20
149.6108947406919
 30
0.0
 40
1.078343999999999
100
AcDbArc
 50
280.59889
 51
10.60609799999999
  0
LINE
  5
5B7
330
18
100
AcDbEntity
  8
2
  6
HIDDEN2
100
AcDbLine
 10
316.9530229999999
 20
157.4097447406919
 30
0.0
 11
318.1482609999999
 21
157.4097447406919
 31
0.0
  0
LINE
  5
5B8
330
18
100
AcDbEntity
  8
2
  6
HIDDEN2
100
AcDbLine
 10
318.1482609999999
 20
157.4097447406919
 30
0.0
 11
318.1482609999999
 21
147.4196407406919
 31
0.0
  0
LINE
  5
5B9
330
18
100
AcDbEntity
  8
2
  6
HIDDEN2
100
AcDbLine
 10
318.1482609999999
 20
147.4196407406919
 30
0.0
 11
317.0616799999999
 21
147.4196407406919
 31
0.0
  0
LWPOLYLINE
  5
5BA
330
18
100
AcDbEntity
  8
2
  6
HIDDEN2
100
AcDbPolyline
 90
        4
 70
     1
 43
0.0
 10
318.1482609999999
 20
154.0435137406919
 10
319.452156
 20
154.0435137406919
 10
319.452156
 20
150.677283740692
 10
318.1482609999999
 20
150.677283740692
  0
LINE
  5
5BB
330
18
100
AcDbEntity
  8
2
  6
HIDDEN2
100
AcDbLine
 10
316.9530229999999
 20
157.4097447406919
 30
0.0
 11
321.516657
 21
157.4097447406919
 31
0.0
  0
LINE
  5
5BC
330
18
100
AcDbEntity
  8
2
  6
HIDDEN2
100
AcDbLine
 10
321.516657
 20
157.4097447406919
 30
0.0
 11
321.516657
 21
145.4650557406919
 31
0.0
  0
LINE
  5
5BE
330
18
100
AcDbEntity
  8
2
  6
HIDDEN2
100
AcDbLine
 10
319.452156
 20
155.7809237406919
 30
0.0
 11
319.452156
 21
148.8312867406919
 31
0.0
  0
CIRCLE
  5
5BF
330
18
100
AcDbEntity
  8
2
  6
HIDDEN2
100
AcDbCircle
 10
320.212762
 20
146.8767007406919
 30
0.0
 40
0.7606060000000001
  0
LWPOLYLINE
  5
5E1
330
18
100
AcDbEntity
  8
1
100
AcDbPolyline
 90
        6
 70
     0
 43
0.0
 10
334.980502
 20
87.21988574069198
 10
334.94032
 20
87.21988574069198
 10
334.94032
 20
82.98494974069198
 10
335.4836099999999
 20
82.98494974069198
 10
335.4836099999999
 20
87.21988574069198
 10
335.4829399999999
 20
87.21988574069198
  0
CIRCLE
  5
5F5
330
18
100
AcDbEntity
  8
2
  6
HIDDEN2
100
AcDbCircle
 10
264.331819
 20
196.1044147406919
 30
0.0
 40
0.459346
  0
CIRCLE
  5
5F6
330
18
100
AcDbEntity
  8
2
  6
HIDDEN2
100
AcDbCircle
 10
272.101788
 20
196.1044147406919
 30
0.0
 40
0.459346
  0
CIRCLE
  5
5F7
330
18
100
AcDbEntity
  8
2
  6
HIDDEN2
100
AcDbCircle
 10
279.720722
 20
196.1044147406919
 30
0.0
 40
0.459346
  0
CIRCLE
  5
5F8
330
18
100
AcDbEntity
  8
2
  6
HIDDEN2
100
AcDbCircle
 10
287.641264
 20
196.1044147406919
 30
0.0
 40
0.459346
  0
CIRCLE
  5
5F9
330
18
100
AcDbEntity
  8
2
  6
HIDDEN2
100
AcDbCircle
 10
296.239614
 20
196.1044147406919
 30
0.0
 40
0.459346
  0
CIRCLE
  5
5FA
330
18
100
AcDbEntity
  8
2
  6
HIDDEN2
100
AcDbCircle
 10
305.2141629999999
 20
196.1044147406919
 30
0.0
 40
0.459346
  0
CIRCLE
  5
5FB
330
18
100
AcDbEntity
  8
2
  6
HIDDEN2
100
AcDbCircle
 10
313.4353899999999
 20
196.1044147406919
 30
0.0
 40
0.459346
  0
MTEXT
  5
79E
330
18
100
AcDbEntity
  8
4
100
AcDbMText
 10
173.9324469999999
 20
29.84068699999999
 30
0.0
 40
3.0
 41
8.0
 71
     1
 72
     5
  1
G.Y
 73
     1
 44
1.0
  0
MTEXT
  5
79F
330
18
100
AcDbEntity
  8
4
100
AcDbMText
 10
189.466532
 20
29.84068699999999
 30
0.0
 40
3.0
 41
8.0
 71
     1
 72
     5
  1
G.Y
 73
     1
 44
1.0
  0
MTEXT
  5
7A1
330
18
100
AcDbEntity
  8
4
100
AcDbMText
 10
305.824668
 20
17.552219
 30
0.0
 40
5.0
 41
31.298514
 71
     1
 72
     5
  1
承認図-01
 73
     1
 44
1.0
  0
MTEXT
  5
7A3
330
18
100
AcDbEntity
  8
4
100
AcDbMText
 10
369.161033
 20
34.51030499999999
 30
0.0
 40
5.0
 41
35.24163499999999
 71
     1
 72
     5
  1
タオルポット
 73
     1
 44
1.0
  0
LWPOLYLINE
  5
821
330
18
100
AcDbEntity
  8
1
100
AcDbPolyline
 90
        4
 70
     1
 43
0.0
 10
76.491523
 20
147.791957740692
 10
76.491523
 20
188.0366877406919
 10
81.387976
 20
188.0366877406919
 10
81.387976
 20
147.791957740692
  0
LINE
  5
822
330
18
100
AcDbEntity
  8
1
100
AcDbLine
 10
77.715636
 20
157.8020687406919
 30
0.0
 11
80.367882
 21
157.8020687406919
 31
0.0
  0
LINE
  5
823
330
18
100
AcDbEntity
  8
1
100
AcDbLine
 10
77.919655
 20
177.6180017406919
 30
0.0
 11
80.57190099999999
 21
177.6180017406919
 31
0.0
  0
LINE
  5
87C
330
18
100
AcDbEntity
  8
1
100
AcDbLine
 10
259.56698
 20
213.1777047406919
 30
0.0
 11
249.720162
 21
212.4752867406919
 31
0.0
  0
LINE
  5
87D
330
18
100
AcDbEntity
  8
1
100
AcDbLine
 10
249.720162
 20
212.4752867406919
 30
0.0
 11
249.720162
 21
205.4511087406919
 31
0.0
  0
LINE
  5
87E
330
18
100
AcDbEntity
  8
1
100
AcDbLine
 10
249.720162
 20
205.4511087406919
 30
0.0
 11
259.56698
 21
204.5145517406919
 31
0.0
  0
LWPOLYLINE
  5
87F
330
18
100
AcDbEntity
  8
1
100
AcDbPolyline
 90
        4
 70
     1
 43
0.0
 10
249.720162
 20
210.602172740692
 10
248.78237
 20
210.602172740692
 10
248.78237
 20
207.0900837406919
 10
249.720162
 20
207.0900837406919
  0
LINE
  5
8A0
330
18
100
AcDbEntity
  8
1
100
AcDbLine
 10
249.887585
 20
93.56313174069198
 30
0.0
 11
266.893787
 21
93.56313174069198
 31
0.0
  0
LINE
  5
8A2
330
18
100
AcDbEntity
  8
1
100
AcDbLine
 10
249.887585
 20
90.10780574069197
 30
0.0
 11
266.893787
 21
90.10780574069197
 31
0.0
  0
ARC
  5
8A4
330
18
100
AcDbEntity
  8
1
100
AcDbCircle
 10
266.893787
 20
91.83546874069199
 30
0.0
 40
1.727663
100
AcDbArc
 50
270.0
 51
90.0
  0
CIRCLE
  5
8A8
330
18
100
AcDbEntity
  8
1
100
AcDbCircle
 10
261.9781249999999
 20
91.85618974069198
 30
0.0
 40
1.106117999999999
  0
LINE
  5
8AB
330
18
100
AcDbEntity
  8
1
100
AcDbLine
 10
261.1268979999999
 20
91.85618974069198
 30
0.0
 11
262.779279
 21
91.85618974069198
 31
0.0
  0
LINE
  5
8AC
330
18
100
AcDbEntity
  8
1
100
AcDbLine
 10
261.9781249999999
 20
92.80630674069199
 30
0.0
 11
261.9781249999999
 21
91.00608374069198
 31
0.0
  0
LINE
  5
8AD
330
18
100
AcDbEntity
  8
1
100
AcDbLine
 10
265.7754049999999
 20
91.85618974069198
 30
0.0
 11
267.4277859999999
 21
91.85618974069198
 31
0.0
  0
CIRCLE
  5
8AE
330
18
100
AcDbEntity
  8
1
100
AcDbCircle
 10
266.6266319999999
 20
91.85618974069198
 30
0.0
 40
1.106117999999999
  0
LINE
  5
8AF
330
18
100
AcDbEntity
  8
1
100
AcDbLine
 10
266.6266319999999
 20
92.80630674069199
 30
0.0
 11
266.6266319999999
 21
91.00608374069198
 31
0.0
  0
LINE
  5
8B4
330
18
100
AcDbEntity
  8
1
100
AcDbLine
 10
249.933569
 20
90.10780574069197
 30
0.0
 11
249.933569
 21
85.97385674069197
 31
0.0
  0
LINE
  5
8B5
330
18
100
AcDbEntity
  8
1
100
AcDbLine
 10
259.814366
 20
83.781015740692
 30
0.0
 11
252.229108
 21
83.781015740692
 31
0.0
  0
ARC
  5
8B6
330
18
100
AcDbEntity
  8
1
100
AcDbCircle
 10
252.3273359999999
 20
86.17504674069198
 30
0.0
 40
2.402208
100
AcDbArc
 50
184.804284
 51
265.271252
  0
LINE
  5
8B7
330
18
100
AcDbEntity
  8
1
100
AcDbLine
 10
73.909705
 20
77.97885974069197
 30
0.0
 11
79.942373
 21
77.97885974069197
 31
0.0
  0
LINE
  5
8B8
330
18
100
AcDbEntity
  8
1
100
AcDbLine
 10
73.15562199999999
 20
82.30912874069199
 30
0.0
 11
73.909705
 21
77.97885974069197
 31
0.0
  0
LINE
  5
8B9
330
18
100
AcDbEntity
  8
1
100
AcDbLine
 10
79.942373
 20
77.97885974069197
 30
0.0
 11
80.88497700000001
 21
82.30912874069199
 31
0.0
  0
MTEXT
  5
B45
330
18
100
AcDbEntity
  8
4
100
AcDbMText
 10
258.826197
 20
145.372352
 30
0.0
 40
3.0
 41
0.0
 71
     6
 72
     1
  1
\A1;
 73
     1
 44
1.0
  0
ARC
  5
C06
330
18
100
AcDbEntity
  8
1
100
AcDbCircle
 10
184.054751
 20
91.81176274069198
 30
0.0
 40
1.341517
100
AcDbArc
 50
271.173414
 51
88.82658599999999
  0
LWPOLYLINE
  5
C07
330
18
100
AcDbEntity
  8
1
100
AcDbPolyline
 90
        4
 70
     1
 43
0.0
 10
183.1574699999999
 20
90.01649474069198
 10
184.100074
 20
90.01649474069198
 10
184.100074
 20
93.59367374069199
 10
183.1574699999999
 20
93.59367374069199
  0
ARC
  5
C8A
330
18
100
AcDbEntity
  8
1
100
AcDbCircle
 10
335.0266759999999
 20
209.9160017406919
 30
0.0
 40
1.529520999999999
100
AcDbArc
 50
295.3399019999999
 51
64.66009800000001
  0
MTEXT
  5
C8D
330
18
100
AcDbEntity
  8
4
100
AcDbMText
 10
23.588951
 20
288.2377859999999
 30
0.0
 40
4.0
 41
40.0
 71
     1
 72
     5
  1
材質又は定格
 73
     1
 44
1.0
  0
LINE
  5
C8E
330
18
100
AcDbEntity
  8
4
100
AcDbLine
 10
22.670333
 20
283.039138
 30
0.0
 11
53.29094699999999
 21
283.039138
 31
0.0
  0
MTEXT
  5
C8F
330
18
100
AcDbEntity
  8
4
100
AcDbMText
 10
23.895157
 20
279.9811099999999
 30
0.0
 40
3.0
 41
23.0
 71
     1
 72
     5
  1
本体
 73
     1
 44
1.0
  0
MTEXT
  5
C90
330
18
100
AcDbEntity
  8
4
100
AcDbMText
 10
23.895157
 20
274.782462
 30
0.0
 40
3.0
 41
15.0
 71
     1
 72
     5
  1
中箱
 73
     1
 44
1.0
  0
MTEXT
  5
C91
330
18
100
AcDbEntity
  8
4
100
AcDbMText
 10
23.588951
 20
269.5030667422344
 30
0.0
 40
3.0
 41
35.51789072854587
 71
     1
 72
     5
  1
マグネットパッキン
 73
     1
 44
1.0
  0
MTEXT
  5
C92
330
18
100
AcDbEntity
  8
4
100
AcDbMText
 10
23.86178128274632
 20
264.4487262267039
 30
0.0
 40
3.0
 41
34.26448798434564
 71
     1
 72
     5
  1
エアタイトパッキン
 73
     1
 44
1.0
  0
MTEXT
  5
C93
330
18
100
AcDbEntity
  8
4
100
AcDbMText
 10
23.74376631175723
 20
259.4157407872315
 30
0.0
 40
3.0
 41
17.0
 71
     1
 72
     5
  1
取手
 73
     1
 44
1.0
  0
MTEXT
  5
C94
330
18
100
AcDbEntity
  8
4
100
AcDbMText
 10
23.66816727284654
 20
253.9961864169316
 30
0.0
 40
3.0
 41
31.12441404714556
 71
     1
 72
     5
  1
スイッチパネル
 73
     1
 44
1.0
  0
MTEXT
  5
C95
330
18
100
AcDbEntity
  8
4
100
AcDbMText
 10
23.81767566937392
 20
248.9293520891734
 30
0.0
 40
3.0
 41
16.0
 71
     1
 72
     5
  1
水受皿
 73
     1
 44
1.0
  0
MTEXT
  5
C96
330
18
100
AcDbEntity
  8
4
100
AcDbMText
 10
23.95830879567588
 20
243.7509491871146
 30
0.0
 40
3.0
 41
19.0
 71
     1
 72
     5
  1
発熱体
 73
     1
 44
1.0
  0
MTEXT
  5
C97
330
18
100
AcDbEntity
  8
4
100
AcDbMText
 10
123.9796313324207
 20
279.9960490154065
 30
0.0
 40
3.0
 41
21.0
 71
     1
 72
     5
  1
電源スイッチ
 73
     1
 44
1.0
  0
MTEXT
  5
C98
330
18
100
AcDbEntity
  8
4
100
AcDbMText
 10
123.9706303861602
 20
274.9560008309446
 30
0.0
 40
3.0
 41
21.0
 71
     1
 72
     5
  1
アース線
 73
     1
 44
1.0
  0
MTEXT
  5
C99
330
18
100
AcDbEntity
  8
4
100
AcDbMText
 10
123.9796313324207
 20
269.6033035668199
 30
0.0
 40
3.0
 41
27.0
 71
     1
 72
     5
  1
電源コード
 73
     1
 44
1.0
  0
MTEXT
  5
C9A
330
18
100
AcDbEntity
  8
4
100
AcDbMText
 10
123.9409106907362
 20
264.4319644874203
 30
0.0
 40
3.0
 41
32.98811633801908
 71
     1
 72
     5
  1
固定サーモスタット
 73
     1
 44
1.0
  0
MTEXT
  5
C9B
330
18
100
AcDbEntity
  8
4
100
AcDbMText
 10
123.8904710628993
 20
259.2514965909086
 30
0.0
 40
3.0
 41
25.0
 71
     1
 72
     5
  1
温度ヒューズ
 73
     1
 44
1.0
  0
MTEXT
  5
C9C
330
18
100
AcDbEntity
  8
4
100
AcDbMText
 10
61.39876554941931
 20
280.046093
 30
0.0
 40
3.0
 41
17.0
 71
     1
 72
     5
  1
SPC
 73
     1
 44
1.0
  0
MTEXT
  5
C9E
330
18
100
AcDbEntity
  8
4
100
AcDbMText
 10
61.23944800868436
 20
269.6206774114727
 30
0.0
 40
3.0
 41
11.0
 71
     1
 72
     5
  1
EPT
 73
     1
 44
1.0
  0
MTEXT
  5
C9F
330
18
100
AcDbEntity
  8
4
100
AcDbMText
 10
61.02051100868435
 20
264.4714440105704
 30
0.0
 40
3.0
 41
27.51418584303327
 71
     1
 72
     5
  1
シリコーンゴム
 73
     1
 44
1.0
  0
MTEXT
  5
CA0
330
18
100
AcDbEntity
  8
4
100
AcDbMText
 10
61.45838500868435
 20
259.2654764461009
 30
0.0
 40
3.0
 41
11.0
 71
     1
 72
     5
  1
ABS
 73
     1
 44
1.0
  0
MTEXT
  5
CA1
330
18
100
AcDbEntity
  8
4
100
AcDbMText
 10
61.45838500868435
 20
254.061214036755
 30
0.0
 40
3.0
 41
11.0
 71
     1
 72
     5
  1
ABS
 73
     1
 44
1.0
  0
MTEXT
  5
CA2
330
18
100
AcDbEntity
  8
4
100
AcDbMText
 10
61.41809630803461
 20
248.8992101689368
 30
0.0
 40
3.0
 41
9.0
 71
     1
 72
     5
  1
PP
 73
     1
 44
1.0
  0
MTEXT
  5
CA3
330
18
100
AcDbEntity
  8
4
100
AcDbMText
 10
61.41809630803461
 20
243.669485063782
 30
0.0
 40
3.0
 41
27.0
 71
     1
 72
     5
  1
Cu-Ni合金
 73
     1
 44
1.0
  0
MTEXT
  5
CA4
330
18
100
AcDbEntity
  8
4
100
AcDbMText
 10
159.5926980941665
 20
280.0223802983902
 30
0.0
 40
3.0
 41
23.0
 71
     1
 72
     5
  1
AC125V-6A
 73
     1
 44
1.0
  0
MTEXT
  5
CA5
330
18
100
AcDbEntity
  8
4
100
AcDbMText
 10
159.6749919316068
 20
274.8286654332325
 30
0.0
 40
3.0
 41
29.0
 71
     1
 72
     5
  1
1.25mm　2M
 73
     1
 44
1.0
  0
MTEXT
  5
CA6
330
18
100
AcDbEntity
  8
4
100
AcDbMText
 10
173.4404248323046
 20
276.0622637364562
 30
0.0
 40
2.0
 41
2.0
 71
     1
 72
     5
  1
2
 73
     1
 44
1.0
  0
MTEXT
  5
CA8
330
18
100
AcDbEntity
  8
4
100
AcDbMText
 10
159.5926980941665
 20
269.6622852721304
 30
0.0
 40
3.0
 41
9.0
 71
     1
 72
     5
  1
2M
 73
     1
 44
1.0
  0
MTEXT
  5
CA9
330
18
100
AcDbEntity
  8
4
100
AcDbMText
 10
159.5104032567261
 20
264.4637201255489
 30
0.0
 40
3.0
 41
25.0
 71
     1
 72
     5
  1
80\U+2103　OFF
 73
     1
 44
1.0
  0
MTEXT
  5
CAF
330
18
100
AcDbEntity
  8
4
100
AcDbMText
 10
159.5926980941665
 20
259.2818232023463
 30
0.0
 40
3.0
 41
24.31504537146526
 71
     1
 72
     5
  1
113\U+2103　15A
 73
     1
 44
1.0
  0
MTEXT
  5
CB2
330
18
100
AcDbEntity
  8
4
 62
     2
100
AcDbMText
 10
191.0551767722186
 20
259.3484684760391
 30
0.0
 40
3.0
 41
10.0
 71
     1
 72
     5
  1
10A
 73
     1
 44
1.0
  0
MTEXT
  5
EF6
330
18
100
AcDbEntity
  8
4
100
AcDbMText
 10
217.0196247135373
 20
287.6836819999999
 30
0.0
 40
4.0
 41
21.0
 71
     1
 72
     5
  1
仕様
 73
     1
 44
1.0
  0
LINE
  5
EF7
330
18
100
AcDbEntity
  8
4
100
AcDbLine
 10
216.5053847135373
 20
283.039138
 30
0.0
 11
227.0472947135373
 21
283.039138
 31
0.0
  0
MTEXT
  5
EF8
330
18
100
AcDbEntity
  8
4
100
AcDbMText
 10
217.0196247135373
 20
279.98025
 30
0.0
 40
3.0
 41
29.0
 71
     1
 72
     5
  1
温度調節
 73
     1
 44
1.0
  0
MTEXT
  5
EF9
330
18
100
AcDbEntity
  8
4
100
AcDbMText
 10
216.7625047135373
 20
274.8540651772499
 30
0.0
 40
3.0
 41
18.0
 71
     1
 72
     5
  1
庫内温度
 73
     1
 44
1.0
  0
MTEXT
  5
EFA
330
18
100
AcDbEntity
  8
4
100
AcDbMText
 10
217.0196247135373
 20
269.618847232722
 30
0.0
 40
3.0
 41
15.0
 71
     1
 72
     5
  1
安全装置
 73
     1
 44
1.0
  0
MTEXT
  5
EFB
330
18
100
AcDbEntity
  8
4
100
AcDbMText
 10
217.0196247135373
 20
264.4605381747242
 30
0.0
 40
3.0
 41
16.0
 71
     1
 72
     5
  1
内容積
 73
     1
 44
1.0
  0
MTEXT
  5
EFC
330
18
100
AcDbEntity
  8
4
100
AcDbMText
 10
217.0196247135373
 20
259.3203100765074
 30
0.0
 40
3.0
 41
18.0
 71
     1
 72
     5
  1
中箱寸法
 73
     1
 44
1.0
  0
MTEXT
  5
EFD
330
18
100
AcDbEntity
  8
4
100
AcDbMText
 10
237.419730408506
 20
279.98025
 30
0.0
 40
3.0
 41
37.0
 71
     1
 72
     5
  1
固定サーモスタット
 73
     1
 44
1.0
  0
MTEXT
  5
EFE
330
18
100
AcDbEntity
  8
4
100
AcDbMText
 10
237.8239475935666
 20
274.8740972269903
 30
0.0
 40
3.0
 41
28.1438088022106
 71
     1
 72
     5
  1
65\U+2103～75\U+2103
 73
     1
 44
1.0
  0
MTEXT
  5
F05
330
18
100
AcDbEntity
  8
4
100
AcDbMText
 10
237.7228927619287
 20
269.683750972668
 30
0.0
 40
3.0
 41
37.75321919182792
 71
     1
 72
     5
  1
113\U+2103　温度ヒューズ
 73
     1
 44
1.0
  0
MTEXT
  5
F0D
330
18
100
AcDbEntity
  8
4
100
AcDbMText
 10
61.4061965494193
 20
274.7996856658756
 30
0.0
 40
3.0
 41
12.0
 71
     1
 72
     5
  1
ALP
 73
     1
 44
1.0
  0
LWPOLYLINE
  5
F56
330
18
100
AcDbEntity
  8
1
100
AcDbPolyline
 90
        2
 70
     0
 43
0.0
 10
183.168457
 20
212.679696740692
 10
183.168457
 20
82.90599974069198
  0
LINE
  5
F62
330
18
100
AcDbEntity
  8
1
100
AcDbLine
 10
183.1472929999999
 20
204.6626737406919
 30
0.0
 11
70.040063
 21
204.6626737406919
 31
0.0
  0
LINE
  5
F63
330
18
100
AcDbEntity
  8
1
100
AcDbLine
 10
183.1472929999999
 20
92.53526774069198
 30
0.0
 11
70.040063
 21
92.53526774069198
 31
0.0
  0
MTEXT
  5
F64
330
18
100
AcDbEntity
  8
4
100
AcDbMText
 10
95.035365
 20
209.2677827406919
 30
0.0
 40
1.0
 41
5.725181
 71
     1
 72
     5
  1
TP-150
 73
     1
 44
1.0
  0
ARC
  5
F68
330
18
100
AcDbEntity
  8
1
100
AcDbCircle
 10
182.2943079999999
 20
212.4472637406919
 30
0.0
 40
0.8822739999999999
100
AcDbArc
 50
351.433229
 51
87.181741
  0
ARC
  5
F6B
330
18
100
AcDbEntity
  8
1
100
AcDbCircle
 10
70.721176
 20
212.5498387406919
 30
0.0
 40
0.80243
100
AcDbArc
 50
87.46558900000001
 51
188.523276
  0
LWPOLYLINE
  5
F6E
330
18
100
AcDbEntity
  8
1
100
AcDbPolyline
 90
        2
 70
     0
 43
0.0
 10
70.7106
 20
213.3526087406919
 10
182.291629
 20
213.3526087406919
  0
ARC
  5
F6F
330
18
100
AcDbEntity
  8
1
100
AcDbCircle
 10
70.79417099999999
 20
83.21929274069196
 30
0.0
 40
0.8673579999999999
100
AcDbArc
 50
182.452836
 51
273.6094049999999
  0
LWPOLYLINE
  5
F72
330
18
100
AcDbEntity
  8
1
100
AcDbPolyline
 90
        2
 70
     0
 43
0.0
 10
69.927214
 20
83.13614374069198
 10
69.927214
 20
212.7070817406919
  0
ARC
  5
F73
330
18
100
AcDbEntity
  8
1
100
AcDbCircle
 10
182.3094189999999
 20
83.22119974069199
 30
0.0
 40
0.8720110000000001
100
AcDbArc
 50
275.8014929999999
 51
357.434843
  0
LWPOLYLINE
  5
F76
330
18
100
AcDbEntity
  8
1
100
AcDbPolyline
 90
        2
 70
     0
 43
0.0
 10
182.466979
 20
82.33883274069198
 10
70.61848399999999
 20
82.33883274069198
  0
LINE
  5
F77
330
18
100
AcDbEntity
  8
1
100
AcDbLine
 10
70.63748699999999
 20
203.2451527406919
 30
0.0
 11
182.4783629999999
 21
203.2451527406919
 31
0.0
  0
LINE
  5
F78
330
18
100
AcDbEntity
  8
1
100
AcDbLine
 10
70.599935
 20
93.95616574069199
 30
0.0
 11
182.3835889999999
 21
93.95616574069199
 31
0.0
  0
ARC
  5
F79
330
18
100
AcDbEntity
  8
1
100
AcDbCircle
 10
70.85559899999999
 20
202.3277257406919
 30
0.0
 40
0.9154950000000001
100
AcDbArc
 50
90.221262
 51
179.741849
  0
ARC
  5
F7B
330
18
100
AcDbEntity
  8
1
100
AcDbCircle
 10
182.267539
 20
202.3187887406919
 30
0.0
 40
0.9255139999999999
100
AcDbArc
 50
354.160885
 51
92.779643
  0
ARC
  5
F7D
330
18
100
AcDbEntity
  8
1
100
AcDbCircle
 10
182.1693919999999
 20
94.97890974069198
 30
0.0
 40
1.024521
100
AcDbArc
 50
275.989662
 51
353.97343
  0
ARC
  5
F7F
330
18
100
AcDbEntity
  8
1
100
AcDbCircle
 10
70.77938499999999
 20
94.78261774069197
 30
0.0
 40
0.8233859999999999
100
AcDbArc
 50
181.286889
 51
272.445153
  0
LINE
  5
F81
330
18
100
AcDbEntity
  8
1
100
AcDbLine
 10
80.97267
 20
83.61915474069197
 30
0.0
 11
73.387411
 21
83.61915474069197
 31
0.0
  0
LINE
  5
F82
330
18
100
AcDbEntity
  8
1
100
AcDbLine
 10
80.97267
 20
91.49344574069198
 30
0.0
 11
71.091872
 21
91.49344574069198
 31
0.0
  0
LINE
  5
F83
330
18
100
AcDbEntity
  8
1
100
AcDbLine
 10
71.091872
 20
91.49344574069198
 30
0.0
 11
71.091872
 21
85.81199474069197
 31
0.0
  0
ARC
  5
F84
330
18
100
AcDbEntity
  8
1
100
AcDbCircle
 10
73.48564
 20
86.01318574069198
 30
0.0
 40
2.402208
100
AcDbArc
 50
184.804284
 51
265.271252
  0
ARC
  5
F8B
330
18
100
AcDbEntity
  8
1
100
AcDbCircle
 10
179.371444
 20
85.97547374069199
 30
0.0
 40
2.402208
100
AcDbArc
 50
274.728748
 51
355.195716
  0
LINE
  5
F8C
330
18
100
AcDbEntity
  8
1
100
AcDbLine
 10
171.8844139999999
 20
83.48851174069199
 30
0.0
 11
179.469673
 21
83.48851174069199
 31
0.0
  0
LINE
  5
F8D
330
18
100
AcDbEntity
  8
1
100
AcDbLine
 10
171.8844139999999
 20
91.45573474069198
 30
0.0
 11
181.765212
 21
91.45573474069198
 31
0.0
  0
LINE
  5
F8E
330
18
100
AcDbEntity
  8
1
100
AcDbLine
 10
181.765212
 20
91.45573474069198
 30
0.0
 11
181.765212
 21
85.77428274069196
 31
0.0
  0
LINE
  5
F8F
330
18
100
AcDbEntity
  8
1
100
AcDbLine
 10
72.308092
 20
91.47891474069197
 30
0.0
 11
177.14684
 21
91.47891474069197
 31
0.0
  0
LINE
  5
F90
330
18
100
AcDbEntity
  8
1
100
AcDbLine
 10
74.39591899999999
 20
83.59334874069196
 30
0.0
 11
176.401187
 21
83.59334874069196
 31
0.0
  0
LINE
  5
F91
330
18
100
AcDbEntity
  8
1
100
AcDbLine
 10
264.736443
 20
77.90892974069198
 30
0.0
 11
270.769111
 21
77.90892974069198
 31
0.0
  0
LINE
  5
F92
330
18
100
AcDbEntity
  8
1
100
AcDbLine
 10
263.98236
 20
82.23919874069196
 30
0.0
 11
264.736443
 21
77.90892974069198
 31
0.0
  0
LINE
  5
F93
330
18
100
AcDbEntity
  8
1
100
AcDbLine
 10
270.769111
 20
77.90892974069198
 30
0.0
 11
271.7117149999999
 21
82.23919874069196
 31
0.0
  0
LWPOLYLINE
  5
F96
330
18
100
AcDbEntity
  8
2
  6
HIDDEN2
100
AcDbPolyline
 90
        2
 70
     0
 43
0.0
 10
86.732028
 20
195.5939947406919
 10
167.6145469999999
 20
195.5939947406919
  0
ARC
  5
F98
330
18
100
AcDbEntity
  8
2
  6
HIDDEN2
100
AcDbCircle
 10
87.27154699999999
 20
192.0241757406919
 30
0.0
 40
3.610358999999999
100
AcDbArc
 50
81.40564599999999
 51
180.9296559999999
  0
ARC
  5
F9B
330
18
100
AcDbEntity
  8
2
  6
HIDDEN2
100
AcDbCircle
 10
166.649095
 20
192.0104387406919
 30
0.0
 40
3.662841
100
AcDbArc
 50
359.298565
 51
78.05701899999999
  0
LWPOLYLINE
  5
F9E
330
18
100
AcDbEntity
  8
2
  6
HIDDEN2
100
AcDbPolyline
 90
        2
 70
     0
 43
0.0
 10
170.332409
 20
192.5876087406919
 10
170.332409
 20
104.1735687406919
  0
ARC
  5
F9F
330
18
100
AcDbEntity
  8
2
  6
HIDDEN2
100
AcDbCircle
 10
167.1193889999999
 20
104.4008157406919
 30
0.0
 40
3.197954999999999
100
AcDbArc
 50
271.437346
 51
356.583762
  0
LWPOLYLINE
  5
FA2
330
18
100
AcDbEntity
  8
2
  6
HIDDEN2
100
AcDbPolyline
 90
        2
 70
     0
 43
0.0
 10
167.718282
 20
101.2557007406919
 10
86.059368
 20
101.2557007406919
  0
ARC
  5
FA3
330
18
100
AcDbEntity
  8
2
  6
HIDDEN2
100
AcDbCircle
 10
86.64968
 20
104.2181137406919
 30
0.0
 40
3.020655
100
AcDbArc
 50
178.182434
 51
273.7328
  0
LWPOLYLINE
  5
FA6
330
18
100
AcDbEntity
  8
2
  6
HIDDEN2
100
AcDbPolyline
 90
        2
 70
     0
 43
0.0
 10
83.60979699999999
 20
103.7955777406919
 10
83.60979699999999
 20
192.7276717406919
  0
LWPOLYLINE
  5
FAA
330
18
100
AcDbEntity
  8
2
  6
HIDDEN2
100
AcDbPolyline
 90
        6
 70
     0
 43
0.0
 10
168.829505
 20
167.3949247406919
 10
168.829505
 20
171.3369517406919
 10
170.3748449999999
 20
171.3369517406919
 10
170.3748449999999
 20
165.8459437406919
 10
168.829505
 20
165.8459437406919
 10
168.829505
 20
165.849583740692
  0
LWPOLYLINE
  5
FAC
330
18
100
AcDbEntity
  8
2
  6
HIDDEN2
100
AcDbPolyline
 90
        6
 70
     0
 43
0.0
 10
168.829505
 20
167.3949247406919
 10
164.930395
 20
167.3974307406919
 10
164.929401
 20
165.8520907406919
 10
170.420409
 20
165.8485617406919
 10
170.421402
 20
167.3939007406919
 10
170.3748449999999
 20
167.393930740692
  0
LWPOLYLINE
  5
FAD
330
18
100
AcDbEntity
  8
2
  6
HIDDEN2
100
AcDbPolyline
 90
        6
 70
     0
 43
0.0
 10
85.16795700000001
 20
167.3949237406919
 10
85.16795700000001
 20
171.3369507406919
 10
83.62261700000001
 20
171.3369507406919
 10
83.62261700000001
 20
165.8459427406919
 10
85.16795700000001
 20
165.8459427406919
 10
85.16795700000001
 20
165.849583740692
  0
LWPOLYLINE
  5
FAE
330
18
100
AcDbEntity
  8
2
  6
HIDDEN2
100
AcDbPolyline
 90
        6
 70
     0
 43
0.0
 10
85.167958
 20
167.3949237406919
 10
89.067068
 20
167.3974297406919
 10
89.068061
 20
165.8520897406919
 10
83.577054
 20
165.848560740692
 10
83.57606
 20
167.3939007406919
 10
83.622618
 20
167.393930740692
  0
LWPOLYLINE
  5
FAF
330
18
100
AcDbEntity
  8
2
  6
HIDDEN2
100
AcDbPolyline
 90
        6
 70
     0
 43
0.0
 10
85.16795700000001
 20
137.4102227406919
 10
85.16795700000001
 20
141.3522497406919
 10
83.62261700000001
 20
141.3522497406919
 10
83.62261700000001
 20
135.8612417406919
 10
85.16795700000001
 20
135.8612417406919
 10
85.16795700000001
 20
135.8648827406919
  0
LWPOLYLINE
  5
FB0
330
18
100
AcDbEntity
  8
2
  6
HIDDEN2
100
AcDbPolyline
 90
        6
 70
     0
 43
0.0
 10
85.167958
 20
137.4102227406919
 10
89.067068
 20
137.4127287406919
 10
89.068061
 20
135.8673887406919
 10
83.577054
 20
135.8638597406919
 10
83.57606
 20
137.4091997406919
 10
83.622618
 20
137.4092297406919
  0
LWPOLYLINE
  5
FB1
330
18
100
AcDbEntity
  8
2
  6
HIDDEN2
100
AcDbPolyline
 90
        6
 70
     0
 43
0.0
 10
168.829505
 20
137.4102237406919
 10
164.930395
 20
137.4127297406919
 10
164.929401
 20
135.8673897406919
 10
170.420409
 20
135.8638607406919
 10
170.421402
 20
137.4091997406919
 10
170.3748449999999
 20
137.4092297406919
  0
LWPOLYLINE
  5
FB2
330
18
100
AcDbEntity
  8
2
  6
HIDDEN2
100
AcDbPolyline
 90
        6
 70
     0
 43
0.0
 10
168.829505
 20
137.4102237406919
 10
168.829505
 20
141.3522507406919
 10
170.3748449999999
 20
141.3522507406919
 10
170.3748449999999
 20
135.8612427406919
 10
168.829505
 20
135.8612427406919
 10
168.829505
 20
135.8648827406919
  0
LWPOLYLINE
  5
FB3
330
18
100
AcDbEntity
  8
2
  6
HIDDEN2
100
AcDbPolyline
 90
        6
 70
     0
 43
0.0
 10
85.167958
 20
107.4255217406919
 10
89.067068
 20
107.428027740692
 10
89.068061
 20
105.8826887406919
 10
83.577054
 20
105.879158740692
 10
83.57606
 20
107.4244987406919
 10
83.622618
 20
107.4245287406919
  0
LWPOLYLINE
  5
FB4
330
18
100
AcDbEntity
  8
2
  6
HIDDEN2
100
AcDbPolyline
 90
        6
 70
     0
 43
0.0
 10
85.16795700000001
 20
107.4255217406919
 10
85.16795700000001
 20
111.3675487406919
 10
83.62261700000001
 20
111.3675487406919
 10
83.62261700000001
 20
105.8765407406919
 10
85.16795700000001
 20
105.8765407406919
 10
85.16795700000001
 20
105.8801817406919
  0
LWPOLYLINE
  5
FB5
330
18
100
AcDbEntity
  8
2
  6
HIDDEN2
100
AcDbPolyline
 90
        6
 70
     0
 43
0.0
 10
168.829505
 20
107.4255227406919
 10
164.930395
 20
107.4280287406919
 10
164.929401
 20
105.8826887406919
 10
170.420409
 20
105.8791597406919
 10
170.421402
 20
107.4244987406919
 10
170.3748449999999
 20
107.4245287406919
  0
LWPOLYLINE
  5
FB6
330
18
100
AcDbEntity
  8
2
  6
HIDDEN2
100
AcDbPolyline
 90
        6
 70
     0
 43
0.0
 10
168.829505
 20
107.4255227406919
 10
168.829505
 20
111.3675497406919
 10
170.3748449999999
 20
111.3675497406919
 10
170.3748449999999
 20
105.8765417406919
 10
168.829505
 20
105.8765417406919
 10
168.829505
 20
105.8801817406919
  0
MTEXT
  5
FB7
330
18
100
AcDbEntity
  8
4
100
AcDbMText
 10
138.1036319999999
 20
29.641301
 30
0.0
 40
3.0
 41
14.0
 71
     1
 72
     5
  1
220W
 73
     1
 44
1.0
  0
MTEXT
  5
FB8
330
18
100
AcDbEntity
  8
4
100
AcDbMText
 10
121.8959904796171
 20
20.19180189544935
 30
0.0
 40
3.0
 41
46.0
 71
     1
 72
     5
  1
450Wx340Dx539H
 73
     1
 44
1.0
  0
MTEXT
  5
FB9
330
18
100
AcDbEntity
  8
4
100
AcDbMText
 10
138.103631
 20
11.808392
 30
0.0
 40
3.0
 41
12.0
 71
     1
 72
     5
  1
15kg
 73
     1
 44
1.0
  0
MTEXT
  5
FBA
330
18
100
AcDbEntity
  8
4
100
AcDbMText
 10
209.3166699999999
 20
26.834269
 30
0.0
 40
2.0
 41
12.0
 71
     1
 72
     5
  1
H12,8,17
 73
     1
 44
1.0
  0
MTEXT
  5
FBB
330
18
100
AcDbEntity
  8
4
100
AcDbMText
 10
308.8329639999999
 20
34.92512599999999
 30
0.0
 40
5.0
 41
30.0
 71
     1
 72
     5
  1
TP-150
 73
     1
 44
1.0
  0
MTEXT
  5
FBD
330
18
100
AcDbEntity
  8
4
100
AcDbMText
 10
366.233487
 20
16.17133424524273
 30
0.0
 40
5.0
 41
40.527746
 71
     1
 72
     5
  1
TP-150-01
 73
     1
 44
1.0
  0
LWPOLYLINE
  5
FC4
330
18
100
AcDbEntity
  8
1
100
AcDbPolyline
 90
        4
 70
     1
 43
0.0
 10
183.157261
 20
92.52134674069198
 10
177.95567
 20
92.52134674069198
 10
177.95567
 20
93.56029474069197
 10
183.157261
 20
93.56029474069197
  0
LWPOLYLINE
  5
FC5
330
18
100
AcDbEntity
  8
1
100
AcDbPolyline
 90
        4
 70
     1
 43
0.0
 10
178.579861
 20
93.97587374069198
 10
180.2443699999999
 20
93.97587374069198
 10
180.2443699999999
 20
93.56029474069197
 10
178.579861
 20
93.56029474069197
  0
LWPOLYLINE
  5
FCA
330
18
100
AcDbEntity
  8
1
100
AcDbPolyline
 90
        4
 70
     1
 43
0.0
 10
180.2443699999999
 20
204.6757757406919
 10
177.8516379999999
 20
204.6757757406919
 10
177.8516379999999
 20
203.2212487406919
 10
180.2443699999999
 20
203.2212487406919
  0
LWPOLYLINE
  5
FD0
330
18
100
AcDbEntity
  8
1
100
AcDbPolyline
 90
        6
 70
     0
 43
0.0
 10
259.9615009999999
 20
93.56313174069198
 10
259.9615009999999
 20
213.0701297406919
 10
334.941422
 20
213.0701297406919
 10
334.941422
 20
82.33166374069197
 10
259.9615009999999
 20
82.33166374069197
 10
259.9615009999999
 20
90.10780574069197
  0
LWPOLYLINE
  5
FD5
330
18
100
AcDbEntity
  8
1
100
AcDbPolyline
 90
        4
 70
     1
 43
0.0
 10
249.667317
 20
202.8089107406919
 10
254.9581579999999
 20
202.8089107406919
 10
254.9581579999999
 20
93.98146174069198
 10
249.667317
 20
93.98146174069198
  0
LINE
  5
FDA
330
18
100
AcDbEntity
  8
1
100
AcDbLine
 10
249.737339
 20
90.12017074069197
 30
0.0
 11
249.737339
 21
93.57501074069197
 31
0.0
  0
LINE
  5
FDB
330
18
100
AcDbEntity
  8
1
100
AcDbLine
 10
251.3597029999999
 20
205.2051537406919
 30
0.0
 11
251.3597029999999
 21
202.827533740692
 31
0.0
  0
LINE
  5
FDC
330
18
100
AcDbEntity
  8
1
100
AcDbLine
 10
253.530392
 20
204.9953637406919
 30
0.0
 11
253.530392
 21
202.827533740692
 31
0.0
  0
LWPOLYLINE
  5
FDD
330
18
100
AcDbEntity
  8
1
100
AcDbPolyline
 90
        4
 70
     1
 43
0.0
 10
250.939569
 20
93.98146174069198
 10
253.600414
 20
93.98146174069198
 10
253.600414
 20
93.56188074069198
 10
250.939569
 20
93.56188074069198
  0
LINE
  5
FDE
330
18
100
AcDbEntity
  8
1
100
AcDbLine
 10
325.64179
 20
77.90892974069198
 30
0.0
 11
331.674459
 21
77.90892974069198
 31
0.0
  0
LINE
  5
FDF
330
18
100
AcDbEntity
  8
1
100
AcDbLine
 10
324.8877069999999
 20
82.23919874069196
 30
0.0
 11
325.64179
 21
77.90892974069198
 31
0.0
  0
LINE
  5
FE0
330
18
100
AcDbEntity
  8
1
100
AcDbLine
 10
331.674459
 20
77.90892974069198
 30
0.0
 11
332.617062
 21
82.23919874069196
 31
0.0
  0
LINE
  5
FE1
330
18
100
AcDbEntity
  8
1
100
AcDbLine
 10
255.055697
 20
202.0482517406919
 30
0.0
 11
259.9374829999999
 21
202.0482517406919
 31
0.0
  0
LWPOLYLINE
  5
FE2
330
18
100
AcDbEntity
  8
1
100
AcDbPolyline
 90
        4
 70
     1
 43
0.0
 10
256.8689319999999
 20
202.0482517406919
 10
257.5663299999999
 20
202.0482517406919
 10
257.5663299999999
 20
94.65111974069198
 10
256.8689319999999
 20
94.65111974069198
  0
LINE
  5
FE3
330
18
100
AcDbEntity
  8
1
100
AcDbLine
 10
254.916218
 20
94.65111974069198
 30
0.0
 11
259.9374829999999
 21
94.65111974069198
 31
0.0
  0
LINE
  5
FE5
330
18
100
AcDbEntity
  8
2
100
AcDbLine
 10
258.576846
 20
200.0910617406919
 30
0.0
 11
258.576846
 21
97.711764740692
 31
0.0
  0
ARC
  5
FE6
330
18
100
AcDbEntity
  8
2
100
AcDbCircle
 10
259.79817
 20
200.1923117406919
 30
0.0
 40
1.207756
100
AcDbArc
 50
83.42854799999999
 51
183.9499939999999
  0
ARC
  5
FE7
330
18
100
AcDbEntity
  8
2
100
AcDbCircle
 10
259.890713
 20
97.63090074069198
 30
0.0
 40
1.30122
100
AcDbArc
 50
175.626068
 51
272.0116009999999
  0
LINE
  5
FE8
330
18
100
AcDbEntity
  8
1
100
AcDbLine
 10
172.6847559999999
 20
77.97885974069197
 30
0.0
 11
178.7174249999999
 21
77.97885974069197
 31
0.0
  0
LINE
  5
FE9
330
18
100
AcDbEntity
  8
1
100
AcDbLine
 10
171.9306729999999
 20
82.30912874069199
 30
0.0
 11
172.6847559999999
 21
77.97885974069197
 31
0.0
  0
LINE
  5
FEA
330
18
100
AcDbEntity
  8
1
100
AcDbLine
 10
178.7174249999999
 20
77.97885974069197
 30
0.0
 11
179.660028
 21
82.30912874069199
 31
0.0
  0
LINE
  5
FED
330
18
100
AcDbEntity
  8
2
100
AcDbLine
 10
260.5811749999999
 20
195.4549687406919
 30
0.0
 11
316.806799
 21
195.4549687406919
 31
0.0
  0
LINE
  5
FEE
330
18
100
AcDbEntity
  8
2
100
AcDbLine
 10
316.806799
 20
195.4549687406919
 30
0.0
 11
316.806799
 21
101.2931047406919
 31
0.0
  0
LINE
  5
FEF
330
18
100
AcDbEntity
  8
2
100
AcDbLine
 10
316.806799
 20
101.2931047406919
 30
0.0
 11
260.5811749999999
 21
101.2931047406919
 31
0.0
  0
LWPOLYLINE
  5
FF9
330
18
100
AcDbEntity
  8
2
100
AcDbPolyline
 90
        4
 70
     1
 43
0.0
 10
260.573366
 20
167.2170197406919
 10
316.785511
 20
167.2170197406919
 10
316.785511
 20
165.7999417406919
 10
260.573366
 20
165.7999417406919
  0
LINE
  5
FFA
330
18
100
AcDbEntity
  8
2
100
AcDbLine
 10
260.573366
 20
171.2502427406919
 30
0.0
 11
316.785511
 21
171.2502427406919
 31
0.0
  0
LWPOLYLINE
  5
FFB
330
18
100
AcDbEntity
  8
2
100
AcDbPolyline
 90
        4
 70
     1
 43
0.0
 10
260.573366
 20
137.5128767406919
 10
316.785511
 20
137.5128767406919
 10
316.785511
 20
135.877785740692
 10
260.573366
 20
135.877785740692
  0
LINE
  5
FFC
330
18
100
AcDbEntity
  8
2
100
AcDbLine
 10
260.573366
 20
141.3280867406919
 30
0.0
 11
316.785511
 21
141.3280867406919
 31
0.0
  0
LWPOLYLINE
  5
FFD
330
18
100
AcDbEntity
  8
2
100
AcDbPolyline
 90
        4
 70
     1
 43
0.0
 10
260.573366
 20
107.6452227406919
 10
316.785511
 20
107.6452227406919
 10
316.785511
 20
105.9011267406919
 10
260.573366
 20
105.9011267406919
  0
LINE
  5
FFE
330
18
100
AcDbEntity
  8
2
100
AcDbLine
 10
260.573366
 20
111.3514287406919
 30
0.0
 11
316.785511
 21
111.3514287406919
 31
0.0
  0
DIMENSION
  5
1009
330
18
100
AcDbEntity
  8
4
100
AcDbDimension
  2
*D1
 10
170.2464069999999
 20
119.3348107406919
 30
0.0
 11
126.9545864999999
 21
121.834810740692
 31
0.0
 70
    32
  1
350
 71
     5
 42
86.583641
  3
STANDARD_WS
100
AcDbAlignedDimension
 13
83.662766
 23
119.3348107406919
 33
0.0
 14
170.2464069999999
 24
119.3348107406919
 34
0.0
100
AcDbRotatedDimension
  0
DIMENSION
  5
1014
330
18
100
AcDbEntity
  8
4
100
AcDbDimension
  2
*D2
 10
154.130473
 20
101.3466087406919
 30
0.0
 11
151.6304729999999
 21
148.3683992406919
 31
0.0
 70
    32
  1
376
 71
     5
 42
94.04358099999999
  3
STANDARD_WS
100
AcDbAlignedDimension
 13
154.130473
 23
195.3901897406919
 33
0.0
 14
154.130473
 24
101.3466087406919
 34
0.0
 50
90.0
100
AcDbRotatedDimension
  0
DIMENSION
  5
1031
330
18
100
AcDbEntity
  8
4
100
AcDbDimension
  2
*D3
 10
316.806598
 20
119.019227740692
 30
0.0
 11
288.3667159999999
 21
121.5192277406919
 31
0.0
 70
    32
  1
230
 71
     5
 42
56.87976400000002
  3
STANDARD_WS
100
AcDbAlignedDimension
 13
259.926834
 23
119.019227740692
 33
0.0
 14
316.806598
 24
119.019227740692
 34
0.0
100
AcDbRotatedDimension
  0
CIRCLE
  5
103B
330
18
100
AcDbEntity
  8
2
  6
HIDDEN2
100
AcDbCircle
 10
264.499298
 20
100.7669467406919
 30
0.0
 40
0.459346
  0
CIRCLE
  5
103C
330
18
100
AcDbEntity
  8
2
  6
HIDDEN2
100
AcDbCircle
 10
272.269267
 20
100.7669467406919
 30
0.0
 40
0.459346
  0
CIRCLE
  5
103D
330
18
100
AcDbEntity
  8
2
  6
HIDDEN2
100
AcDbCircle
 10
279.8882009999999
 20
100.7669467406919
 30
0.0
 40
0.459346
  0
CIRCLE
  5
103E
330
18
100
AcDbEntity
  8
2
  6
HIDDEN2
100
AcDbCircle
 10
287.8087429999999
 20
100.7669467406919
 30
0.0
 40
0.459346
  0
CIRCLE
  5
103F
330
18
100
AcDbEntity
  8
2
  6
HIDDEN2
100
AcDbCircle
 10
296.407093
 20
100.7669467406919
 30
0.0
 40
0.459346
  0
CIRCLE
  5
1040
330
18
100
AcDbEntity
  8
2
  6
HIDDEN2
100
AcDbCircle
 10
305.3816419999999
 20
100.7669467406919
 30
0.0
 40
0.459346
  0
CIRCLE
  5
1041
330
18
100
AcDbEntity
  8
2
  6
HIDDEN2
100
AcDbCircle
 10
313.6028689999999
 20
100.7669467406919
 30
0.0
 40
0.459346
  0
LWPOLYLINE
  5
1046
330
18
100
AcDbEntity
  8
1
100
AcDbPolyline
 90
        4
 70
     0
 43
0.0
 10
334.980502
 20
82.76511374069199
 10
334.980502
 20
212.5578767406919
 10
335.4829399999999
 20
212.5578767406919
 10
335.4829399999999
 20
82.98494974069198
  0
ARC
  5
1047
330
18
100
AcDbEntity
  8
1
100
AcDbCircle
 10
335.0266759999999
 20
175.1394667406919
 30
0.0
 40
1.529520999999999
100
AcDbArc
 50
295.3399019999999
 51
64.66009800000001
  0
ARC
  5
1048
330
18
100
AcDbEntity
  8
1
100
AcDbCircle
 10
335.0266759999999
 20
133.5225887406919
 30
0.0
 40
1.529520999999999
100
AcDbArc
 50
295.3399019999999
 51
64.66009800000001
  0
ARC
  5
1049
330
18
100
AcDbEntity
  8
1
100
AcDbCircle
 10
335.0266759999999
 20
88.62924374069198
 30
0.0
 40
1.529520999999999
100
AcDbArc
 50
295.3399019999999
 51
64.66009800000001
  0
LINE
  5
1055
330
18
100
AcDbEntity
  8
1
100
AcDbLine
 10
244.8726399999999
 20
175.5750267406919
 30
0.0
 11
244.8726399999999
 21
160.7173717406919
 31
0.0
  0
ARC
  5
1059
330
18
100
AcDbEntity
  8
1
100
AcDbCircle
 10
248.8801869999999
 20
174.910476740692
 30
0.0
 40
4.062273
100
AcDbArc
 50
79.535984
 51
170.584631
  0
ARC
  5
105A
330
18
100
AcDbEntity
  8
1
100
AcDbCircle
 10
248.8954299999999
 20
161.5617377406919
 30
0.0
 40
4.110449
100
AcDbArc
 50
191.854046
 51
280.124115
  0
LINE
  5
105B
330
18
100
AcDbEntity
  8
1
100
AcDbLine
 10
241.666336
 20
177.240108740692
 30
0.0
 11
241.666336
 21
158.7961227406919
 31
0.0
  0
ARC
  5
105C
330
18
100
AcDbEntity
  8
1
100
AcDbCircle
 10
234.272891
 20
187.726130740692
 30
0.0
 40
12.830421
100
AcDbArc
 50
305.186755
 51
354.920647
  0
ARC
  5
105D
330
18
100
AcDbEntity
  8
1
100
AcDbCircle
 10
229.6154079999999
 20
145.7253467406919
 30
0.0
 40
17.77835999999999
100
AcDbArc
 50
11.237345
 51
47.32471999999999
  0
ARC
  5
105E
330
18
100
AcDbEntity
  8
1
100
AcDbCircle
 10
248.9243569999999
 20
185.7280637406919
 30
0.0
 40
2.010238999999999
100
AcDbArc
 50
69.81578899999999
 51
158.583229
  0
ARC
  5
105F
330
18
100
AcDbEntity
  8
1
100
AcDbCircle
 10
249.337824
 20
151.1052927406919
 30
0.0
 40
3.080923999999999
100
AcDbArc
 50
218.440416
 51
275.2170479999999
  0
DIMENSION
  5
106C
330
18
100
AcDbEntity
  8
4
100
AcDbDimension
  2
*D4
 10
193.86651
 20
82.35365511546772
 30
0.0
 11
191.3665099999999
 21
147.7686534280798
 31
0.0
 70
    32
  1
524
 71
     5
 42
130.8299966252242
  3
STANDARD_WS
100
AcDbAlignedDimension
 13
183.167957
 23
213.1836517406919
 33
0.0
 14
182.3975638090673
 24
82.35365511546772
 34
0.0
 50
90.0
100
AcDbRotatedDimension
  0
DIMENSION
  5
1079
330
18
100
AcDbEntity
  8
4
100
AcDbDimension
  2
*D5
 10
204.9471519999999
 20
77.97885974069197
 30
0.0
 11
202.4471519999999
 21
145.581255740692
 31
0.0
 70
    32
  1
539
 71
     5
 42
135.2047919999999
  3
STANDARD_WS
100
AcDbAlignedDimension
 13
183.167957
 23
213.1836517406919
 33
0.0
 14
178.7174249999999
 24
77.97885974069197
 34
0.0
 50
90.0
100
AcDbRotatedDimension
  0
DIMENSION
  5
1088
330
18
100
AcDbEntity
  8
4
100
AcDbDimension
  2
*D6
 10
193.86651
 20
77.97885974069197
 30
0.0
 11
190.8665099999999
 21
74.478859740692
 31
0.0
 70
    32
  1
15
 71
     5
 42
4.374795374775757
  3
STANDARD_WS
100
AcDbAlignedDimension
 13
182.3975638090673
 23
82.35365511546772
 33
0.0
 14
178.7174249999999
 24
77.97885974069197
 34
0.0
 50
90.0
100
AcDbRotatedDimension
  0
DIMENSION
  5
1097
330
18
100
AcDbEntity
  8
4
100
AcDbDimension
  2
*D7
 10
183.168457
 20
68.65532874069199
 30
0.0
 11
179.391905
 21
71.15532874069199
 31
0.0
 70
    32
  1
20
 71
     5
 42
7.553104000000018
  3
STANDARD_WS
100
AcDbAlignedDimension
 13
175.6153529999999
 23
77.96416474069198
 33
0.0
 14
183.168457
 24
82.90599974069198
 34
0.0
100
AcDbRotatedDimension
  0
DIMENSION
  5
10B4
330
18
100
AcDbEntity
  8
4
100
AcDbDimension
  2
*D8
 10
183.168457
 20
61.08349648890136
 30
0.0
 11
126.5480323414085
 21
63.58349648890136
 31
0.0
 70
    32
  1
450
 71
     5
 42
113.2408493171829
  3
STANDARD_WS
100
AcDbAlignedDimension
 13
69.92760768281705
 23
83.18217242985127
 33
0.0
 14
183.168457
 24
82.90599974069198
 34
0.0
100
AcDbRotatedDimension
  0
DIMENSION
  5
10C3
330
18
100
AcDbEntity
  8
4
100
AcDbDimension
  2
*D9
 10
185.391154
 20
61.08349648890136
 30
0.0
 11
193.391154
 21
63.58349648890136
 31
0.0
 70
    32
  1
7
 71
     5
 42
2.222696999999982
  3
STANDARD_WS
100
AcDbAlignedDimension
 13
183.168457
 23
83.07134348063938
 33
0.0
 14
185.391154
 24
91.81389774069199
 34
0.0
100
AcDbRotatedDimension
  0
DIMENSION
  5
1128
330
18
100
AcDbEntity
  8
4
100
AcDbDimension
  2
*D10
 10
259.9615009999999
 20
61.08349648890136
 30
0.0
 11
254.9475344589381
 21
63.58349648890136
 31
0.0
 70
    32
  1
40
 71
     5
 42
10.02793308212369
  3
STANDARD_WS
100
AcDbAlignedDimension
 13
249.9335679178762
 23
85.97385617364166
 33
0.0
 14
259.9615009999999
 24
82.33166374069197
 34
0.0
100
AcDbRotatedDimension
  0
DIMENSION
  5
1137
330
18
100
AcDbEntity
  8
4
100
AcDbDimension
  2
*D11
 10
267.644298
 20
68.65532874069199
 30
0.0
 11
263.8028994999999
 21
71.15532874069199
 31
0.0
 70
    32
  1
25
 71
     5
 42
7.682796999999993
  3
STANDARD_WS
100
AcDbAlignedDimension
 13
259.9615009999999
 23
82.33166374069197
 33
0.0
 14
267.644298
 24
77.96416474069198
 34
0.0
100
AcDbRotatedDimension
  0
DIMENSION
  5
1162
330
18
100
AcDbEntity
  8
4
100
AcDbDimension
  2
*D12
 10
249.9335679178762
 20
53.51166423711074
 30
0.0
 11
245.7999522308299
 21
56.01166423711074
 31
0.0
 70
    32
  1
27
 71
     5
 42
8.267231374092773
  3
STANDARD_WS
100
AcDbAlignedDimension
 13
241.6663365437835
 23
158.7961235164702
 33
0.0
 14
249.9335679178762
 24
85.97385617364166
 34
0.0
100
AcDbRotatedDimension
  0
DIMENSION
  5
116F
330
18
100
AcDbEntity
  8
4
100
AcDbDimension
  2
*D13
 10
334.941422
 20
53.51166423711074
 30
0.0
 11
287.1134940513485
 21
53.51166423711074
 31
0.0
 70
   160
  1
340
 71
     5
 42
85.00785408212374
  3
STANDARD_WS
100
AcDbAlignedDimension
 13
249.9335679178762
 23
85.97385617364166
 33
0.0
 14
334.941422
 24
82.33166374069197
 34
0.0
100
AcDbRotatedDimension
  0
DIMENSION
  5
11E0
330
18
100
AcDbEntity
  8
4
100
AcDbDimension
  2
*D14
 10
259.987399
 20
222.8836247406919
 30
0.0
 11
254.847146
 21
225.3836247406919
 31
0.0
 70
    32
  1
44
 71
     5
 42
10.28050600000003
  3
STANDARD_WS
100
AcDbAlignedDimension
 13
249.706893
 23
213.130006740692
 33
0.0
 14
259.987399
 24
213.130006740692
 34
0.0
100
AcDbRotatedDimension
  0
DIMENSION
  5
11ED
330
18
100
AcDbEntity
  8
4
100
AcDbDimension
  2
*D15
 10
334.778082
 20
222.8836247406919
 30
0.0
 11
297.3827405
 21
225.3836247406919
 31
0.0
 70
    32
  1
300
 71
     5
 42
74.79068299999994
  3
STANDARD_WS
100
AcDbAlignedDimension
 13
259.987399
 23
213.130006740692
 33
0.0
 14
334.778082
 24
213.130006740692
 34
0.0
100
AcDbRotatedDimension
  0
DIMENSION
  5
11FC
330
18
100
AcDbEntity
  8
4
100
AcDbDimension
  2
*D16
 10
336.8341829999999
 20
222.8836247406919
 30
0.0
 11
346.8341829999999
 21
225.3836247406919
 31
0.0
 70
    32
  1
3.5
 71
     5
 42
2.056101000000012
  3
STANDARD_WS
100
AcDbAlignedDimension
 13
334.778082
 23
213.130006740692
 33
0.0
 14
336.8341829999999
 24
209.7932427406919
 34
0.0
100
AcDbRotatedDimension
  0
MTEXT
  5
1259
330
18
100
AcDbEntity
  8
4
100
AcDbMText
 10
237.565335408506
 20
264.5045542467903
 30
0.0
 40
3.0
 41
11.0
 71
     1
 72
     5
  1
30L
 73
     1
 44
1.0
  0
DIMENSION
  5
1297
330
18
100
AcDbEntity
  8
4
100
AcDbDimension
  2
*D17
 10
76.70186300000001
 20
68.62929874069198
 30
0.0
 11
73.31473534140852
 21
71.12929874069198
 31
0.0
 70
    32
  1
20
 71
     5
 42
6.774255317182948
  3
STANDARD_WS
100
AcDbAlignedDimension
 13
69.92760768281705
 23
83.18217242985127
 33
0.0
 14
76.70186300000001
 24
77.99084874069198
 34
0.0
100
AcDbRotatedDimension
  0
DIMENSION
  5
12B1
330
18
100
AcDbEntity
  8
4
100
AcDbDimension
  2
*D18
 10
334.941422
 20
61.08349648890136
 30
0.0
 11
287.3350752240156
 21
61.08349648890136
 31
0.0
 70
   160
  1
300
 71
     5
 42
74.97992100000004
  3
STANDARD_WS
100
AcDbAlignedDimension
 13
259.9615009999999
 23
82.33166374069197
 33
0.0
 14
334.941422
 24
82.33166374069197
 34
0.0
100
AcDbRotatedDimension
  0
DIMENSION
  5
12DE
330
18
100
AcDbEntity
  8
4
100
AcDbDimension
  2
*D19
 10
334.941422
 20
68.65532874069199
 30
0.0
 11
331.5605235
 21
71.15532874069199
 31
0.0
 70
    32
  1
20
 71
     5
 42
6.761797000000058
  3
STANDARD_WS
100
AcDbAlignedDimension
 13
328.1796249999999
 23
77.99084874069198
 33
0.0
 14
334.941422
 24
82.33166374069197
 34
0.0
100
AcDbRotatedDimension
  0
LEADER
  5
12FD
330
18
100
AcDbEntity
  8
4
100
AcDbLeader
  3
STANDARD_WS
 73
     0
 75
     1
 40
3.0
 41
25.0
 76
     3
 10
71.45778299999999
 20
207.8261007406919
 30
0.0
 10
57.671548
 20
216.287393740692
 30
0.0
 10
54.671548
 20
216.287393740692
 30
0.0
340
12FE
  0
MTEXT
  5
12FE
102
{ACAD_REACTORS
330
12FD
102
}
330
18
100
AcDbEntity
  8
4
100
AcDbMText
 10
53.671548
 20
218.787393740692
 30
0.0
 40
3.0
 41
0.0
 71
     6
 72
     1
  1
スイッチパネル
 73
     1
 44
1.0
  0
LEADER
  5
12FF
330
18
100
AcDbEntity
  8
4
100
AcDbLeader
  3
STANDARD_WS
 73
     0
 75
     1
 40
3.0
 41
10.79999999999999
 76
     3
 10
144.1981359999999
 20
209.2838507406919
 30
0.0
 10
132.358131
 20
219.6888107406919
 30
0.0
 10
129.358131
 20
219.6888107406919
 30
0.0
340
1300
  0
MTEXT
  5
1300
102
{ACAD_REACTORS
330
12FF
102
}
330
18
100
AcDbEntity
  8
4
100
AcDbMText
 10
128.358131
 20
222.188810740692
 30
0.0
 40
3.0
 41
0.0
 71
     6
 72
     1
  1
\A1;表示灯
 73
     1
 44
1.0
  0
LEADER
  5
1301
330
18
100
AcDbEntity
  8
4
100
AcDbLeader
  3
STANDARD_WS
 73
     0
 74
     0
 75
     1
 40
3.0
 41
20.6
 76
     3
 10
157.3351899999999
 20
209.7697677406919
 30
0.0
 10
160.903717
 20
219.202893740692
 30
0.0
 10
163.9037169999999
 20
219.202893740692
 30
0.0
340
1302
  0
MTEXT
  5
1302
102
{ACAD_REACTORS
330
1301
102
}
330
18
100
AcDbEntity
  8
4
100
AcDbMText
 10
164.9037169999999
 20
221.702893740692
 30
0.0
 40
3.0
 41
0.0
 71
     4
 72
     1
  1
電源スイッチ
 73
     1
 44
1.0
  0
LEADER
  5
1303
330
18
100
AcDbEntity
  8
4
100
AcDbLeader
  3
STANDARD_WS
 73
     0
 75
     1
 40
3.0
 41
7.0
 76
     3
 10
84.83811499999999
 20
190.4545797406919
 30
0.0
 10
60.89870957315611
 20
198.6729137406919
 30
0.0
 10
57.89870957315611
 20
198.6729137406919
 30
0.0
340
1304
213
-1.881692426843891
223
0.0
233
0.0
  0
MTEXT
  5
1304
102
{ACAD_REACTORS
330
1303
102
}
330
18
100
AcDbEntity
  8
4
100
AcDbMText
 10
58.780402
 20
201.1729137406919
 30
0.0
 40
3.0
 41
0.0
 71
     6
 72
     1
  1
\A1;中箱
 73
     1
 44
1.0
  0
LEADER
  5
1305
330
18
100
AcDbEntity
  8
4
100
AcDbLeader
  3
STANDARD_WS
 73
     0
 75
     1
 40
3.0
 41
7.199999999999998
 76
     3
 10
77.78303100000001
 20
170.2890357406919
 30
0.0
 10
62.8183079525786
 20
179.4792037406919
 30
0.0
 10
59.8183079525786
 20
179.4792037406919
 30
0.0
340
1306
213
-1.959915013807858
223
0.0
233
0.0
  0
MTEXT
  5
1306
102
{ACAD_REACTORS
330
1305
102
}
330
18
100
AcDbEntity
  8
4
100
AcDbMText
 10
60.77822296638647
 20
181.9792037406919
 30
0.0
 40
3.0
 41
0.0
 71
     6
 72
     1
  1
\A1;取手
 73
     1
 44
1.0
  0
LEADER
  5
1307
330
18
100
AcDbEntity
  8
4
100
AcDbLeader
  3
STANDARD_WS
 73
     0
 40
3.0
 41
31.2
 76
     2
 10
119.870259
 20
152.4315977406919
 30
0.0
 10
60.023681
 20
138.5407207406919
 30
0.0
340
1308
  0
MTEXT
  5
1308
102
{ACAD_REACTORS
330
1307
102
}
330
18
100
AcDbEntity
  8
4
100
AcDbMText
 10
59.023681
 20
141.0407207406919
 30
0.0
 40
3.0
 41
0.0
 71
     6
 72
     1
  1
固定サーモスタット
 73
     1
 44
1.0
  0
LEADER
  5
1309
330
18
100
AcDbEntity
  8
4
100
AcDbLeader
  3
STANDARD_WS
 73
     0
 75
     1
 40
3.0
 41
20.59999999999999
 76
     3
 10
127.4119009999999
 20
150.4879307406919
 30
0.0
 10
61.72940858392792
 20
117.8892607406919
 30
0.0
 10
58.72940858392792
 20
117.8892607406919
 30
0.0
340
130A
213
-0.8077144160720806
223
0.0
233
0.0
  0
MTEXT
  5
130A
102
{ACAD_REACTORS
330
1309
102
}
330
18
100
AcDbEntity
  8
4
100
AcDbMText
 10
58.537123
 20
120.389260740692
 30
0.0
 40
3.0
 41
0.0
 71
     6
 72
     1
  1
温度ヒューズ
 73
     1
 44
1.0
  0
LEADER
  5
130B
330
18
100
AcDbEntity
  8
4
100
AcDbLeader
  3
STANDARD_WS
 73
     0
 75
     1
 40
3.0
 41
9.800000000000004
 76
     3
 10
73.16073399999999
 20
89.26242474069198
 30
0.0
 10
59.617778
 20
79.25888374069197
 30
0.0
 10
56.617778
 20
79.25888374069197
 30
0.0
340
130C
  0
MTEXT
  5
130C
102
{ACAD_REACTORS
330
130B
102
}
330
18
100
AcDbEntity
  8
4
100
AcDbMText
 10
55.617778
 20
81.75888374069197
 30
0.0
 40
3.0
 41
0.0
 71
     6
 72
     1
  1
\A1;水受皿
 73
     1
 44
1.0
  0
LEADER
  5
130D
330
18
100
AcDbEntity
  8
4
100
AcDbLeader
  3
STANDARD_WS
 73
     0
 74
     0
 75
     1
 40
3.0
 41
9.399999999999998
 76
     3
 10
78.999425
 20
80.75888374069197
 30
0.0
 10
92.64609734538771
 20
72.69900774069198
 30
0.0
 10
95.64609734538771
 20
72.69900774069198
 30
0.0
340
130E
213
2.823973303365391
223
0.0
233
0.0
  0
MTEXT
  5
130E
102
{ACAD_REACTORS
330
130D
102
}
330
18
100
AcDbEntity
  8
4
100
AcDbMText
 10
93.82212404202233
 20
75.19900774069198
 30
0.0
 40
3.0
 41
0.0
 71
     4
 72
     1
  1
ゴム脚
 73
     1
 44
1.0
  0
LEADER
  5
130F
330
18
100
AcDbEntity
  8
4
100
AcDbLeader
  3
STANDARD_WS
 73
     0
 74
     0
 75
     1
 40
3.0
 41
32.2
 76
     3
 10
259.463619
 20
198.5936837406919
 30
0.0
 10
267.167885
 20
205.3542677406919
 30
0.0
 10
270.1678849999999
 20
205.3542677406919
 30
0.0
340
1310
  0
MTEXT
  5
1310
102
{ACAD_REACTORS
330
130F
102
}
330
18
100
AcDbEntity
  8
4
100
AcDbMText
 10
271.167885
 20
207.8542677406919
 30
0.0
 40
3.0
 41
0.0
 71
     4
 72
     1
  1
エアタイトパッキン
 73
     1
 44
1.0
  0
LEADER
  5
1311
330
18
100
AcDbEntity
  8
4
100
AcDbLeader
  3
STANDARD_WS
 73
     0
 75
     1
 40
3.0
 41
32.20000000000001
 76
     3
 10
256.3627137246243
 20
196.7906364127248
 30
0.0
 10
246.4535364950224
 20
202.6420324686049
 30
0.0
 10
243.4535364950225
 20
202.6420324686049
 30
0.0
340
1312
213
-2.096470942944051
223
0.0
233
0.0
  0
MTEXT
  5
1312
102
{ACAD_REACTORS
330
1311
102
}
330
18
100
AcDbEntity
  8
4
100
AcDbMText
 10
244.5500074379665
 20
205.142032468605
 30
0.0
 40
3.0
 41
0.0
 71
     6
 72
     1
  1
マグネットパッキン
 73
     1
 44
1.0
  0
LEADER
  5
1313
330
18
100
AcDbEntity
  8
4
100
AcDbLeader
  3
STANDARD_WS
 73
     0
 75
     1
 40
3.0
 41
3.599999999999999
 76
     3
 10
251.192141
 20
188.2870934127249
 30
0.0
 10
243.001317
 20
193.3469694127248
 30
0.0
 10
240.001317
 20
193.3469694127248
 30
0.0
340
1314
  0
MTEXT
  5
1314
102
{ACAD_REACTORS
330
1313
102
}
330
18
100
AcDbEntity
  8
4
100
AcDbMText
 10
239.001317
 20
195.8469694127249
 30
0.0
 40
3.0
 41
0.0
 71
     6
 72
     1
  1
\A1;扉
 73
     1
 44
1.0
  0
LEADER
  5
1315
330
18
100
AcDbEntity
  8
4
100
AcDbLeader
  3
STANDARD_WS
 73
     0
 74
     0
 75
     1
 40
3.0
 41
10.2
 76
     3
 10
313.8600213145011
 20
196.2795917781739
 30
0.0
 10
337.3294839999999
 20
205.9616637406919
 30
0.0
 10
340.329484
 20
205.9616637406919
 30
0.0
340
1316
  0
MTEXT
  5
1316
102
{ACAD_REACTORS
330
1315
102
}
330
18
100
AcDbEntity
  8
4
100
AcDbMText
 10
341.3294839999999
 20
208.4616637406919
 30
0.0
 40
3.0
 41
0.0
 71
     4
 72
     1
  1
\A1;発熱体
 73
     1
 44
1.0
  0
LEADER
  5
1317
330
18
100
AcDbEntity
  8
4
100
AcDbLeader
  3
STANDARD_WS
 73
     0
 74
     0
 75
     1
 40
3.0
 41
7.200000000000001
 76
     3
 10
328.165545
 20
189.7257047406919
 30
0.0
 10
337.3294839999999
 20
196.2433297406919
 30
0.0
 10
340.329484
 20
196.2433297406919
 30
0.0
340
1318
  0
MTEXT
  5
1318
102
{ACAD_REACTORS
330
1317
102
}
330
18
100
AcDbEntity
  8
4
100
AcDbMText
 10
341.3294839999999
 20
198.7433297406919
 30
0.0
 40
3.0
 41
0.0
 71
     4
 72
     1
  1
\A1;外箱
 73
     1
 44
1.0
  0
LEADER
  5
1319
330
18
100
AcDbEntity
  8
4
100
AcDbLeader
  3
STANDARD_WS
 73
     0
 74
     0
 75
     1
 40
3.0
 41
13.6
 76
     3
 10
335.463909
 20
181.4651207406919
 30
0.0
 10
341.9517809999999
 20
186.5249957406919
 30
0.0
 10
344.9517809999999
 20
186.5249957406919
 30
0.0
340
131A
  0
MTEXT
  5
131A
102
{ACAD_REACTORS
330
1319
102
}
330
18
100
AcDbEntity
  8
4
100
AcDbMText
 10
345.9517809999999
 20
189.0249957406919
 30
0.0
 40
3.0
 41
0.0
 71
     4
 72
     1
  1
\A1;外箱裏板
 73
     1
 44
1.0
  0
LEADER
  5
131B
330
18
100
AcDbEntity
  8
4
100
AcDbLeader
  3
STANDARD_WS
 73
     0
 74
     0
 75
     1
 40
3.0
 41
16.99999999999999
 76
     3
 10
268.3189669999999
 20
91.32757174069197
 30
0.0
 10
276.9150812928077
 20
86.00652017171013
 30
0.0
 10
279.9150812928077
 20
86.00652017171013
 30
0.0
340
131C
213
2.400718675838845
223
-0.1245470114713498
233
0.0
  0
MTEXT
  5
131C
102
{ACAD_REACTORS
330
131B
102
}
330
18
100
AcDbEntity
  8
4
100
AcDbMText
 10
278.5143626169689
 20
88.63106718318148
 30
0.0
 40
3.0
 41
0.0
 71
     4
 72
     1
  1
下部ヒンジ
 73
     1
 44
1.0
  0
LEADER
  5
131D
330
18
100
AcDbEntity
  8
4
100
AcDbLeader
  3
STANDARD_WS
 73
     0
 75
     1
 40
3.0
 41
17.0
 76
     3
 10
322.029018764619
 20
79.53907805818039
 30
0.0
 10
313.7296831267704
 20
67.30923208949104
 30
0.0
 10
310.7296831267705
 20
67.30923208949104
 30
0.0
340
131E
213
-2.0149768732295
223
0.0
233
0.0
  0
MTEXT
  5
131E
102
{ACAD_REACTORS
330
131D
102
}
330
18
100
AcDbEntity
  8
4
100
AcDbMText
 10
294.74466
 20
69.80923208949104
 30
0.0
 40
3.0
 41
0.0
 71
     4
 72
     1
  1
電源コード
 73
     1
 44
1.0
  0
LEADER
  5
131F
330
18
100
AcDbEntity
  8
4
100
AcDbLeader
  3
STANDARD_WS
 73
     0
 74
     0
 75
     1
 40
3.0
 41
14.4
 76
     3
 10
303.7128529999999
 20
82.28346574069197
 30
0.0
 10
310.1757469999999
 20
91.28819874069199
 30
0.0
 10
313.175747
 20
91.28819874069199
 30
0.0
340
1320
  0
MTEXT
  5
1320
102
{ACAD_REACTORS
330
131F
102
}
330
18
100
AcDbEntity
  8
4
100
AcDbMText
 10
314.1757469999999
 20
93.78819874069199
 30
0.0
 40
3.0
 41
0.0
 71
     4
 72
     1
  1
アース線
 73
     1
 44
1.0
  0
MTEXT
  5
132D
330
18
100
AcDbEntity
  8
4
100
AcDbMText
 10
29.735195
 20
29.76858
 30
0.0
 40
6.0
 41
66.404478
 71
     1
 72
     5
  1
\C5;株式会社　アンナカ\Pニッセイ事業部
 73
     1
 44
1.0
  0
LINE
  5
133A
330
18
100
AcDbEntity
  8
4
 62
     3
100
AcDbLine
 10
313.129458
 20
82.35817174069197
 30
0.0
 11
314.325217
 21
81.38699374069199
 31
0.0
  0
LINE
  5
133B
330
18
100
AcDbEntity
  8
4
 62
     3
100
AcDbLine
 10
314.325217
 20
81.38699374069199
 30
0.0
 11
317.912495
 21
81.38699374069199
 31
0.0
  0
LINE
  5
133C
330
18
100
AcDbEntity
  8
4
 62
     3
100
AcDbLine
 10
317.912495
 20
81.38699374069199
 30
0.0
 11
317.912495
 21
82.35817174069197
 31
0.0
  0
LINE
  5
133D
330
18
100
AcDbEntity
  8
4
 62
     3
100
AcDbLine
 10
314.698892
 20
81.38699374069199
 30
0.0
 11
314.698892
 21
79.89287174069199
 31
0.0
  0
ARC
  5
133E
330
18
100
AcDbEntity
  8
4
 62
     3
100
AcDbCircle
 10
315.670215
 20
79.74357574069199
 30
0.0
 40
0.974183
100
AcDbArc
 50
175.608723
 51
274.4134259999999
  0
LINE
  5
133F
330
18
100
AcDbEntity
  8
4
 62
     3
100
AcDbLine
 10
315.7451809999999
 20
78.77228174069199
 30
0.0
 11
319.556664
 21
78.77228174069199
 31
0.0
  0
LINE
  5
1340
330
18
100
AcDbEntity
  8
4
 62
     3
100
AcDbLine
 10
316.866206
 20
81.38699374069199
 30
0.0
 11
316.866206
 21
80.49052074069198
 31
0.0
  0
LINE
  5
1341
330
18
100
AcDbEntity
  8
4
 62
     3
100
AcDbLine
 10
316.866206
 20
80.49052074069198
 30
0.0
 11
316.940941
 21
80.34110874069199
 31
0.0
  0
LINE
  5
1342
330
18
100
AcDbEntity
  8
4
 62
     3
100
AcDbLine
 10
316.940941
 20
80.34110874069199
 30
0.0
 11
319.556664
 21
80.34110874069199
 31
0.0
  0
LINE
  5
1343
330
18
100
AcDbEntity
  8
4
 62
     3
100
AcDbLine
 10
319.556664
 20
80.34110874069199
 30
0.0
 11
319.556664
 21
78.77228174069199
 31
0.0
  0
LINE
  5
1344
330
18
100
AcDbEntity
  8
4
 62
     3
100
AcDbLine
 10
319.556664
 20
80.19169674069198
 30
0.0
 11
324.1902309999999
 21
80.19169674069198
 31
0.0
  0
LINE
  5
1345
330
18
100
AcDbEntity
  8
4
 62
     3
100
AcDbLine
 10
319.556664
 20
78.99639974069197
 30
0.0
 11
324.1902309999999
 21
78.99639974069197
 31
0.0
  0
LINE
  5
1346
330
18
100
AcDbEntity
  8
4
 62
     3
100
AcDbLine
 10
323.816556
 20
80.86405074069199
 30
0.0
 11
324.7133749999999
 21
79.89287174069199
 31
0.0
  0
LINE
  5
1347
330
18
100
AcDbEntity
  8
4
 62
     3
100
AcDbLine
 10
324.7133749999999
 20
79.89287174069199
 30
0.0
 11
323.741821
 21
79.44463574069198
 31
0.0
  0
LINE
  5
1348
330
18
100
AcDbEntity
  8
4
 62
     3
100
AcDbLine
 10
323.741821
 20
79.44463574069198
 30
0.0
 11
324.78811
 21
78.62286974069198
 31
0.0
  0
LINE
  5
1349
330
18
100
AcDbEntity
  8
4
 62
     3
100
AcDbLine
 10
324.78811
 20
78.62286974069198
 30
0.0
 11
323.741821
 21
77.87580874069198
 31
0.0
  0
LINE
  5
134A
330
18
100
AcDbEntity
  8
4
 62
     3
100
AcDbLine
 10
323.741821
 20
80.86405074069199
 30
0.0
 11
324.489171
 21
81.46169974069199
 31
0.0
  0
ARC
  5
134B
330
18
100
AcDbEntity
  8
4
 62
     3
100
AcDbCircle
 10
311.1492759999999
 20
82.79007374069198
 30
0.0
 40
1.332864
100
AcDbArc
 50
199.2603879999999
 51
337.660795
  0
LINE
  5
134C
330
18
100
AcDbEntity
  8
4
 62
     3
100
AcDbLine
 10
310.0653249999999
 20
81.835229740692
 30
0.0
 11
299.0045519999999
 21
81.835229740692
 31
0.0
  0
LINE
  5
134D
330
18
100
AcDbEntity
  8
4
 62
     3
100
AcDbLine
 10
298.481407
 20
83.03052674069197
 30
0.0
 11
299.303491
 21
82.50758374069198
 31
0.0
  0
LINE
  5
134E
330
18
100
AcDbEntity
  8
4
 62
     3
100
AcDbLine
 10
299.303491
 20
82.50758374069198
 30
0.0
 11
298.481407
 21
81.98464174069199
 31
0.0
  0
LINE
  5
134F
330
18
100
AcDbEntity
  8
4
 62
     3
100
AcDbLine
 10
298.481407
 20
81.98464174069199
 30
0.0
 11
299.303491
 21
81.38699374069199
 31
0.0
  0
LINE
  5
1350
330
18
100
AcDbEntity
  8
4
 62
     3
100
AcDbLine
 10
299.303491
 20
81.38699374069199
 30
0.0
 11
298.481407
 21
80.56522674069197
 31
0.0
  0
LINE
  5
1351
330
18
100
AcDbEntity
  8
4
 62
     3
100
AcDbLine
 10
298.406672
 20
83.03052674069197
 30
0.0
 11
299.303491
 21
83.77758774069198
 31
0.0
  0
DIMENSION
  5
13AA
330
18
100
AcDbEntity
  8
4
100
AcDbDimension
  2
*D20
 10
185.396268
 20
53.51166423711074
 30
0.0
 11
126.6092650065583
 21
53.51166423711074
 31
0.0
 70
   160
  1
457
 71
     5
 42
115.4686603171829
  3
STANDARD_WS
100
AcDbAlignedDimension
 13
69.92760768281705
 23
73.10948784472731
 33
0.0
 14
185.396268
 24
91.81176274069198
 34
0.0
100
AcDbRotatedDimension
  0
DIMENSION
  5
1512
330
18
100
AcDbEntity
  8
4
100
AcDbDimension
  2
*D21
 10
336.5561969999999
 20
45.9398319853201
 30
0.0
 11
289.1112664999999
 21
48.43983198532011
 31
0.0
 70
    32
  1
370.5
 71
     5
 42
94.88986099999994
  3
STANDARD_WS
100
AcDbAlignedDimension
 13
241.666336
 23
158.7961227406919
 33
0.0
 14
336.5561969999999
 24
88.62924374069198
 34
0.0
100
AcDbRotatedDimension
  0
MTEXT
  5
1667
330
18
100
AcDbEntity
  8
4
100
AcDbMText
 10
237.565335408506
 20
259.2689847331243
 30
0.0
 40
3.0
 41
37.0
 71
     1
 72
     5
  1
350Wx230Dx376H
 73
     1
 44
1.0
  0
LINE
  5
16B5
330
18
100
AcDbEntity
  8
0
 62
     0
100
AcDbLine
 10
323.082613
 20
272.163389
 30
0.0
 11
416.8326129999999
 21
272.163389
 31
0.0
  0
LINE
  5
16B6
330
18
100
AcDbEntity
  8
0
 62
     0
100
AcDbLine
 10
323.082613
 20
277.788389
 30
0.0
 11
416.8326129999999
 21
277.788389
 31
0.0
  0
LINE
  5
16B7
330
18
100
AcDbEntity
  8
0
 62
     0
100
AcDbLine
 10
323.082613
 20
283.413389
 30
0.0
 11
416.8326129999999
 21
283.413389
 31
0.0
  0
LINE
  5
16B8
330
18
100
AcDbEntity
  8
0
 62
     0
100
AcDbLine
 10
330.582613
 20
290.913389
 30
0.0
 11
330.582613
 21
272.163389
 31
0.0
  0
LINE
  5
16B9
330
18
100
AcDbEntity
  8
0
 62
     0
100
AcDbLine
 10
345.582613
 20
290.913389
 30
0.0
 11
345.582613
 21
272.163389
 31
0.0
  0
LINE
  5
16BA
330
18
100
AcDbEntity
  8
0
 62
     0
100
AcDbLine
 10
323.082613
 20
290.913389
 30
0.0
 11
323.082613
 21
272.163389
 31
0.0
  0
LINE
  5
16BB
330
18
100
AcDbEntity
  8
0
 62
     0
100
AcDbLine
 10
326.8691568129611
 20
282.9673959670557
 30
0.0
 11
324.1091568129613
 21
278.1673959670557
 31
0.0
  0
LINE
  5
16BC
330
18
100
AcDbEntity
  8
0
 62
     0
100
AcDbLine
 10
329.6291568129609
 20
278.1673959670557
 30
0.0
 11
326.8691568129611
 21
282.9673959670557
 31
0.0
  0
TEXT
  5
16BD
330
18
100
AcDbEntity
  8
0
 62
     0
100
AcDbText
 10
331.6067589674417
 20
279.0413543053202
 30
0.0
 40
3.0
  1
2020.03.03
 41
0.4476566944285567
  7
ED_VECTOR
 72
     5
 11
344.5888031058698
 21
279.0413543053202
 31
0.0
100
AcDbText
  0
LINE
  5
16BE
330
18
100
AcDbEntity
  8
0
 62
     0
100
AcDbLine
 10
324.1091568129613
 20
278.1673959670557
 30
0.0
 11
329.6291568129609
 21
278.1673959670557
 31
0.0
  0
TEXT
  5
16BF
330
18
100
AcDbEntity
  8
0
 62
     0
100
AcDbText
 10
326.4197852588277
 20
278.713682903134
 30
0.0
 40
2.4
  1
1
100
AcDbText
  0
TEXT
  5
16C0
330
18
100
AcDbEntity
  8
0
 62
     0
100
AcDbText
 10
323.8314152500001
 20
283.9147617499999
 30
0.0
 40
1.6222545
  1
ITEM
 41
1.009099962148584
  7
ED_VECTOR
 72
     5
 11
329.8338107499998
 21
283.9147617499999
 31
0.0
100
AcDbText
  0
TEXT
  5
16C1
330
18
100
AcDbEntity
  8
0
 62
     0
100
AcDbText
 10
324.207613
 20
286.6008889999999
 30
0.0
 40
3.0
  1
符号
 41
0.8203125
  7
ED_VECTOR
 72
     5
 11
329.457613
 21
286.6008889999999
 31
0.0
100
AcDbText
  0
TEXT
  5
16C2
330
18
100
AcDbEntity
  8
0
 62
     0
100
AcDbText
 10
333.957613
 20
286.6008889999999
 30
0.0
 40
3.0
  1
年月日
 41
0.8593749999999998
  7
ED_VECTOR
 72
     5
 11
342.207613
 21
286.6008889999999
 31
0.0
100
AcDbText
  0
TEXT
  5
16C3
330
18
100
AcDbEntity
  8
0
 62
     0
100
AcDbText
 10
335.0814152500002
 20
283.9147617499999
 30
0.0
 40
1.6222545
  1
DATE
 41
1.009099962148584
  7
ED_VECTOR
 72
     5
 11
341.0838107499998
 21
283.9147617499999
 31
0.0
100
AcDbText
  0
TEXT
  5
16C4
330
18
100
AcDbEntity
  8
0
 62
     0
100
AcDbText
 10
354.9516227500002
 20
283.9147617499999
 30
0.0
 40
1.6222545
  1
REVISED DESCRIPTION
 41
1.012782909963678
  7
ED_VECTOR
 72
     5
 11
384.9636032500001
 21
283.9147617499999
 31
0.0
100
AcDbText
  0
TEXT
  5
16C5
330
18
100
AcDbEntity
  8
0
 62
     0
100
AcDbText
 10
359.8326129999999
 20
286.6008889999999
 30
0.0
 40
3.0
  1
訂　正　記　事
 41
0.8299180327868851
  7
ED_VECTOR
 72
     5
 11
380.0826129999999
 21
286.6008889999999
 31
0.0
100
AcDbText
  0
LINE
  5
16C6
330
18
100
AcDbEntity
  8
0
 62
     0
100
AcDbLine
 10
394.3326129999999
 20
290.913389
 30
0.0
 11
394.3326129999999
 21
272.163389
 31
0.0
  0
LINE
  5
16C7
330
18
100
AcDbEntity
  8
0
 62
     0
100
AcDbLine
 10
405.5826129999999
 20
290.913389
 30
0.0
 11
405.5826129999999
 21
272.163389
 31
0.0
  0
TEXT
  5
16C8
330
18
100
AcDbEntity
  8
0
 62
     0
100
AcDbText
 10
397.3326129999999
 20
279.100889
 30
0.0
 40
3.0
  1
福田
 41
0.846774193548387
  7
ED_VECTOR
 72
     5
 11
402.5826129999999
 21
279.100889
 31
0.0
100
AcDbText
  0
TEXT
  5
16C9
330
18
100
AcDbEntity
  8
0
 62
     0
100
AcDbText
 10
408.582613
 20
279.100889
 30
0.0
 40
3.0
  1
宮木
 41
0.8203125
  7
ED_VECTOR
 72
     5
 11
413.832613
 21
279.100889
 31
0.0
100
AcDbText
  0
TEXT
  5
16CA
330
18
100
AcDbEntity
  8
0
 62
     0
100
AcDbText
 10
396.1560954999999
 20
283.9147617499999
 30
0.0
 40
1.6222545
  1
CHAGE
 41
1.004294816697568
  7
ED_VECTOR
 72
     5
 11
403.7591305
 21
283.9147617499999
 31
0.0
100
AcDbText
  0
TEXT
  5
16CB
330
18
100
AcDbEntity
  8
0
 62
     0
100
AcDbText
 10
397.3326129999999
 20
286.6008889999999
 30
0.0
 40
3.0
  1
担当
 41
0.8467741935483868
  7
ED_VECTOR
 72
     5
 11
402.5826129999999
 21
286.6008889999999
 31
0.0
100
AcDbText
  0
TEXT
  5
16CC
330
18
100
AcDbEntity
  8
0
 62
     0
100
AcDbText
 10
408.582613
 20
286.6008889999999
 30
0.0
 40
3.0
  1
承認
 41
0.8203125
  7
ED_VECTOR
 72
     5
 11
413.832613
 21
286.6008889999999
 31
0.0
100
AcDbText
  0
TEXT
  5
16CD
330
18
100
AcDbEntity
  8
0
 62
     0
100
AcDbText
 10
406.2581469999999
 20
284.076974
 30
0.0
 40
1.29783
  1
APPROVED
 41
0.9948645380968759
  7
ED_VECTOR
 72
     5
 11
416.1570789999999
 21
284.076974
 31
0.0
100
AcDbText
  0
LINE
  5
16DF
330
18
100
AcDbEntity
  8
4
 62
     2
100
AcDbLine
 10
408.2383466731295
 20
17.06250348618782
 30
0.0
 11
413.7583466731292
 21
17.06250348618782
 31
0.0
  0
LINE
  5
16E0
330
18
100
AcDbEntity
  8
4
 62
     2
100
AcDbLine
 10
410.9983466731294
 20
21.86250348618783
 30
0.0
 11
408.2383466731295
 21
17.06250348618782
 31
0.0
  0
TEXT
  5
16E1
330
18
100
AcDbEntity
  8
4
 62
     2
100
AcDbText
 10
410.5489751189958
 20
17.60879042226609
 30
0.0
 40
2.4
  1
1
100
AcDbText
  0
LINE
  5
16E2
330
18
100
AcDbEntity
  8
4
 62
     2
100
AcDbLine
 10
413.7583466731292
 20
17.06250348618782
 30
0.0
 11
410.9983466731294
 21
21.86250348618783
 31
0.0
  0
LINE
  5
16E5
330
18
100
AcDbEntity
  8
4
 62
     2
100
AcDbLine
 10
190.3347706867134
 20
255.7945156668521
 30
0.0
 11
187.5747706867135
 21
260.5945156668521
 31
0.0
  0
LINE
  5
16E6
330
18
100
AcDbEntity
  8
4
 62
     2
100
AcDbLine
 10
184.8147706867136
 20
255.7945156668521
 30
0.0
 11
190.3347706867134
 21
255.7945156668521
 31
0.0
  0
TEXT
  5
16E7
330
18
100
AcDbEntity
  8
4
 62
     2
100
AcDbText
 10
187.2381446980818
 20
256.3408026029304
 30
0.0
 40
2.4
  1
1
100
AcDbText
  0
LINE
  5
16E8
330
18
100
AcDbEntity
  8
4
 62
     2
100
AcDbLine
 10
187.5747706867135
 20
260.5945156668521
 30
0.0
 11
184.8147706867136
 21
255.7945156668521
 31
0.0
  0
LINE
  5
16E9
330
18
100
AcDbEntity
  8
4
 62
     2
100
AcDbLine
 10
190.2550775864239
 20
258.420209018402
 30
0.0
 11
198.4729347024862
 21
258.420209018402
 31
0.0
  0
LINE
  5
16EA
330
18
100
AcDbEntity
  8
4
 62
     2
100
AcDbLine
 10
190.2550775864239
 20
257.0760210410754
 30
0.0
 11
198.4729347024862
 21
257.0760210410754
 31
0.0
  0
MTEXT
  5
174A
330
18
100
AcDbEntity
  8
4
100
AcDbMText
 10
162.0672934820224
 20
209.9519295991865
 30
0.0
 40
1.8
 41
2.0
 71
     1
 72
     5
  1
切
 73
     1
 44
1.0
  0
MTEXT
  5
174B
330
18
100
AcDbEntity
  8
4
100
AcDbMText
 10
151.98509926312
 20
209.8543580198813
 30
0.0
 40
1.8
 41
2.0
 71
     1
 72
     5
  1
入
 73
     1
 44
1.0
  0
TEXT
  5
1777
330
18
100
AcDbEntity
  8
0
 62
     0
100
AcDbText
 10
346.7537941696714
 20
279.0169812499999
 30
0.0
 40
3.0
  1
定格及び材質の修正
 41
0.9626041056262158
 72
     5
 11
377.1720839074598
 21
279.0169812499999
 31
0.0
100
AcDbText
  0
LINE
  5
17A3
330
18
100
AcDbEntity
  8
4
 62
     2
100
AcDbLine
 10
90.83997978294297
 20
265.8963950289879
 30
0.0
 11
88.07997978294309
 21
261.0963950289879
 31
0.0
  0
TEXT
  5
17A4
330
18
100
AcDbEntity
  8
4
 62
     2
100
AcDbText
 10
90.5033537943113
 20
261.6426819650662
 30
0.0
 40
2.4
  1
1
100
AcDbText
  0
LINE
  5
17A5
330
18
100
AcDbEntity
  8
4
 62
     2
100
AcDbLine
 10
93.59997978294286
 20
261.0963950289879
 30
0.0
 11
90.83997978294297
 21
265.8963950289879
 31
0.0
  0
LINE
  5
17A6
330
18
100
AcDbEntity
  8
4
 62
     2
100
AcDbLine
 10
88.07997978294309
 20
261.0963950289879
 30
0.0
 11
93.59997978294286
 21
261.0963950289879
 31
0.0
  0
MTEXT
  5
17A7
330
18
100
AcDbEntity
  8
4
 62
     2
100
AcDbMText
 10
94.12759146315362
 20
264.5261265502005
 30
0.0
 40
3.0
 41
16.0
 71
     1
 72
     5
  1
合成ゴム
 73
     1
 44
1.0
  0
LINE
  5
17A9
330
18
100
AcDbEntity
  8
4
 62
     2
100
AcDbLine
 10
93.59124459042277
 20
263.6234901599103
 30
0.0
 11
108.1308651429192
 21
263.6234901599103
 31
0.0
  0
LINE
  5
17AA
330
18
100
AcDbEntity
  8
4
 62
     2
100
AcDbLine
 10
93.59124459042277
 20
262.235557443631
 30
0.0
 11
108.1308651429192
 21
262.235557443631
 31
0.0
  0
MTEXT
  5
17B7
330
18
100
AcDbEntity
  8
4
 62
     2
100
AcDbMText
 10
190.5788979400453
 20
264.4637201255489
 30
0.0
 40
3.0
 41
22.0
 71
     1
 72
     5
  1
75\U+2103
 73
     1
 44
1.0
  0
LINE
  5
17B8
330
18
100
AcDbEntity
  8
4
 62
     2
100
AcDbLine
 10
190.2550775864239
 20
262.2651713430626
 30
0.0
 11
199.7688494065434
 21
262.2651713430626
 31
0.0
  0
LINE
  5
17B9
330
18
100
AcDbEntity
  8
4
 62
     2
100
AcDbLine
 10
190.2550775864239
 20
263.6093593203892
 30
0.0
 11
199.7688494065434
 21
263.6093593203892
 31
0.0
  0
LINE
  5
17BB
330
18
100
AcDbEntity
  8
4
 62
     2
100
AcDbLine
 10
187.5747706867135
 20
265.727023079183
 30
0.0
 11
184.8147706867136
 21
260.927023079183
 31
0.0
  0
LINE
  5
17BC
330
18
100
AcDbEntity
  8
4
 62
     2
100
AcDbLine
 10
190.3347706867134
 20
260.927023079183
 30
0.0
 11
187.5747706867135
 21
265.727023079183
 31
0.0
  0
LINE
  5
17BD
330
18
100
AcDbEntity
  8
4
 62
     2
100
AcDbLine
 10
184.8147706867136
 20
260.927023079183
 30
0.0
 11
190.3347706867134
 21
260.927023079183
 31
0.0
  0
TEXT
  5
17BE
330
18
100
AcDbEntity
  8
4
 62
     2
100
AcDbText
 10
187.2381446980818
 20
261.4733100152613
 30
0.0
 40
2.4
  1
1
100
AcDbText
  0
VIEWPORT
  5
36
330
15
100
AcDbEntity
 67
     1
  8
0
100
AcDbViewport
 10
189.4366561869863
 20
136.2245792936595
 30
0.0
 40
509.1208891706274
 41
428.513562173145
 68
     1
 69
     1
 12
189.4366561869863
 22
136.2245792936595
 13
0.0
 23
0.0
 14
10.0
 24
10.0
 15
10.0
 25
10.0
 16
0.0
 26
0.0
 36
1.0
 17
0.0
 27
0.0
 37
0.0
 42
50.0
 43
0.0
 44
0.0
 45
428.513562173145
 50
0.0
 51
0.0
 72
   100
 90
    32800
  1

281
     0
 71
     1
 74
     0
110
0.0
120
0.0
130
0.0
111
1.0
121
0.0
131
0.0
112
0.0
122
1.0
132
0.0
 79
     0
146
0.0
  0
VIEWPORT
  5
D4
330
15
100
AcDbEntity
 67
     1
  8
VIEWPORT
100
AcDbViewport
 10
210.006409
 20
148.754532
 30
0.0
 40
418.012818
 41
292.509064
 68
     2
 69
     2
 12
209.998898
 22
148.187732
 13
0.0
 23
0.0
 14
10.0
 24
10.0
 15
10.0
 25
10.0
 16
0.0
 26
0.0
 36
1.0
 17
0.0
 27
0.0
 37
0.0
 42
50.0
 43
0.0
 44
0.0
 45
301.246568
 50
0.0
 51
0.0
 72
   100
 90
    32800
  1

281
     0
 71
     1
 74
     0
110
0.0
120
0.0
130
0.0
111
1.0
121
0.0
131
0.0
112
0.0
122
1.0
132
0.0
 79
     0
146
0.0
  0
ENDSEC
  0
SECTION
  2
OBJECTS
  0
DICTIONARY
  5
C
330
0
100
AcDbDictionary
281
     1
  3
ACAD_GROUP
350
D
  3
ACAD_LAYOUT
350
137D
  3
ACAD_MLINESTYLE
350
1B
  3
ACAD_PLOTSETTINGS
350
137E
  3
ACAD_PLOTSTYLENAME
350
137B
  3
ACDBVARIABLEDICTIONARY
350
D5
  3
CONTENTDICTIONARY
350
23
  0
DICTIONARY
  5
D
102
{ACAD_REACTORS
330
C
102
}
330
C
100
AcDbDictionary
281
     1
  0
DICTIONARY
  5
137D
102
{ACAD_REACTORS
330
C
102
}
330
C
100
AcDbDictionary
281
     1
  3
Model
350
137F
  3
ﾚｲｱｳﾄ1
350
1380
  0
DICTIONARY
  5
1B
102
{ACAD_REACTORS
330
C
102
}
330
C
100
AcDbDictionary
281
     1
  3
STANDARD
350
1C
  0
DICTIONARY
  5
137E
102
{ACAD_REACTORS
330
C
102
}
330
C
100
AcDbDictionary
281
     1
  0
ACDBDICTIONARYWDFLT
  5
137B
102
{ACAD_REACTORS
330
C
102
}
330
C
100
AcDbDictionary
281
     1
  3
Normal
350
137C
100
AcDbDictionaryWithDefault
340
137C
  0
DICTIONARY
  5
D5
102
{ACAD_REACTORS
330
C
102
}
330
C
100
AcDbDictionary
281
     1
  3
DIMADEC
350
D6
  0
DICTIONARY
  5
23
102
{ACAD_REACTORS
330
C
102
}
330
C
100
AcDbDictionary
281
     1
  0
LAYOUT
  5
137F
102
{ACAD_REACTORS
330
137D
102
}
330
137D
100
AcDbPlotSettings
  1

  2
PrimoPDF
  4
A3
  6

 40
3.174999952316284
 41
3.174999952316284
 42
3.17498779296875
 43
3.17498779296875
 44
297.0106506347656
 45
419.9889831542968
 46
2.64
 47
7.69
 48
18.569816
 49
5.537812
140
416.8326129999999
141
290.913389
142
1.0
143
1.0
 70
 11956
 72
     1
 73
     1
 74
     4
  7
monochrome.ctb
 75
    16
147
1.0
148
-18.569816
149
-5.537812
100
AcDbLayout
  1
Model
 70
     1
 71
     0
 10
0.0
 20
0.0
 11
12.0
 21
9.0
 12
0.0
 22
0.0
 32
0.0
 14
0.0
 24
0.0
 34
0.0
 15
0.0
 25
0.0
 35
0.0
146
0.0
 13
0.0
 23
0.0
 33
0.0
 16
1.0
 26
0.0
 36
0.0
 17
0.0
 27
1.0
 37
0.0
 76
     0
330
18
  0
LAYOUT
  5
1380
102
{ACAD_REACTORS
330
137D
102
}
330
137D
100
AcDbPlotSettings
  1

  2
PrimoPDF
  4
A4
  6

 40
3.174999952316284
 41
3.174999952316284
 42
3.175003051757812
 43
3.17498779296875
 44
210.0156707763671
 45
297.0106506347656
 46
0.0
 47
0.0
 48
0.0
 49
0.0
140
0.0
141
0.0
142
1.0
143
1.438214601070957
 70
   688
 72
     1
 73
     1
 74
     1
  7
monochrome.ctb
 75
     0
147
0.695306527451019
148
-0.9998200220350099
149
-2.497209426507311
100
AcDbLayout
  1
ﾚｲｱｳﾄ1
 70
     1
 71
     1
 10
-3.5664937800347
 20
-2.069121863313562
 11
423.5985606364702
 21
299.9784823009688
 12
0.0
 22
0.0
 32
0.0
 14
0.9998200220350099
 24
2.497209426507311
 34
-0.0015258207003583
 15
419.0322293466493
 25
295.0239887061757
 35
0.0000000349246037
146
0.0
 13
0.0
 23
0.0
 33
0.0
 16
1.0
 26
0.0
 36
0.0
 17
0.0
 27
1.0
 37
0.0
 76
     0
330
15
331
36
  0
MLINESTYLE
  5
1C
102
{ACAD_REACTORS
330
1B
102
}
330
1B
100
AcDbMlineStyle
  2
STANDARD
 70
     0
  3

 62
   256
 51
90.0
 52
90.0
 71
     2
 49
0.5
 62
   256
  6
BYLAYER
 49
-0.5
 62
   256
  6
BYLAYER
  0
ACDBPLACEHOLDER
  5
137C
102
{ACAD_REACTORS
330
137B
102
}
330
137B
  0
DICTIONARYVAR
  5
D6
102
{ACAD_REACTORS
330
D5
102
}
330
D5
100
DictionaryVariables
280
     0
  1
0
  0
ENDSEC
  0
EOF
