  0
SECTION
  2
HEADER
  9
$ACADVER
  1
AC1015
  9
$ACADMAINTVER
 70
     6
  9
$DWGCODEPAGE
  3
ANSI_932
  9
$INSBASE
 10
0.0
 20
0.0
 30
0.0
  9
$EXTMIN
 10
43.087332
 20
39.9553
 30
0.0
  9
$EXTMAX
 10
1146.087332
 20
799.95533
 30
0.0
  9
$LIMMIN
 10
0.0
 20
0.0
  9
$LIMMAX
 10
1188.0
 20
840.0
  9
$ORTHOMODE
 70
     1
  9
$REGENMODE
 70
     1
  9
$FILLMODE
 70
     1
  9
$QTEXTMODE
 70
     0
  9
$MIRRTEXT
 70
     1
  9
$LTSCALE
 40
1.0
  9
$ATTMODE
 70
     1
  9
$TEXTSIZE
 40
3.5
  9
$TRACEWID
 40
0.05
  9
$TEXTSTYLE
  7
STANDARD
  9
$CLAYER
  8
0
  9
$CELTYPE
  6
CONTINUOUS
  9
$CECOLOR
 62
   256
  9
$CELTSCALE
 40
10.0
  9
$DISPSILH
 70
     0
  9
$DIMSCALE
 40
1.0
  9
$DIMASZ
 40
4.0
  9
$DIMEXO
 40
1.0
  9
$DIMDLI
 40
3.0
  9
$DIMRND
 40
0.0
  9
$DIMDLE
 40
0.0
  9
$DIMEXE
 40
1.0
  9
$DIMTP
 40
0.0
  9
$DIMTM
 40
0.0
  9
$DIMTXT
 40
6.0
  9
$DIMCEN
 40
0.0
  9
$DIMTSZ
 40
0.0
  9
$DIMTOL
 70
     0
  9
$DIMLIM
 70
     0
  9
$DIMTIH
 70
     0
  9
$DIMTOH
 70
     0
  9
$DIMSE1
 70
     0
  9
$DIMSE2
 70
     0
  9
$DIMTAD
 70
     1
  9
$DIMZIN
 70
     8
  9
$DIMBLK
  1

  9
$DIMASO
 70
     1
  9
$DIMSHO
 70
     1
  9
$DIMPOST
  1

  9
$DIMAPOST
  1

  9
$DIMALT
 70
     0
  9
$DIMALTD
 70
     2
  9
$DIMALTF
 40
0.03937
  9
$DIMLFAC
 40
1.0
  9
$DIMTOFL
 70
     1
  9
$DIMTVP
 40
0.75
  9
$DIMTIX
 70
     0
  9
$DIMSOXD
 70
     0
  9
$DIMSAH
 70
     1
  9
$DIMBLK1
  1
OPEN
  9
$DIMBLK2
  1
OPEN
  9
$DIMSTYLE
  2
DIM1
  9
$DIMCLRD
 70
     3
  9
$DIMCLRE
 70
     3
  9
$DIMCLRT
 70
   256
  9
$DIMTFAC
 40
0.5
  9
$DIMGAP
 40
1.5
  9
$DIMJUST
 70
     0
  9
$DIMSD1
 70
     0
  9
$DIMSD2
 70
     0
  9
$DIMTOLJ
 70
     1
  9
$DIMTZIN
 70
     8
  9
$DIMALTZ
 70
     0
  9
$DIMALTTZ
 70
     0
  9
$DIMUPT
 70
     1
  9
$DIMDEC
 70
     4
  9
$DIMTDEC
 70
     4
  9
$DIMALTU
 70
     2
  9
$DIMALTTD
 70
     2
  9
$DIMTXSTY
  7
STANDARD
  9
$DIMAUNIT
 70
     0
  9
$DIMADEC
 70
     0
  9
$DIMALTRND
 40
0.0
  9
$DIMAZIN
 70
     0
  9
$DIMDSEP
 70
    46
  9
$DIMATFIT
 70
     3
  9
$DIMFRAC
 70
     0
  9
$DIMLDRBLK
  1
OPEN
  9
$DIMLUNIT
 70
     2
  9
$DIMLWD
 70
    -2
  9
$DIMLWE
 70
    -2
  9
$DIMTMOVE
 70
     0
  9
$LUNITS
 70
     2
  9
$LUPREC
 70
     4
  9
$SKETCHINC
 40
0.1
  9
$FILLETRAD
 40
0.0
  9
$AUNITS
 70
     0
  9
$AUPREC
 70
     0
  9
$MENU
  1
acad
  9
$ELEVATION
 40
0.0
  9
$PELEVATION
 40
0.0
  9
$THICKNESS
 40
0.0
  9
$LIMCHECK
 70
     0
  9
$CHAMFERA
 40
10.0
  9
$CHAMFERB
 40
10.0
  9
$CHAMFERC
 40
20.0
  9
$CHAMFERD
 40
0.0
  9
$SKPOLY
 70
     0
  9
$TDCREATE
 40
2450901.470568402
  9
$TDUCREATE
 40
2450901.095568402
  9
$TDUPDATE
 40
2459383.397971099
  9
$TDUUPDATE
 40
2459383.022971099
  9
$TDINDWG
 40
0.3501259028
  9
$TDUSRTIMER
 40
0.3501193866
  9
$USRTIMER
 70
     1
  9
$ANGBASE
 50
0.0
  9
$ANGDIR
 70
     0
  9
$PDMODE
 70
     0
  9
$PDSIZE
 40
0.0
  9
$PLINEWID
 40
0.0
  9
$SPLFRAME
 70
     0
  9
$SPLINETYPE
 70
     6
  9
$SPLINESEGS
 70
     8
  9
$HANDSEED
  5
1C70
  9
$SURFTAB1
 70
     6
  9
$SURFTAB2
 70
     6
  9
$SURFTYPE
 70
     6
  9
$SURFU
 70
     6
  9
$SURFV
 70
     6
  9
$UCSBASE
  2

  9
$UCSNAME
  2

  9
$UCSORG
 10
0.0
 20
0.0
 30
0.0
  9
$UCSXDIR
 10
1.0
 20
0.0
 30
0.0
  9
$UCSYDIR
 10
0.0
 20
1.0
 30
0.0
  9
$UCSORTHOREF
  2

  9
$UCSORTHOVIEW
 70
     0
  9
$UCSORGTOP
 10
0.0
 20
0.0
 30
0.0
  9
$UCSORGBOTTOM
 10
0.0
 20
0.0
 30
0.0
  9
$UCSORGLEFT
 10
0.0
 20
0.0
 30
0.0
  9
$UCSORGRIGHT
 10
0.0
 20
0.0
 30
0.0
  9
$UCSORGFRONT
 10
0.0
 20
0.0
 30
0.0
  9
$UCSORGBACK
 10
0.0
 20
0.0
 30
0.0
  9
$PUCSBASE
  2

  9
$PUCSNAME
  2

  9
$PUCSORG
 10
0.0
 20
0.0
 30
0.0
  9
$PUCSXDIR
 10
1.0
 20
0.0
 30
0.0
  9
$PUCSYDIR
 10
0.0
 20
1.0
 30
0.0
  9
$PUCSORTHOREF
  2

  9
$PUCSORTHOVIEW
 70
     0
  9
$PUCSORGTOP
 10
0.0
 20
0.0
 30
0.0
  9
$PUCSORGBOTTOM
 10
0.0
 20
0.0
 30
0.0
  9
$PUCSORGLEFT
 10
0.0
 20
0.0
 30
0.0
  9
$PUCSORGRIGHT
 10
0.0
 20
0.0
 30
0.0
  9
$PUCSORGFRONT
 10
0.0
 20
0.0
 30
0.0
  9
$PUCSORGBACK
 10
0.0
 20
0.0
 30
0.0
  9
$USERI1
 70
     0
  9
$USERI2
 70
     0
  9
$USERI3
 70
     0
  9
$USERI4
 70
     0
  9
$USERI5
 70
     0
  9
$USERR1
 40
0.0
  9
$USERR2
 40
0.0
  9
$USERR3
 40
0.0
  9
$USERR4
 40
0.0
  9
$USERR5
 40
0.0
  9
$WORLDVIEW
 70
     1
  9
$SHADEDGE
 70
     3
  9
$SHADEDIF
 70
    70
  9
$TILEMODE
 70
     1
  9
$MAXACTVP
 70
    16
  9
$PINSBASE
 10
0.0
 20
0.0
 30
0.0
  9
$PLIMCHECK
 70
     0
  9
$PEXTMIN
 10
1.000000000000000E+20
 20
1.000000000000000E+20
 30
1.000000000000000E+20
  9
$PEXTMAX
 10
-1.000000000000000E+20
 20
-1.000000000000000E+20
 30
-1.000000000000000E+20
  9
$PLIMMIN
 10
0.0
 20
0.0
  9
$PLIMMAX
 10
1188.0
 20
840.0
  9
$UNITMODE
 70
     0
  9
$VISRETAIN
 70
     0
  9
$PLINEGEN
 70
     0
  9
$PSLTSCALE
 70
     1
  9
$TREEDEPTH
 70
  3020
  9
$CMLSTYLE
  2
STANDARD
  9
$CMLJUST
 70
     0
  9
$CMLSCALE
 40
1.0
  9
$PROXYGRAPHICS
 70
     0
  9
$MEASUREMENT
 70
     0
  9
$CELWEIGHT
370
    -1
  9
$ENDCAPS
280
     0
  9
$JOINSTYLE
280
     0
  9
$LWDISPLAY
290
     1
  9
$INSUNITS
 70
     0
  9
$HYPERLINKBASE
  1

  9
$STYLESHEET
  1
MONOCHROME.CTB
  9
$XEDIT
290
     1
  9
$CEPSNTYPE
380
     0
  9
$PSTYLEMODE
290
     1
  9
$FINGERPRINTGUID
  2
{8EC73058-8605-488C-AB19-6642FBC59EA2}
  9
$VERSIONGUID
  2
{DDB35E38-CCFE-4F32-8818-D47506A2D61D}
  9
$EXTNAMES
290
     1
  9
$PSVPSCALE
 40
0.0
  9
$OLESTARTUP
290
     0
  0
ENDSEC
  0
SECTION
  2
CLASSES
  0
CLASS
  1
ACDBDICTIONARYWDFLT
  2
AcDbDictionaryWithDefault
  3
AutoCAD 2000
 90
        0
280
     0
281
     0
  0
CLASS
  1
ACDBPLACEHOLDER
  2
AcDbPlaceHolder
  3
AutoCAD 2000
 90
        0
280
     0
281
     0
  0
CLASS
  1
LAYOUT
  2
AcDbLayout
  3
AutoCAD 2000
 90
        0
280
     0
281
     0
  0
ENDSEC
  0
SECTION
  2
TABLES
  0
TABLE
  2
VPORT
  5
8
330
0
100
AcDbSymbolTable
 70
     2
  0
VPORT
  5
1C6F
330
8
100
AcDbSymbolTableRecord
100
AcDbViewportTableRecord
  2
*Active
 70
     0
 10
0.0
 20
0.0
 11
1.0
 21
1.0
 12
553.7983933944333
 22
391.4719253001908
 13
0.0
 23
0.0
 14
10.0
 24
10.0
 15
10.0
 25
10.0
 16
0.0
 26
0.0
 36
1.0
 17
0.0
 27
0.0
 37
0.0
 40
1068.277135820677
 41
1.46679499518768
 42
50.0
 43
0.0
 44
0.0
 50
0.0
 51
0.0
 71
     0
 72
   100
 73
     1
 74
     0
 75
     0
 76
     0
 77
     0
 78
     0
281
     0
 65
     1
110
0.0
120
0.0
130
0.0
111
1.0
121
0.0
131
0.0
112
0.0
122
1.0
132
0.0
 79
     0
146
0.0
  0
ENDTAB
  0
TABLE
  2
LTYPE
  5
12D
330
0
100
AcDbSymbolTable
 70
     4
  0
LTYPE
  5
14
330
12D
100
AcDbSymbolTableRecord
100
AcDbLinetypeTableRecord
  2
BYBLOCK
 70
     0
  3

 72
    65
 73
     0
 40
0.0
  0
LTYPE
  5
15
330
12D
100
AcDbSymbolTableRecord
100
AcDbLinetypeTableRecord
  2
BYLAYER
 70
     0
  3

 72
    65
 73
     0
 40
0.0
  0
LTYPE
  5
92
330
12D
100
AcDbSymbolTableRecord
100
AcDbLinetypeTableRecord
  2
CONTINUOUS
 70
     0
  3
Solid line
 72
    65
 73
     0
 40
0.0
  0
LTYPE
  5
97
330
12D
100
AcDbSymbolTableRecord
100
AcDbLinetypeTableRecord
  2
CENTER2
 70
     0
  3
___ _ ___ _ ___ _ ___ _ ___ _ ___ _ ___ _ ___ _
 72
    65
 73
     4
 40
1.125
 49
0.75
 74
     0
 49
-0.125
 74
     0
 49
0.125
 74
     0
 49
-0.125
 74
     0
  0
LTYPE
  5
A5
330
12D
100
AcDbSymbolTableRecord
100
AcDbLinetypeTableRecord
  2
HIDDEN
 70
     0
  3
__ __ __ __ __ __ __ __ __ __ __ __ __ __ __ __
 72
    65
 73
     2
 40
0.375
 49
0.25
 74
     0
 49
-0.125
 74
     0
  0
LTYPE
  5
A9
330
12D
100
AcDbSymbolTableRecord
100
AcDbLinetypeTableRecord
  2
PHANTOM2
 70
     0
  3
___ _ _ ___ _ _ ___ _ _ ___ _ _ ___ _ _ ___ _ _
 72
    65
 73
     6
 40
1.25
 49
0.625
 74
     0
 49
-0.125
 74
     0
 49
0.125
 74
     0
 49
-0.125
 74
     0
 49
0.125
 74
     0
 49
-0.125
 74
     0
  0
ENDTAB
  0
TABLE
  2
LAYER
  5
12E
330
0
100
AcDbSymbolTable
 70
     4
  0
LAYER
  5
12F
330
12E
100
AcDbSymbolTableRecord
100
AcDbLayerTableRecord
  2
0
 70
     0
 62
     7
  6
CONTINUOUS
370
    -3
390
1091
  0
LAYER
  5
101D
330
12E
100
AcDbSymbolTableRecord
100
AcDbLayerTableRecord
  2
DEFPOINTS
 70
     0
 62
     7
  6
CONTINUOUS
290
     0
370
    -3
390
1091
  0
LAYER
  5
10AA
330
12E
100
AcDbSymbolTableRecord
100
AcDbLayerTableRecord
  2
寸法線
 70
     0
 62
     6
  6
CONTINUOUS
370
    13
390
1091
  0
LAYER
  5
10AB
330
12E
100
AcDbSymbolTableRecord
100
AcDbLayerTableRecord
  2
文字
 70
     0
 62
     7
  6
CONTINUOUS
370
    -3
390
1091
  0
ENDTAB
  0
TABLE
  2
STYLE
  5
3
330
0
100
AcDbSymbolTable
 70
     2
  0
STYLE
  5
10
330
3
100
AcDbSymbolTableRecord
100
AcDbTextStyleTableRecord
  2
STANDARD
 70
     0
 40
0.0
 41
0.8
 50
0.0
 71
     0
 42
3.5
  3
txt.shx
  4
bigfont.shx
  0
STYLE
  5
10AC
330
3
100
AcDbSymbolTableRecord
100
AcDbTextStyleTableRecord
  2
ED_VECTOR
 70
     0
 40
0.0
 41
1.0
 50
0.0
 71
     0
 42
0.2
  3
MONOTXT.SHX
  4
BIGFONT.SHX
  0
ENDTAB
  0
TABLE
  2
VIEW
  5
6
330
0
100
AcDbSymbolTable
 70
     0
  0
ENDTAB
  0
TABLE
  2
UCS
  5
7
330
0
100
AcDbSymbolTable
 70
     0
  0
ENDTAB
  0
TABLE
  2
APPID
  5
9
330
0
100
AcDbSymbolTable
 70
     6
  0
APPID
  5
11
330
9
100
AcDbSymbolTableRecord
100
AcDbRegAppTableRecord
  2
ACAD
 70
     0
  0
APPID
  5
10AE
330
9
100
AcDbSymbolTableRecord
100
AcDbRegAppTableRecord
  2
ACAD_PSEXT
 70
     0
  0
APPID
  5
10AF
330
9
100
AcDbSymbolTableRecord
100
AcDbRegAppTableRecord
  2
ACAD_DSTYLE_DIMEXT_LENGTH
 70
     0
  0
APPID
  5
10B0
330
9
100
AcDbSymbolTableRecord
100
AcDbRegAppTableRecord
  2
ACAD_DSTYLE_DIMEXT_ENABLED
 70
     0
  0
APPID
  5
10B1
330
9
100
AcDbSymbolTableRecord
100
AcDbRegAppTableRecord
  2
ACAD_DSTYLE_DIMJOGGED_JOGANGLE_SYMBOL
 70
     0
  0
APPID
  5
10B2
330
9
100
AcDbSymbolTableRecord
100
AcDbRegAppTableRecord
  2
ACAD_DSTYLE_DIMARC_LENGTH_SYMBOL
 70
     0
  0
ENDTAB
  0
TABLE
  2
DIMSTYLE
  5
A
330
0
100
AcDbSymbolTable
 70
     3
100
AcDbDimStyleTable
 71
     1
340
1D
  0
DIMSTYLE
105
1D
102
{ACAD_REACTORS
330
1B0
330
1B1
330
1B2
330
1B3
330
1B4
330
1B5
330
1B6
330
1B7
330
1B8
330
1B9
330
13F6
102
}
330
A
100
AcDbSymbolTableRecord
100
AcDbDimStyleTableRecord
  2
DIM1
 70
     0
 41
4.0
 42
1.0
 43
30.0
 44
1.0
 73
     0
 74
     0
 77
     1
 78
     8
140
6.0
141
0.0
146
0.5
147
1.5
172
     1
173
     1
176
     3
177
     3
284
     8
288
     1
340
10
341
C0
342
C0
343
C0
344
C0
  0
DIMSTYLE
105
10AD
330
A
100
AcDbSymbolTableRecord
100
AcDbDimStyleTableRecord
  2
ISO-25
 70
     0
 40
4.0
 41
2.5
 42
1.0
 43
3.75
 44
1.25
 73
     0
 74
     0
 77
     1
 78
     8
140
3.0
141
2.5
143
0.03937007874016
147
1.0
171
     3
172
     1
271
     2
272
     2
274
     3
278
    44
283
     0
284
     8
340
10
341
C0
342
C0
1001
ACAD_DSTYLE_DIMEXT_LENGTH
1070
   378
1040
1.25
1001
ACAD_DSTYLE_DIMEXT_ENABLED
1070
   383
1070
     0
1001
ACAD_DSTYLE_DIMARC_LENGTH_SYMBOL
1070
   379
1070
     0
1001
ACAD_DSTYLE_DIMJOGGED_JOGANGLE_SYMBOL
1070
   384
1040
1.570796326794896
  0
DIMSTYLE
105
118E
330
A
100
AcDbSymbolTableRecord
100
AcDbDimStyleTableRecord
  2
EDDIMINFO
 70
     0
 41
1.5
 42
1.0
 43
10.0
 44
1.0
 46
5.0
 73
     0
 74
     0
 77
     1
 78
     8
140
4.0
141
2.5
143
0.03937
147
1.0
171
     3
172
     1
173
     1
176
     3
177
     3
178
     6
179
     2
271
     2
272
     2
274
     3
283
     0
284
     8
340
10AC
341
1182
343
1182
344
1188
  0
ENDTAB
  0
TABLE
  2
BLOCK_RECORD
  5
1
330
0
100
AcDbSymbolTable
 70
    33
  0
BLOCK_RECORD
  5
19
330
1
100
AcDbSymbolTableRecord
100
AcDbBlockTableRecord
  2
*MODEL_SPACE
340
1094
  0
BLOCK_RECORD
  5
16
330
1
100
AcDbSymbolTableRecord
100
AcDbBlockTableRecord
  2
*PAPER_SPACE
340
1095
  0
BLOCK_RECORD
  5
C0
330
1
100
AcDbSymbolTableRecord
100
AcDbBlockTableRecord
  2
_OPEN
340
0
102
{BLKREFS
331
103C
331
103D
331
1031
331
1032
331
1073
331
1074
331
1068
331
1069
331
105D
331
105E
331
1047
331
1048
331
1026
331
1027
331
109C
331
109D
331
1480
331
1481
331
14C7
331
14C8
331
1B74
331
1B75
331
1B7D
331
1B7E
331
1B86
331
1B87
331
1B8F
331
1B90
331
1B9A
331
1B9B
331
1BA3
331
1BA4
331
1BAC
331
1BAD
331
1BB5
331
1BB6
331
1BBE
331
1BBF
331
1BC7
331
1BC8
331
1BD0
331
1BD1
331
1BDF
331
1BE0
331
1BF0
331
1BF1
331
1BFA
331
1BFB
331
1C03
331
1C04
331
1C0C
331
1C0D
331
1C15
331
1C16
331
1C1E
331
1C1F
331
1C27
331
1C28
331
1C32
331
1C33
331
1C3D
331
1C3E
331
1C57
331
1C58
331
1C60
331
1C61
331
1C69
331
1C6A
102
}
  0
BLOCK_RECORD
  5
C1
330
1
100
AcDbSymbolTableRecord
100
AcDbBlockTableRecord
  2
_ORIGIN
340
0
  0
BLOCK_RECORD
  5
C2
330
1
100
AcDbSymbolTableRecord
100
AcDbBlockTableRecord
  2
_OBLIQUE
340
0
  0
BLOCK_RECORD
  5
C3
330
1
100
AcDbSymbolTableRecord
100
AcDbBlockTableRecord
  2
_NONE
340
0
  0
BLOCK_RECORD
  5
C4
330
1
100
AcDbSymbolTableRecord
100
AcDbBlockTableRecord
  2
_DOT
340
0
  0
BLOCK_RECORD
  5
130
330
1
100
AcDbSymbolTableRecord
100
AcDbBlockTableRecord
  2
*D5
340
0
  0
BLOCK_RECORD
  5
131
330
1
100
AcDbSymbolTableRecord
100
AcDbBlockTableRecord
  2
*D6
340
0
  0
BLOCK_RECORD
  5
132
330
1
100
AcDbSymbolTableRecord
100
AcDbBlockTableRecord
  2
*D7
340
0
  0
BLOCK_RECORD
  5
133
330
1
100
AcDbSymbolTableRecord
100
AcDbBlockTableRecord
  2
*D8
340
0
  0
BLOCK_RECORD
  5
134
330
1
100
AcDbSymbolTableRecord
100
AcDbBlockTableRecord
  2
*D9
340
0
  0
BLOCK_RECORD
  5
135
330
1
100
AcDbSymbolTableRecord
100
AcDbBlockTableRecord
  2
*D10
340
0
  0
BLOCK_RECORD
  5
136
330
1
100
AcDbSymbolTableRecord
100
AcDbBlockTableRecord
  2
*D11
340
0
  0
BLOCK_RECORD
  5
137
330
1
100
AcDbSymbolTableRecord
100
AcDbBlockTableRecord
  2
*D12
340
0
  0
BLOCK_RECORD
  5
138
330
1
100
AcDbSymbolTableRecord
100
AcDbBlockTableRecord
  2
*D13
340
0
  0
BLOCK_RECORD
  5
139
330
1
100
AcDbSymbolTableRecord
100
AcDbBlockTableRecord
  2
*D14
340
0
  0
BLOCK_RECORD
  5
1182
330
1
100
AcDbSymbolTableRecord
100
AcDbBlockTableRecord
  2
EDTIP_ARROW_S
340
0
  0
BLOCK_RECORD
  5
1188
330
1
100
AcDbSymbolTableRecord
100
AcDbBlockTableRecord
  2
EDTIP_ARROW_E
340
0
  0
BLOCK_RECORD
  5
11DB
330
1
100
AcDbSymbolTableRecord
100
AcDbBlockTableRecord
  2
Ａ－３　アンナカ用紙
340
0
102
{BLKREFS
331
123F
102
}
1001
ACAD
1000
DesignCenter Data
1002
{
1070
     1
1070
     4
1002
}
  0
BLOCK_RECORD
  5
123E
330
1
100
AcDbSymbolTableRecord
100
AcDbBlockTableRecord
  2
A$C3C741725
340
0
  0
BLOCK_RECORD
  5
13F7
330
1
100
AcDbSymbolTableRecord
100
AcDbBlockTableRecord
  2
*D19
340
0
  0
BLOCK_RECORD
  5
1452
330
1
100
AcDbSymbolTableRecord
100
AcDbBlockTableRecord
  2
_DotSmall
340
0
  0
BLOCK_RECORD
  5
1AEB
330
1
100
AcDbSymbolTableRecord
100
AcDbBlockTableRecord
  2
*D21
340
0
  0
BLOCK_RECORD
  5
1AF7
330
1
100
AcDbSymbolTableRecord
100
AcDbBlockTableRecord
  2
*D22
340
0
  0
BLOCK_RECORD
  5
1B03
330
1
100
AcDbSymbolTableRecord
100
AcDbBlockTableRecord
  2
*D23
340
0
  0
BLOCK_RECORD
  5
1B0F
330
1
100
AcDbSymbolTableRecord
100
AcDbBlockTableRecord
  2
*D24
340
0
  0
BLOCK_RECORD
  5
1B1B
330
1
100
AcDbSymbolTableRecord
100
AcDbBlockTableRecord
  2
*D25
340
0
  0
BLOCK_RECORD
  5
1B29
330
1
100
AcDbSymbolTableRecord
100
AcDbBlockTableRecord
  2
*D26
340
0
  0
BLOCK_RECORD
  5
1B35
330
1
100
AcDbSymbolTableRecord
100
AcDbBlockTableRecord
  2
*D27
340
0
  0
BLOCK_RECORD
  5
1B41
330
1
100
AcDbSymbolTableRecord
100
AcDbBlockTableRecord
  2
*D28
340
0
  0
BLOCK_RECORD
  5
1B4D
330
1
100
AcDbSymbolTableRecord
100
AcDbBlockTableRecord
  2
*D29
340
0
  0
BLOCK_RECORD
  5
1B59
330
1
100
AcDbSymbolTableRecord
100
AcDbBlockTableRecord
  2
*D30
340
0
  0
BLOCK_RECORD
  5
1B65
330
1
100
AcDbSymbolTableRecord
100
AcDbBlockTableRecord
  2
*D31
340
0
  0
BLOCK_RECORD
  5
1C2E
330
1
100
AcDbSymbolTableRecord
100
AcDbBlockTableRecord
  2
*D32
340
0
  0
ENDTAB
  0
ENDSEC
  0
SECTION
  2
BLOCKS
  0
BLOCK
  5
1A
330
19
100
AcDbEntity
  8
0
100
AcDbBlockBegin
  2
*MODEL_SPACE
 70
     0
 10
0.0
 20
0.0
 30
0.0
  3
*MODEL_SPACE
  1

  0
ENDBLK
  5
1B
330
19
100
AcDbEntity
  8
0
100
AcDbBlockEnd
  0
BLOCK
  5
17
330
16
100
AcDbEntity
 67
     1
  8
0
100
AcDbBlockBegin
  2
*PAPER_SPACE
 70
     0
 10
0.0
 20
0.0
 30
0.0
  3
*PAPER_SPACE
  1

  0
ENDBLK
  5
18
330
16
100
AcDbEntity
 67
     1
  8
0
100
AcDbBlockEnd
  0
BLOCK
  5
2B
330
C0
100
AcDbEntity
  8
0
100
AcDbBlockBegin
  2
_OPEN
 70
     0
 10
0.0
 20
0.0
 30
0.0
  3
_OPEN
  1

  0
LINE
  5
2C
330
C0
100
AcDbEntity
  8
0
  6
ByBlock
 62
     0
100
AcDbLine
 10
-1.0
 20
0.1667
 30
0.0
 11
0.0
 21
0.0
 31
0.0
  0
LINE
  5
2D
330
C0
100
AcDbEntity
  8
0
  6
ByBlock
 62
     0
100
AcDbLine
 10
0.0
 20
0.0
 30
0.0
 11
-1.0
 21
-0.1667
 31
0.0
  0
LINE
  5
2E
330
C0
100
AcDbEntity
  8
0
  6
ByBlock
 62
     0
100
AcDbLine
 10
0.0
 20
0.0
 30
0.0
 11
-1.0
 21
0.0
 31
0.0
  0
ENDBLK
  5
2F
330
C0
100
AcDbEntity
  8
0
100
AcDbBlockEnd
  0
BLOCK
  5
C5
330
C1
100
AcDbEntity
  8
0
100
AcDbBlockBegin
  2
_ORIGIN
 70
     0
 10
0.0
 20
0.0
 30
0.0
  3
_ORIGIN
  1

  0
CIRCLE
  5
C6
330
C1
100
AcDbEntity
  8
0
  6
ByBlock
 62
     0
100
AcDbCircle
 10
0.0
 20
0.0
 30
0.0
 40
0.5
  0
LINE
  5
C7
330
C1
100
AcDbEntity
  8
0
  6
ByBlock
 62
     0
100
AcDbLine
 10
0.0
 20
0.0
 30
0.0
 11
-1.0
 21
0.0
 31
0.0
  0
ENDBLK
  5
C8
330
C1
100
AcDbEntity
  8
0
100
AcDbBlockEnd
  0
BLOCK
  5
D0
330
C2
100
AcDbEntity
  8
0
100
AcDbBlockBegin
  2
_OBLIQUE
 70
     0
 10
0.0
 20
0.0
 30
0.0
  3
_OBLIQUE
  1

  0
LINE
  5
E0
330
C2
100
AcDbEntity
  8
0
  6
ByBlock
 62
     0
100
AcDbLine
 10
-0.5
 20
-0.5
 30
0.0
 11
0.5
 21
0.5
 31
0.0
  0
ENDBLK
  5
E1
330
C2
100
AcDbEntity
  8
0
100
AcDbBlockEnd
  0
BLOCK
  5
E2
330
C3
100
AcDbEntity
  8
0
100
AcDbBlockBegin
  2
_NONE
 70
     0
 10
0.0
 20
0.0
 30
0.0
  3
_NONE
  1

  0
CIRCLE
  5
E3
330
C3
100
AcDbEntity
  8
0
  6
ByBlock
 62
     0
100
AcDbCircle
 10
0.0
 20
0.0
 30
0.0
 40
0.25
  0
ENDBLK
  5
E4
330
C3
100
AcDbEntity
  8
0
100
AcDbBlockEnd
  0
BLOCK
  5
C9
330
C4
100
AcDbEntity
  8
0
100
AcDbBlockBegin
  2
_DOT
 70
     0
 10
0.0
 20
0.0
 30
0.0
  3
_DOT
  1

  0
LWPOLYLINE
  5
CA
330
C4
100
AcDbEntity
  8
0
  6
ByBlock
 62
     0
100
AcDbPolyline
 90
        2
 70
     1
 43
0.5
 10
-0.25
 20
0.0
 42
1.0
 10
0.25
 20
0.0
 42
1.0
  0
LINE
  5
CE
330
C4
100
AcDbEntity
  8
0
  6
ByBlock
 62
     0
100
AcDbLine
 10
-0.5
 20
0.0
 30
0.0
 11
-1.0
 21
0.0
 31
0.0
  0
ENDBLK
  5
CF
330
C4
100
AcDbEntity
  8
0
100
AcDbBlockEnd
  0
BLOCK
  5
107A
330
130
100
AcDbEntity
  8
0
 48
10.0
100
AcDbBlockBegin
  2
*D5
 70
     1
 10
0.0
 20
0.0
 30
0.0
  3
*D5
  1

  0
LINE
  5
1C54
330
130
100
AcDbEntity
  8
0
  6
Continuous
 62
     3
 48
10.0
370
    -2
100
AcDbLine
 10
784.228343
 20
236.305575
 30
0.0
 11
784.228343
 21
224.0313589999999
 31
0.0
  0
LINE
  5
1C55
330
130
100
AcDbEntity
  8
0
  6
Continuous
 62
     3
 48
10.0
370
    -2
100
AcDbLine
 10
958.228343
 20
236.305575
 30
0.0
 11
958.228343
 21
224.0313589999999
 31
0.0
  0
LINE
  5
1C56
330
130
100
AcDbEntity
  8
0
  6
Continuous
 62
     3
 48
10.0
370
    -2
100
AcDbLine
 10
788.228343
 20
225.0313589999999
 30
0.0
 11
954.2283429999999
 21
225.0313589999999
 31
0.0
  0
INSERT
  5
1C57
330
130
100
AcDbEntity
  8
0
  6
Continuous
 62
     3
 48
10.0
370
    -2
100
AcDbBlockReference
  2
_OPEN
 10
784.228343
 20
225.0313589999999
 30
0.0
 41
4.0
 42
4.0
 43
4.0
 50
180.0
  0
INSERT
  5
1C58
330
130
100
AcDbEntity
  8
0
  6
Continuous
 62
     3
 48
10.0
370
    -2
100
AcDbBlockReference
  2
_OPEN
 10
958.228343
 20
225.0313589999999
 30
0.0
 41
4.0
 42
4.0
 43
4.0
  0
MTEXT
  5
1C59
330
130
100
AcDbEntity
  8
0
  6
Continuous
 62
     0
 48
10.0
100
AcDbMText
 10
871.258343
 20
229.5313589999999
 30
0.0
 40
6.0
 41
0.0
 71
     5
 72
     1
  1
\A1;171
 73
     1
 44
1.0
  0
POINT
  5
1C5A
330
130
100
AcDbEntity
  8
DEFPOINTS
  6
Continuous
 62
     0
 48
10.0
100
AcDbPoint
 10
784.228343
 20
237.305575
 30
0.0
  0
POINT
  5
1C5B
330
130
100
AcDbEntity
  8
DEFPOINTS
  6
Continuous
 62
     0
 48
10.0
100
AcDbPoint
 10
958.228343
 20
237.305575
 30
0.0
  0
POINT
  5
1C5C
330
130
100
AcDbEntity
  8
DEFPOINTS
  6
Continuous
 62
     0
 48
10.0
100
AcDbPoint
 10
958.228343
 20
225.0313589999999
 30
0.0
  0
ENDBLK
  5
1084
330
130
100
AcDbEntity
  8
0
 48
10.0
100
AcDbBlockEnd
  0
BLOCK
  5
1038
330
131
100
AcDbEntity
  8
0
 48
10.0
100
AcDbBlockBegin
  2
*D6
 70
     1
 10
0.0
 20
0.0
 30
0.0
  3
*D6
  1

  0
LINE
  5
1C5D
330
131
100
AcDbEntity
  8
0
  6
Continuous
 62
     3
 48
10.0
370
    -2
100
AcDbLine
 10
430.9283429999998
 20
378.505575
 30
0.0
 11
412.939403
 21
378.505575
 31
0.0
  0
LINE
  5
1C5E
330
131
100
AcDbEntity
  8
0
  6
Continuous
 62
     3
 48
10.0
370
    -2
100
AcDbLine
 10
430.9283429999998
 20
238.1055749999999
 30
0.0
 11
412.939403
 21
238.1055749999999
 31
0.0
  0
LINE
  5
1C5F
330
131
100
AcDbEntity
  8
0
  6
Continuous
 62
     3
 48
10.0
370
    -2
100
AcDbLine
 10
413.939403
 20
374.505575
 30
0.0
 11
413.939403
 21
242.1055749999999
 31
0.0
  0
INSERT
  5
1C60
330
131
100
AcDbEntity
  8
0
  6
Continuous
 62
     3
 48
10.0
370
    -2
100
AcDbBlockReference
  2
_OPEN
 10
413.939403
 20
378.505575
 30
0.0
 41
4.0
 42
4.0
 43
4.0
 50
90.0
  0
INSERT
  5
1C61
330
131
100
AcDbEntity
  8
0
  6
Continuous
 62
     3
 48
10.0
370
    -2
100
AcDbBlockReference
  2
_OPEN
 10
413.939403
 20
238.1055749999999
 30
0.0
 41
4.0
 42
4.0
 43
4.0
 50
270.0
  0
MTEXT
  5
1C62
330
131
100
AcDbEntity
  8
0
  6
Continuous
 62
     0
 48
10.0
100
AcDbMText
 10
409.439403
 20
304.3355749999999
 30
0.0
 40
6.0
 41
0.0
 71
     5
 72
     1
  1
\A1;145
 11
0.0000000000000001
 21
1.0
 31
0.0
 73
     1
 44
1.0
  0
POINT
  5
1C63
330
131
100
AcDbEntity
  8
DEFPOINTS
  6
Continuous
 62
     0
 48
10.0
100
AcDbPoint
 10
431.9283429999998
 20
378.505575
 30
0.0
  0
POINT
  5
1C64
330
131
100
AcDbEntity
  8
DEFPOINTS
  6
Continuous
 62
     0
 48
10.0
100
AcDbPoint
 10
431.9283429999998
 20
238.1055749999999
 30
0.0
  0
POINT
  5
1C65
330
131
100
AcDbEntity
  8
DEFPOINTS
  6
Continuous
 62
     0
 48
10.0
100
AcDbPoint
 10
413.939403
 20
238.1055749999999
 30
0.0
  0
ENDBLK
  5
1042
330
131
100
AcDbEntity
  8
0
 48
10.0
100
AcDbBlockEnd
  0
BLOCK
  5
102D
330
132
100
AcDbEntity
  8
0
 48
10.0
100
AcDbBlockBegin
  2
*D7
 70
     1
 10
0.0
 20
0.0
 30
0.0
  3
*D7
  1

  0
LINE
  5
1C66
330
132
100
AcDbEntity
  8
0
  6
Continuous
 62
     3
 48
10.0
370
    -2
100
AcDbLine
 10
180.528343
 20
244.1055749999999
 30
0.0
 11
180.528343
 21
256.548433
 31
0.0
  0
LINE
  5
1C67
330
132
100
AcDbEntity
  8
0
  6
Continuous
 62
     3
 48
10.0
370
    -2
100
AcDbLine
 10
436.928343
 20
244.1055749999999
 30
0.0
 11
436.928343
 21
256.548433
 31
0.0
  0
LINE
  5
1C68
330
132
100
AcDbEntity
  8
0
  6
Continuous
 62
     3
 48
10.0
370
    -2
100
AcDbLine
 10
184.528343
 20
255.548433
 30
0.0
 11
432.928343
 21
255.548433
 31
0.0
  0
INSERT
  5
1C69
330
132
100
AcDbEntity
  8
0
  6
Continuous
 62
     3
 48
10.0
370
    -2
100
AcDbBlockReference
  2
_OPEN
 10
180.528343
 20
255.548433
 30
0.0
 41
4.0
 42
4.0
 43
4.0
 50
180.0
  0
INSERT
  5
1C6A
330
132
100
AcDbEntity
  8
0
  6
Continuous
 62
     3
 48
10.0
370
    -2
100
AcDbBlockReference
  2
_OPEN
 10
436.928343
 20
255.548433
 30
0.0
 41
4.0
 42
4.0
 43
4.0
  0
MTEXT
  5
1C6B
330
132
100
AcDbEntity
  8
0
  6
Continuous
 62
     0
 48
10.0
100
AcDbMText
 10
304.758343
 20
260.048433
 30
0.0
 40
6.0
 41
0.0
 71
     5
 72
     1
  1
\A1;260
 73
     1
 44
1.0
  0
POINT
  5
1C6C
330
132
100
AcDbEntity
  8
DEFPOINTS
  6
Continuous
 62
     0
 48
10.0
100
AcDbPoint
 10
180.528343
 20
243.105575
 30
0.0
  0
POINT
  5
1C6D
330
132
100
AcDbEntity
  8
DEFPOINTS
  6
Continuous
 62
     0
 48
10.0
100
AcDbPoint
 10
436.928343
 20
243.105575
 30
0.0
  0
POINT
  5
1C6E
330
132
100
AcDbEntity
  8
DEFPOINTS
  6
Continuous
 62
     0
 48
10.0
100
AcDbPoint
 10
436.928343
 20
255.548433
 30
0.0
  0
ENDBLK
  5
1037
330
132
100
AcDbEntity
  8
0
 48
10.0
100
AcDbBlockEnd
  0
BLOCK
  5
106F
330
133
100
AcDbEntity
  8
0
 48
10.0
100
AcDbBlockBegin
  2
*D8
 70
     1
 10
0.0
 20
0.0
 30
0.0
  3
*D8
  1

  0
LINE
  5
1070
330
133
100
AcDbEntity
  8
0
  6
ByBlock
 62
     3
 48
10.0
100
AcDbLine
 10
784.228343
 20
416.3055749999998
 30
0.0
 11
784.228343
 21
432.341905
 31
0.0
  0
LINE
  5
1071
330
133
100
AcDbEntity
  8
0
  6
ByBlock
 62
     3
 48
10.0
100
AcDbLine
 10
1023.228343
 20
416.3055749999998
 30
0.0
 11
1023.228343
 21
432.341905
 31
0.0
  0
LINE
  5
1072
330
133
100
AcDbEntity
  8
0
  6
ByBlock
 62
     3
 48
10.0
100
AcDbLine
 10
788.228343
 20
431.341905
 30
0.0
 11
1019.228342999997
 21
431.341905
 31
0.0
  0
INSERT
  5
1073
330
133
100
AcDbEntity
  8
0
  6
ByBlock
 62
     3
 48
10.0
100
AcDbBlockReference
  2
_OPEN
 10
784.228343
 20
431.341905
 30
0.0
 41
4.0
 42
4.0
 43
4.0
 50
180.0
  0
INSERT
  5
1074
330
133
100
AcDbEntity
  8
0
  6
ByBlock
 62
     3
 48
10.0
100
AcDbBlockReference
  2
_OPEN
 10
1023.228343
 20
431.341905
 30
0.0
 41
4.0
 42
4.0
 43
4.0
  0
MTEXT
  5
1075
330
133
100
AcDbEntity
  8
0
  6
ByBlock
 62
     0
 48
10.0
100
AcDbMText
 10
903.7583429999999
 20
435.841905
 30
0.0
 40
6.0
 41
0.0
 71
     5
 72
     1
  1
\A1;239
 73
     1
 44
1.0
  0
POINT
  5
1076
330
133
100
AcDbEntity
  8
DEFPOINTS
  6
ByBlock
 62
     0
 48
10.0
100
AcDbPoint
 10
784.228343
 20
415.305575
 30
0.0
  0
POINT
  5
1077
330
133
100
AcDbEntity
  8
DEFPOINTS
  6
ByBlock
 62
     0
 48
10.0
100
AcDbPoint
 10
1023.228343
 20
415.305575
 30
0.0
  0
POINT
  5
1078
330
133
100
AcDbEntity
  8
DEFPOINTS
  6
ByBlock
 62
     0
 48
10.0
100
AcDbPoint
 10
1023.228343
 20
431.341905
 30
0.0
  0
ENDBLK
  5
1079
330
133
100
AcDbEntity
  8
0
 48
10.0
100
AcDbBlockEnd
  0
BLOCK
  5
1064
330
134
100
AcDbEntity
  8
0
 48
10.0
100
AcDbBlockBegin
  2
*D9
 70
     1
 10
0.0
 20
0.0
 30
0.0
  3
*D9
  1

  0
LINE
  5
1065
330
134
100
AcDbEntity
  8
0
  6
ByBlock
 62
     3
 48
10.0
100
AcDbLine
 10
779.728343
 20
416.3055749999998
 30
0.0
 11
779.728343
 21
432.341905
 31
0.0
  0
LINE
  5
1066
330
134
100
AcDbEntity
  8
0
  6
ByBlock
 62
     3
 48
10.0
100
AcDbLine
 10
764.7283429999996
 20
416.3055749999998
 30
0.0
 11
764.7283429999996
 21
432.341905
 31
0.0
  0
LINE
  5
1067
330
134
100
AcDbEntity
  8
0
  6
ByBlock
 62
     3
 48
10.0
100
AcDbLine
 10
775.728343
 20
431.341905
 30
0.0
 11
768.7283429999999
 21
431.341905
 31
0.0
  0
INSERT
  5
1068
330
134
100
AcDbEntity
  8
0
  6
ByBlock
 62
     3
 48
10.0
100
AcDbBlockReference
  2
_OPEN
 10
779.728343
 20
431.341905
 30
0.0
 41
4.0
 42
4.0
 43
4.0
  0
INSERT
  5
1069
330
134
100
AcDbEntity
  8
0
  6
ByBlock
 62
     3
 48
10.0
100
AcDbBlockReference
  2
_OPEN
 10
764.7283429999996
 20
431.341905
 30
0.0
 41
4.0
 42
4.0
 43
4.0
 50
180.0
  0
MTEXT
  5
106A
330
134
100
AcDbEntity
  8
0
  6
ByBlock
 62
     0
 48
10.0
100
AcDbMText
 10
772.2483429999997
 20
435.841905
 30
0.0
 40
6.0
 41
0.0
 71
     5
 72
     1
  1
\A1;15
 73
     1
 44
1.0
  0
POINT
  5
106B
330
134
100
AcDbEntity
  8
DEFPOINTS
  6
ByBlock
 62
     0
 48
10.0
100
AcDbPoint
 10
779.728343
 20
415.305575
 30
0.0
  0
POINT
  5
106C
330
134
100
AcDbEntity
  8
DEFPOINTS
  6
ByBlock
 62
     0
 48
10.0
100
AcDbPoint
 10
764.7283429999996
 20
415.305575
 30
0.0
  0
POINT
  5
106D
330
134
100
AcDbEntity
  8
DEFPOINTS
  6
ByBlock
 62
     0
 48
10.0
100
AcDbPoint
 10
764.7283429999996
 20
431.341905
 30
0.0
  0
ENDBLK
  5
106E
330
134
100
AcDbEntity
  8
0
 48
10.0
100
AcDbBlockEnd
  0
BLOCK
  5
1016
330
135
100
AcDbEntity
  8
0
 48
10.0
100
AcDbBlockBegin
  2
*D10
 70
     1
 10
0.0
 20
0.0
 30
0.0
  3
*D10
  1

  0
LINE
  5
14C4
330
135
100
AcDbEntity
  8
0
  6
Continuous
 62
     3
 48
10.0
370
    -2
100
AcDbLine
 10
468.7283429999998
 20
747.305575
 30
0.0
 11
494.338692
 21
747.305575
 31
0.0
  0
LINE
  5
14C5
330
135
100
AcDbEntity
  8
0
  6
Continuous
 62
     3
 48
10.0
370
    -2
100
AcDbLine
 10
373.0904589953706
 20
485.3055749999998
 30
0.0
 11
494.338692
 21
485.3055749999998
 31
0.0
  0
LINE
  5
14C6
330
135
100
AcDbEntity
  8
0
  6
Continuous
 62
     3
 48
10.0
370
    -2
100
AcDbLine
 10
493.3386920000002
 20
743.305575
 30
0.0
 11
493.338692
 21
489.3055749999998
 31
0.0
  0
INSERT
  5
14C7
330
135
100
AcDbEntity
  8
0
  6
Continuous
 62
     3
 48
10.0
370
    -2
100
AcDbBlockReference
  2
_OPEN
 10
493.3386920000002
 20
747.305575
 30
0.0
 41
4.0
 42
4.0
 43
4.0
 50
90.0
  0
INSERT
  5
14C8
330
135
100
AcDbEntity
  8
0
  6
Continuous
 62
     3
 48
10.0
370
    -2
100
AcDbBlockReference
  2
_OPEN
 10
493.338692
 20
485.3055749999998
 30
0.0
 41
4.0
 42
4.0
 43
4.0
 50
270.0
  0
MTEXT
  5
14C9
330
135
100
AcDbEntity
  8
0
  6
Continuous
 62
     0
 48
10.0
100
AcDbMText
 10
488.838692
 20
610.985575
 30
0.0
 40
6.0
 41
0.0
 71
     5
 72
     1
  1
\A1;262
 11
0.0000000000000001
 21
1.0
 31
0.0
 73
     1
 44
1.0
  0
POINT
  5
14CA
330
135
100
AcDbEntity
  8
DEFPOINTS
  6
Continuous
 62
     0
 48
10.0
100
AcDbPoint
 10
467.728343
 20
747.305575
 30
0.0
  0
POINT
  5
14CB
330
135
100
AcDbEntity
  8
DEFPOINTS
  6
Continuous
 62
     0
 48
10.0
100
AcDbPoint
 10
372.0904589953706
 20
485.3055749999998
 30
0.0
  0
POINT
  5
14CC
330
135
100
AcDbEntity
  8
DEFPOINTS
  6
Continuous
 62
     0
 48
10.0
100
AcDbPoint
 10
493.338692
 20
485.3055749999998
 30
0.0
  0
ENDBLK
  5
1021
330
135
100
AcDbEntity
  8
0
 48
10.0
100
AcDbBlockEnd
  0
BLOCK
  5
104E
330
136
100
AcDbEntity
  8
0
 48
10.0
100
AcDbBlockBegin
  2
*D11
 70
     1
 10
0.0
 20
0.0
 30
0.0
  3
*D11
  1

  0
LINE
  5
1099
330
136
100
AcDbEntity
  8
0
  6
Continuous
 62
     3
 48
10.0
370
    -2
100
AcDbLine
 10
474.728343
 20
415.305575
 30
0.0
 11
514.2231940000001
 21
415.305575
 31
0.0
  0
LINE
  5
109A
330
136
100
AcDbEntity
  8
0
  6
Continuous
 62
     3
 48
10.0
370
    -2
100
AcDbLine
 10
460.7283429999998
 20
164.305575
 30
0.0
 11
514.223194
 21
164.305575
 31
0.0
  0
LINE
  5
109B
330
136
100
AcDbEntity
  8
0
  6
Continuous
 62
     3
 48
10.0
370
    -2
100
AcDbLine
 10
513.2231940000001
 20
411.305575
 30
0.0
 11
513.223194
 21
168.305575
 31
0.0
  0
INSERT
  5
109C
330
136
100
AcDbEntity
  8
0
  6
Continuous
 62
     3
 48
10.0
370
    -2
100
AcDbBlockReference
  2
_OPEN
 10
513.2231940000001
 20
415.305575
 30
0.0
 41
4.0
 42
4.0
 43
4.0
 50
90.0
  0
INSERT
  5
109D
330
136
100
AcDbEntity
  8
0
  6
Continuous
 62
     3
 48
10.0
370
    -2
100
AcDbBlockReference
  2
_OPEN
 10
513.223194
 20
164.305575
 30
0.0
 41
4.0
 42
4.0
 43
4.0
 50
270.0
  0
MTEXT
  5
109E
330
136
100
AcDbEntity
  8
0
  6
Continuous
 62
     0
 48
10.0
100
AcDbMText
 10
508.723194
 20
305.0936171082307
 30
0.0
 40
6.0
 41
0.0
 71
     5
 72
     1
  1
\A1;251
 11
0.0000000000000001
 21
1.0
 31
0.0
 73
     1
 44
1.0
  0
POINT
  5
109F
330
136
100
AcDbEntity
  8
DEFPOINTS
  6
Continuous
 62
     0
 48
10.0
100
AcDbPoint
 10
473.7283429999997
 20
415.305575
 30
0.0
  0
POINT
  5
10A0
330
136
100
AcDbEntity
  8
DEFPOINTS
  6
Continuous
 62
     0
 48
10.0
100
AcDbPoint
 10
459.728343
 20
164.305575
 30
0.0
  0
POINT
  5
10A1
330
136
100
AcDbEntity
  8
DEFPOINTS
  6
Continuous
 62
     0
 48
10.0
100
AcDbPoint
 10
513.223194
 20
164.305575
 30
0.0
  0
ENDBLK
  5
1058
330
136
100
AcDbEntity
  8
0
 48
10.0
100
AcDbBlockEnd
  0
BLOCK
  5
1059
330
137
100
AcDbEntity
  8
0
 48
10.0
100
AcDbBlockBegin
  2
*D12
 70
     1
 10
0.0
 20
0.0
 30
0.0
  3
*D12
  1

  0
LINE
  5
105A
330
137
100
AcDbEntity
  8
0
  6
ByBlock
 62
     3
 48
10.0
100
AcDbLine
 10
474.728343
 20
195.305575
 30
0.0
 11
494.338692
 21
195.305575
 31
0.0
  0
LINE
  5
105B
330
137
100
AcDbEntity
  8
0
  6
ByBlock
 62
     3
 48
10.0
100
AcDbLine
 10
460.7283429999998
 20
164.305575
 30
0.0
 11
494.338692
 21
164.305575
 31
0.0
  0
LINE
  5
105C
330
137
100
AcDbEntity
  8
0
  6
ByBlock
 62
     3
 48
10.0
100
AcDbLine
 10
493.338692
 20
191.305575
 30
0.0
 11
493.338692
 21
168.305575
 31
0.0
  0
INSERT
  5
105D
330
137
100
AcDbEntity
  8
0
  6
ByBlock
 62
     3
 48
10.0
100
AcDbBlockReference
  2
_OPEN
 10
493.338692
 20
195.305575
 30
0.0
 41
4.0
 42
4.0
 43
4.0
 50
90.0
  0
INSERT
  5
105E
330
137
100
AcDbEntity
  8
0
  6
ByBlock
 62
     3
 48
10.0
100
AcDbBlockReference
  2
_OPEN
 10
493.338692
 20
164.305575
 30
0.0
 41
4.0
 42
4.0
 43
4.0
 50
270.0
  0
MTEXT
  5
105F
330
137
100
AcDbEntity
  8
0
  6
ByBlock
 62
     0
 48
10.0
100
AcDbMText
 10
488.838692
 20
179.8255749999999
 30
0.0
 40
6.0
 41
0.0
 71
     5
 72
     1
  1
\A1;31
 11
0.0
 21
1.0
 31
0.0
 73
     1
 44
1.0
  0
POINT
  5
1060
330
137
100
AcDbEntity
  8
DEFPOINTS
  6
ByBlock
 62
     0
 48
10.0
100
AcDbPoint
 10
473.7283429999997
 20
195.305575
 30
0.0
  0
POINT
  5
1061
330
137
100
AcDbEntity
  8
DEFPOINTS
  6
ByBlock
 62
     0
 48
10.0
100
AcDbPoint
 10
459.728343
 20
164.305575
 30
0.0
  0
POINT
  5
1062
330
137
100
AcDbEntity
  8
DEFPOINTS
  6
ByBlock
 62
     0
 48
10.0
100
AcDbPoint
 10
493.338692
 20
164.305575
 30
0.0
  0
ENDBLK
  5
1063
330
137
100
AcDbEntity
  8
0
 48
10.0
100
AcDbBlockEnd
  0
BLOCK
  5
1043
330
138
100
AcDbEntity
  8
0
 48
10.0
100
AcDbBlockBegin
  2
*D13
 70
     1
 10
0.0
 20
0.0
 30
0.0
  3
*D13
  1

  0
LINE
  5
1044
330
138
100
AcDbEntity
  8
0
  6
ByBlock
 62
     3
 48
10.0
100
AcDbLine
 10
474.728343
 20
415.305575
 30
0.0
 11
494.338692
 21
415.305575
 31
0.0
  0
LINE
  5
1045
330
138
100
AcDbEntity
  8
0
  6
ByBlock
 62
     3
 48
10.0
100
AcDbLine
 10
474.728343
 20
195.305575
 30
0.0
 11
494.338692
 21
195.305575
 31
0.0
  0
LINE
  5
1046
330
138
100
AcDbEntity
  8
0
  6
ByBlock
 62
     3
 48
10.0
100
AcDbLine
 10
493.338692
 20
411.305575
 30
0.0
 11
493.338692
 21
199.305575
 31
0.0
  0
INSERT
  5
1047
330
138
100
AcDbEntity
  8
0
  6
ByBlock
 62
     3
 48
10.0
100
AcDbBlockReference
  2
_OPEN
 10
493.338692
 20
415.305575
 30
0.0
 41
4.0
 42
4.0
 43
4.0
 50
90.0
  0
INSERT
  5
1048
330
138
100
AcDbEntity
  8
0
  6
ByBlock
 62
     3
 48
10.0
100
AcDbBlockReference
  2
_OPEN
 10
493.338692
 20
195.305575
 30
0.0
 41
4.0
 42
4.0
 43
4.0
 50
270.0
  0
MTEXT
  5
1049
330
138
100
AcDbEntity
  8
0
  6
ByBlock
 62
     0
 48
10.0
100
AcDbMText
 10
488.838692
 20
305.335575
 30
0.0
 40
6.0
 41
0.0
 71
     5
 72
     1
  1
\A1;220
 11
0.0
 21
1.0
 31
0.0
 73
     1
 44
1.0
  0
POINT
  5
104A
330
138
100
AcDbEntity
  8
DEFPOINTS
  6
ByBlock
 62
     0
 48
10.0
100
AcDbPoint
 10
473.7283429999997
 20
415.305575
 30
0.0
  0
POINT
  5
104B
330
138
100
AcDbEntity
  8
DEFPOINTS
  6
ByBlock
 62
     0
 48
10.0
100
AcDbPoint
 10
473.7283429999997
 20
195.305575
 30
0.0
  0
POINT
  5
104C
330
138
100
AcDbEntity
  8
DEFPOINTS
  6
ByBlock
 62
     0
 48
10.0
100
AcDbPoint
 10
493.338692
 20
195.305575
 30
0.0
  0
ENDBLK
  5
104D
330
138
100
AcDbEntity
  8
0
 48
10.0
100
AcDbBlockEnd
  0
BLOCK
  5
1022
330
139
100
AcDbEntity
  8
0
 48
10.0
100
AcDbBlockBegin
  2
*D14
 70
     1
 10
0.0
 20
0.0
 30
0.0
  3
*D14
  1

  0
LINE
  5
1023
330
139
100
AcDbEntity
  8
0
  6
ByBlock
 62
     3
 48
10.0
100
AcDbLine
 10
143.7283429999999
 20
416.3055749999998
 30
0.0
 11
143.7283429999999
 21
432.341905
 31
0.0
  0
LINE
  5
1024
330
139
100
AcDbEntity
  8
0
  6
ByBlock
 62
     3
 48
10.0
100
AcDbLine
 10
473.7283429999997
 20
416.3055749999998
 30
0.0
 11
473.7283429999997
 21
432.341905
 31
0.0
  0
LINE
  5
1025
330
139
100
AcDbEntity
  8
0
  6
ByBlock
 62
     3
 48
10.0
100
AcDbLine
 10
147.7283429999999
 20
431.341905
 30
0.0
 11
469.7283429999997
 21
431.341905
 31
0.0
  0
INSERT
  5
1026
330
139
100
AcDbEntity
  8
0
  6
ByBlock
 62
     3
 48
10.0
100
AcDbBlockReference
  2
_OPEN
 10
143.7283429999999
 20
431.341905
 30
0.0
 41
4.0
 42
4.0
 43
4.0
 50
180.0
  0
INSERT
  5
1027
330
139
100
AcDbEntity
  8
0
  6
ByBlock
 62
     3
 48
10.0
100
AcDbBlockReference
  2
_OPEN
 10
473.7283429999997
 20
431.341905
 30
0.0
 41
4.0
 42
4.0
 43
4.0
  0
MTEXT
  5
1028
330
139
100
AcDbEntity
  8
0
  6
ByBlock
 62
     0
 48
10.0
100
AcDbMText
 10
308.758343
 20
435.841905
 30
0.0
 40
6.0
 41
0.0
 71
     5
 72
     1
  1
\A1;330
 73
     1
 44
1.0
  0
POINT
  5
1029
330
139
100
AcDbEntity
  8
DEFPOINTS
  6
ByBlock
 62
     0
 48
10.0
100
AcDbPoint
 10
143.7283429999999
 20
415.305575
 30
0.0
  0
POINT
  5
102A
330
139
100
AcDbEntity
  8
DEFPOINTS
  6
ByBlock
 62
     0
 48
10.0
100
AcDbPoint
 10
473.7283429999997
 20
415.305575
 30
0.0
  0
POINT
  5
102B
330
139
100
AcDbEntity
  8
DEFPOINTS
  6
ByBlock
 62
     0
 48
10.0
100
AcDbPoint
 10
473.7283429999997
 20
431.341905
 30
0.0
  0
ENDBLK
  5
102C
330
139
100
AcDbEntity
  8
0
 48
10.0
100
AcDbBlockEnd
  0
BLOCK
  5
1186
330
1182
100
AcDbEntity
  8
0
100
AcDbBlockBegin
  2
EDTIP_ARROW_S
 70
     0
 10
0.0
 20
0.0
 30
0.0
  3
EDTIP_ARROW_S
  1

  0
LINE
  5
1183
330
1182
100
AcDbEntity
  8
0
  6
Continuous
 62
     0
370
    -2
100
AcDbLine
 10
0.0
 20
0.0
 30
0.0
 11
-1.0
 21
0.0
 31
0.0
  0
LINE
  5
1184
330
1182
100
AcDbEntity
  8
0
  6
Continuous
 62
     0
370
    -2
100
AcDbLine
 10
0.0
 20
0.0
 30
0.0
 11
-0.9659259999999999
 21
0.258819
 31
0.0
  0
LINE
  5
1185
330
1182
100
AcDbEntity
  8
0
  6
Continuous
 62
     0
370
    -2
100
AcDbLine
 10
0.0
 20
0.0
 30
0.0
 11
-0.9659259999999999
 21
-0.258819
 31
0.0
  0
ENDBLK
  5
1187
330
1182
100
AcDbEntity
  8
0
100
AcDbBlockEnd
  0
BLOCK
  5
118C
330
1188
100
AcDbEntity
  8
0
100
AcDbBlockBegin
  2
EDTIP_ARROW_E
 70
     0
 10
0.0
 20
0.0
 30
0.0
  3
EDTIP_ARROW_E
  1

  0
LINE
  5
1189
330
1188
100
AcDbEntity
  8
0
  6
Continuous
 62
     0
370
    -2
100
AcDbLine
 10
0.0
 20
0.0
 30
0.0
 11
-1.0
 21
0.0
 31
0.0
  0
LINE
  5
118A
330
1188
100
AcDbEntity
  8
0
  6
Continuous
 62
     0
370
    -2
100
AcDbLine
 10
0.0
 20
0.0
 30
0.0
 11
-0.9659259999999999
 21
-0.258819
 31
0.0
  0
LINE
  5
118B
330
1188
100
AcDbEntity
  8
0
  6
Continuous
 62
     0
370
    -2
100
AcDbLine
 10
0.0
 20
0.0
 30
0.0
 11
-0.9659259999999999
 21
0.258819
 31
0.0
  0
ENDBLK
  5
118D
330
1188
100
AcDbEntity
  8
0
100
AcDbBlockEnd
  0
BLOCK
  5
123C
330
11DB
100
AcDbEntity
  8
0
100
AcDbBlockBegin
  2
Ａ－３　アンナカ用紙
 70
     0
 10
0.0
 20
0.0
 30
0.0
  3
Ａ－３　アンナカ用紙
  1

  0
LINE
  5
11DC
330
11DB
100
AcDbEntity
  8
0
370
    40
100
AcDbLine
 10
409.9999999999998
 20
10.0
 30
0.0
 11
409.9999999999998
 21
38.0
 31
0.0
  0
LINE
  5
11DD
330
11DB
100
AcDbEntity
  8
0
370
    60
100
AcDbLine
 10
409.9999999999998
 20
287.0
 30
0.0
 11
24.99999999999994
 21
287.0
 31
0.0
  0
LINE
  5
11DE
330
11DB
100
AcDbEntity
  8
0
370
    40
100
AcDbLine
 10
229.9999999999999
 20
10.0
 30
0.0
 11
409.9999999999998
 21
10.0
 31
0.0
  0
LINE
  5
11DF
330
11DB
100
AcDbEntity
  8
0
370
    60
100
AcDbLine
 10
24.99999999999994
 20
287.0
 30
0.0
 11
25.0
 21
10.0
 31
0.0
  0
LINE
  5
11E0
330
11DB
100
AcDbEntity
  8
0
370
    40
100
AcDbLine
 10
304.9999999999998
 20
22.0
 30
0.0
 11
409.9999999999998
 21
22.0
 31
0.0
  0
LINE
  5
11E1
330
11DB
100
AcDbEntity
  8
0
370
    40
100
AcDbLine
 10
304.9999999999998
 20
30.0
 30
0.0
 11
409.9999999999998
 21
30.0
 31
0.0
  0
LINE
  5
11E2
330
11DB
100
AcDbEntity
  8
0
370
    40
100
AcDbLine
 10
229.9999999999999
 20
38.0
 30
0.0
 11
409.9999999999998
 21
38.0
 31
0.0
  0
LINE
  5
11E3
330
11DB
100
AcDbEntity
  8
0
370
    40
100
AcDbLine
 10
304.9999999999998
 20
10.0
 30
0.0
 11
304.9999999999998
 21
38.0
 31
0.0
  0
LINE
  5
11E4
330
11DB
100
AcDbEntity
  8
0
370
    40
100
AcDbLine
 10
229.9999999999999
 20
10.0
 30
0.0
 11
229.9999999999999
 21
38.0
 31
0.0
  0
LINE
  5
11E5
330
11DB
100
AcDbEntity
  8
0
370
    40
100
AcDbLine
 10
328.9999999999999
 20
30.0
 30
0.0
 11
328.9999999999999
 21
38.0
 31
0.0
  0
LINE
  5
11E6
330
11DB
100
AcDbEntity
  8
0
370
    15
100
AcDbLine
 10
336.9999999999998
 20
30.0
 30
0.0
 11
336.9999999999998
 21
38.0
 31
0.0
  0
LINE
  5
11E7
330
11DB
100
AcDbEntity
  8
0
370
    40
100
AcDbLine
 10
344.9999999999998
 20
30.0
 30
0.0
 11
344.9999999999998
 21
38.0
 31
0.0
  0
LINE
  5
11E8
330
11DB
100
AcDbEntity
  8
0
370
    15
100
AcDbLine
 10
352.9999999999998
 20
30.0
 30
0.0
 11
352.9999999999998
 21
38.0
 31
0.0
  0
LINE
  5
11E9
330
11DB
100
AcDbEntity
  8
0
370
    40
100
AcDbLine
 10
367.9999999999998
 20
30.0
 30
0.0
 11
367.9999999999998
 21
38.0
 31
0.0
  0
LINE
  5
11EA
330
11DB
100
AcDbEntity
  8
0
370
    15
100
AcDbLine
 10
375.9999999999998
 20
30.0
 30
0.0
 11
375.9999999999998
 21
38.0
 31
0.0
  0
LINE
  5
11EB
330
11DB
100
AcDbEntity
  8
0
370
    40
100
AcDbLine
 10
393.9999999999998
 20
30.0
 30
0.0
 11
393.9999999999998
 21
38.0
 31
0.0
  0
LINE
  5
11EC
330
11DB
100
AcDbEntity
  8
0
370
    15
100
AcDbLine
 10
401.9999999999998
 20
30.0
 30
0.0
 11
401.9999999999998
 21
38.0
 31
0.0
  0
LINE
  5
11ED
330
11DB
100
AcDbEntity
  8
0
370
    40
100
AcDbLine
 10
362.9999999999998
 20
10.0
 30
0.0
 11
362.9999999999998
 21
30.0
 31
0.0
  0
LINE
  5
11EE
330
11DB
100
AcDbEntity
  8
0
100
AcDbLine
 10
304.9999999999998
 20
30.0
 30
0.0
 11
230.0
 21
30.00000000000005
 31
0.0
  0
LINE
  5
11EF
330
11DB
100
AcDbEntity
  8
0
100
AcDbLine
 10
304.9999999999998
 20
34.0
 30
0.0
 11
230.0
 21
34.00000000000005
 31
0.0
  0
LINE
  5
11F0
330
11DB
100
AcDbEntity
  8
0
100
AcDbLine
 10
304.9999999999998
 20
26.0
 30
0.0
 11
229.9999999999999
 21
26.00000000000005
 31
0.0
  0
LINE
  5
11F1
330
11DB
100
AcDbEntity
  8
0
100
AcDbLine
 10
229.9999999999999
 20
14.0
 30
0.0
 11
304.9999999999998
 21
14.0
 31
0.0
  0
LINE
  5
11F2
330
11DB
100
AcDbEntity
  8
0
100
AcDbLine
 10
304.9999999999998
 20
34.0
 30
0.0
 11
328.9999999999999
 21
34.0
 31
0.0
  0
LINE
  5
11F3
330
11DB
100
AcDbEntity
  8
0
370
    40
100
AcDbLine
 10
281.9999999999998
 20
10.0
 30
0.0
 11
281.9999999999998
 21
38.0
 31
0.0
  0
LINE
  5
11F4
330
11DB
100
AcDbEntity
  8
0
100
AcDbLine
 10
281.9999999999998
 20
18.0
 30
0.0
 11
304.9999999999998
 21
18.0
 31
0.0
  0
LINE
  5
11F5
330
11DB
100
AcDbEntity
  8
0
100
AcDbLine
 10
281.9999999999998
 20
22.0
 30
0.0
 11
304.9999999999998
 21
22.0
 31
0.0
  0
LINE
  5
11F6
330
11DB
100
AcDbEntity
  8
0
100
AcDbLine
 10
268.9999999999999
 20
10.0
 30
0.0
 11
268.9999999999999
 21
26.00000000000003
 31
0.0
  0
LINE
  5
11F7
330
11DB
100
AcDbEntity
  8
0
100
AcDbLine
 10
255.9999999999999
 20
10.0
 30
0.0
 11
255.9999999999999
 21
26.00000000000004
 31
0.0
  0
LINE
  5
11F8
330
11DB
100
AcDbEntity
  8
0
100
AcDbLine
 10
242.9999999999999
 20
10.0
 30
0.0
 11
242.9999999999999
 21
26.00000000000004
 31
0.0
  0
LINE
  5
11F9
330
11DB
100
AcDbEntity
  8
0
100
AcDbLine
 10
293.9999999999999
 20
10.0
 30
0.0
 11
294.0
 21
34.0
 31
0.0
  0
LINE
  5
11FA
330
11DB
100
AcDbEntity
  8
0
100
AcDbLine
 10
273.9999999999999
 20
26.00000000000001
 30
0.0
 11
273.9999999999999
 21
38.0
 31
0.0
  0
LINE
  5
11FB
330
11DB
100
AcDbEntity
  8
0
100
AcDbLine
 10
309.9999999999998
 20
22.0
 30
0.0
 11
309.9999999999998
 21
30.0
 31
0.0
  0
LINE
  5
11FC
330
11DB
100
AcDbEntity
  8
0
100
AcDbLine
 10
367.9999999999998
 20
10.0
 30
0.0
 11
367.9999999999998
 21
30.0
 31
0.0
  0
MTEXT
  5
11FD
330
11DB
100
AcDbEntity
  8
0
100
AcDbMText
 10
231.3237766005161
 20
29.2480664031666
 30
0.0
 40
2.5
 41
10.9292
 71
     1
 72
     5
  1
記号
 73
     1
 44
1.0
1001
ACAD
1000
MTEXTBEGIN
1070
    73
1070
     1
1070
    44
1040
1.0
1070
    74
1070
     0
1000
MTEXTEND
  0
MTEXT
  5
11FE
330
11DB
100
AcDbEntity
  8
0
100
AcDbMText
 10
239.9664659250005
 20
29.2480657116174
 30
0.0
 40
2.5
 41
9.8658
 71
     1
 72
     5
  1
日　付
 73
     1
 44
1.0
1001
ACAD
1000
MTEXTBEGIN
1070
    73
1070
     1
1070
    44
1040
1.0
1070
    74
1070
     0
1000
MTEXTEND
  0
MTEXT
  5
11FF
330
11DB
100
AcDbEntity
  8
0
100
AcDbMText
 10
256.5079356953284
 20
29.24806709471578
 30
0.0
 40
2.5
 41
16.4233
 71
     1
 72
     5
  1
訂　　正
 73
     1
 44
1.0
1001
ACAD
1000
MTEXTBEGIN
1070
    73
1070
     1
1070
    44
1040
1.0
1070
    74
1070
     0
1000
MTEXTEND
  0
MTEXT
  5
1200
330
11DB
100
AcDbEntity
  8
0
100
AcDbMText
 10
275.3533972540202
 20
29.3071198655848
 30
0.0
 40
2.5
 41
10.6929
 71
     1
 72
     5
  1
担当
 73
     1
 44
1.0
1001
ACAD
1000
MTEXTBEGIN
1070
    73
1070
     1
1070
    44
1040
1.0
1070
    74
1070
     0
1000
MTEXTEND
  0
LINE
  5
1201
330
11DB
100
AcDbEntity
  8
0
100
AcDbLine
 10
238.0
 20
26.00000000000004
 30
0.0
 11
237.9999999999999
 21
38.0
 31
0.0
  0
LINE
  5
1202
330
11DB
100
AcDbEntity
  8
0
100
AcDbLine
 10
250.0
 20
26.00000000000004
 30
0.0
 11
249.9999999999999
 21
38.0
 31
0.0
  0
LINE
  5
1203
330
11DB
100
AcDbEntity
  8
0
100
AcDbLine
 10
231.9999999999999
 20
34.00000000000005
 30
0.0
 11
235.9999999999998
 21
34.00000000000005
 31
0.0
  0
MTEXT
  5
1204
330
11DB
100
AcDbEntity
  8
0
100
AcDbMText
 10
232.168344662744
 20
13.36253702110434
 30
0.0
 40
2.5
 41
15.3009
 71
     1
 72
     5
  1
設　計
 73
     1
 44
1.0
1001
ACAD
1000
MTEXTBEGIN
1070
    73
1070
     1
1070
    44
1040
1.0
1070
    74
1070
     0
1000
MTEXTEND
  0
MTEXT
  5
1205
330
11DB
100
AcDbEntity
  8
0
100
AcDbMText
 10
245.2242900941809
 20
13.2444294047184
 30
0.0
 40
2.5
 41
13.2332
 71
     1
 72
     5
  1
製　図
 73
     1
 44
1.0
1001
ACAD
1000
MTEXTBEGIN
1070
    73
1070
     1
1070
    44
1040
1.0
1070
    74
1070
     0
1000
MTEXTEND
  0
MTEXT
  5
1206
330
11DB
100
AcDbEntity
  8
0
100
AcDbMText
 10
258.2802355256166
 20
13.24442871316921
 30
0.0
 40
2.5
 41
12.2289
 71
     1
 72
     5
  1
検　図
 73
     1
 44
1.0
1001
ACAD
1000
MTEXTBEGIN
1070
    73
1070
     1
1070
    44
1040
1.0
1070
    74
1070
     0
1000
MTEXTEND
  0
MTEXT
  5
1207
330
11DB
100
AcDbEntity
  8
0
100
AcDbMText
 10
271.2180283046965
 20
13.24442871316921
 30
0.0
 40
2.5
 41
8.5661
 71
     1
 72
     5
  1
承　認
 73
     1
 44
1.0
1001
ACAD
1000
MTEXTBEGIN
1070
    73
1070
     1
1070
    44
1040
1.0
1070
    74
1070
     0
1000
MTEXTEND
  0
LINE
  5
1208
330
11DB
100
AcDbEntity
  8
0
370
    60
100
AcDbLine
 10
409.9999999999998
 20
10.0
 30
0.0
 11
409.9999999999998
 21
287.0
 31
0.0
  0
LINE
  5
1209
330
11DB
100
AcDbEntity
  8
0
370
    60
100
AcDbLine
 10
25.0
 20
10.0
 30
0.0
 11
409.9999999999998
 21
10.0
 31
0.0
  0
MTEXT
  5
120A
330
11DB
100
AcDbEntity
  8
0
100
AcDbMText
 10
286.8057466895101
 20
37.28748650804993
 30
0.0
 40
2.5
 41
21.2646
 71
     1
 72
     5
  1
寸 法 差
 73
     1
 44
1.0
1001
ACAD
1000
MTEXTBEGIN
1070
    73
1070
     1
1070
    44
1040
1.0
1070
    74
1070
     0
1000
MTEXTEND
  0
TEXT
  5
120B
330
11DB
100
AcDbEntity
  8
0
100
AcDbText
 10
294.5342705509705
 20
30.58353183815869
 30
0.0
 40
2.5
  1
±
100
AcDbText
  0
TEXT
  5
120C
330
11DB
100
AcDbEntity
  8
0
100
AcDbText
 10
297.0342705509705
 20
30.58353183815869
 30
0.0
 40
2.5
  1
0.05
100
AcDbText
  0
TEXT
  5
120D
330
11DB
100
AcDbEntity
  8
0
100
AcDbText
 10
292.5686336695338
 20
26.86342893006537
 30
0.0
 40
2.5
  1
　 0.1
100
AcDbText
  0
TEXT
  5
120E
330
11DB
100
AcDbEntity
  8
0
100
AcDbText
 10
292.3899411426205
 20
22.69676226339871
 30
0.0
 40
2.5
  1
　 0.15
100
AcDbText
  0
TEXT
  5
120F
330
11DB
100
AcDbEntity
  8
0
100
AcDbText
 10
292.4792879083246
 20
18.61940848675656
 30
0.0
 40
2.5
  1
　 0.2
100
AcDbText
  0
TEXT
  5
1210
330
11DB
100
AcDbEntity
  8
0
100
AcDbText
 10
292.5686346740281
 20
14.72068049016351
 30
0.0
 40
2.5
  1
　 0.3
100
AcDbText
  0
TEXT
  5
1211
330
11DB
100
AcDbEntity
  8
0
100
AcDbText
 10
292.4792879083246
 20
10.73263891199659
 30
0.0
 40
2.5
  1
　 0.5
100
AcDbText
  0
TEXT
  5
1212
330
11DB
100
AcDbEntity
  8
0
100
AcDbText
 10
288.9947509874531
 20
30.76215761820765
 30
0.0
 40
2.5
  1
0～
100
AcDbText
  0
TEXT
  5
1213
330
11DB
100
AcDbEntity
  8
0
100
AcDbText
 10
288.6373629201438
 20
26.68480315001632
 30
0.0
 40
2.5
  1
6～
100
AcDbText
  0
TEXT
  5
1214
330
11DB
100
AcDbEntity
  8
0
100
AcDbText
 10
286.4930325072998
 20
22.78607515342325
 30
0.0
 40
2.5
  1
30～
100
AcDbText
  0
TEXT
  5
1215
330
11DB
100
AcDbEntity
  8
0
100
AcDbText
 10
284.9741314633705
 20
18.79803426680553
 30
0.0
 40
2.5
  1
120～
100
AcDbText
  0
TEXT
  5
1216
330
11DB
100
AcDbEntity
  8
0
100
AcDbText
 10
284.2593543242577
 20
14.7206797986142
 30
0.0
 40
2.5
  1
315～
100
AcDbText
  0
TEXT
  5
1217
330
11DB
100
AcDbEntity
  8
0
100
AcDbText
 10
283.1871901223301
 20
10.64332602197207
 30
0.0
 40
2.5
  1
1000～
100
AcDbText
  0
LINE
  5
1218
330
11DB
100
AcDbEntity
  8
0
100
AcDbLine
 10
310.3995670880193
 20
37.12761554280756
 30
0.0
 11
311.5995670880193
 21
34.62761554280756
 31
0.0
  0
LINE
  5
1219
330
11DB
100
AcDbEntity
  8
0
100
AcDbLine
 10
311.5995670880193
 20
34.62761554280756
 30
0.0
 11
312.7995670880191
 21
37.12761554280756
 31
0.0
  0
LINE
  5
121A
330
11DB
100
AcDbEntity
  8
0
100
AcDbLine
 10
312.7995670880191
 20
37.12761554280756
 30
0.0
 11
310.3995670880193
 21
37.12761554280756
 31
0.0
  0
LINE
  5
121B
330
11DB
100
AcDbEntity
  8
0
100
AcDbLine
 10
315.6201866121018
 20
34.62761554280756
 30
0.0
 11
316.8201866121018
 21
37.12761554280756
 31
0.0
  0
LINE
  5
121C
330
11DB
100
AcDbEntity
  8
0
100
AcDbLine
 10
314.420186612102
 20
37.12761554280756
 30
0.0
 11
315.6201866121018
 21
34.62761554280756
 31
0.0
  0
LINE
  5
121D
330
11DB
100
AcDbEntity
  8
0
100
AcDbLine
 10
316.8201866121018
 20
37.12761554280756
 30
0.0
 11
314.420186612102
 21
37.12761554280756
 31
0.0
  0
LINE
  5
121E
330
11DB
100
AcDbEntity
  8
0
100
AcDbLine
 10
318.0201866121018
 20
34.62761554280756
 30
0.0
 11
319.2201866121018
 21
37.12761554280756
 31
0.0
  0
LINE
  5
121F
330
11DB
100
AcDbEntity
  8
0
100
AcDbLine
 10
316.8201866121018
 20
37.12761554280756
 30
0.0
 11
318.0201866121018
 21
34.62761554280756
 31
0.0
  0
LINE
  5
1220
330
11DB
100
AcDbEntity
  8
0
100
AcDbLine
 10
319.2201866121018
 20
37.12761554280756
 30
0.0
 11
316.8201866121018
 21
37.12761554280756
 31
0.0
  0
LINE
  5
1221
330
11DB
100
AcDbEntity
  8
0
100
AcDbLine
 10
323.0236245769026
 20
37.12761554280756
 30
0.0
 11
324.2236245769026
 21
34.62761554280756
 31
0.0
  0
LINE
  5
1222
330
11DB
100
AcDbEntity
  8
0
100
AcDbLine
 10
324.2236245769026
 20
34.62761554280756
 30
0.0
 11
325.4236245769026
 21
37.12761554280756
 31
0.0
  0
LINE
  5
1223
330
11DB
100
AcDbEntity
  8
0
100
AcDbLine
 10
320.6236245769026
 20
37.12761554280756
 30
0.0
 11
321.8236245769026
 21
34.62761554280756
 31
0.0
  0
LINE
  5
1224
330
11DB
100
AcDbEntity
  8
0
100
AcDbLine
 10
321.8236245769026
 20
34.62761554280756
 30
0.0
 11
323.0236245769026
 21
37.12761554280756
 31
0.0
  0
LINE
  5
1225
330
11DB
100
AcDbEntity
  8
0
100
AcDbLine
 10
323.0236245769026
 20
37.12761554280756
 30
0.0
 11
320.6236245769026
 21
37.12761554280756
 31
0.0
  0
LINE
  5
1226
330
11DB
100
AcDbEntity
  8
0
100
AcDbLine
 10
325.4236245769026
 20
37.12761554280756
 30
0.0
 11
323.0236245769026
 21
37.12761554280756
 31
0.0
  0
LINE
  5
1227
330
11DB
100
AcDbEntity
  8
0
100
AcDbLine
 10
326.6236245769026
 20
34.62761554280756
 30
0.0
 11
327.8236245769026
 21
37.12761554280756
 31
0.0
  0
LINE
  5
1228
330
11DB
100
AcDbEntity
  8
0
100
AcDbLine
 10
325.4236245769026
 20
37.12761554280756
 30
0.0
 11
326.6236245769026
 21
34.62761554280756
 31
0.0
  0
LINE
  5
1229
330
11DB
100
AcDbEntity
  8
0
100
AcDbLine
 10
327.8236245769026
 20
37.12761554280756
 30
0.0
 11
325.4236245769026
 21
37.12761554280756
 31
0.0
  0
MTEXT
  5
122A
330
11DB
100
AcDbEntity
  8
0
100
AcDbMText
 10
306.4174345873165
 20
37.12761623435686
 30
0.0
 40
2.5
 41
5.450199999999997
 71
     1
 72
     5
  1
～
 73
     1
 44
1.0
1001
ACAD
1000
MTEXTBEGIN
1070
    73
1070
     1
1070
    44
1040
1.0
1070
    74
1070
     0
1000
MTEXTEND
  0
MTEXT
  5
122B
330
11DB
100
AcDbEntity
  8
0
100
AcDbMText
 10
311.6889138537227
 20
33.10853964099931
 30
0.0
 40
2.5
 41
37.4364
 71
     1
 72
     5
  1
仕　　上
 73
     1
 44
1.0
1001
ACAD
1000
MTEXTBEGIN
1070
    73
1070
     1
1070
    44
1040
1.0
1070
    74
1070
     0
1000
MTEXTEND
  0
MTEXT
  5
122C
330
11DB
100
AcDbEntity
  8
0
100
AcDbMText
 10
306.4174345873165
 20
29.26808813614161
 30
0.0
 40
2.5
 41
6.5223
 71
     1
 72
     5
  1
品\P名
 73
     1
 44
1.0
1001
ACAD
1000
MTEXTBEGIN
1070
    73
1070
     1
1070
    44
1040
1.0
1070
    74
1070
     0
1000
MTEXTEND
  0
MTEXT
  5
122D
330
11DB
100
AcDbEntity
  8
0
100
AcDbMText
 10
364.3058466618231
 20
19.26505206043634
 30
0.0
 40
2.5
 41
4.1993
 71
     1
 72
     5
  1
図\P番
 73
     1
 44
1.0
1001
ACAD
1000
MTEXTBEGIN
1070
    73
1070
     1
1070
    44
1040
1.0
1070
    74
1070
     0
1000
MTEXTEND
  0
MTEXT
  5
122E
330
11DB
100
AcDbEntity
  8
0
100
AcDbMText
 10
330.4673263719777
 20
39.36043710187152
 30
0.0
 40
2.5
 41
11.79379999999998
 71
     1
 72
     5
  1
\P尺度
 73
     1
 44
1.0
1001
ACAD
1000
MTEXTBEGIN
1070
    73
1070
     1
1070
    44
1040
1.0
1070
    74
1070
     0
1000
MTEXTEND
  0
LINE
  5
122F
330
11DB
100
AcDbEntity
  8
0
100
AcDbLine
 10
343.9999999999998
 20
37.0
 30
0.0
 11
337.9999999999999
 21
31.0
 31
0.0
  0
MTEXT
  5
1230
330
11DB
100
AcDbEntity
  8
0
100
AcDbMText
 10
346.3533324320558
 20
35.34135981696477
 30
0.0
 40
2.5
 41
8.934699999999997
 71
     1
 72
     5
  1
材質
 73
     1
 44
1.0
1001
ACAD
1000
MTEXTBEGIN
1070
    73
1070
     1
1070
    44
1040
1.0
1070
    74
1070
     0
1000
MTEXTEND
  0
MTEXT
  5
1231
330
11DB
100
AcDbEntity
  8
0
100
AcDbMText
 10
369.3153826917365
 20
35.16273472846501
 30
0.0
 40
2.5
 41
9.1134
 71
     1
 72
     5
  1
処理
 73
     1
 44
1.0
1001
ACAD
1000
MTEXTBEGIN
1070
    73
1070
     1
1070
    44
1040
1.0
1070
    74
1070
     0
1000
MTEXTEND
  0
MTEXT
  5
1232
330
11DB
100
AcDbEntity
  8
0
100
AcDbMText
 10
395.315542855665
 20
35.25204692694021
 30
0.0
 40
2.5
 41
7.9519
 71
     1
 72
     5
  1
個数
 73
     1
 44
1.0
1001
ACAD
1000
MTEXTBEGIN
1070
    73
1070
     1
1070
    44
1040
1.0
1070
    74
1070
     0
1000
MTEXTEND
  0
LINE
  5
1233
330
11DB
100
AcDbEntity
  8
0
100
AcDbLine
 10
233.9999999999999
 20
38.0
 30
0.0
 11
231.6999999999999
 21
34.00000000000005
 31
0.0
  0
LINE
  5
1234
330
11DB
100
AcDbEntity
  8
0
100
AcDbLine
 10
231.6999999999999
 20
34.00000000000005
 30
0.0
 11
236.2999999999999
 21
34.00000000000005
 31
0.0
  0
LINE
  5
1235
330
11DB
100
AcDbEntity
  8
0
100
AcDbLine
 10
236.2999999999999
 20
34.00000000000005
 30
0.0
 11
233.9999999999999
 21
38.0
 31
0.0
  0
LINE
  5
1236
330
11DB
100
AcDbEntity
  8
0
100
AcDbLine
 10
233.9999999999999
 20
34.00000000000005
 30
0.0
 11
231.6999999999999
 21
30.00000000000005
 31
0.0
  0
LINE
  5
1237
330
11DB
100
AcDbEntity
  8
0
100
AcDbLine
 10
231.6999999999999
 20
30.00000000000005
 30
0.0
 11
236.2999999999999
 21
30.00000000000005
 31
0.0
  0
LINE
  5
1238
330
11DB
100
AcDbEntity
  8
0
100
AcDbLine
 10
236.2999999999999
 20
30.00000000000005
 30
0.0
 11
233.9999999999999
 21
34.00000000000005
 31
0.0
  0
TEXT
  5
1239
330
11DB
100
AcDbEntity
  8
文字
100
AcDbText
 10
306.9310155476451
 20
13.22386510844346
 30
0.0
 40
5.5
  1
株式会社 アンナカ
100
AcDbText
  0
TEXT
  5
123A
330
11DB
100
AcDbEntity
  8
文字
100
AcDbText
 10
364.2164998961196
 20
26.76808813614161
 30
0.0
 40
2.5
  1
機
100
AcDbText
1001
ACAD
1000
MTEXTBEGIN
1070
    73
1070
     1
1070
    44
1040
1.0
1070
    74
1070
     0
1000
MTEXTEND
  0
TEXT
  5
123B
330
11DB
100
AcDbEntity
  8
文字
100
AcDbText
 10
364.3522785898912
 20
22.68285433934472
 30
0.0
 40
2.5
  1
名
100
AcDbText
1001
ACAD
1000
MTEXTBEGIN
1070
    73
1070
     1
1070
    44
1040
1.0
1070
    74
1070
     0
1000
MTEXTEND
  0
ENDBLK
  5
123D
330
11DB
100
AcDbEntity
  8
0
100
AcDbBlockEnd
  0
BLOCK
  5
125E
330
123E
100
AcDbEntity
  8
0
 48
10.0
100
AcDbBlockBegin
  2
A$C3C741725
 70
     0
 10
0.0
 20
0.0
 30
0.0
  3
A$C3C741725
  1

  0
INSERT
  5
123F
330
123E
100
AcDbEntity
  8
文字
100
AcDbBlockReference
  2
Ａ－３　アンナカ用紙
 10
115.5080181978712
 20
210.2185298322718
 30
0.0
 41
4.0
 42
4.0
  0
TEXT
  5
1240
330
123E
100
AcDbEntity
  8
文字
 62
     2
100
AcDbText
 10
1096.993586122448
 20
289.4798393070398
 30
0.0
 40
16.0
  1
福田
100
AcDbText
  0
TEXT
  5
1241
330
123E
100
AcDbEntity
  8
文字
100
AcDbText
 10
1424.686545953135
 20
384.3076421886066
 30
0.0
 40
12.0
  1
SUS430-No.4  t1.0  片面青ビ付
100
AcDbText
  0
TEXT
  5
1242
330
123E
100
AcDbEntity
  8
文字
 62
     3
100
AcDbText
 10
1594.401690526062
 20
306.4572638221568
 30
0.0
 40
12.0
  1
PCW-9069-78AC
100
AcDbText
  0
TEXT
  5
1243
330
123E
100
AcDbEntity
  8
文字
 62
     3
100
AcDbText
 10
1591.56929362522
 20
256.7845775552596
 30
0.0
 40
10.8
  1
PCW-9069-78AC-7
100
AcDbText
  0
TEXT
  5
1244
330
123E
100
AcDbEntity
  8
文字
100
AcDbText
 10
1469.409292032652
 20
345.8884530017702
 30
0.0
 40
12.0
  1
1
100
AcDbText
  0
TEXT
  5
1245
330
123E
100
AcDbEntity
  8
文字
100
AcDbText
 10
1481.449687125286
 20
333.2395078322292
 30
0.0
 40
12.0
  1
4
100
AcDbText
  0
TEXT
  5
1246
330
123E
100
AcDbEntity
  8
文字
100
AcDbText
 10
1736.877865621542
 20
340.363059575056
 30
0.0
 40
12.0
  1
1
100
AcDbText
  0
LINE
  5
1247
330
123E
100
AcDbEntity
  8
文字
100
AcDbLine
 10
1420.776126561205
 20
378.7742209329785
 30
0.0
 11
1685.120324927283
 21
378.7742209329785
 31
0.0
  0
TEXT
  5
1248
330
123E
100
AcDbEntity
  8
文字
100
AcDbText
 10
1420.738586582142
 20
561.9727415809911
 30
0.0
 40
16.0
  1
注記
100
AcDbText
  0
TEXT
  5
1249
330
123E
100
AcDbEntity
  8
文字
100
AcDbText
 10
1420.738586582142
 20
535.3060749143246
 30
0.0
 40
12.0
  1
1、切断面、角部にバリ、エッジなきこと、
100
AcDbText
  0
TEXT
  5
124A
330
123E
100
AcDbEntity
  8
文字
100
AcDbText
 10
1420.738586582142
 20
512.6394082476577
 30
0.0
 40
12.0
  1
2、表面に有害なキズ、変形なきこと、
100
AcDbText
  0
TEXT
  5
124B
330
123E
100
AcDbEntity
  8
文字
100
AcDbText
 10
1420.738586582142
 20
491.3060749143246
 30
0.0
 40
12.0
  1
3、3-
100
AcDbText
  0
TEXT
  5
124C
330
123E
100
AcDbEntity
  8
文字
100
AcDbText
 10
1471.138586582142
 20
491.3060749143246
 30
0.0
 40
12.0
  1
\U+2205
100
AcDbText
  0
TEXT
  5
124D
330
123E
100
AcDbEntity
  8
文字
100
AcDbText
 10
1483.138586582142
 20
491.3060749143246
 30
0.0
 40
12.0
  1
54.5穴は表面に空気孔SA-M60を
100
AcDbText
  0
TEXT
  5
124E
330
123E
100
AcDbEntity
  8
文字
100
AcDbText
 10
1420.738586582142
 20
469.9727415809912
 30
0.0
 40
12.0
  1
　　溶接のこと（SA-M60はスガツネ製）
100
AcDbText
  0
TEXT
  5
124F
330
123E
100
AcDbEntity
  8
文字
100
AcDbText
 10
1409.47830114386
 20
306.4439854725378
 30
0.0
 40
16.0
  1
ダクト(左)
100
AcDbText
  0
TEXT
  5
1250
330
123E
100
AcDbEntity
  8
文字
  6
Continuous
370
    -3
100
AcDbText
 10
1070.562106144815
 20
333.7922752521861
 30
0.0
 40
8.0
  1
2019.08.26
 41
0.5501288046873106
  7
ED_VECTOR
 72
     5
 11
1113.105400373967
 21
333.7922752521861
 31
0.0
100
AcDbText
  0
TEXT
  5
1251
330
123E
100
AcDbEntity
  8
文字
  6
Continuous
370
    -3
100
AcDbText
 10
1118.562106144815
 20
333.7922752521861
 30
0.0
 40
8.0
  1
切欠き部追加に伴い形状変更
 41
0.7296897515564509
  7
ED_VECTOR
 72
     5
 11
1208.070715669073
 21
333.7922752521861
 31
0.0
100
AcDbText
  0
TEXT
  5
1252
330
123E
100
AcDbEntity
  8
文字
 62
     2
100
AcDbText
 10
1050.384589312536
 20
331.7561719591876
 30
0.0
 40
8.0
  1
1
100
AcDbText
  0
TEXT
  5
1253
330
123E
100
AcDbEntity
  8
文字
 62
     3
100
AcDbText
 10
1049.073845778167
 20
347.7561719591875
 30
0.0
 40
8.0
  1
2
100
AcDbText
  0
TEXT
  5
1254
330
123E
100
AcDbEntity
  8
文字
 62
     2
100
AcDbText
 10
1738.163283314978
 20
277.6827317206524
 30
0.0
 40
8.0
  1
1
100
AcDbText
  0
LINE
  5
1255
330
123E
100
AcDbEntity
  8
0
 62
     2
100
AcDbLine
 10
1739.286712200312
 20
292.1450895937368
 30
0.0
 11
1730.086712200312
 21
276.1450895937368
 31
0.0
  0
LINE
  5
1256
330
123E
100
AcDbEntity
  8
0
 62
     2
100
AcDbLine
 10
1730.086712200312
 20
276.1450895937368
 30
0.0
 11
1748.486712200313
 21
276.1450895937368
 31
0.0
  0
LINE
  5
1257
330
123E
100
AcDbEntity
  8
0
 62
     2
100
AcDbLine
 10
1748.486712200313
 20
276.1450895937368
 30
0.0
 11
1739.286712200312
 21
292.1450895937368
 31
0.0
  0
TEXT
  5
1258
330
123E
100
AcDbEntity
  8
文字
  6
Continuous
370
    -3
100
AcDbText
 10
1118.562106144815
 20
349.7922752521863
 30
0.0
 40
8.0
  1
切欠き部分の追加
 41
0.8476173898326917
  7
ED_VECTOR
 72
     5
 11
1181.398808644412
 21
349.7922752521863
 31
0.0
100
AcDbText
  0
TEXT
  5
1259
330
123E
100
AcDbEntity
  8
文字
 62
     2
100
AcDbText
 10
1091.522553570869
 20
269.3410993225497
 30
0.0
 40
8.0
  1
2019.08.26
 41
0.5781015042574286
  7
ED_VECTOR
 72
     5
 11
1136.22906990011
 21
269.3410993225497
 31
0.0
100
AcDbText
  0
TEXT
  5
125A
330
123E
100
AcDbEntity
  8
文字
  6
Continuous
370
    -3
100
AcDbText
 10
1217.018771600122
 20
333.5338209854617
 30
0.0
 40
8.8
  1
福田
 41
1.097981035824961
  7
ED_VECTOR
 72
     5
 11
1236.987386704992
 21
333.5338209854617
 31
0.0
100
AcDbText
  0
LINE
  5
125B
330
123E
100
AcDbEntity
  8
寸法線
100
AcDbLine
 10
1755.508018197871
 20
250.218529832272
 30
0.0
 11
1755.508018197871
 21
0.0000023068723749
 31
0.0
  0
LINE
  5
125C
330
123E
100
AcDbEntity
  8
寸法線
100
AcDbLine
 10
-0.0000012529387732
 20
250.218529832272
 30
0.0
 11
215.508018197871
 21
250.218529832272
 31
0.0
  0
LINE
  5
125D
330
123E
100
AcDbEntity
  8
寸法線
100
AcDbLine
 10
1755.508018197871
 20
250.218529832272
 30
0.0
 11
1971.016037648681
 21
250.218529832272
 31
0.0
  0
ENDBLK
  5
125F
330
123E
100
AcDbEntity
  8
0
 48
10.0
100
AcDbBlockEnd
  0
BLOCK
  5
1401
330
13F7
100
AcDbEntity
  8
0
 48
10.0
100
AcDbBlockBegin
  2
*D19
 70
     1
 10
0.0
 20
0.0
 30
0.0
  3
*D19
  1

  0
LINE
  5
147D
330
13F7
100
AcDbEntity
  8
0
  6
Continuous
 62
     3
 48
10.0
370
    -2
100
AcDbLine
 10
143.7283429999999
 20
417.3055749999998
 30
0.0
 11
143.7283429999999
 21
452.2264070000002
 31
0.0
  0
LINE
  5
147E
330
13F7
100
AcDbEntity
  8
0
  6
Continuous
 62
     3
 48
10.0
370
    -2
100
AcDbLine
 10
479.1830041720825
 20
395.5348569771956
 30
0.0
 11
479.1830041720825
 21
452.2264070000002
 31
0.0
  0
LINE
  5
147F
330
13F7
100
AcDbEntity
  8
0
  6
Continuous
 62
     3
 48
10.0
370
    -2
100
AcDbLine
 10
147.7283429999999
 20
451.2264070000001
 30
0.0
 11
475.1830041720825
 21
451.2264070000001
 31
0.0
  0
INSERT
  5
1480
330
13F7
100
AcDbEntity
  8
0
  6
Continuous
 62
     3
 48
10.0
370
    -2
100
AcDbBlockReference
  2
_OPEN
 10
143.7283429999999
 20
451.2264070000001
 30
0.0
 41
4.0
 42
4.0
 43
4.0
 50
180.0
  0
INSERT
  5
1481
330
13F7
100
AcDbEntity
  8
0
  6
Continuous
 62
     3
 48
10.0
370
    -2
100
AcDbBlockReference
  2
_OPEN
 10
479.1830041720825
 20
451.2264070000001
 30
0.0
 41
4.0
 42
4.0
 43
4.0
  0
MTEXT
  5
1482
330
13F7
100
AcDbEntity
  8
0
  6
Continuous
 62
     0
 48
10.0
100
AcDbMText
 10
308.758343
 20
455.7264070000001
 30
0.0
 40
6.0
 41
0.0
 71
     5
 72
     1
  1
\A1;336
 73
     1
 44
1.0
  0
POINT
  5
1483
330
13F7
100
AcDbEntity
  8
DEFPOINTS
  6
Continuous
 62
     0
 48
10.0
100
AcDbPoint
 10
143.7283429999999
 20
416.3055749999998
 30
0.0
  0
POINT
  5
1484
330
13F7
100
AcDbEntity
  8
DEFPOINTS
  6
Continuous
 62
     0
 48
10.0
100
AcDbPoint
 10
479.1830041720825
 20
394.5348569771955
 30
0.0
  0
POINT
  5
1485
330
13F7
100
AcDbEntity
  8
DEFPOINTS
  6
Continuous
 62
     0
 48
10.0
100
AcDbPoint
 10
479.1830041720825
 20
451.2264070000001
 30
0.0
  0
ENDBLK
  5
1402
330
13F7
100
AcDbEntity
  8
0
 48
10.0
100
AcDbBlockEnd
  0
BLOCK
  5
1454
330
1452
100
AcDbEntity
  8
0
 48
10.0
100
AcDbBlockBegin
  2
_DotSmall
 70
     0
 10
0.0
 20
0.0
 30
0.0
  3
_DotSmall
  1

  0
LWPOLYLINE
  5
1453
330
1452
100
AcDbEntity
  8
0
  6
Continuous
 62
     0
100
AcDbPolyline
 90
        2
 70
     1
 43
0.5
 10
-0.0625
 20
0.0
 42
1.0
 10
0.0625
 20
0.0
 42
1.0
  0
ENDBLK
  5
1455
330
1452
100
AcDbEntity
  8
0
 48
10.0
100
AcDbBlockEnd
  0
BLOCK
  5
1AF5
330
1AEB
100
AcDbEntity
  8
0
 48
10.0
100
AcDbBlockBegin
  2
*D21
 70
     1
 10
0.0
 20
0.0
 30
0.0
  3
*D21
  1

  0
LINE
  5
1B71
330
1AEB
100
AcDbEntity
  8
0
  6
Continuous
 62
     3
 48
10.0
370
    -2
100
AcDbLine
 10
784.228343
 20
1105.465750057855
 30
0.0
 11
784.228343
 21
1093.191534057855
 31
0.0
  0
LINE
  5
1B72
330
1AEB
100
AcDbEntity
  8
0
  6
Continuous
 62
     3
 48
10.0
370
    -2
100
AcDbLine
 10
958.228343
 20
1105.465750057855
 30
0.0
 11
958.228343
 21
1093.191534057855
 31
0.0
  0
LINE
  5
1B73
330
1AEB
100
AcDbEntity
  8
0
  6
Continuous
 62
     3
 48
10.0
370
    -2
100
AcDbLine
 10
788.228343
 20
1094.191534057854
 30
0.0
 11
954.2283429999999
 21
1094.191534057854
 31
0.0
  0
INSERT
  5
1B74
330
1AEB
100
AcDbEntity
  8
0
  6
Continuous
 62
     3
 48
10.0
370
    -2
100
AcDbBlockReference
  2
_OPEN
 10
784.228343
 20
1094.191534057854
 30
0.0
 41
4.0
 42
4.0
 43
4.0
 50
180.0
  0
INSERT
  5
1B75
330
1AEB
100
AcDbEntity
  8
0
  6
Continuous
 62
     3
 48
10.0
370
    -2
100
AcDbBlockReference
  2
_OPEN
 10
958.228343
 20
1094.191534057854
 30
0.0
 41
4.0
 42
4.0
 43
4.0
  0
MTEXT
  5
1B76
330
1AEB
100
AcDbEntity
  8
0
  6
Continuous
 62
     0
 48
10.0
100
AcDbMText
 10
871.258343
 20
1098.691534057855
 30
0.0
 40
6.0
 41
0.0
 71
     5
 72
     1
  1
\A1;174
 73
     1
 44
1.0
  0
POINT
  5
1B77
330
1AEB
100
AcDbEntity
  8
DEFPOINTS
  6
Continuous
 62
     0
 48
10.0
100
AcDbPoint
 10
784.228343
 20
1106.465750057855
 30
0.0
  0
POINT
  5
1B78
330
1AEB
100
AcDbEntity
  8
DEFPOINTS
  6
Continuous
 62
     0
 48
10.0
100
AcDbPoint
 10
958.228343
 20
1106.465750057855
 30
0.0
  0
POINT
  5
1B79
330
1AEB
100
AcDbEntity
  8
DEFPOINTS
  6
Continuous
 62
     0
 48
10.0
100
AcDbPoint
 10
958.228343
 20
1094.191534057854
 30
0.0
  0
ENDBLK
  5
1AF6
330
1AEB
100
AcDbEntity
  8
0
 48
10.0
100
AcDbBlockEnd
  0
BLOCK
  5
1B01
330
1AF7
100
AcDbEntity
  8
0
 48
10.0
100
AcDbBlockBegin
  2
*D22
 70
     1
 10
0.0
 20
0.0
 30
0.0
  3
*D22
  1

  0
LINE
  5
1B7A
330
1AF7
100
AcDbEntity
  8
0
  6
Continuous
 62
     3
 48
10.0
370
    -2
100
AcDbLine
 10
430.9283429999998
 20
1247.665750057855
 30
0.0
 11
412.9394030000001
 21
1247.665750057855
 31
0.0
  0
LINE
  5
1B7B
330
1AF7
100
AcDbEntity
  8
0
  6
Continuous
 62
     3
 48
10.0
370
    -2
100
AcDbLine
 10
430.9283429999998
 20
1107.265750057855
 30
0.0
 11
412.9394030000001
 21
1107.265750057855
 31
0.0
  0
LINE
  5
1B7C
330
1AF7
100
AcDbEntity
  8
0
  6
Continuous
 62
     3
 48
10.0
370
    -2
100
AcDbLine
 10
413.9394030000001
 20
1243.665750057855
 30
0.0
 11
413.9394030000001
 21
1111.265750057855
 31
0.0
  0
INSERT
  5
1B7D
330
1AF7
100
AcDbEntity
  8
0
  6
Continuous
 62
     3
 48
10.0
370
    -2
100
AcDbBlockReference
  2
_OPEN
 10
413.9394030000001
 20
1247.665750057855
 30
0.0
 41
4.0
 42
4.0
 43
4.0
 50
90.0
  0
INSERT
  5
1B7E
330
1AF7
100
AcDbEntity
  8
0
  6
Continuous
 62
     3
 48
10.0
370
    -2
100
AcDbBlockReference
  2
_OPEN
 10
413.9394030000001
 20
1107.265750057855
 30
0.0
 41
4.0
 42
4.0
 43
4.0
 50
270.0
  0
MTEXT
  5
1B7F
330
1AF7
100
AcDbEntity
  8
0
  6
Continuous
 62
     0
 48
10.0
100
AcDbMText
 10
409.439403
 20
1173.495750057855
 30
0.0
 40
6.0
 41
0.0
 71
     5
 72
     1
  1
\A1;140
 11
0.0000000000000001
 21
1.0
 31
0.0
 73
     1
 44
1.0
  0
POINT
  5
1B80
330
1AF7
100
AcDbEntity
  8
DEFPOINTS
  6
Continuous
 62
     0
 48
10.0
100
AcDbPoint
 10
431.9283429999998
 20
1247.665750057855
 30
0.0
  0
POINT
  5
1B81
330
1AF7
100
AcDbEntity
  8
DEFPOINTS
  6
Continuous
 62
     0
 48
10.0
100
AcDbPoint
 10
431.9283429999998
 20
1107.265750057855
 30
0.0
  0
POINT
  5
1B82
330
1AF7
100
AcDbEntity
  8
DEFPOINTS
  6
Continuous
 62
     0
 48
10.0
100
AcDbPoint
 10
413.9394030000001
 20
1107.265750057855
 30
0.0
  0
ENDBLK
  5
1B02
330
1AF7
100
AcDbEntity
  8
0
 48
10.0
100
AcDbBlockEnd
  0
BLOCK
  5
1B0D
330
1B03
100
AcDbEntity
  8
0
 48
10.0
100
AcDbBlockBegin
  2
*D23
 70
     1
 10
0.0
 20
0.0
 30
0.0
  3
*D23
  1

  0
LINE
  5
1B83
330
1B03
100
AcDbEntity
  8
0
  6
Continuous
 62
     3
 48
10.0
370
    -2
100
AcDbLine
 10
180.528343
 20
1113.265750057855
 30
0.0
 11
180.528343
 21
1125.708608057855
 31
0.0
  0
LINE
  5
1B84
330
1B03
100
AcDbEntity
  8
0
  6
Continuous
 62
     3
 48
10.0
370
    -2
100
AcDbLine
 10
436.928343
 20
1113.265750057855
 30
0.0
 11
436.928343
 21
1125.708608057855
 31
0.0
  0
LINE
  5
1B85
330
1B03
100
AcDbEntity
  8
0
  6
Continuous
 62
     3
 48
10.0
370
    -2
100
AcDbLine
 10
184.528343
 20
1124.708608057855
 30
0.0
 11
432.928343
 21
1124.708608057855
 31
0.0
  0
INSERT
  5
1B86
330
1B03
100
AcDbEntity
  8
0
  6
Continuous
 62
     3
 48
10.0
370
    -2
100
AcDbBlockReference
  2
_OPEN
 10
180.528343
 20
1124.708608057855
 30
0.0
 41
4.0
 42
4.0
 43
4.0
 50
180.0
  0
INSERT
  5
1B87
330
1B03
100
AcDbEntity
  8
0
  6
Continuous
 62
     3
 48
10.0
370
    -2
100
AcDbBlockReference
  2
_OPEN
 10
436.928343
 20
1124.708608057855
 30
0.0
 41
4.0
 42
4.0
 43
4.0
  0
MTEXT
  5
1B88
330
1B03
100
AcDbEntity
  8
0
  6
Continuous
 62
     0
 48
10.0
100
AcDbMText
 10
304.758343
 20
1129.208608057855
 30
0.0
 40
6.0
 41
0.0
 71
     5
 72
     1
  1
\A1;256
 73
     1
 44
1.0
  0
POINT
  5
1B89
330
1B03
100
AcDbEntity
  8
DEFPOINTS
  6
Continuous
 62
     0
 48
10.0
100
AcDbPoint
 10
180.528343
 20
1112.265750057855
 30
0.0
  0
POINT
  5
1B8A
330
1B03
100
AcDbEntity
  8
DEFPOINTS
  6
Continuous
 62
     0
 48
10.0
100
AcDbPoint
 10
436.928343
 20
1112.265750057855
 30
0.0
  0
POINT
  5
1B8B
330
1B03
100
AcDbEntity
  8
DEFPOINTS
  6
Continuous
 62
     0
 48
10.0
100
AcDbPoint
 10
436.928343
 20
1124.708608057855
 30
0.0
  0
ENDBLK
  5
1B0E
330
1B03
100
AcDbEntity
  8
0
 48
10.0
100
AcDbBlockEnd
  0
BLOCK
  5
1B19
330
1B0F
100
AcDbEntity
  8
0
 48
10.0
100
AcDbBlockBegin
  2
*D24
 70
     1
 10
0.0
 20
0.0
 30
0.0
  3
*D24
  1

  0
LINE
  5
1B8C
330
1B0F
100
AcDbEntity
  8
0
  6
Continuous
 62
     3
 48
10.0
370
    -2
100
AcDbLine
 10
784.228343
 20
1285.465750057855
 30
0.0
 11
784.228343
 21
1301.502080057855
 31
0.0
  0
LINE
  5
1B8D
330
1B0F
100
AcDbEntity
  8
0
  6
Continuous
 62
     3
 48
10.0
370
    -2
100
AcDbLine
 10
1023.228343
 20
1285.465750057855
 30
0.0
 11
1023.228343
 21
1301.502080057855
 31
0.0
  0
LINE
  5
1B8E
330
1B0F
100
AcDbEntity
  8
0
  6
Continuous
 62
     3
 48
10.0
370
    -2
100
AcDbLine
 10
788.228343
 20
1300.502080057855
 30
0.0
 11
1019.228342999997
 21
1300.502080057855
 31
0.0
  0
INSERT
  5
1B8F
330
1B0F
100
AcDbEntity
  8
0
  6
Continuous
 62
     3
 48
10.0
370
    -2
100
AcDbBlockReference
  2
_OPEN
 10
784.228343
 20
1300.502080057855
 30
0.0
 41
4.0
 42
4.0
 43
4.0
 50
180.0
  0
INSERT
  5
1B90
330
1B0F
100
AcDbEntity
  8
0
  6
Continuous
 62
     3
 48
10.0
370
    -2
100
AcDbBlockReference
  2
_OPEN
 10
1023.228343
 20
1300.502080057855
 30
0.0
 41
4.0
 42
4.0
 43
4.0
  0
MTEXT
  5
1B91
330
1B0F
100
AcDbEntity
  8
0
  6
Continuous
 62
     0
 48
10.0
100
AcDbMText
 10
903.7583429999999
 20
1305.002080057855
 30
0.0
 40
6.0
 41
0.0
 71
     5
 72
     1
  1
\A1;239
 73
     1
 44
1.0
  0
POINT
  5
1B92
330
1B0F
100
AcDbEntity
  8
DEFPOINTS
  6
Continuous
 62
     0
 48
10.0
100
AcDbPoint
 10
784.228343
 20
1284.465750057855
 30
0.0
  0
POINT
  5
1B93
330
1B0F
100
AcDbEntity
  8
DEFPOINTS
  6
Continuous
 62
     0
 48
10.0
100
AcDbPoint
 10
1023.228343
 20
1284.465750057855
 30
0.0
  0
POINT
  5
1B94
330
1B0F
100
AcDbEntity
  8
DEFPOINTS
  6
Continuous
 62
     0
 48
10.0
100
AcDbPoint
 10
1023.228343
 20
1300.502080057855
 30
0.0
  0
ENDBLK
  5
1B1A
330
1B0F
100
AcDbEntity
  8
0
 48
10.0
100
AcDbBlockEnd
  0
BLOCK
  5
1B27
330
1B1B
100
AcDbEntity
  8
0
 48
10.0
100
AcDbBlockBegin
  2
*D25
 70
     1
 10
0.0
 20
0.0
 30
0.0
  3
*D25
  1

  0
LINE
  5
1B95
330
1B1B
100
AcDbEntity
  8
0
  6
Continuous
 62
     3
 48
10.0
370
    -2
100
AcDbLine
 10
779.728343
 20
1285.465750057855
 30
0.0
 11
779.728343
 21
1301.502080057855
 31
0.0
  0
LINE
  5
1B96
330
1B1B
100
AcDbEntity
  8
0
  6
Continuous
 62
     3
 48
10.0
370
    -2
100
AcDbLine
 10
764.7283429999996
 20
1285.465750057855
 30
0.0
 11
764.7283429999996
 21
1301.502080057855
 31
0.0
  0
LINE
  5
1B97
330
1B1B
100
AcDbEntity
  8
0
  6
Continuous
 62
     3
 48
10.0
370
    -2
100
AcDbLine
 10
783.728343
 20
1300.502080057855
 30
0.0
 11
787.728343
 21
1300.502080057855
 31
0.0
  0
LINE
  5
1B98
330
1B1B
100
AcDbEntity
  8
0
  6
Continuous
 62
     3
 48
10.0
370
    -2
100
AcDbLine
 10
760.7283429999996
 20
1300.502080057855
 30
0.0
 11
756.7283429999996
 21
1300.502080057855
 31
0.0
  0
LINE
  5
1B99
330
1B1B
100
AcDbEntity
  8
0
  6
Continuous
 62
     3
 48
10.0
370
    -2
100
AcDbLine
 10
779.728343
 20
1300.502080057855
 30
0.0
 11
764.7283429999996
 21
1300.502080057855
 31
0.0
  0
INSERT
  5
1B9A
330
1B1B
100
AcDbEntity
  8
0
  6
Continuous
 62
     3
 48
10.0
370
    -2
100
AcDbBlockReference
  2
_OPEN
 10
779.728343
 20
1300.502080057855
 30
0.0
 41
4.0
 42
4.0
 43
4.0
 50
180.0
  0
INSERT
  5
1B9B
330
1B1B
100
AcDbEntity
  8
0
  6
Continuous
 62
     3
 48
10.0
370
    -2
100
AcDbBlockReference
  2
_OPEN
 10
764.7283429999996
 20
1300.502080057855
 30
0.0
 41
4.0
 42
4.0
 43
4.0
  0
MTEXT
  5
1B9C
330
1B1B
100
AcDbEntity
  8
0
  6
Continuous
 62
     0
 48
10.0
100
AcDbMText
 10
772.2483429999997
 20
1305.002080057855
 30
0.0
 40
6.0
 41
0.0
 71
     5
 72
     1
  1
\A1;15
 73
     1
 44
1.0
  0
POINT
  5
1B9D
330
1B1B
100
AcDbEntity
  8
DEFPOINTS
  6
Continuous
 62
     0
 48
10.0
100
AcDbPoint
 10
779.728343
 20
1284.465750057855
 30
0.0
  0
POINT
  5
1B9E
330
1B1B
100
AcDbEntity
  8
DEFPOINTS
  6
Continuous
 62
     0
 48
10.0
100
AcDbPoint
 10
764.7283429999996
 20
1284.465750057855
 30
0.0
  0
POINT
  5
1B9F
330
1B1B
100
AcDbEntity
  8
DEFPOINTS
  6
Continuous
 62
     0
 48
10.0
100
AcDbPoint
 10
764.7283429999996
 20
1300.502080057855
 30
0.0
  0
ENDBLK
  5
1B28
330
1B1B
100
AcDbEntity
  8
0
 48
10.0
100
AcDbBlockEnd
  0
BLOCK
  5
1B33
330
1B29
100
AcDbEntity
  8
0
 48
10.0
100
AcDbBlockBegin
  2
*D26
 70
     1
 10
0.0
 20
0.0
 30
0.0
  3
*D26
  1

  0
LINE
  5
1BA0
330
1B29
100
AcDbEntity
  8
0
  6
Continuous
 62
     3
 48
10.0
370
    -2
100
AcDbLine
 10
468.7283429999998
 20
1616.465750057853
 30
0.0
 11
494.3386920000001
 21
1616.465750057853
 31
0.0
  0
LINE
  5
1BA1
330
1B29
100
AcDbEntity
  8
0
  6
Continuous
 62
     3
 48
10.0
370
    -2
100
AcDbLine
 10
373.0904589953706
 20
1354.465750057855
 30
0.0
 11
494.3386920000001
 21
1354.465750057855
 31
0.0
  0
LINE
  5
1BA2
330
1B29
100
AcDbEntity
  8
0
  6
Continuous
 62
     3
 48
10.0
370
    -2
100
AcDbLine
 10
493.3386920000002
 20
1612.465750057855
 30
0.0
 11
493.3386920000002
 21
1358.465750057855
 31
0.0
  0
INSERT
  5
1BA3
330
1B29
100
AcDbEntity
  8
0
  6
Continuous
 62
     3
 48
10.0
370
    -2
100
AcDbBlockReference
  2
_OPEN
 10
493.3386920000002
 20
1616.465750057853
 30
0.0
 41
4.0
 42
4.0
 43
4.0
 50
90.0
  0
INSERT
  5
1BA4
330
1B29
100
AcDbEntity
  8
0
  6
Continuous
 62
     3
 48
10.0
370
    -2
100
AcDbBlockReference
  2
_OPEN
 10
493.3386920000002
 20
1354.465750057855
 30
0.0
 41
4.0
 42
4.0
 43
4.0
 50
270.0
  0
MTEXT
  5
1BA5
330
1B29
100
AcDbEntity
  8
0
  6
Continuous
 62
     0
 48
10.0
100
AcDbMText
 10
488.838692
 20
1480.145750057855
 30
0.0
 40
6.0
 41
0.0
 71
     5
 72
     1
  1
\A1;262
 11
0.0000000000000001
 21
1.0
 31
0.0
 73
     1
 44
1.0
  0
POINT
  5
1BA6
330
1B29
100
AcDbEntity
  8
DEFPOINTS
  6
Continuous
 62
     0
 48
10.0
100
AcDbPoint
 10
467.728343
 20
1616.465750057853
 30
0.0
  0
POINT
  5
1BA7
330
1B29
100
AcDbEntity
  8
DEFPOINTS
  6
Continuous
 62
     0
 48
10.0
100
AcDbPoint
 10
372.0904589953706
 20
1354.465750057855
 30
0.0
  0
POINT
  5
1BA8
330
1B29
100
AcDbEntity
  8
DEFPOINTS
  6
Continuous
 62
     0
 48
10.0
100
AcDbPoint
 10
493.3386920000002
 20
1354.465750057855
 30
0.0
  0
ENDBLK
  5
1B34
330
1B29
100
AcDbEntity
  8
0
 48
10.0
100
AcDbBlockEnd
  0
BLOCK
  5
1B3F
330
1B35
100
AcDbEntity
  8
0
 48
10.0
100
AcDbBlockBegin
  2
*D27
 70
     1
 10
0.0
 20
0.0
 30
0.0
  3
*D27
  1

  0
LINE
  5
1BA9
330
1B35
100
AcDbEntity
  8
0
  6
Continuous
 62
     3
 48
10.0
370
    -2
100
AcDbLine
 10
474.728343
 20
1284.465750057855
 30
0.0
 11
514.2231940000001
 21
1284.465750057854
 31
0.0
  0
LINE
  5
1BAA
330
1B35
100
AcDbEntity
  8
0
  6
Continuous
 62
     3
 48
10.0
370
    -2
100
AcDbLine
 10
460.7283429999998
 20
1033.465750057855
 30
0.0
 11
514.2231940000001
 21
1033.465750057855
 31
0.0
  0
LINE
  5
1BAB
330
1B35
100
AcDbEntity
  8
0
  6
Continuous
 62
     3
 48
10.0
370
    -2
100
AcDbLine
 10
513.2231940000003
 20
1280.465750057854
 30
0.0
 11
513.2231940000001
 21
1037.465750057855
 31
0.0
  0
INSERT
  5
1BAC
330
1B35
100
AcDbEntity
  8
0
  6
Continuous
 62
     3
 48
10.0
370
    -2
100
AcDbBlockReference
  2
_OPEN
 10
513.2231940000003
 20
1284.465750057854
 30
0.0
 41
4.0
 42
4.0
 43
4.0
 50
90.0
  0
INSERT
  5
1BAD
330
1B35
100
AcDbEntity
  8
0
  6
Continuous
 62
     3
 48
10.0
370
    -2
100
AcDbBlockReference
  2
_OPEN
 10
513.2231940000001
 20
1033.465750057855
 30
0.0
 41
4.0
 42
4.0
 43
4.0
 50
270.0
  0
MTEXT
  5
1BAE
330
1B35
100
AcDbEntity
  8
0
  6
Continuous
 62
     0
 48
10.0
100
AcDbMText
 10
508.7231939999998
 20
1174.253792166086
 30
0.0
 40
6.0
 41
0.0
 71
     5
 72
     1
  1
\A1;251
 11
0.0000000000000001
 21
1.0
 31
0.0
 73
     1
 44
1.0
  0
POINT
  5
1BAF
330
1B35
100
AcDbEntity
  8
DEFPOINTS
  6
Continuous
 62
     0
 48
10.0
100
AcDbPoint
 10
473.7283429999997
 20
1284.465750057855
 30
0.0
  0
POINT
  5
1BB0
330
1B35
100
AcDbEntity
  8
DEFPOINTS
  6
Continuous
 62
     0
 48
10.0
100
AcDbPoint
 10
459.728343
 20
1033.465750057855
 30
0.0
  0
POINT
  5
1BB1
330
1B35
100
AcDbEntity
  8
DEFPOINTS
  6
Continuous
 62
     0
 48
10.0
100
AcDbPoint
 10
513.2231940000001
 20
1033.465750057855
 30
0.0
  0
ENDBLK
  5
1B40
330
1B35
100
AcDbEntity
  8
0
 48
10.0
100
AcDbBlockEnd
  0
BLOCK
  5
1B4B
330
1B41
100
AcDbEntity
  8
0
 48
10.0
100
AcDbBlockBegin
  2
*D28
 70
     1
 10
0.0
 20
0.0
 30
0.0
  3
*D28
  1

  0
LINE
  5
1BB2
330
1B41
100
AcDbEntity
  8
0
  6
Continuous
 62
     3
 48
10.0
370
    -2
100
AcDbLine
 10
474.728343
 20
1064.465750057855
 30
0.0
 11
494.3386920000001
 21
1064.465750057855
 31
0.0
  0
LINE
  5
1BB3
330
1B41
100
AcDbEntity
  8
0
  6
Continuous
 62
     3
 48
10.0
370
    -2
100
AcDbLine
 10
460.7283429999998
 20
1033.465750057855
 30
0.0
 11
494.3386920000001
 21
1033.465750057855
 31
0.0
  0
LINE
  5
1BB4
330
1B41
100
AcDbEntity
  8
0
  6
Continuous
 62
     3
 48
10.0
370
    -2
100
AcDbLine
 10
493.3386920000002
 20
1060.465750057855
 30
0.0
 11
493.3386920000002
 21
1037.465750057855
 31
0.0
  0
INSERT
  5
1BB5
330
1B41
100
AcDbEntity
  8
0
  6
Continuous
 62
     3
 48
10.0
370
    -2
100
AcDbBlockReference
  2
_OPEN
 10
493.3386920000002
 20
1064.465750057855
 30
0.0
 41
4.0
 42
4.0
 43
4.0
 50
90.0
  0
INSERT
  5
1BB6
330
1B41
100
AcDbEntity
  8
0
  6
Continuous
 62
     3
 48
10.0
370
    -2
100
AcDbBlockReference
  2
_OPEN
 10
493.3386920000002
 20
1033.465750057855
 30
0.0
 41
4.0
 42
4.0
 43
4.0
 50
270.0
  0
MTEXT
  5
1BB7
330
1B41
100
AcDbEntity
  8
0
  6
Continuous
 62
     0
 48
10.0
100
AcDbMText
 10
488.838692
 20
1048.985750057853
 30
0.0
 40
6.0
 41
0.0
 71
     5
 72
     1
  1
\A1;31
 11
0.0000000000000001
 21
1.0
 31
0.0
 73
     1
 44
1.0
  0
POINT
  5
1BB8
330
1B41
100
AcDbEntity
  8
DEFPOINTS
  6
Continuous
 62
     0
 48
10.0
100
AcDbPoint
 10
473.7283429999997
 20
1064.465750057855
 30
0.0
  0
POINT
  5
1BB9
330
1B41
100
AcDbEntity
  8
DEFPOINTS
  6
Continuous
 62
     0
 48
10.0
100
AcDbPoint
 10
459.728343
 20
1033.465750057855
 30
0.0
  0
POINT
  5
1BBA
330
1B41
100
AcDbEntity
  8
DEFPOINTS
  6
Continuous
 62
     0
 48
10.0
100
AcDbPoint
 10
493.3386920000002
 20
1033.465750057855
 30
0.0
  0
ENDBLK
  5
1B4C
330
1B41
100
AcDbEntity
  8
0
 48
10.0
100
AcDbBlockEnd
  0
BLOCK
  5
1B57
330
1B4D
100
AcDbEntity
  8
0
 48
10.0
100
AcDbBlockBegin
  2
*D29
 70
     1
 10
0.0
 20
0.0
 30
0.0
  3
*D29
  1

  0
LINE
  5
1BBB
330
1B4D
100
AcDbEntity
  8
0
  6
Continuous
 62
     3
 48
10.0
370
    -2
100
AcDbLine
 10
474.728343
 20
1284.465750057855
 30
0.0
 11
494.3386920000001
 21
1284.465750057855
 31
0.0
  0
LINE
  5
1BBC
330
1B4D
100
AcDbEntity
  8
0
  6
Continuous
 62
     3
 48
10.0
370
    -2
100
AcDbLine
 10
474.728343
 20
1064.465750057855
 30
0.0
 11
494.3386920000001
 21
1064.465750057855
 31
0.0
  0
LINE
  5
1BBD
330
1B4D
100
AcDbEntity
  8
0
  6
Continuous
 62
     3
 48
10.0
370
    -2
100
AcDbLine
 10
493.3386920000002
 20
1280.465750057855
 30
0.0
 11
493.3386920000002
 21
1068.465750057855
 31
0.0
  0
INSERT
  5
1BBE
330
1B4D
100
AcDbEntity
  8
0
  6
Continuous
 62
     3
 48
10.0
370
    -2
100
AcDbBlockReference
  2
_OPEN
 10
493.3386920000002
 20
1284.465750057855
 30
0.0
 41
4.0
 42
4.0
 43
4.0
 50
90.0
  0
INSERT
  5
1BBF
330
1B4D
100
AcDbEntity
  8
0
  6
Continuous
 62
     3
 48
10.0
370
    -2
100
AcDbBlockReference
  2
_OPEN
 10
493.3386920000002
 20
1064.465750057855
 30
0.0
 41
4.0
 42
4.0
 43
4.0
 50
270.0
  0
MTEXT
  5
1BC0
330
1B4D
100
AcDbEntity
  8
0
  6
Continuous
 62
     0
 48
10.0
100
AcDbMText
 10
488.838692
 20
1174.495750057855
 30
0.0
 40
6.0
 41
0.0
 71
     5
 72
     1
  1
\A1;220
 11
0.0000000000000001
 21
1.0
 31
0.0
 73
     1
 44
1.0
  0
POINT
  5
1BC1
330
1B4D
100
AcDbEntity
  8
DEFPOINTS
  6
Continuous
 62
     0
 48
10.0
100
AcDbPoint
 10
473.7283429999997
 20
1284.465750057855
 30
0.0
  0
POINT
  5
1BC2
330
1B4D
100
AcDbEntity
  8
DEFPOINTS
  6
Continuous
 62
     0
 48
10.0
100
AcDbPoint
 10
473.7283429999997
 20
1064.465750057855
 30
0.0
  0
POINT
  5
1BC3
330
1B4D
100
AcDbEntity
  8
DEFPOINTS
  6
Continuous
 62
     0
 48
10.0
100
AcDbPoint
 10
493.3386920000002
 20
1064.465750057855
 30
0.0
  0
ENDBLK
  5
1B58
330
1B4D
100
AcDbEntity
  8
0
 48
10.0
100
AcDbBlockEnd
  0
BLOCK
  5
1B63
330
1B59
100
AcDbEntity
  8
0
 48
10.0
100
AcDbBlockBegin
  2
*D30
 70
     1
 10
0.0
 20
0.0
 30
0.0
  3
*D30
  1

  0
LINE
  5
1BC4
330
1B59
100
AcDbEntity
  8
0
  6
Continuous
 62
     3
 48
10.0
370
    -2
100
AcDbLine
 10
143.7283429999999
 20
1285.465750057855
 30
0.0
 11
143.7283429999999
 21
1301.502080057855
 31
0.0
  0
LINE
  5
1BC5
330
1B59
100
AcDbEntity
  8
0
  6
Continuous
 62
     3
 48
10.0
370
    -2
100
AcDbLine
 10
473.7283429999997
 20
1285.465750057855
 30
0.0
 11
473.7283429999997
 21
1301.502080057855
 31
0.0
  0
LINE
  5
1BC6
330
1B59
100
AcDbEntity
  8
0
  6
Continuous
 62
     3
 48
10.0
370
    -2
100
AcDbLine
 10
147.7283429999999
 20
1300.502080057855
 30
0.0
 11
469.7283429999997
 21
1300.502080057855
 31
0.0
  0
INSERT
  5
1BC7
330
1B59
100
AcDbEntity
  8
0
  6
Continuous
 62
     3
 48
10.0
370
    -2
100
AcDbBlockReference
  2
_OPEN
 10
143.7283429999999
 20
1300.502080057855
 30
0.0
 41
4.0
 42
4.0
 43
4.0
 50
180.0
  0
INSERT
  5
1BC8
330
1B59
100
AcDbEntity
  8
0
  6
Continuous
 62
     3
 48
10.0
370
    -2
100
AcDbBlockReference
  2
_OPEN
 10
473.7283429999997
 20
1300.502080057855
 30
0.0
 41
4.0
 42
4.0
 43
4.0
  0
MTEXT
  5
1BC9
330
1B59
100
AcDbEntity
  8
0
  6
Continuous
 62
     0
 48
10.0
100
AcDbMText
 10
308.758343
 20
1305.002080057855
 30
0.0
 40
6.0
 41
0.0
 71
     5
 72
     1
  1
\A1;330
 73
     1
 44
1.0
  0
POINT
  5
1BCA
330
1B59
100
AcDbEntity
  8
DEFPOINTS
  6
Continuous
 62
     0
 48
10.0
100
AcDbPoint
 10
143.7283429999999
 20
1284.465750057855
 30
0.0
  0
POINT
  5
1BCB
330
1B59
100
AcDbEntity
  8
DEFPOINTS
  6
Continuous
 62
     0
 48
10.0
100
AcDbPoint
 10
473.7283429999997
 20
1284.465750057855
 30
0.0
  0
POINT
  5
1BCC
330
1B59
100
AcDbEntity
  8
DEFPOINTS
  6
Continuous
 62
     0
 48
10.0
100
AcDbPoint
 10
473.7283429999997
 20
1300.502080057855
 30
0.0
  0
ENDBLK
  5
1B64
330
1B59
100
AcDbEntity
  8
0
 48
10.0
100
AcDbBlockEnd
  0
BLOCK
  5
1B6F
330
1B65
100
AcDbEntity
  8
0
 48
10.0
100
AcDbBlockBegin
  2
*D31
 70
     1
 10
0.0
 20
0.0
 30
0.0
  3
*D31
  1

  0
LINE
  5
1BCD
330
1B65
100
AcDbEntity
  8
0
  6
Continuous
 62
     3
 48
10.0
370
    -2
100
AcDbLine
 10
143.7283429999999
 20
1286.465750057855
 30
0.0
 11
143.7283429999999
 21
1321.386582057855
 31
0.0
  0
LINE
  5
1BCE
330
1B65
100
AcDbEntity
  8
0
  6
Continuous
 62
     3
 48
10.0
370
    -2
100
AcDbLine
 10
479.1830041720825
 20
1264.69503203505
 30
0.0
 11
479.1830041720825
 21
1321.386582057855
 31
0.0
  0
LINE
  5
1BCF
330
1B65
100
AcDbEntity
  8
0
  6
Continuous
 62
     3
 48
10.0
370
    -2
100
AcDbLine
 10
147.7283429999999
 20
1320.386582057855
 30
0.0
 11
475.1830041720825
 21
1320.386582057855
 31
0.0
  0
INSERT
  5
1BD0
330
1B65
100
AcDbEntity
  8
0
  6
Continuous
 62
     3
 48
10.0
370
    -2
100
AcDbBlockReference
  2
_OPEN
 10
143.7283429999999
 20
1320.386582057855
 30
0.0
 41
4.0
 42
4.0
 43
4.0
 50
180.0
  0
INSERT
  5
1BD1
330
1B65
100
AcDbEntity
  8
0
  6
Continuous
 62
     3
 48
10.0
370
    -2
100
AcDbBlockReference
  2
_OPEN
 10
479.1830041720825
 20
1320.386582057855
 30
0.0
 41
4.0
 42
4.0
 43
4.0
  0
MTEXT
  5
1BD2
330
1B65
100
AcDbEntity
  8
0
  6
Continuous
 62
     0
 48
10.0
100
AcDbMText
 10
308.758343
 20
1324.886582057855
 30
0.0
 40
6.0
 41
0.0
 71
     5
 72
     1
  1
\A1;336
 73
     1
 44
1.0
  0
POINT
  5
1BD3
330
1B65
100
AcDbEntity
  8
DEFPOINTS
  6
Continuous
 62
     0
 48
10.0
100
AcDbPoint
 10
143.7283429999999
 20
1285.465750057855
 30
0.0
  0
POINT
  5
1BD4
330
1B65
100
AcDbEntity
  8
DEFPOINTS
  6
Continuous
 62
     0
 48
10.0
100
AcDbPoint
 10
479.1830041720825
 20
1263.695032035051
 30
0.0
  0
POINT
  5
1BD5
330
1B65
100
AcDbEntity
  8
DEFPOINTS
  6
Continuous
 62
     0
 48
10.0
100
AcDbPoint
 10
479.1830041720825
 20
1320.386582057855
 30
0.0
  0
ENDBLK
  5
1B70
330
1B65
100
AcDbEntity
  8
0
 48
10.0
100
AcDbBlockEnd
  0
BLOCK
  5
1C38
330
1C2E
100
AcDbEntity
  8
0
 48
10.0
100
AcDbBlockBegin
  2
*D32
 70
     1
 10
0.0
 20
0.0
 30
0.0
  3
*D32
  1

  0
LINE
  5
1C3A
330
1C2E
100
AcDbEntity
  8
0
  6
Continuous
 62
     3
 48
10.0
370
    -2
100
AcDbLine
 10
495.3386920000001
 20
1354.465750057855
 30
0.0
 11
520.363768105439
 21
1354.465750057854
 31
0.0
  0
LINE
  5
1C3B
330
1C2E
100
AcDbEntity
  8
0
  6
Continuous
 62
     3
 48
10.0
370
    -2
100
AcDbLine
 10
473.7283429999997
 20
1613.765750057855
 30
0.0
 11
520.363768105439
 21
1613.765750057855
 31
0.0
  0
LINE
  5
1C3C
330
1C2E
100
AcDbEntity
  8
0
  6
Continuous
 62
     3
 48
10.0
370
    -2
100
AcDbLine
 10
519.363768105439
 20
1358.465750057854
 30
0.0
 11
519.363768105439
 21
1609.765750057855
 31
0.0
  0
INSERT
  5
1C3D
330
1C2E
100
AcDbEntity
  8
0
  6
Continuous
 62
     3
 48
10.0
370
    -2
100
AcDbBlockReference
  2
_OPEN
 10
519.363768105439
 20
1354.465750057854
 30
0.0
 41
4.0
 42
4.0
 43
4.0
 50
270.0
  0
INSERT
  5
1C3E
330
1C2E
100
AcDbEntity
  8
0
  6
Continuous
 62
     3
 48
10.0
370
    -2
100
AcDbBlockReference
  2
_OPEN
 10
519.363768105439
 20
1613.765750057855
 30
0.0
 41
4.0
 42
4.0
 43
4.0
 50
90.0
  0
MTEXT
  5
1C3F
330
1C2E
100
AcDbEntity
  8
0
  6
Continuous
 48
10.0
100
AcDbMText
 10
514.8637681054387
 20
1590.942362017844
 30
0.0
 40
6.0
 41
0.0
 71
     5
 72
     1
  1
\A1;259.3
 11
0.0000000000000001
 21
1.0
 31
0.0
 73
     1
 44
1.0
  0
POINT
  5
1C40
330
1C2E
100
AcDbEntity
  8
DEFPOINTS
  6
Continuous
 62
     0
 48
10.0
100
AcDbPoint
 10
494.3386920000001
 20
1354.465750057855
 30
0.0
  0
POINT
  5
1C41
330
1C2E
100
AcDbEntity
  8
DEFPOINTS
  6
Continuous
 62
     0
 48
10.0
100
AcDbPoint
 10
472.7283429999998
 20
1613.765750057855
 30
0.0
  0
POINT
  5
1C42
330
1C2E
100
AcDbEntity
  8
DEFPOINTS
  6
Continuous
 62
     0
 48
10.0
100
AcDbPoint
 10
519.363768105439
 20
1613.765750057855
 30
0.0
  0
ENDBLK
  5
1C39
330
1C2E
100
AcDbEntity
  8
0
 48
10.0
100
AcDbBlockEnd
  0
ENDSEC
  0
SECTION
  2
ENTITIES
  0
LEADER
  5
18A
330
19
100
AcDbEntity
  8
0
  6
Continuous
 62
     3
100
AcDbLeader
  3
DIM1
 76
     3
 10
967.121915
 20
333.4696649999999
 30
0.0
 10
988.587348
 20
357.4928759999998
 30
0.0
 10
1019.099582840789
 20
357.4928759999998
 30
0.0
1001
ACAD
1000
DSTYLE
1002
{
1070
     6
1000
_OPEN
1070
    41
1040
3.0
1002
}
  0
TEXT
  5
18B
330
19
100
AcDbEntity
  8
0
  6
HIDDEN
 62
     0
 48
10.0
100
AcDbText
 10
990.1968173036799
 20
358.3602084470651
 30
0.0
 40
7.0
  1
保護カバー
 41
0.714286
100
AcDbText
  0
LEADER
  5
18C
330
19
100
AcDbEntity
  8
0
  6
Continuous
 62
     3
100
AcDbLeader
  3
DIM1
 76
     3
 10
269.687678
 20
181.655641
 30
0.0
 10
246.6575189999999
 20
153.6515389999999
 30
0.0
 10
223.2628096694087
 20
153.6515389999999
 30
0.0
1001
ACAD
1000
DSTYLE
1002
{
1070
     6
1000
_OPEN
1070
    41
1040
3.0
1002
}
  0
LEADER
  5
18D
330
19
100
AcDbEntity
  8
0
  6
Continuous
 62
     3
100
AcDbLeader
  3
DIM1
 76
     3
 10
320.7291386125888
 20
175.805575
 30
0.0
 10
332.8662956706543
 20
153.6515389999999
 30
0.0
 10
351.6845133796067
 20
153.6515389999999
 30
0.0
1001
ACAD
1000
DSTYLE
1002
{
1070
     6
1000
_OPEN
1070
    41
1040
3.0
1002
}
  0
LINE
  5
18E
330
19
100
AcDbEntity
  8
0
  6
HIDDEN
 62
     0
 48
10.0
100
AcDbLine
 10
144.7283429999997
 20
187.805575
 30
0.0
 11
144.7283429999997
 21
180.805575
 31
0.0
  0
ARC
  5
18F
330
19
100
AcDbEntity
  8
0
  6
HIDDEN
 62
     0
 48
10.0
100
AcDbCircle
 10
148.7283429999999
 20
180.805575
 30
0.0
 40
4.0
100
AcDbArc
 50
180.0
 51
270.0
  0
LINE
  5
190
330
19
100
AcDbEntity
  8
0
  6
HIDDEN
 62
     0
 48
10.0
100
AcDbLine
 10
148.7283429999999
 20
176.805575
 30
0.0
 11
468.7283429999998
 21
176.805575
 31
0.0
  0
ARC
  5
191
330
19
100
AcDbEntity
  8
0
  6
HIDDEN
 62
     0
 48
10.0
100
AcDbCircle
 10
468.7283429999998
 20
180.805575
 30
0.0
 40
4.0
100
AcDbArc
 50
270.0
 51
0.0
  0
LINE
  5
192
330
19
100
AcDbEntity
  8
0
  6
HIDDEN
 62
     0
 48
10.0
100
AcDbLine
 10
144.7283429999997
 20
187.805575
 30
0.0
 11
472.7283429999998
 21
187.805575
 31
0.0
  0
LINE
  5
193
330
19
100
AcDbEntity
  8
0
  6
HIDDEN
 62
     0
 48
10.0
100
AcDbLine
 10
472.7283429999998
 20
187.805575
 30
0.0
 11
472.7283429999998
 21
180.805575
 31
0.0
  0
LEADER
  5
194
330
19
100
AcDbEntity
  8
0
  6
Continuous
 62
     3
100
AcDbLeader
  3
DIM1
 76
     3
 10
153.728343
 20
208.805575
 30
0.0
 10
119.082112
 20
224.4712189999999
 30
0.0
 10
102.3593808213629
 20
224.4712189999999
 30
0.0
1001
ACAD
1000
DSTYLE
1002
{
1070
     6
1000
_OPEN
1070
    41
1040
3.0
1002
}
  0
TEXT
  5
195
330
19
100
AcDbEntity
  8
0
  6
Continuous
 62
     0
100
AcDbText
 10
223.5134235020058
 20
154.208464315376
 30
0.0
 40
7.0
  1
スポンジ
 41
0.714286
100
AcDbText
  0
LEADER
  5
196
330
19
100
AcDbEntity
  8
0
  6
Continuous
 62
     3
100
AcDbLeader
  3
DIM1
 76
     3
 10
199.987883
 20
313.7265779999999
 30
0.0
 10
114.082112
 20
279.2745169999999
 30
0.0
 10
102.107194542054
 20
279.2745169999999
 30
0.0
1001
ACAD
1000
DSTYLE
1002
{
1070
     6
1000
_OPEN
1070
    41
1040
3.0
1002
}
  0
LEADER
  5
197
330
19
100
AcDbEntity
  8
0
  6
Continuous
 62
     3
100
AcDbLeader
  3
DIM1
 76
     3
 10
173.3473909999999
 20
325.905089
 30
0.0
 10
139.187072
 20
343.9728549999998
 30
0.0
 10
83.21931505193061
 20
343.9728549999998
 30
0.0
1001
ACAD
1000
DSTYLE
1002
{
1070
     6
1000
_OPEN
1070
    41
1040
3.0
1002
}
  0
LEADER
  5
198
330
19
100
AcDbEntity
  8
0
  6
Continuous
 62
     3
100
AcDbLeader
  3
DIM1
 76
     3
 10
155.728343
 20
403.3055749999999
 30
0.0
 10
121.4705429999999
 20
378.224916
 30
0.0
 10
92.01342213989621
 20
378.224916
 30
0.0
1001
ACAD
1000
DSTYLE
1002
{
1070
     6
1000
_OPEN
1070
    41
1040
3.0
1002
}
  0
LEADER
  5
199
330
19
100
AcDbEntity
  8
0
  6
Continuous
 62
     3
100
AcDbLeader
  3
DIM1
 76
     3
 10
293.7283429999999
 20
308.3055749999997
 30
0.0
 10
286.8515139999999
 20
355.3902089999998
 30
0.0
 10
232.297427345994
 20
355.3902089999998
 30
0.0
1001
ACAD
1000
DSTYLE
1002
{
1070
     6
1000
_OPEN
1070
    41
1040
3.0
1002
}
  0
LEADER
  5
19A
330
19
100
AcDbEntity
  8
0
  6
Continuous
 62
     3
100
AcDbLeader
  3
DIM1
 76
     3
 10
332.728343
 20
308.3055749999997
 30
0.0
 10
364.397777
 20
353.106738
 30
0.0
 10
401.903515705073
 20
353.106738
 30
0.0
1001
ACAD
1000
DSTYLE
1002
{
1070
     6
1000
_OPEN
1070
    41
1040
3.0
1002
}
  0
TEXT
  5
19B
330
19
100
AcDbEntity
  8
0
  6
Continuous
 62
     0
100
AcDbText
 10
347.652325
 20
472.808374
 30
0.0
 40
7.0
  1
取手用溝
 41
0.714286
100
AcDbText
  0
TEXT
  5
19C
330
19
100
AcDbEntity
  8
0
  6
Continuous
 62
     0
100
AcDbText
 10
102.2163564145878
 20
224.8608949307236
 30
0.0
 40
7.0
  1
ヒンジ
 41
0.714286
100
AcDbText
  0
TEXT
  5
19D
330
19
100
AcDbEntity
  8
0
  6
Continuous
 62
     0
100
AcDbText
 10
333.9798925156541
 20
154.4869654634128
 30
0.0
 40
7.0
  1
水受皿
 41
0.714286
100
AcDbText
  0
TEXT
  5
19E
330
19
100
AcDbEntity
  8
0
  6
Continuous
 62
     0
100
AcDbText
 10
102.8465723425983
 20
280.2880092433744
 30
0.0
 40
7.0
  1
中箱
 41
0.714286
100
AcDbText
  0
TEXT
  5
19F
330
19
100
AcDbEntity
  8
0
  6
Continuous
 62
     0
100
AcDbText
 10
83.91531027175579
 20
344.6280911935606
 30
0.0
 40
7.0
  1
エアタイトパッキン
 41
0.714286
100
AcDbText
  0
TEXT
  5
1A0
330
19
100
AcDbEntity
  8
0
  6
Continuous
 62
     0
100
AcDbText
 10
92.51679913078723
 20
378.8033287460407
 30
0.0
 40
7.0
  1
マグネット
 41
0.714286
100
AcDbText
  0
TEXT
  5
1A1
330
19
100
AcDbEntity
  8
0
  6
Continuous
 62
     0
100
AcDbText
 10
233.171909406789
 20
356.2747564477358
 30
0.0
 40
7.0
  1
固定サーモスタッド
 41
0.714286
100
AcDbText
  0
TEXT
  5
1A2
330
19
100
AcDbEntity
  8
0
  6
Continuous
 62
     0
100
AcDbText
 10
366.0762928578959
 20
353.9912854477358
 30
0.0
 40
7.0
  1
温度ヒューズ
 41
0.714286
100
AcDbText
  0
LEADER
  5
1A3
330
19
100
AcDbEntity
  8
0
  6
Continuous
 62
     3
100
AcDbLeader
  3
DIM1
 76
     3
 10
1025.792309294689
 20
194.288934
 30
0.0
 10
1038.157146294689
 20
216.0272589999999
 30
0.0
 10
1062.566102552303
 20
216.0272589999999
 30
0.0
1001
ACAD
1000
DSTYLE
1002
{
1070
     6
1000
_OPEN
1070
    41
1040
3.0
1002
}
  0
LEADER
  5
1A4
330
19
100
AcDbEntity
  8
0
  6
Continuous
 62
     3
100
AcDbLeader
  3
DIM1
 76
     3
 10
806.7283429999999
 20
390.8055749999998
 30
0.0
 10
832.5973989999999
 20
403.9681899999997
 30
0.0
 10
868.3739176706117
 20
403.9681899999997
 30
0.0
1001
ACAD
1000
DSTYLE
1002
{
1070
     6
1000
_OPEN
1070
    41
1040
3.0
1002
}
  0
TEXT
  5
1A5
330
19
100
AcDbEntity
  8
0
  6
Continuous
 62
     0
100
AcDbText
 10
834.0003978368292
 20
404.6190098129978
 30
0.0
 40
7.0
  1
電源スイッチ
 41
0.714286
100
AcDbText
  0
LEADER
  5
1A6
330
19
100
AcDbEntity
  8
0
  6
Continuous
 62
     3
100
AcDbLeader
  3
DIM1
 76
     3
 10
942.6879470000001
 20
256.826902
 30
0.0
 10
976.6713519999999
 20
224.748664
 30
0.0
 10
995.2159753923464
 20
224.748664
 30
0.0
1001
ACAD
1000
DSTYLE
1002
{
1070
     6
1000
_OPEN
1070
    41
1040
3.0
1002
}
  0
LEADER
  5
1A7
330
19
100
AcDbEntity
  8
0
  6
Continuous
 62
     3
100
AcDbLeader
  3
DIM1
 76
     3
 10
845.728343
 20
164.305575
 30
0.0
 10
857.8798039999997
 20
143.2486399999999
 30
0.0
 10
869.5104102822678
 20
143.2486399999999
 30
0.0
1001
ACAD
1000
DSTYLE
1002
{
1070
     6
1000
_OPEN
1070
    41
1040
3.0
1002
}
  0
LEADER
  5
1A8
330
19
100
AcDbEntity
  8
0
  6
Continuous
 62
     3
100
AcDbLeader
  3
DIM1
 76
     3
 10
979.728343
 20
171.8055749999999
 30
0.0
 10
955.658423
 20
159.1877589999999
 30
0.0
 10
925.9337008835997
 20
159.1877589999999
 30
0.0
1001
ACAD
1000
DSTYLE
1002
{
1070
     6
1000
_OPEN
1070
    41
1040
3.0
1002
}
  0
LEADER
  5
1A9
330
19
100
AcDbEntity
  8
0
  6
Continuous
 62
     3
100
AcDbLeader
  3
DIM1
 76
     3
 10
992.228343
 20
165.305575
 30
0.0
 10
968.5145179999999
 20
136.3316629999999
 30
0.0
 10
950.8750304130908
 20
136.3316629999999
 30
0.0
1001
ACAD
1000
DSTYLE
1002
{
1070
     6
1000
_OPEN
1070
    41
1040
3.0
1002
}
  0
TEXT
  5
1AA
330
19
100
AcDbEntity
  8
0
  6
Continuous
 62
     0
100
AcDbText
 10
977.4879562373984
 20
225.4711252047809
 30
0.0
 40
7.0
  1
発熱体
 41
0.714286
100
AcDbText
  0
TEXT
  5
1AB
330
19
100
AcDbEntity
  8
0
  6
Continuous
 62
     0
100
AcDbText
 10
859.1086206897323
 20
144.2225602454846
 30
0.0
 40
7.0
  1
L脚
 41
0.714286
100
AcDbText
  0
TEXT
  5
1AC
330
19
100
AcDbEntity
  8
0
  6
Continuous
 62
     0
100
AcDbText
 10
951.2523377358579
 20
137.2274967536186
 30
0.0
 40
7.0
  1
ゴム脚
 41
0.714286
100
AcDbText
  0
TEXT
  5
1AD
330
19
100
AcDbEntity
  8
0
  6
Continuous
 62
     0
100
AcDbText
 10
926.8733258971233
 20
160.2020143603959
 30
0.0
 40
7.0
  1
電源コード
 41
0.714286
100
AcDbText
  0
TEXT
  5
1AE
330
19
100
AcDbEntity
  8
0
  6
Continuous
 62
     0
100
AcDbText
 10
1039.199307217116
 20
216.8523566352458
 30
0.0
 40
7.0
  1
アース線
 41
0.714286
100
AcDbText
  0
TEXT
  5
1AF
330
19
100
AcDbEntity
  8
0
  6
Continuous
 62
     0
100
AcDbText
 10
1008.552968645529
 20
41.36020530748321
 30
0.0
 40
8.0
  1
(W)(B)
 41
0.777778
100
AcDbText
  0
DIMENSION
  5
1B0
330
19
100
AcDbEntity
  8
0
  6
Continuous
100
AcDbDimension
  2
*D5
 10
958.228343
 20
225.0313589999999
 30
0.0
 11
871.258343
 21
225.0313589999999
 31
0.0
 70
   160
  1
171
 71
     5
 42
174.0
  3
DIM1
100
AcDbAlignedDimension
 13
784.228343
 23
237.305575
 33
0.0
 14
958.228343
 24
237.305575
 34
0.0
100
AcDbRotatedDimension
1001
ACAD
1000
DSTYLE
1002
{
1070
   271
1070
     1
1002
}
  0
DIMENSION
  5
1B1
330
19
100
AcDbEntity
  8
0
  6
Continuous
100
AcDbDimension
  2
*D6
 10
413.939403
 20
238.1055749999999
 30
0.0
 11
413.939403
 21
304.3355749999999
 31
0.0
 70
   160
  1
145
 71
     5
 42
140.4000000000001
  3
DIM1
100
AcDbAlignedDimension
 13
431.9283429999998
 23
378.505575
 33
0.0
 14
431.9283429999998
 24
238.1055749999999
 34
0.0
 50
90.0
100
AcDbRotatedDimension
1001
ACAD
1000
DSTYLE
1002
{
1070
   271
1070
     1
1002
}
  0
DIMENSION
  5
1B2
330
19
100
AcDbEntity
  8
0
  6
Continuous
100
AcDbDimension
  2
*D7
 10
436.928343
 20
255.548433
 30
0.0
 11
304.758343
 21
255.548433
 31
0.0
 70
   160
  1
260
 71
     5
 42
256.3999999999999
  3
DIM1
100
AcDbAlignedDimension
 13
180.528343
 23
243.105575
 33
0.0
 14
436.928343
 24
243.105575
 34
0.0
100
AcDbRotatedDimension
1001
ACAD
1000
DSTYLE
1002
{
1070
   271
1070
     1
1002
}
  0
DIMENSION
  5
1B3
330
19
100
AcDbEntity
  8
0
  6
Continuous
 62
     0
100
AcDbDimension
  2
*D8
 10
1023.228343
 20
431.341905
 30
0.0
 11
903.7583429999999
 21
431.341905
 31
0.0
 70
   160
  1
239
 71
     5
 42
-1.0
  3
DIM1
100
AcDbAlignedDimension
 13
784.228343
 23
415.305575
 33
0.0
 14
1023.228343
 24
415.305575
 34
0.0
100
AcDbRotatedDimension
1001
ACAD
1000
DSTYLE
1002
{
1070
   271
1070
     1
1002
}
  0
DIMENSION
  5
1B4
330
19
100
AcDbEntity
  8
0
  6
Continuous
 62
     0
100
AcDbDimension
  2
*D9
 10
764.7283429999996
 20
431.341905
 30
0.0
 11
772.2483429999997
 21
431.341905
 31
0.0
 70
   160
  1
15
 71
     5
 42
-1.0
  3
DIM1
100
AcDbAlignedDimension
 13
779.728343
 23
415.305575
 33
0.0
 14
764.7283429999996
 24
415.305575
 34
0.0
100
AcDbRotatedDimension
1001
ACAD
1000
DSTYLE
1002
{
1070
   271
1070
     1
1002
}
  0
DIMENSION
  5
1B5
330
19
100
AcDbEntity
  8
0
  6
Continuous
 62
     0
100
AcDbDimension
  2
*D10
 10
493.338692
 20
485.3055749999998
 30
0.0
 11
493.338692
 21
610.985575
 31
0.0
 70
   160
 71
     5
 42
262.0
  3
DIM1
100
AcDbAlignedDimension
 13
467.728343
 23
747.305575
 33
0.0
 14
372.0904589953706
 24
485.3055749999998
 34
0.0
 50
90.0
100
AcDbRotatedDimension
1001
ACAD
1000
DSTYLE
1002
{
1070
   271
1070
     1
1002
}
  0
DIMENSION
  5
1B6
330
19
100
AcDbEntity
  8
0
  6
Continuous
 62
     0
100
AcDbDimension
  2
*D11
 10
513.223194
 20
164.305575
 30
0.0
 11
513.223194
 21
305.0936171082307
 31
0.0
 70
   160
  1
251
 71
     5
 42
250.9999999999999
  3
DIM1
100
AcDbAlignedDimension
 13
473.7283429999997
 23
415.305575
 33
0.0
 14
459.728343
 24
164.305575
 34
0.0
 50
90.0
100
AcDbRotatedDimension
1001
ACAD
1000
DSTYLE
1002
{
1070
   271
1070
     1
1002
}
  0
DIMENSION
  5
1B7
330
19
100
AcDbEntity
  8
0
  6
Continuous
 62
     0
100
AcDbDimension
  2
*D12
 10
493.338692
 20
164.305575
 30
0.0
 11
493.338692
 21
179.8255749999999
 31
0.0
 70
   160
  1
31
 71
     5
 42
-1.0
  3
DIM1
100
AcDbAlignedDimension
 13
473.7283429999997
 23
195.305575
 33
0.0
 14
459.728343
 24
164.305575
 34
0.0
 50
90.0
100
AcDbRotatedDimension
1001
ACAD
1000
DSTYLE
1002
{
1070
   271
1070
     1
1002
}
  0
DIMENSION
  5
1B8
330
19
100
AcDbEntity
  8
0
  6
Continuous
 62
     0
100
AcDbDimension
  2
*D13
 10
493.338692
 20
195.305575
 30
0.0
 11
493.338692
 21
305.335575
 31
0.0
 70
   160
  1
220
 71
     5
 42
-1.0
  3
DIM1
100
AcDbAlignedDimension
 13
473.7283429999997
 23
415.305575
 33
0.0
 14
473.7283429999997
 24
195.305575
 34
0.0
 50
90.0
100
AcDbRotatedDimension
1001
ACAD
1000
DSTYLE
1002
{
1070
   271
1070
     1
1002
}
  0
DIMENSION
  5
1B9
330
19
100
AcDbEntity
  8
0
  6
Continuous
 62
     0
100
AcDbDimension
  2
*D14
 10
473.7283429999997
 20
431.341905
 30
0.0
 11
308.758343
 21
431.341905
 31
0.0
 70
   160
  1
330
 71
     5
 42
-1.0
  3
DIM1
100
AcDbAlignedDimension
 13
143.7283429999999
 23
415.305575
 33
0.0
 14
473.7283429999997
 24
415.305575
 34
0.0
100
AcDbRotatedDimension
1001
ACAD
1000
DSTYLE
1002
{
1070
   271
1070
     1
1002
}
  0
LINE
  5
1BA
330
19
100
AcDbEntity
  8
0
  6
Continuous
 62
     0
100
AcDbLine
 10
478.428343
 20
532.5555749999998
 30
0.0
 11
475.728343
 21
532.5555749999998
 31
0.0
  0
ARC
  5
1BB
330
19
100
AcDbEntity
  8
0
  6
Continuous
 62
     0
100
AcDbCircle
 10
478.428343
 20
531.5555749999998
 30
0.0
 40
1.0
100
AcDbArc
 50
0.0
 51
90.0
  0
LINE
  5
1BC
330
19
100
AcDbEntity
  8
0
  6
Continuous
 62
     0
100
AcDbLine
 10
479.428343
 20
531.5555749999998
 30
0.0
 11
479.428343
 21
523.0555749999998
 31
0.0
  0
ARC
  5
1BD
330
19
100
AcDbEntity
  8
0
  6
Continuous
 62
     0
100
AcDbCircle
 10
478.428343
 20
523.0555749999998
 30
0.0
 40
1.0
100
AcDbArc
 50
270.0
 51
0.0
  0
LINE
  5
1BE
330
19
100
AcDbEntity
  8
0
  6
Continuous
 62
     0
100
AcDbLine
 10
478.428343
 20
522.0555749999999
 30
0.0
 11
475.728343
 21
522.0555749999999
 31
0.0
  0
LINE
  5
1BF
330
19
100
AcDbEntity
  8
0
  6
Continuous
 62
     0
100
AcDbLine
 10
474.728343
 20
519.8055749999999
 30
0.0
 11
473.7283429999997
 21
519.8055749999999
 31
0.0
  0
LINE
  5
1C0
330
19
100
AcDbEntity
  8
0
  6
Continuous
 62
     0
100
AcDbLine
 10
475.728343
 20
520.8055749999998
 30
0.0
 11
475.728343
 21
533.8055749999998
 31
0.0
  0
ARC
  5
1C1
330
19
100
AcDbEntity
  8
0
  6
Continuous
 62
     0
100
AcDbCircle
 10
474.728343
 20
520.8055749999998
 30
0.0
 40
1.0
100
AcDbArc
 50
270.0
 51
0.0
  0
ARC
  5
1C2
330
19
100
AcDbEntity
  8
0
  6
Continuous
 62
     0
100
AcDbCircle
 10
474.728343
 20
533.8055749999998
 30
0.0
 40
1.0
100
AcDbArc
 50
0.0
 51
90.0
  0
LINE
  5
1C3
330
19
100
AcDbEntity
  8
0
  6
Continuous
 62
     0
100
AcDbLine
 10
474.728343
 20
534.8055749999998
 30
0.0
 11
473.7283429999997
 21
534.8055749999998
 31
0.0
  0
POINT
  5
1C4
330
19
100
AcDbEntity
  8
0
  6
Continuous
 62
     0
100
AcDbPoint
 10
479.428343
 20
522.0555749999999
 30
0.0
  0
POINT
  5
1C5
330
19
100
AcDbEntity
  8
0
  6
Continuous
 62
     0
100
AcDbPoint
 10
479.428343
 20
532.5555749999998
 30
0.0
  0
POINT
  5
1C6
330
19
100
AcDbEntity
  8
0
  6
Continuous
 62
     0
100
AcDbPoint
 10
475.728343
 20
522.0555749999999
 30
0.0
  0
POINT
  5
1C7
330
19
100
AcDbEntity
  8
0
  6
Continuous
 62
     0
100
AcDbPoint
 10
475.728343
 20
532.5555749999998
 30
0.0
  0
POINT
  5
1C8
330
19
100
AcDbEntity
  8
0
  6
Continuous
 62
     0
100
AcDbPoint
 10
475.728343
 20
527.305575
 30
0.0
  0
POINT
  5
1C9
330
19
100
AcDbEntity
  8
0
  6
Continuous
 62
     0
100
AcDbPoint
 10
475.728343
 20
519.8055749999999
 30
0.0
  0
POINT
  5
1CA
330
19
100
AcDbEntity
  8
0
  6
Continuous
 62
     0
100
AcDbPoint
 10
475.728343
 20
534.8055749999998
 30
0.0
  0
POINT
  5
1CB
330
19
100
AcDbEntity
  8
0
  6
Continuous
 62
     0
100
AcDbPoint
 10
473.7283429999997
 20
519.8055749999999
 30
0.0
  0
POINT
  5
1CC
330
19
100
AcDbEntity
  8
0
  6
Continuous
 62
     0
100
AcDbPoint
 10
473.7283429999997
 20
534.8055749999998
 30
0.0
  0
POINT
  5
1CD
330
19
100
AcDbEntity
  8
0
  6
Continuous
 62
     0
100
AcDbPoint
 10
473.7283429999997
 20
527.305575
 30
0.0
  0
POINT
  5
1CE
330
19
100
AcDbEntity
  8
0
  6
Continuous
 62
     0
100
AcDbPoint
 10
149.7283429999999
 20
744.605575
 30
0.0
  0
POINT
  5
1CF
330
19
100
AcDbEntity
  8
0
  6
Continuous
 62
     0
100
AcDbPoint
 10
149.7283429999999
 20
744.605575
 30
0.0
  0
POINT
  5
1D0
330
19
100
AcDbEntity
  8
0
  6
Continuous
 62
     0
100
AcDbPoint
 10
149.7283429999999
 20
744.605575
 30
0.0
  0
POINT
  5
1D1
330
19
100
AcDbEntity
  8
0
  6
Continuous
 62
     0
100
AcDbPoint
 10
149.7283429999999
 20
745.8055749999997
 30
0.0
  0
POINT
  5
1D2
330
19
100
AcDbEntity
  8
0
  6
Continuous
 62
     0
100
AcDbPoint
 10
149.7283429999999
 20
747.305575
 30
0.0
  0
POINT
  5
1D3
330
19
100
AcDbEntity
  8
0
  6
Continuous
 62
     0
100
AcDbPoint
 10
149.7283429999999
 20
744.605575
 30
0.0
  0
POINT
  5
1D4
330
19
100
AcDbEntity
  8
0
  6
Continuous
 62
     0
100
AcDbPoint
 10
153.728343
 20
744.605575
 30
0.0
  0
POINT
  5
1D5
330
19
100
AcDbEntity
  8
0
  6
Continuous
 62
     0
100
AcDbPoint
 10
145.7283429999999
 20
744.605575
 30
0.0
  0
ARC
  5
1D6
330
19
100
AcDbEntity
  8
0
  6
Continuous
 62
     0
100
AcDbCircle
 10
149.7283429999999
 20
742.992612
 30
0.0
 40
4.312962999999998
100
AcDbArc
 50
21.9613
 51
158.0386999999998
  0
LINE
  5
1D7
330
19
100
AcDbEntity
  8
0
  6
Continuous
 62
     0
100
AcDbLine
 10
149.7283429999999
 20
745.8055749999997
 30
0.0
 11
149.7283429999999
 21
747.305575
 31
0.0
  0
POINT
  5
1D8
330
19
100
AcDbEntity
  8
0
  6
Continuous
 62
     0
100
AcDbPoint
 10
467.728343
 20
744.605575
 30
0.0
  0
POINT
  5
1D9
330
19
100
AcDbEntity
  8
0
  6
Continuous
 62
     0
100
AcDbPoint
 10
467.728343
 20
744.605575
 30
0.0
  0
POINT
  5
1DA
330
19
100
AcDbEntity
  8
0
  6
Continuous
 62
     0
100
AcDbPoint
 10
467.728343
 20
744.605575
 30
0.0
  0
POINT
  5
1DB
330
19
100
AcDbEntity
  8
0
  6
Continuous
 62
     0
100
AcDbPoint
 10
467.728343
 20
745.8055749999997
 30
0.0
  0
POINT
  5
1DC
330
19
100
AcDbEntity
  8
0
  6
Continuous
 62
     0
100
AcDbPoint
 10
467.728343
 20
747.305575
 30
0.0
  0
POINT
  5
1DD
330
19
100
AcDbEntity
  8
0
  6
Continuous
 62
     0
100
AcDbPoint
 10
467.728343
 20
744.605575
 30
0.0
  0
POINT
  5
1DE
330
19
100
AcDbEntity
  8
0
  6
Continuous
 62
     0
100
AcDbPoint
 10
471.728343
 20
744.605575
 30
0.0
  0
POINT
  5
1DF
330
19
100
AcDbEntity
  8
0
  6
Continuous
 62
     0
100
AcDbPoint
 10
463.728343
 20
744.605575
 30
0.0
  0
ARC
  5
1E0
330
19
100
AcDbEntity
  8
0
  6
Continuous
 62
     0
100
AcDbCircle
 10
467.728343
 20
742.992612
 30
0.0
 40
4.312962999999998
100
AcDbArc
 50
21.9613
 51
158.0386999999998
  0
LINE
  5
1E1
330
19
100
AcDbEntity
  8
0
  6
Continuous
 62
     0
100
AcDbLine
 10
467.728343
 20
745.8055749999997
 30
0.0
 11
467.728343
 21
747.305575
 31
0.0
  0
POINT
  5
1E2
330
19
100
AcDbEntity
  8
0
  6
Continuous
 62
     0
100
AcDbPoint
 10
308.7283429999998
 20
744.605575
 30
0.0
  0
POINT
  5
1E3
330
19
100
AcDbEntity
  8
0
  6
Continuous
 62
     0
100
AcDbPoint
 10
308.7283429999998
 20
744.605575
 30
0.0
  0
POINT
  5
1E4
330
19
100
AcDbEntity
  8
0
  6
Continuous
 62
     0
100
AcDbPoint
 10
308.7283429999998
 20
745.8055749999997
 30
0.0
  0
POINT
  5
1E5
330
19
100
AcDbEntity
  8
0
  6
Continuous
 62
     0
100
AcDbPoint
 10
308.7283429999998
 20
747.305575
 30
0.0
  0
POINT
  5
1E6
330
19
100
AcDbEntity
  8
0
  6
Continuous
 62
     0
100
AcDbPoint
 10
308.7283429999998
 20
744.605575
 30
0.0
  0
POINT
  5
1E7
330
19
100
AcDbEntity
  8
0
  6
Continuous
 62
     0
100
AcDbPoint
 10
312.7283429999998
 20
744.605575
 30
0.0
  0
POINT
  5
1E8
330
19
100
AcDbEntity
  8
0
  6
Continuous
 62
     0
100
AcDbPoint
 10
304.728343
 20
744.605575
 30
0.0
  0
LINE
  5
1E9
330
19
100
AcDbEntity
  8
0
  6
Continuous
 62
     0
100
AcDbLine
 10
308.7283429999998
 20
745.8055749999997
 30
0.0
 11
308.7283429999998
 21
747.305575
 31
0.0
  0
ARC
  5
1EA
330
19
100
AcDbEntity
  8
0
  6
Continuous
 62
     0
100
AcDbCircle
 10
308.7283429999998
 20
742.992612
 30
0.0
 40
4.312962999999998
100
AcDbArc
 50
21.9613
 51
158.0386999999998
  0
POINT
  5
1EB
330
19
100
AcDbEntity
  8
0
  6
Continuous
 62
     0
100
AcDbPoint
 10
1024.028343
 20
201.3055749999999
 30
0.0
  0
POINT
  5
1EC
330
19
100
AcDbEntity
  8
0
  6
Continuous
 62
     0
100
AcDbPoint
 10
1024.028343
 20
201.3055749999999
 30
0.0
  0
POINT
  5
1ED
330
19
100
AcDbEntity
  8
0
  6
Continuous
 62
     0
100
AcDbPoint
 10
1025.228342999999
 20
201.3055749999999
 30
0.0
  0
POINT
  5
1EE
330
19
100
AcDbEntity
  8
0
  6
Continuous
 62
     0
100
AcDbPoint
 10
1026.728343
 20
201.3055749999999
 30
0.0
  0
POINT
  5
1EF
330
19
100
AcDbEntity
  8
0
  6
Continuous
 62
     0
100
AcDbPoint
 10
1024.028343
 20
201.3055749999999
 30
0.0
  0
POINT
  5
1F0
330
19
100
AcDbEntity
  8
0
  6
Continuous
 62
     0
100
AcDbPoint
 10
1024.028343
 20
197.305575
 30
0.0
  0
POINT
  5
1F1
330
19
100
AcDbEntity
  8
0
  6
Continuous
 62
     0
100
AcDbPoint
 10
1024.028343
 20
205.3055749999999
 30
0.0
  0
LINE
  5
1F2
330
19
100
AcDbEntity
  8
0
  6
Continuous
 62
     0
100
AcDbLine
 10
1025.228342999999
 20
201.3055749999999
 30
0.0
 11
1026.728343
 21
201.3055749999999
 31
0.0
  0
ARC
  5
1F3
330
19
100
AcDbEntity
  8
0
  6
Continuous
 62
     0
100
AcDbCircle
 10
1022.415379999997
 20
201.3055749999999
 30
0.0
 40
4.312962999999998
100
AcDbArc
 50
291.9613
 51
68.0387
  0
POINT
  5
1F4
330
19
100
AcDbEntity
  8
0
  6
Continuous
 62
     0
100
AcDbPoint
 10
1024.028343
 20
305.3055749999998
 30
0.0
  0
POINT
  5
1F5
330
19
100
AcDbEntity
  8
0
  6
Continuous
 62
     0
100
AcDbPoint
 10
1024.028343
 20
305.3055749999998
 30
0.0
  0
POINT
  5
1F6
330
19
100
AcDbEntity
  8
0
  6
Continuous
 62
     0
100
AcDbPoint
 10
1025.228342999999
 20
305.3055749999998
 30
0.0
  0
POINT
  5
1F7
330
19
100
AcDbEntity
  8
0
  6
Continuous
 62
     0
100
AcDbPoint
 10
1026.728343
 20
305.3055749999998
 30
0.0
  0
POINT
  5
1F8
330
19
100
AcDbEntity
  8
0
  6
Continuous
 62
     0
100
AcDbPoint
 10
1024.028343
 20
305.3055749999998
 30
0.0
  0
POINT
  5
1F9
330
19
100
AcDbEntity
  8
0
  6
Continuous
 62
     0
100
AcDbPoint
 10
1024.028343
 20
301.3055749999998
 30
0.0
  0
POINT
  5
1FA
330
19
100
AcDbEntity
  8
0
  6
Continuous
 62
     0
100
AcDbPoint
 10
1024.028343
 20
309.3055749999998
 30
0.0
  0
LINE
  5
1FB
330
19
100
AcDbEntity
  8
0
  6
Continuous
 62
     0
100
AcDbLine
 10
1025.228342999999
 20
305.3055749999998
 30
0.0
 11
1026.728343
 21
305.3055749999998
 31
0.0
  0
ARC
  5
1FC
330
19
100
AcDbEntity
  8
0
  6
Continuous
 62
     0
100
AcDbCircle
 10
1022.415379999997
 20
305.3055749999998
 30
0.0
 40
4.312962999999998
100
AcDbArc
 50
291.9613
 51
68.0387
  0
LINE
  5
1FD
330
19
100
AcDbEntity
  8
0
  6
HIDDEN
 62
     0
 48
10.0
100
AcDbLine
 10
799.030161
 20
237.305575
 30
0.0
 11
799.030161
 21
379.3055749999998
 31
0.0
  0
LINE
  5
1FE
330
19
100
AcDbEntity
  8
0
  6
HIDDEN
 62
     0
 48
10.0
100
AcDbLine
 10
801.030161
 20
379.3055749999998
 30
0.0
 11
801.030161
 21
237.305575
 31
0.0
  0
LINE
  5
1FF
330
19
100
AcDbEntity
  8
0
  6
HIDDEN
 62
     0
 48
10.0
100
AcDbLine
 10
814.850161
 20
237.305575
 30
0.0
 11
814.850161
 21
379.3055749999998
 31
0.0
  0
LINE
  5
200
330
19
100
AcDbEntity
  8
0
  6
HIDDEN
 62
     0
 48
10.0
100
AcDbLine
 10
816.8501610000001
 20
379.3055749999998
 30
0.0
 11
816.8501610000001
 21
237.305575
 31
0.0
  0
LINE
  5
201
330
19
100
AcDbEntity
  8
0
  6
HIDDEN
 62
     0
 48
10.0
100
AcDbLine
 10
830.6701610000001
 20
237.305575
 30
0.0
 11
830.6701610000001
 21
379.3055749999998
 31
0.0
  0
LINE
  5
202
330
19
100
AcDbEntity
  8
0
  6
HIDDEN
 62
     0
 48
10.0
100
AcDbLine
 10
832.670161
 20
379.3055749999998
 30
0.0
 11
832.670161
 21
237.305575
 31
0.0
  0
LINE
  5
203
330
19
100
AcDbEntity
  8
0
  6
HIDDEN
 62
     0
 48
10.0
100
AcDbLine
 10
846.490161
 20
237.305575
 30
0.0
 11
846.490161
 21
379.3055749999998
 31
0.0
  0
LINE
  5
204
330
19
100
AcDbEntity
  8
0
  6
HIDDEN
 62
     0
 48
10.0
100
AcDbLine
 10
848.4901609999997
 20
379.3055749999998
 30
0.0
 11
848.4901609999997
 21
237.305575
 31
0.0
  0
LINE
  5
205
330
19
100
AcDbEntity
  8
0
  6
HIDDEN
 62
     0
 48
10.0
100
AcDbLine
 10
862.310161
 20
237.305575
 30
0.0
 11
862.310161
 21
379.3055749999998
 31
0.0
  0
LINE
  5
206
330
19
100
AcDbEntity
  8
0
  6
HIDDEN
 62
     0
 48
10.0
100
AcDbLine
 10
864.310161
 20
379.3055749999998
 30
0.0
 11
864.310161
 21
237.305575
 31
0.0
  0
LINE
  5
207
330
19
100
AcDbEntity
  8
0
  6
HIDDEN
 62
     0
 48
10.0
100
AcDbLine
 10
878.1301609999998
 20
237.305575
 30
0.0
 11
878.1301609999998
 21
379.3055749999998
 31
0.0
  0
LINE
  5
208
330
19
100
AcDbEntity
  8
0
  6
HIDDEN
 62
     0
 48
10.0
100
AcDbLine
 10
880.1301609999997
 20
379.3055749999998
 30
0.0
 11
880.1301609999997
 21
237.305575
 31
0.0
  0
LINE
  5
209
330
19
100
AcDbEntity
  8
0
  6
HIDDEN
 62
     0
 48
10.0
100
AcDbLine
 10
893.950161
 20
237.305575
 30
0.0
 11
893.950161
 21
379.3055749999998
 31
0.0
  0
LINE
  5
20A
330
19
100
AcDbEntity
  8
0
  6
HIDDEN
 62
     0
 48
10.0
100
AcDbLine
 10
895.950161
 20
379.3055749999998
 30
0.0
 11
895.950161
 21
237.305575
 31
0.0
  0
LINE
  5
20B
330
19
100
AcDbEntity
  8
0
  6
HIDDEN
 62
     0
 48
10.0
100
AcDbLine
 10
909.7701609999999
 20
237.305575
 30
0.0
 11
909.7701609999999
 21
379.3055749999998
 31
0.0
  0
LINE
  5
20C
330
19
100
AcDbEntity
  8
0
  6
HIDDEN
 62
     0
 48
10.0
100
AcDbLine
 10
911.7701610000001
 20
379.3055749999998
 30
0.0
 11
911.7701610000001
 21
237.305575
 31
0.0
  0
LINE
  5
20D
330
19
100
AcDbEntity
  8
0
  6
HIDDEN
 62
     0
 48
10.0
100
AcDbLine
 10
925.590161
 20
237.305575
 30
0.0
 11
925.590161
 21
379.3055749999998
 31
0.0
  0
LINE
  5
20E
330
19
100
AcDbEntity
  8
0
  6
HIDDEN
 62
     0
 48
10.0
100
AcDbLine
 10
927.590161
 20
379.3055749999998
 30
0.0
 11
927.590161
 21
237.305575
 31
0.0
  0
LINE
  5
20F
330
19
100
AcDbEntity
  8
0
  6
HIDDEN
 62
     0
 48
10.0
100
AcDbLine
 10
941.4101610000001
 20
237.305575
 30
0.0
 11
941.4101610000001
 21
379.3055749999998
 31
0.0
  0
LINE
  5
210
330
19
100
AcDbEntity
  8
0
  6
HIDDEN
 62
     0
 48
10.0
100
AcDbLine
 10
943.4101609999999
 20
379.3055749999998
 30
0.0
 11
943.4101609999999
 21
237.305575
 31
0.0
  0
POINT
  5
211
330
19
100
AcDbEntity
  8
0
  6
Continuous
 62
     0
100
AcDbPoint
 10
800.0301610000001
 20
237.305575
 30
0.0
  0
POINT
  5
212
330
19
100
AcDbEntity
  8
0
  6
Continuous
 62
     0
100
AcDbPoint
 10
800.0301610000001
 20
237.305575
 30
0.0
  0
POINT
  5
213
330
19
100
AcDbEntity
  8
0
  6
Continuous
 62
     0
100
AcDbPoint
 10
800.0301610000001
 20
236.305575
 30
0.0
  0
POINT
  5
214
330
19
100
AcDbEntity
  8
0
  6
Continuous
 62
     0
100
AcDbPoint
 10
801.030161
 20
237.305575
 30
0.0
  0
POINT
  5
215
330
19
100
AcDbEntity
  8
0
  6
Continuous
 62
     0
100
AcDbPoint
 10
799.030161
 20
237.305575
 30
0.0
  0
POINT
  5
216
330
19
100
AcDbEntity
  8
0
  6
Continuous
 62
     0
100
AcDbPoint
 10
800.0301610000001
 20
237.305575
 30
0.0
  0
ARC
  5
217
330
19
100
AcDbEntity
  8
0
  6
HIDDEN
 62
     0
 48
10.0
100
AcDbCircle
 10
800.0301610000001
 20
237.305575
 30
0.0
 40
1.0
100
AcDbArc
 50
180.0
 51
0.0
  0
POINT
  5
218
330
19
100
AcDbEntity
  8
0
  6
Continuous
 62
     0
100
AcDbPoint
 10
815.850161
 20
237.305575
 30
0.0
  0
POINT
  5
219
330
19
100
AcDbEntity
  8
0
  6
Continuous
 62
     0
100
AcDbPoint
 10
815.850161
 20
237.305575
 30
0.0
  0
POINT
  5
21A
330
19
100
AcDbEntity
  8
0
  6
Continuous
 62
     0
100
AcDbPoint
 10
815.850161
 20
236.305575
 30
0.0
  0
POINT
  5
21B
330
19
100
AcDbEntity
  8
0
  6
Continuous
 62
     0
100
AcDbPoint
 10
816.8501610000001
 20
237.305575
 30
0.0
  0
POINT
  5
21C
330
19
100
AcDbEntity
  8
0
  6
Continuous
 62
     0
100
AcDbPoint
 10
814.850161
 20
237.305575
 30
0.0
  0
POINT
  5
21D
330
19
100
AcDbEntity
  8
0
  6
Continuous
 62
     0
100
AcDbPoint
 10
815.850161
 20
237.305575
 30
0.0
  0
ARC
  5
21E
330
19
100
AcDbEntity
  8
0
  6
HIDDEN
 62
     0
 48
10.0
100
AcDbCircle
 10
815.850161
 20
237.305575
 30
0.0
 40
1.0
100
AcDbArc
 50
180.0
 51
0.0
  0
POINT
  5
21F
330
19
100
AcDbEntity
  8
0
  6
Continuous
 62
     0
100
AcDbPoint
 10
831.670161
 20
237.305575
 30
0.0
  0
POINT
  5
220
330
19
100
AcDbEntity
  8
0
  6
Continuous
 62
     0
100
AcDbPoint
 10
831.670161
 20
237.305575
 30
0.0
  0
POINT
  5
221
330
19
100
AcDbEntity
  8
0
  6
Continuous
 62
     0
100
AcDbPoint
 10
831.670161
 20
236.305575
 30
0.0
  0
POINT
  5
222
330
19
100
AcDbEntity
  8
0
  6
Continuous
 62
     0
100
AcDbPoint
 10
832.670161
 20
237.305575
 30
0.0
  0
POINT
  5
223
330
19
100
AcDbEntity
  8
0
  6
Continuous
 62
     0
100
AcDbPoint
 10
830.6701610000001
 20
237.305575
 30
0.0
  0
POINT
  5
224
330
19
100
AcDbEntity
  8
0
  6
Continuous
 62
     0
100
AcDbPoint
 10
831.670161
 20
237.305575
 30
0.0
  0
ARC
  5
225
330
19
100
AcDbEntity
  8
0
  6
HIDDEN
 62
     0
 48
10.0
100
AcDbCircle
 10
831.670161
 20
237.305575
 30
0.0
 40
1.0
100
AcDbArc
 50
180.0
 51
0.0
  0
POINT
  5
226
330
19
100
AcDbEntity
  8
0
  6
Continuous
 62
     0
100
AcDbPoint
 10
847.4901609999998
 20
237.305575
 30
0.0
  0
POINT
  5
227
330
19
100
AcDbEntity
  8
0
  6
Continuous
 62
     0
100
AcDbPoint
 10
847.4901609999998
 20
237.305575
 30
0.0
  0
POINT
  5
228
330
19
100
AcDbEntity
  8
0
  6
Continuous
 62
     0
100
AcDbPoint
 10
847.4901609999998
 20
236.305575
 30
0.0
  0
POINT
  5
229
330
19
100
AcDbEntity
  8
0
  6
Continuous
 62
     0
100
AcDbPoint
 10
848.4901609999997
 20
237.305575
 30
0.0
  0
POINT
  5
22A
330
19
100
AcDbEntity
  8
0
  6
Continuous
 62
     0
100
AcDbPoint
 10
846.490161
 20
237.305575
 30
0.0
  0
POINT
  5
22B
330
19
100
AcDbEntity
  8
0
  6
Continuous
 62
     0
100
AcDbPoint
 10
847.4901609999998
 20
237.305575
 30
0.0
  0
ARC
  5
22C
330
19
100
AcDbEntity
  8
0
  6
HIDDEN
 62
     0
 48
10.0
100
AcDbCircle
 10
847.4901609999998
 20
237.305575
 30
0.0
 40
1.0
100
AcDbArc
 50
180.0
 51
0.0
  0
POINT
  5
22D
330
19
100
AcDbEntity
  8
0
  6
Continuous
 62
     0
100
AcDbPoint
 10
863.310161
 20
237.305575
 30
0.0
  0
POINT
  5
22E
330
19
100
AcDbEntity
  8
0
  6
Continuous
 62
     0
100
AcDbPoint
 10
863.310161
 20
237.305575
 30
0.0
  0
POINT
  5
22F
330
19
100
AcDbEntity
  8
0
  6
Continuous
 62
     0
100
AcDbPoint
 10
863.310161
 20
236.305575
 30
0.0
  0
POINT
  5
230
330
19
100
AcDbEntity
  8
0
  6
Continuous
 62
     0
100
AcDbPoint
 10
864.310161
 20
237.305575
 30
0.0
  0
POINT
  5
231
330
19
100
AcDbEntity
  8
0
  6
Continuous
 62
     0
100
AcDbPoint
 10
862.310161
 20
237.305575
 30
0.0
  0
POINT
  5
232
330
19
100
AcDbEntity
  8
0
  6
Continuous
 62
     0
100
AcDbPoint
 10
863.310161
 20
237.305575
 30
0.0
  0
ARC
  5
233
330
19
100
AcDbEntity
  8
0
  6
HIDDEN
 62
     0
 48
10.0
100
AcDbCircle
 10
863.310161
 20
237.305575
 30
0.0
 40
1.0
100
AcDbArc
 50
180.0
 51
0.0
  0
POINT
  5
234
330
19
100
AcDbEntity
  8
0
  6
Continuous
 62
     0
100
AcDbPoint
 10
879.1301609999997
 20
237.305575
 30
0.0
  0
POINT
  5
235
330
19
100
AcDbEntity
  8
0
  6
Continuous
 62
     0
100
AcDbPoint
 10
879.1301609999997
 20
237.305575
 30
0.0
  0
POINT
  5
236
330
19
100
AcDbEntity
  8
0
  6
Continuous
 62
     0
100
AcDbPoint
 10
879.1301609999997
 20
236.305575
 30
0.0
  0
POINT
  5
237
330
19
100
AcDbEntity
  8
0
  6
Continuous
 62
     0
100
AcDbPoint
 10
880.1301609999997
 20
237.305575
 30
0.0
  0
POINT
  5
238
330
19
100
AcDbEntity
  8
0
  6
Continuous
 62
     0
100
AcDbPoint
 10
878.1301609999998
 20
237.305575
 30
0.0
  0
POINT
  5
239
330
19
100
AcDbEntity
  8
0
  6
Continuous
 62
     0
100
AcDbPoint
 10
879.1301609999997
 20
237.305575
 30
0.0
  0
ARC
  5
23A
330
19
100
AcDbEntity
  8
0
  6
HIDDEN
 62
     0
 48
10.0
100
AcDbCircle
 10
879.1301609999997
 20
237.305575
 30
0.0
 40
1.0
100
AcDbArc
 50
180.0
 51
0.0
  0
POINT
  5
23B
330
19
100
AcDbEntity
  8
0
  6
Continuous
 62
     0
100
AcDbPoint
 10
894.950161
 20
237.305575
 30
0.0
  0
POINT
  5
23C
330
19
100
AcDbEntity
  8
0
  6
Continuous
 62
     0
100
AcDbPoint
 10
894.950161
 20
237.305575
 30
0.0
  0
POINT
  5
23D
330
19
100
AcDbEntity
  8
0
  6
Continuous
 62
     0
100
AcDbPoint
 10
894.950161
 20
236.305575
 30
0.0
  0
POINT
  5
23E
330
19
100
AcDbEntity
  8
0
  6
Continuous
 62
     0
100
AcDbPoint
 10
895.950161
 20
237.305575
 30
0.0
  0
POINT
  5
23F
330
19
100
AcDbEntity
  8
0
  6
Continuous
 62
     0
100
AcDbPoint
 10
893.950161
 20
237.305575
 30
0.0
  0
POINT
  5
240
330
19
100
AcDbEntity
  8
0
  6
Continuous
 62
     0
100
AcDbPoint
 10
894.950161
 20
237.305575
 30
0.0
  0
ARC
  5
241
330
19
100
AcDbEntity
  8
0
  6
HIDDEN
 62
     0
 48
10.0
100
AcDbCircle
 10
894.950161
 20
237.305575
 30
0.0
 40
1.0
100
AcDbArc
 50
180.0
 51
0.0
  0
POINT
  5
242
330
19
100
AcDbEntity
  8
0
  6
Continuous
 62
     0
100
AcDbPoint
 10
910.7701610000001
 20
237.305575
 30
0.0
  0
POINT
  5
243
330
19
100
AcDbEntity
  8
0
  6
Continuous
 62
     0
100
AcDbPoint
 10
910.7701610000001
 20
237.305575
 30
0.0
  0
POINT
  5
244
330
19
100
AcDbEntity
  8
0
  6
Continuous
 62
     0
100
AcDbPoint
 10
910.7701610000001
 20
236.305575
 30
0.0
  0
POINT
  5
245
330
19
100
AcDbEntity
  8
0
  6
Continuous
 62
     0
100
AcDbPoint
 10
911.7701610000001
 20
237.305575
 30
0.0
  0
POINT
  5
246
330
19
100
AcDbEntity
  8
0
  6
Continuous
 62
     0
100
AcDbPoint
 10
909.7701609999999
 20
237.305575
 30
0.0
  0
POINT
  5
247
330
19
100
AcDbEntity
  8
0
  6
Continuous
 62
     0
100
AcDbPoint
 10
910.7701610000001
 20
237.305575
 30
0.0
  0
ARC
  5
248
330
19
100
AcDbEntity
  8
0
  6
HIDDEN
 62
     0
 48
10.0
100
AcDbCircle
 10
910.7701610000001
 20
237.305575
 30
0.0
 40
1.0
100
AcDbArc
 50
180.0
 51
0.0
  0
POINT
  5
249
330
19
100
AcDbEntity
  8
0
  6
Continuous
 62
     0
100
AcDbPoint
 10
926.590161
 20
237.305575
 30
0.0
  0
POINT
  5
24A
330
19
100
AcDbEntity
  8
0
  6
Continuous
 62
     0
100
AcDbPoint
 10
926.590161
 20
237.305575
 30
0.0
  0
POINT
  5
24B
330
19
100
AcDbEntity
  8
0
  6
Continuous
 62
     0
100
AcDbPoint
 10
926.590161
 20
236.305575
 30
0.0
  0
POINT
  5
24C
330
19
100
AcDbEntity
  8
0
  6
Continuous
 62
     0
100
AcDbPoint
 10
927.590161
 20
237.305575
 30
0.0
  0
POINT
  5
24D
330
19
100
AcDbEntity
  8
0
  6
Continuous
 62
     0
100
AcDbPoint
 10
925.590161
 20
237.305575
 30
0.0
  0
POINT
  5
24E
330
19
100
AcDbEntity
  8
0
  6
Continuous
 62
     0
100
AcDbPoint
 10
926.590161
 20
237.305575
 30
0.0
  0
ARC
  5
24F
330
19
100
AcDbEntity
  8
0
  6
HIDDEN
 62
     0
 48
10.0
100
AcDbCircle
 10
926.590161
 20
237.305575
 30
0.0
 40
1.0
100
AcDbArc
 50
180.0
 51
0.0
  0
POINT
  5
250
330
19
100
AcDbEntity
  8
0
  6
Continuous
 62
     0
100
AcDbPoint
 10
800.0301610000001
 20
379.3055749999998
 30
0.0
  0
POINT
  5
251
330
19
100
AcDbEntity
  8
0
  6
Continuous
 62
     0
100
AcDbPoint
 10
800.0301610000001
 20
380.305575
 30
0.0
  0
POINT
  5
252
330
19
100
AcDbEntity
  8
0
  6
Continuous
 62
     0
100
AcDbPoint
 10
800.0301610000001
 20
379.3055749999998
 30
0.0
  0
POINT
  5
253
330
19
100
AcDbEntity
  8
0
  6
Continuous
 62
     0
100
AcDbPoint
 10
799.030161
 20
379.3055749999998
 30
0.0
  0
POINT
  5
254
330
19
100
AcDbEntity
  8
0
  6
Continuous
 62
     0
100
AcDbPoint
 10
801.030161
 20
379.3055749999998
 30
0.0
  0
POINT
  5
255
330
19
100
AcDbEntity
  8
0
  6
Continuous
 62
     0
100
AcDbPoint
 10
800.0301610000001
 20
379.3055749999998
 30
0.0
  0
ARC
  5
256
330
19
100
AcDbEntity
  8
0
  6
HIDDEN
 62
     0
 48
10.0
100
AcDbCircle
 10
800.0301610000001
 20
379.3055749999998
 30
0.0
 40
1.0
100
AcDbArc
 50
0.0
 51
180.0
  0
POINT
  5
257
330
19
100
AcDbEntity
  8
0
  6
Continuous
 62
     0
100
AcDbPoint
 10
815.850161
 20
379.3055749999998
 30
0.0
  0
POINT
  5
258
330
19
100
AcDbEntity
  8
0
  6
Continuous
 62
     0
100
AcDbPoint
 10
815.850161
 20
380.305575
 30
0.0
  0
POINT
  5
259
330
19
100
AcDbEntity
  8
0
  6
Continuous
 62
     0
100
AcDbPoint
 10
815.850161
 20
379.3055749999998
 30
0.0
  0
POINT
  5
25A
330
19
100
AcDbEntity
  8
0
  6
Continuous
 62
     0
100
AcDbPoint
 10
814.850161
 20
379.3055749999998
 30
0.0
  0
POINT
  5
25B
330
19
100
AcDbEntity
  8
0
  6
Continuous
 62
     0
100
AcDbPoint
 10
816.8501610000001
 20
379.3055749999998
 30
0.0
  0
POINT
  5
25C
330
19
100
AcDbEntity
  8
0
  6
Continuous
 62
     0
100
AcDbPoint
 10
815.850161
 20
379.3055749999998
 30
0.0
  0
ARC
  5
25D
330
19
100
AcDbEntity
  8
0
  6
HIDDEN
 62
     0
 48
10.0
100
AcDbCircle
 10
815.850161
 20
379.3055749999998
 30
0.0
 40
1.0
100
AcDbArc
 50
0.0
 51
180.0
  0
POINT
  5
25E
330
19
100
AcDbEntity
  8
0
  6
Continuous
 62
     0
100
AcDbPoint
 10
831.670161
 20
379.3055749999998
 30
0.0
  0
POINT
  5
25F
330
19
100
AcDbEntity
  8
0
  6
Continuous
 62
     0
100
AcDbPoint
 10
831.670161
 20
380.305575
 30
0.0
  0
POINT
  5
260
330
19
100
AcDbEntity
  8
0
  6
Continuous
 62
     0
100
AcDbPoint
 10
831.670161
 20
379.3055749999998
 30
0.0
  0
POINT
  5
261
330
19
100
AcDbEntity
  8
0
  6
Continuous
 62
     0
100
AcDbPoint
 10
830.6701610000001
 20
379.3055749999998
 30
0.0
  0
POINT
  5
262
330
19
100
AcDbEntity
  8
0
  6
Continuous
 62
     0
100
AcDbPoint
 10
832.670161
 20
379.3055749999998
 30
0.0
  0
POINT
  5
263
330
19
100
AcDbEntity
  8
0
  6
Continuous
 62
     0
100
AcDbPoint
 10
831.670161
 20
379.3055749999998
 30
0.0
  0
ARC
  5
264
330
19
100
AcDbEntity
  8
0
  6
HIDDEN
 62
     0
 48
10.0
100
AcDbCircle
 10
831.670161
 20
379.3055749999998
 30
0.0
 40
1.0
100
AcDbArc
 50
0.0
 51
180.0
  0
POINT
  5
265
330
19
100
AcDbEntity
  8
0
  6
Continuous
 62
     0
100
AcDbPoint
 10
847.4901609999998
 20
379.3055749999998
 30
0.0
  0
POINT
  5
266
330
19
100
AcDbEntity
  8
0
  6
Continuous
 62
     0
100
AcDbPoint
 10
847.4901609999998
 20
380.305575
 30
0.0
  0
POINT
  5
267
330
19
100
AcDbEntity
  8
0
  6
Continuous
 62
     0
100
AcDbPoint
 10
847.4901609999998
 20
379.3055749999998
 30
0.0
  0
POINT
  5
268
330
19
100
AcDbEntity
  8
0
  6
Continuous
 62
     0
100
AcDbPoint
 10
846.490161
 20
379.3055749999998
 30
0.0
  0
POINT
  5
269
330
19
100
AcDbEntity
  8
0
  6
Continuous
 62
     0
100
AcDbPoint
 10
848.4901609999997
 20
379.3055749999998
 30
0.0
  0
POINT
  5
26A
330
19
100
AcDbEntity
  8
0
  6
Continuous
 62
     0
100
AcDbPoint
 10
847.4901609999998
 20
379.3055749999998
 30
0.0
  0
ARC
  5
26B
330
19
100
AcDbEntity
  8
0
  6
HIDDEN
 62
     0
 48
10.0
100
AcDbCircle
 10
847.4901609999998
 20
379.3055749999998
 30
0.0
 40
1.0
100
AcDbArc
 50
0.0
 51
180.0
  0
POINT
  5
26C
330
19
100
AcDbEntity
  8
0
  6
Continuous
 62
     0
100
AcDbPoint
 10
863.310161
 20
379.3055749999998
 30
0.0
  0
POINT
  5
26D
330
19
100
AcDbEntity
  8
0
  6
Continuous
 62
     0
100
AcDbPoint
 10
863.310161
 20
380.305575
 30
0.0
  0
POINT
  5
26E
330
19
100
AcDbEntity
  8
0
  6
Continuous
 62
     0
100
AcDbPoint
 10
863.310161
 20
379.3055749999998
 30
0.0
  0
POINT
  5
26F
330
19
100
AcDbEntity
  8
0
  6
Continuous
 62
     0
100
AcDbPoint
 10
862.310161
 20
379.3055749999998
 30
0.0
  0
POINT
  5
270
330
19
100
AcDbEntity
  8
0
  6
Continuous
 62
     0
100
AcDbPoint
 10
864.310161
 20
379.3055749999998
 30
0.0
  0
POINT
  5
271
330
19
100
AcDbEntity
  8
0
  6
Continuous
 62
     0
100
AcDbPoint
 10
863.310161
 20
379.3055749999998
 30
0.0
  0
ARC
  5
272
330
19
100
AcDbEntity
  8
0
  6
HIDDEN
 62
     0
 48
10.0
100
AcDbCircle
 10
863.310161
 20
379.3055749999998
 30
0.0
 40
1.0
100
AcDbArc
 50
0.0
 51
180.0
  0
POINT
  5
273
330
19
100
AcDbEntity
  8
0
  6
Continuous
 62
     0
100
AcDbPoint
 10
879.1301609999997
 20
379.3055749999998
 30
0.0
  0
POINT
  5
274
330
19
100
AcDbEntity
  8
0
  6
Continuous
 62
     0
100
AcDbPoint
 10
879.1301609999997
 20
380.305575
 30
0.0
  0
POINT
  5
275
330
19
100
AcDbEntity
  8
0
  6
Continuous
 62
     0
100
AcDbPoint
 10
879.1301609999997
 20
379.3055749999998
 30
0.0
  0
POINT
  5
276
330
19
100
AcDbEntity
  8
0
  6
Continuous
 62
     0
100
AcDbPoint
 10
878.1301609999998
 20
379.3055749999998
 30
0.0
  0
POINT
  5
277
330
19
100
AcDbEntity
  8
0
  6
Continuous
 62
     0
100
AcDbPoint
 10
880.1301609999997
 20
379.3055749999998
 30
0.0
  0
POINT
  5
278
330
19
100
AcDbEntity
  8
0
  6
Continuous
 62
     0
100
AcDbPoint
 10
879.1301609999997
 20
379.3055749999998
 30
0.0
  0
ARC
  5
279
330
19
100
AcDbEntity
  8
0
  6
HIDDEN
 62
     0
 48
10.0
100
AcDbCircle
 10
879.1301609999997
 20
379.3055749999998
 30
0.0
 40
1.0
100
AcDbArc
 50
0.0
 51
180.0
  0
POINT
  5
27A
330
19
100
AcDbEntity
  8
0
  6
Continuous
 62
     0
100
AcDbPoint
 10
894.950161
 20
379.3055749999998
 30
0.0
  0
POINT
  5
27B
330
19
100
AcDbEntity
  8
0
  6
Continuous
 62
     0
100
AcDbPoint
 10
894.950161
 20
380.305575
 30
0.0
  0
POINT
  5
27C
330
19
100
AcDbEntity
  8
0
  6
Continuous
 62
     0
100
AcDbPoint
 10
894.950161
 20
379.3055749999998
 30
0.0
  0
POINT
  5
27D
330
19
100
AcDbEntity
  8
0
  6
Continuous
 62
     0
100
AcDbPoint
 10
893.950161
 20
379.3055749999998
 30
0.0
  0
POINT
  5
27E
330
19
100
AcDbEntity
  8
0
  6
Continuous
 62
     0
100
AcDbPoint
 10
895.950161
 20
379.3055749999998
 30
0.0
  0
POINT
  5
27F
330
19
100
AcDbEntity
  8
0
  6
Continuous
 62
     0
100
AcDbPoint
 10
894.950161
 20
379.3055749999998
 30
0.0
  0
ARC
  5
280
330
19
100
AcDbEntity
  8
0
  6
HIDDEN
 62
     0
 48
10.0
100
AcDbCircle
 10
894.950161
 20
379.3055749999998
 30
0.0
 40
1.0
100
AcDbArc
 50
0.0
 51
180.0
  0
POINT
  5
281
330
19
100
AcDbEntity
  8
0
  6
Continuous
 62
     0
100
AcDbPoint
 10
910.7701610000001
 20
379.3055749999998
 30
0.0
  0
POINT
  5
282
330
19
100
AcDbEntity
  8
0
  6
Continuous
 62
     0
100
AcDbPoint
 10
910.7701610000001
 20
380.305575
 30
0.0
  0
POINT
  5
283
330
19
100
AcDbEntity
  8
0
  6
Continuous
 62
     0
100
AcDbPoint
 10
910.7701610000001
 20
379.3055749999998
 30
0.0
  0
POINT
  5
284
330
19
100
AcDbEntity
  8
0
  6
Continuous
 62
     0
100
AcDbPoint
 10
909.7701609999999
 20
379.3055749999998
 30
0.0
  0
POINT
  5
285
330
19
100
AcDbEntity
  8
0
  6
Continuous
 62
     0
100
AcDbPoint
 10
911.7701610000001
 20
379.3055749999998
 30
0.0
  0
POINT
  5
286
330
19
100
AcDbEntity
  8
0
  6
Continuous
 62
     0
100
AcDbPoint
 10
910.7701610000001
 20
379.3055749999998
 30
0.0
  0
ARC
  5
287
330
19
100
AcDbEntity
  8
0
  6
HIDDEN
 62
     0
 48
10.0
100
AcDbCircle
 10
910.7701610000001
 20
379.3055749999998
 30
0.0
 40
1.0
100
AcDbArc
 50
0.0
 51
180.0
  0
POINT
  5
288
330
19
100
AcDbEntity
  8
0
  6
Continuous
 62
     0
100
AcDbPoint
 10
926.590161
 20
379.3055749999998
 30
0.0
  0
POINT
  5
289
330
19
100
AcDbEntity
  8
0
  6
Continuous
 62
     0
100
AcDbPoint
 10
926.590161
 20
380.305575
 30
0.0
  0
POINT
  5
28A
330
19
100
AcDbEntity
  8
0
  6
Continuous
 62
     0
100
AcDbPoint
 10
926.590161
 20
379.3055749999998
 30
0.0
  0
POINT
  5
28B
330
19
100
AcDbEntity
  8
0
  6
Continuous
 62
     0
100
AcDbPoint
 10
925.590161
 20
379.3055749999998
 30
0.0
  0
POINT
  5
28C
330
19
100
AcDbEntity
  8
0
  6
Continuous
 62
     0
100
AcDbPoint
 10
927.590161
 20
379.3055749999998
 30
0.0
  0
POINT
  5
28D
330
19
100
AcDbEntity
  8
0
  6
Continuous
 62
     0
100
AcDbPoint
 10
926.590161
 20
379.3055749999998
 30
0.0
  0
ARC
  5
28E
330
19
100
AcDbEntity
  8
0
  6
HIDDEN
 62
     0
 48
10.0
100
AcDbCircle
 10
926.590161
 20
379.3055749999998
 30
0.0
 40
1.0
100
AcDbArc
 50
0.0
 51
180.0
  0
POINT
  5
28F
330
19
100
AcDbEntity
  8
0
  6
Continuous
 62
     0
100
AcDbPoint
 10
942.4101610000001
 20
379.3055749999998
 30
0.0
  0
POINT
  5
290
330
19
100
AcDbEntity
  8
0
  6
Continuous
 62
     0
100
AcDbPoint
 10
941.4101610000001
 20
379.3055749999998
 30
0.0
  0
POINT
  5
291
330
19
100
AcDbEntity
  8
0
  6
Continuous
 62
     0
100
AcDbPoint
 10
942.4101610000001
 20
380.305575
 30
0.0
  0
POINT
  5
292
330
19
100
AcDbEntity
  8
0
  6
Continuous
 62
     0
100
AcDbPoint
 10
942.4101610000001
 20
379.3055749999998
 30
0.0
  0
POINT
  5
293
330
19
100
AcDbEntity
  8
0
  6
Continuous
 62
     0
100
AcDbPoint
 10
943.4101609999999
 20
379.3055749999998
 30
0.0
  0
ARC
  5
294
330
19
100
AcDbEntity
  8
0
  6
HIDDEN
 62
     0
 48
10.0
100
AcDbCircle
 10
942.4101610000001
 20
379.3055749999998
 30
0.0
 40
1.0
100
AcDbArc
 50
0.0
 51
180.0
  0
POINT
  5
295
330
19
100
AcDbEntity
  8
0
  6
Continuous
 62
     0
100
AcDbPoint
 10
958.228343
 20
237.305575
 30
0.0
  0
POINT
  5
296
330
19
100
AcDbEntity
  8
0
  6
Continuous
 62
     0
100
AcDbPoint
 10
958.228343
 20
379.3055749999998
 30
0.0
  0
POINT
  5
297
330
19
100
AcDbEntity
  8
0
  6
Continuous
 62
     0
100
AcDbPoint
 10
784.228343
 20
237.305575
 30
0.0
  0
POINT
  5
298
330
19
100
AcDbEntity
  8
0
  6
Continuous
 62
     0
100
AcDbPoint
 10
784.228343
 20
379.3055749999998
 30
0.0
  0
POINT
  5
299
330
19
100
AcDbEntity
  8
0
  6
Continuous
 62
     0
100
AcDbPoint
 10
781.5294209999997
 20
205.7942909999999
 30
0.0
  0
POINT
  5
29A
330
19
100
AcDbEntity
  8
0
  6
Continuous
 62
     0
100
AcDbPoint
 10
567.476438
 20
152.8195749999999
 30
0.0
  0
POINT
  5
29B
330
19
100
AcDbEntity
  8
0
  6
Continuous
 62
     0
100
AcDbPoint
 10
774.8391579999997
 20
209.184037
 30
0.0
  0
POINT
  5
29C
330
19
100
AcDbEntity
  8
0
  6
Continuous
 62
     0
100
AcDbPoint
 10
776.228343
 20
201.3055749999999
 30
0.0
  0
POINT
  5
29D
330
19
100
AcDbEntity
  8
0
  6
Continuous
 62
     0
100
AcDbPoint
 10
775.794223
 20
203.767594
 30
0.0
  0
POINT
  5
29E
330
19
100
AcDbEntity
  8
0
  6
Continuous
 62
     0
100
AcDbPoint
 10
776.6624639999997
 20
198.843555
 30
0.0
  0
POINT
  5
29F
330
19
100
AcDbEntity
  8
0
  6
Continuous
 62
     0
100
AcDbPoint
 10
775.1852519999999
 20
198.583083
 30
0.0
  0
POINT
  5
2A0
330
19
100
AcDbEntity
  8
0
  6
Continuous
 62
     0
100
AcDbPoint
 10
774.317011
 20
203.507122
 30
0.0
  0
POINT
  5
2A1
330
19
100
AcDbEntity
  8
0
  6
Continuous
 62
     0
100
AcDbPoint
 10
778.1396749999997
 20
199.104027
 30
0.0
  0
POINT
  5
2A2
330
19
100
AcDbEntity
  8
0
  6
Continuous
 62
     0
100
AcDbPoint
 10
777.271434
 20
204.028066
 30
0.0
  0
POINT
  5
2A3
330
19
100
AcDbEntity
  8
0
  6
Continuous
 62
     0
100
AcDbPoint
 10
775.9678709999997
 20
202.782786
 30
0.0
  0
POINT
  5
2A4
330
19
100
AcDbEntity
  8
0
  6
Continuous
 62
     0
100
AcDbPoint
 10
776.488815
 20
199.8283629999999
 30
0.0
  0
POINT
  5
2A5
330
19
100
AcDbEntity
  8
0
  6
Continuous
 62
     0
100
AcDbPoint
 10
765.134986
 20
200.8726559999999
 30
0.0
  0
POINT
  5
2A6
330
19
100
AcDbEntity
  8
0
  6
Continuous
 62
     0
100
AcDbPoint
 10
765.65593
 20
197.918233
 30
0.0
  0
POINT
  5
2A7
330
19
100
AcDbEntity
  8
0
  6
Continuous
 62
     0
100
AcDbPoint
 10
584.5678699999997
 20
171.064655
 30
0.0
  0
POINT
  5
2A8
330
19
100
AcDbEntity
  8
0
  6
Continuous
 62
     0
100
AcDbPoint
 10
467.728343
 20
744.605575
 30
0.0
  0
POINT
  5
2A9
330
19
100
AcDbEntity
  8
0
  6
Continuous
 62
     0
100
AcDbPoint
 10
144.7283429999997
 20
744.605575
 30
0.0
  0
POINT
  5
2AA
330
19
100
AcDbEntity
  8
0
  6
Continuous
 62
     0
100
AcDbPoint
 10
472.7283429999998
 20
744.605575
 30
0.0
  0
POINT
  5
2AB
330
19
100
AcDbEntity
  8
0
  6
Continuous
 62
     0
100
AcDbPoint
 10
144.7283429999997
 20
743.805575
 30
0.0
  0
POINT
  5
2AC
330
19
100
AcDbEntity
  8
0
  6
Continuous
 62
     0
100
AcDbPoint
 10
472.7283429999998
 20
743.805575
 30
0.0
  0
POINT
  5
2AD
330
19
100
AcDbEntity
  8
0
  6
Continuous
 62
     0
100
AcDbPoint
 10
155.728343
 20
500.3055749999998
 30
0.0
  0
POINT
  5
2AE
330
19
100
AcDbEntity
  8
0
  6
Continuous
 62
     0
100
AcDbPoint
 10
163.728343
 20
500.3055749999998
 30
0.0
  0
POINT
  5
2AF
330
19
100
AcDbEntity
  8
0
  6
Continuous
 62
     0
100
AcDbPoint
 10
147.7283429999999
 20
500.3055749999998
 30
0.0
  0
POINT
  5
2B0
330
19
100
AcDbEntity
  8
0
  6
Continuous
 62
     0
100
AcDbPoint
 10
473.7283429999997
 20
743.805575
 30
0.0
  0
POINT
  5
2B1
330
19
100
AcDbEntity
  8
0
  6
Continuous
 62
     0
100
AcDbPoint
 10
143.7283429999999
 20
504.8055749999998
 30
0.0
  0
POINT
  5
2B2
330
19
100
AcDbEntity
  8
0
  6
Continuous
 62
     0
100
AcDbPoint
 10
473.7283429999997
 20
504.8055749999998
 30
0.0
  0
POINT
  5
2B3
330
19
100
AcDbEntity
  8
0
  6
Continuous
 62
     0
100
AcDbPoint
 10
308.7283429999998
 20
500.3055749999998
 30
0.0
  0
POINT
  5
2B4
330
19
100
AcDbEntity
  8
0
  6
Continuous
 62
     0
100
AcDbPoint
 10
358.7283429999998
 20
500.3055749999998
 30
0.0
  0
POINT
  5
2B5
330
19
100
AcDbEntity
  8
0
  6
Continuous
 62
     0
100
AcDbPoint
 10
258.7283429999999
 20
500.3055749999998
 30
0.0
  0
POINT
  5
2B6
330
19
100
AcDbEntity
  8
0
  6
Continuous
 62
     0
100
AcDbPoint
 10
358.7283429999998
 20
491.3055749999998
 30
0.0
  0
POINT
  5
2B7
330
19
100
AcDbEntity
  8
0
  6
Continuous
 62
     0
100
AcDbPoint
 10
258.7283429999999
 20
491.3055749999998
 30
0.0
  0
POINT
  5
2B8
330
19
100
AcDbEntity
  8
0
  6
Continuous
 62
     0
100
AcDbPoint
 10
308.7283429999998
 20
485.305575
 30
0.0
  0
POINT
  5
2B9
330
19
100
AcDbEntity
  8
0
  6
Continuous
 62
     0
100
AcDbPoint
 10
473.7283429999997
 20
500.3055749999998
 30
0.0
  0
POINT
  5
2BA
330
19
100
AcDbEntity
  8
0
  6
Continuous
 62
     0
100
AcDbPoint
 10
143.7283429999999
 20
500.3055749999998
 30
0.0
  0
POINT
  5
2BB
330
19
100
AcDbEntity
  8
0
  6
Continuous
 62
     0
100
AcDbPoint
 10
360.7283429999998
 20
500.3055749999998
 30
0.0
  0
POINT
  5
2BC
330
19
100
AcDbEntity
  8
0
  6
Continuous
 62
     0
100
AcDbPoint
 10
256.7283429999999
 20
500.3055749999998
 30
0.0
  0
POINT
  5
2BD
330
19
100
AcDbEntity
  8
0
  6
Continuous
 62
     0
100
AcDbPoint
 10
1035.308856
 20
162.457749
 30
0.0
  0
POINT
  5
2BE
330
19
100
AcDbEntity
  8
0
  6
Continuous
 62
     0
100
AcDbPoint
 10
1031.711631
 20
165.7633069999999
 30
0.0
  0
POINT
  5
2BF
330
19
100
AcDbEntity
  8
0
  6
Continuous
 62
     0
100
AcDbPoint
 10
1031.322742
 20
170.13831
 30
0.0
  0
POINT
  5
2C0
330
19
100
AcDbEntity
  8
0
  6
Continuous
 62
     0
100
AcDbPoint
 10
1035.5033
 20
175.19387
 30
0.0
  0
POINT
  5
2C1
330
19
100
AcDbEntity
  8
0
  6
Continuous
 62
     0
100
AcDbPoint
 10
1034.336633
 20
179.374428
 30
0.0
  0
POINT
  5
2C2
330
19
100
AcDbEntity
  8
0
  6
Continuous
 62
     0
100
AcDbPoint
 10
1031.419964
 20
182.291097
 30
0.0
  0
POINT
  5
2C3
330
19
100
AcDbEntity
  8
0
  6
Continuous
 62
     0
100
AcDbPoint
 10
1030.933853
 20
187.0549889999999
 30
0.0
  0
POINT
  5
2C4
330
19
100
AcDbEntity
  8
0
  6
Continuous
 62
     0
100
AcDbPoint
 10
1033.753299
 20
191.0411029999999
 30
0.0
  0
POINT
  5
2C5
330
19
100
AcDbEntity
  8
0
  6
Continuous
 62
     0
100
AcDbPoint
 10
1033.072742999999
 20
196.096662
 30
0.0
  0
POINT
  5
2C6
330
19
100
AcDbEntity
  8
0
  6
Continuous
 62
     0
100
AcDbPoint
 10
1030.739408
 20
200.471665
 30
0.0
  0
POINT
  5
2C7
330
19
100
AcDbEntity
  8
0
  6
Continuous
 62
     0
100
AcDbPoint
 10
1034.142188
 20
202.9022219999999
 30
0.0
  0
POINT
  5
2C8
330
19
100
AcDbEntity
  8
0
  6
Continuous
 62
     0
370
     9
100
AcDbPoint
 10
991.0283429999999
 20
193.305575
 30
0.0
  0
POINT
  5
2C9
330
19
100
AcDbEntity
  8
0
  6
Continuous
 62
     0
370
     9
100
AcDbPoint
 10
1000.228343
 20
173.305575
 30
0.0
  0
POINT
  5
2CA
330
19
100
AcDbEntity
  8
0
  6
Continuous
 62
     0
370
     9
100
AcDbPoint
 10
1000.228343
 20
177.305575
 30
0.0
  0
POINT
  5
2CB
330
19
100
AcDbEntity
  8
0
  6
Continuous
 62
     0
100
AcDbPoint
 10
973.628343
 20
192.3055749999999
 30
0.0
  0
POINT
  5
2CC
330
19
100
AcDbEntity
  8
0
  6
Continuous
 62
     0
100
AcDbPoint
 10
973.628343
 20
191.305575
 30
0.0
  0
POINT
  5
2CD
330
19
100
AcDbEntity
  8
0
  6
Continuous
 62
     0
100
AcDbPoint
 10
971.628343
 20
193.305575
 30
0.0
  0
POINT
  5
2CE
330
19
100
AcDbEntity
  8
0
  6
Continuous
 62
     0
100
AcDbPoint
 10
975.6283429999999
 20
193.305575
 30
0.0
  0
POINT
  5
2CF
330
19
100
AcDbEntity
  8
0
  6
Continuous
 62
     0
100
AcDbPoint
 10
973.628343
 20
193.305575
 30
0.0
  0
POINT
  5
2D0
330
19
100
AcDbEntity
  8
0
  6
Continuous
 62
     0
100
AcDbPoint
 10
983.228343
 20
195.305575
 30
0.0
  0
POINT
  5
2D1
330
19
100
AcDbEntity
  8
0
  6
Continuous
 62
     0
370
     9
100
AcDbPoint
 10
1000.228343
 20
175.305575
 30
0.0
  0
POINT
  5
2D2
330
19
100
AcDbEntity
  8
0
  6
Continuous
 62
     0
100
AcDbPoint
 10
973.628343
 20
195.305575
 30
0.0
  0
POINT
  5
2D3
330
19
100
AcDbEntity
  8
0
  6
Continuous
 62
     0
100
AcDbPoint
 10
969.728343
 20
195.305575
 30
0.0
  0
POINT
  5
2D4
330
19
100
AcDbEntity
  8
0
  6
Continuous
 62
     0
100
AcDbPoint
 10
991.0283429999999
 20
195.305575
 30
0.0
  0
POINT
  5
2D5
330
19
100
AcDbEntity
  8
0
  6
Continuous
 62
     0
100
AcDbPoint
 10
969.728343
 20
193.305575
 30
0.0
  0
POINT
  5
2D6
330
19
100
AcDbEntity
  8
0
  6
Continuous
 62
     0
100
AcDbPoint
 10
979.728343
 20
171.8055749999999
 30
0.0
  0
POINT
  5
2D7
330
19
100
AcDbEntity
  8
0
  6
Continuous
 62
     0
370
     9
100
AcDbPoint
 10
1000.228343
 20
178.805575
 30
0.0
  0
POINT
  5
2D8
330
19
100
AcDbEntity
  8
0
  6
Continuous
 62
     0
370
     9
100
AcDbPoint
 10
1000.228343
 20
171.8055749999999
 30
0.0
  0
POINT
  5
2D9
330
19
100
AcDbEntity
  8
0
  6
Continuous
 62
     0
100
AcDbPoint
 10
969.728343
 20
195.305575
 30
0.0
  0
POINT
  5
2DA
330
19
100
AcDbEntity
  8
0
  6
Continuous
 62
     0
100
AcDbPoint
 10
1012.228343
 20
165.305575
 30
0.0
  0
POINT
  5
2DB
330
19
100
AcDbEntity
  8
0
  6
Continuous
 62
     0
100
AcDbPoint
 10
1002.228343
 20
165.305575
 30
0.0
  0
POINT
  5
2DC
330
19
100
AcDbEntity
  8
0
  6
Continuous
 62
     0
100
AcDbPoint
 10
989.228343
 20
195.305575
 30
0.0
  0
POINT
  5
2DD
330
19
100
AcDbEntity
  8
0
  6
Continuous
 62
     0
100
AcDbPoint
 10
1015.228343
 20
195.305575
 30
0.0
  0
POINT
  5
2DE
330
19
100
AcDbEntity
  8
0
  6
Continuous
 62
     0
100
AcDbPoint
 10
1002.228343
 20
195.305575
 30
0.0
  0
POINT
  5
2DF
330
19
100
AcDbEntity
  8
0
  6
Continuous
 62
     0
100
AcDbPoint
 10
1024.028343
 20
201.3055749999999
 30
0.0
  0
POINT
  5
2E0
330
19
100
AcDbEntity
  8
0
  6
Continuous
 62
     0
100
AcDbPoint
 10
1024.028343
 20
409.3055749999998
 30
0.0
  0
POINT
  5
2E1
330
19
100
AcDbEntity
  8
0
  6
Continuous
 62
     0
100
AcDbPoint
 10
1023.228343
 20
196.305575
 30
0.0
  0
POINT
  5
2E2
330
19
100
AcDbEntity
  8
0
  6
Continuous
 62
     0
100
AcDbPoint
 10
1023.228343
 20
414.305575
 30
0.0
  0
POINT
  5
2E3
330
19
100
AcDbEntity
  8
0
  6
Continuous
 62
     0
100
AcDbPoint
 10
1024.028343
 20
196.305575
 30
0.0
  0
POINT
  5
2E4
330
19
100
AcDbEntity
  8
0
  6
Continuous
 62
     0
100
AcDbPoint
 10
1024.028343
 20
414.305575
 30
0.0
  0
POINT
  5
2E5
330
19
100
AcDbEntity
  8
0
  6
Continuous
 62
     0
100
AcDbPoint
 10
1024.028343
 20
305.3055749999998
 30
0.0
  0
POINT
  5
2E6
330
19
100
AcDbEntity
  8
0
  6
Continuous
 62
     0
100
AcDbPoint
 10
1023.228343
 20
195.305575
 30
0.0
  0
POINT
  5
2E7
330
19
100
AcDbEntity
  8
0
  6
Continuous
 62
     0
100
AcDbPoint
 10
1023.228343
 20
415.305575
 30
0.0
  0
POINT
  5
2E8
330
19
100
AcDbEntity
  8
0
  6
Continuous
 62
     0
100
AcDbPoint
 10
811.978343
 20
383.0555749999998
 30
0.0
  0
POINT
  5
2E9
330
19
100
AcDbEntity
  8
0
  6
Continuous
 62
     0
100
AcDbPoint
 10
801.4783429999999
 20
383.0555749999998
 30
0.0
  0
POINT
  5
2EA
330
19
100
AcDbEntity
  8
0
  6
Continuous
 62
     0
100
AcDbPoint
 10
811.978343
 20
398.5555749999998
 30
0.0
  0
POINT
  5
2EB
330
19
100
AcDbEntity
  8
0
  6
Continuous
 62
     0
100
AcDbPoint
 10
801.4783429999999
 20
398.5555749999998
 30
0.0
  0
POINT
  5
2EC
330
19
100
AcDbEntity
  8
0
  6
Continuous
 62
     0
100
AcDbPoint
 10
801.4783429999999
 20
390.8055749999998
 30
0.0
  0
POINT
  5
2ED
330
19
100
AcDbEntity
  8
0
  6
Continuous
 62
     0
100
AcDbPoint
 10
811.978343
 20
390.8055749999998
 30
0.0
  0
POINT
  5
2EE
330
19
100
AcDbEntity
  8
0
  6
Continuous
 62
     0
100
AcDbPoint
 10
814.228343
 20
380.305575
 30
0.0
  0
POINT
  5
2EF
330
19
100
AcDbEntity
  8
0
  6
Continuous
 62
     0
100
AcDbPoint
 10
799.228343
 20
380.305575
 30
0.0
  0
POINT
  5
2F0
330
19
100
AcDbEntity
  8
0
  6
Continuous
 62
     0
100
AcDbPoint
 10
814.228343
 20
401.3055749999998
 30
0.0
  0
POINT
  5
2F1
330
19
100
AcDbEntity
  8
0
  6
Continuous
 62
     0
100
AcDbPoint
 10
799.228343
 20
401.3055749999998
 30
0.0
  0
POINT
  5
2F2
330
19
100
AcDbEntity
  8
0
  6
Continuous
 62
     0
100
AcDbPoint
 10
799.228343
 20
390.8055749999998
 30
0.0
  0
POINT
  5
2F3
330
19
100
AcDbEntity
  8
0
  6
Continuous
 62
     0
100
AcDbPoint
 10
814.228343
 20
390.8055749999998
 30
0.0
  0
POINT
  5
2F4
330
19
100
AcDbEntity
  8
0
  6
Continuous
 62
     0
100
AcDbPoint
 10
774.728343
 20
163.305575
 30
0.0
  0
POINT
  5
2F5
330
19
100
AcDbEntity
  8
0
  6
Continuous
 62
     0
100
AcDbPoint
 10
842.7283429999999
 20
163.305575
 30
0.0
  0
POINT
  5
2F6
330
19
100
AcDbEntity
  8
0
  6
Continuous
 62
     0
100
AcDbPoint
 10
774.728343
 20
164.305575
 30
0.0
  0
POINT
  5
2F7
330
19
100
AcDbEntity
  8
0
  6
Continuous
 62
     0
100
AcDbPoint
 10
842.7283429999999
 20
164.305575
 30
0.0
  0
POINT
  5
2F8
330
19
100
AcDbEntity
  8
0
  6
Continuous
 62
     0
100
AcDbPoint
 10
780.2372839999997
 20
379.435095
 30
0.0
  0
POINT
  5
2F9
330
19
100
AcDbEntity
  8
0
  6
Continuous
 62
     0
100
AcDbPoint
 10
784.228343
 20
201.3055749999999
 30
0.0
  0
POINT
  5
2FA
330
19
100
AcDbEntity
  8
0
  6
Continuous
 62
     0
100
AcDbPoint
 10
784.228343
 20
197.305575
 30
0.0
  0
POINT
  5
2FB
330
19
100
AcDbEntity
  8
0
  6
Continuous
 62
     0
100
AcDbPoint
 10
779.728343
 20
395.3055749999998
 30
0.0
  0
POINT
  5
2FC
330
19
100
AcDbEntity
  8
0
  6
Continuous
 62
     0
100
AcDbPoint
 10
779.728343
 20
195.305575
 30
0.0
  0
POINT
  5
2FD
330
19
100
AcDbEntity
  8
0
  6
Continuous
 62
     0
100
AcDbPoint
 10
764.7283429999996
 20
415.305575
 30
0.0
  0
POINT
  5
2FE
330
19
100
AcDbEntity
  8
0
  6
Continuous
 62
     0
100
AcDbPoint
 10
764.7283429999996
 20
195.305575
 30
0.0
  0
POINT
  5
2FF
330
19
100
AcDbEntity
  8
0
  6
Continuous
 62
     0
100
AcDbPoint
 10
784.228343
 20
415.305575
 30
0.0
  0
POINT
  5
300
330
19
100
AcDbEntity
  8
0
  6
Continuous
 62
     0
100
AcDbPoint
 10
784.228343
 20
201.3055749999999
 30
0.0
  0
POINT
  5
301
330
19
100
AcDbEntity
  8
0
  6
Continuous
 62
     0
100
AcDbPoint
 10
806.7283429999999
 20
390.8055749999998
 30
0.0
  0
POINT
  5
302
330
19
100
AcDbEntity
  8
0
  6
Continuous
 62
     0
100
AcDbPoint
 10
784.228343
 20
195.305575
 30
0.0
  0
POINT
  5
303
330
19
100
AcDbEntity
  8
0
  6
Continuous
 62
     0
100
AcDbPoint
 10
852.2283429999996
 20
187.3055749999999
 30
0.0
  0
POINT
  5
304
330
19
100
AcDbEntity
  8
0
  6
Continuous
 62
     0
100
AcDbPoint
 10
812.2283429999999
 20
187.3055749999999
 30
0.0
  0
POINT
  5
305
330
19
100
AcDbEntity
  8
0
  6
Continuous
 62
     0
100
AcDbPoint
 10
772.228343
 20
187.3055749999999
 30
0.0
  0
POINT
  5
306
330
19
100
AcDbEntity
  8
0
  6
Continuous
 62
     0
100
AcDbPoint
 10
812.2283429999999
 20
174.305575
 30
0.0
  0
POINT
  5
307
330
19
100
AcDbEntity
  8
0
  6
Continuous
 62
     0
100
AcDbPoint
 10
772.228343
 20
174.305575
 30
0.0
  0
POINT
  5
308
330
19
100
AcDbEntity
  8
0
  6
Continuous
 62
     0
100
AcDbPoint
 10
802.2283429999996
 20
174.305575
 30
0.0
  0
POINT
  5
309
330
19
100
AcDbEntity
  8
0
  6
Continuous
 62
     0
100
AcDbPoint
 10
852.2283429999996
 20
174.305575
 30
0.0
  0
POINT
  5
30A
330
19
100
AcDbEntity
  8
0
  6
Continuous
 62
     0
100
AcDbPoint
 10
845.728343
 20
164.305575
 30
0.0
  0
POINT
  5
30B
330
19
100
AcDbEntity
  8
0
  6
Continuous
 62
     0
100
AcDbPoint
 10
845.728343
 20
194.305575
 30
0.0
  0
POINT
  5
30C
330
19
100
AcDbEntity
  8
0
  6
Continuous
 62
     0
100
AcDbPoint
 10
771.728343
 20
164.305575
 30
0.0
  0
POINT
  5
30D
330
19
100
AcDbEntity
  8
0
  6
Continuous
 62
     0
100
AcDbPoint
 10
771.728343
 20
170.305575
 30
0.0
  0
POINT
  5
30E
330
19
100
AcDbEntity
  8
0
  6
Continuous
 62
     0
100
AcDbPoint
 10
789.7283429999996
 20
164.305575
 30
0.0
  0
POINT
  5
30F
330
19
100
AcDbEntity
  8
0
  6
Continuous
 62
     0
100
AcDbPoint
 10
790.728343
 20
172.305575
 30
0.0
  0
POINT
  5
310
330
19
100
AcDbEntity
  8
0
  6
Continuous
 62
     0
100
AcDbPoint
 10
790.728343
 20
174.305575
 30
0.0
  0
POINT
  5
311
330
19
100
AcDbEntity
  8
0
  6
Continuous
 62
     0
100
AcDbPoint
 10
845.728343
 20
174.305575
 30
0.0
  0
POINT
  5
312
330
19
100
AcDbEntity
  8
0
  6
Continuous
 62
     0
100
AcDbPoint
 10
812.2283429999999
 20
174.305575
 30
0.0
  0
POINT
  5
313
330
19
100
AcDbEntity
  8
0
  6
Continuous
 62
     0
100
AcDbPoint
 10
812.2283429999999
 20
194.305575
 30
0.0
  0
POINT
  5
314
330
19
100
AcDbEntity
  8
0
  6
Continuous
 62
     0
100
AcDbPoint
 10
844.728343
 20
194.305575
 30
0.0
  0
POINT
  5
315
330
19
100
AcDbEntity
  8
0
  6
Continuous
 62
     0
100
AcDbPoint
 10
813.2283429999999
 20
194.305575
 30
0.0
  0
POINT
  5
316
330
19
100
AcDbEntity
  8
0
  6
Continuous
 62
     0
100
AcDbPoint
 10
844.728343
 20
195.305575
 30
0.0
  0
POINT
  5
317
330
19
100
AcDbEntity
  8
0
  6
Continuous
 62
     0
100
AcDbPoint
 10
813.2283429999999
 20
195.305575
 30
0.0
  0
POINT
  5
318
330
19
100
AcDbEntity
  8
0
  6
Continuous
 62
     0
100
AcDbPoint
 10
845.728343
 20
172.305575
 30
0.0
  0
POINT
  5
319
330
19
100
AcDbEntity
  8
0
  6
Continuous
 62
     0
100
AcDbPoint
 10
825.7283429999999
 20
195.305575
 30
0.0
  0
POINT
  5
31A
330
19
100
AcDbEntity
  8
0
  6
Continuous
 62
     0
100
AcDbPoint
 10
784.228343
 20
205.3055749999999
 30
0.0
  0
POINT
  5
31B
330
19
100
AcDbEntity
  8
0
  6
Continuous
 62
     0
100
AcDbPoint
 10
776.228343
 20
201.3055749999999
 30
0.0
  0
POINT
  5
31C
330
19
100
AcDbEntity
  8
0
  6
Continuous
 62
     0
100
AcDbPoint
 10
778.728343
 20
201.3055749999999
 30
0.0
  0
POINT
  5
31D
330
19
100
AcDbEntity
  8
0
  6
Continuous
 62
     0
100
AcDbPoint
 10
773.7283429999997
 20
201.3055749999999
 30
0.0
  0
POINT
  5
31E
330
19
100
AcDbEntity
  8
0
  6
Continuous
 62
     0
100
AcDbPoint
 10
773.7283429999997
 20
202.805575
 30
0.0
  0
POINT
  5
31F
330
19
100
AcDbEntity
  8
0
  6
Continuous
 62
     0
100
AcDbPoint
 10
778.728343
 20
202.805575
 30
0.0
  0
POINT
  5
320
330
19
100
AcDbEntity
  8
0
  6
Continuous
 62
     0
100
AcDbPoint
 10
773.7283429999997
 20
199.8055749999999
 30
0.0
  0
POINT
  5
321
330
19
100
AcDbEntity
  8
0
  6
Continuous
 62
     0
100
AcDbPoint
 10
778.728343
 20
199.8055749999999
 30
0.0
  0
POINT
  5
322
330
19
100
AcDbEntity
  8
0
  6
Continuous
 62
     0
100
AcDbPoint
 10
777.7283429999997
 20
201.3055749999999
 30
0.0
  0
POINT
  5
323
330
19
100
AcDbEntity
  8
0
  6
Continuous
 62
     0
100
AcDbPoint
 10
774.728343
 20
201.3055749999999
 30
0.0
  0
POINT
  5
324
330
19
100
AcDbEntity
  8
0
  6
Continuous
 62
     0
100
AcDbPoint
 10
777.7283429999997
 20
212.305575
 30
0.0
  0
POINT
  5
325
330
19
100
AcDbEntity
  8
0
  6
Continuous
 62
     0
100
AcDbPoint
 10
774.728343
 20
212.305575
 30
0.0
  0
POINT
  5
326
330
19
100
AcDbEntity
  8
0
  6
Continuous
 62
     0
100
AcDbPoint
 10
776.228343
 20
386.005575
 30
0.0
  0
POINT
  5
327
330
19
100
AcDbEntity
  8
0
  6
Continuous
 62
     0
100
AcDbPoint
 10
780.221051
 20
237.163033
 30
0.0
  0
POINT
  5
328
330
19
100
AcDbEntity
  8
0
  6
Continuous
 62
     0
100
AcDbPoint
 10
784.228343
 20
393.505575
 30
0.0
  0
POINT
  5
329
330
19
100
AcDbEntity
  8
0
  6
Continuous
 62
     0
100
AcDbPoint
 10
784.228343
 20
223.1055749999999
 30
0.0
  0
POINT
  5
32A
330
19
100
AcDbEntity
  8
0
  6
Continuous
 62
     0
100
AcDbPoint
 10
782.728343
 20
393.505575
 30
0.0
  0
POINT
  5
32B
330
19
100
AcDbEntity
  8
0
  6
Continuous
 62
     0
100
AcDbPoint
 10
784.228343
 20
223.1055749999999
 30
0.0
  0
POINT
  5
32C
330
19
100
AcDbEntity
  8
0
  6
Continuous
 62
     0
100
AcDbPoint
 10
782.728343
 20
223.1055749999999
 30
0.0
  0
POINT
  5
32D
330
19
100
AcDbEntity
  8
0
  6
Continuous
 62
     0
100
AcDbPoint
 10
776.228343
 20
230.605575
 30
0.0
  0
POINT
  5
32E
330
19
100
AcDbEntity
  8
0
  6
Continuous
 62
     0
100
AcDbPoint
 10
779.4783429999996
 20
378.505575
 30
0.0
  0
POINT
  5
32F
330
19
100
AcDbEntity
  8
0
  6
Continuous
 62
     0
100
AcDbPoint
 10
779.4783429999996
 20
238.1055749999999
 30
0.0
  0
POINT
  5
330
330
19
100
AcDbEntity
  8
0
  6
Continuous
 62
     0
100
AcDbPoint
 10
782.728343
 20
392.3055749999998
 30
0.0
  0
POINT
  5
331
330
19
100
AcDbEntity
  8
0
  6
Continuous
 62
     0
100
AcDbPoint
 10
476.7283429999998
 20
383.0555749999998
 30
0.0
  0
POINT
  5
332
330
19
100
AcDbEntity
  8
0
  6
Continuous
 62
     0
100
AcDbPoint
 10
475.728343
 20
383.0555749999998
 30
0.0
  0
POINT
  5
333
330
19
100
AcDbEntity
  8
0
  6
Continuous
 62
     0
100
AcDbPoint
 10
475.728343
 20
398.5555749999998
 30
0.0
  0
POINT
  5
334
330
19
100
AcDbEntity
  8
0
  6
Continuous
 62
     0
100
AcDbPoint
 10
475.728343
 20
390.8055749999998
 30
0.0
  0
POINT
  5
335
330
19
100
AcDbEntity
  8
0
  6
Continuous
 62
     0
100
AcDbPoint
 10
475.728343
 20
380.305575
 30
0.0
  0
POINT
  5
336
330
19
100
AcDbEntity
  8
0
  6
Continuous
 62
     0
100
AcDbPoint
 10
475.728343
 20
401.3055749999998
 30
0.0
  0
POINT
  5
337
330
19
100
AcDbEntity
  8
0
  6
Continuous
 62
     0
100
AcDbPoint
 10
473.7283429999997
 20
380.305575
 30
0.0
  0
POINT
  5
338
330
19
100
AcDbEntity
  8
0
  6
Continuous
 62
     0
100
AcDbPoint
 10
473.7283429999997
 20
401.3055749999998
 30
0.0
  0
POINT
  5
339
330
19
100
AcDbEntity
  8
0
  6
Continuous
 62
     0
100
AcDbPoint
 10
473.7283429999997
 20
390.8055749999998
 30
0.0
  0
POINT
  5
33A
330
19
100
AcDbEntity
  8
0
  6
Continuous
 62
     0
100
AcDbPoint
 10
143.7283429999999
 20
188.805575
 30
0.0
  0
POINT
  5
33B
330
19
100
AcDbEntity
  8
0
  6
Continuous
 62
     0
100
AcDbPoint
 10
473.7283429999997
 20
188.805575
 30
0.0
  0
POINT
  5
33C
330
19
100
AcDbEntity
  8
0
  6
Continuous
 62
     0
100
AcDbPoint
 10
143.7283429999999
 20
175.805575
 30
0.0
  0
POINT
  5
33D
330
19
100
AcDbEntity
  8
0
  6
Continuous
 62
     0
100
AcDbPoint
 10
473.7283429999997
 20
175.805575
 30
0.0
  0
POINT
  5
33E
330
19
100
AcDbEntity
  8
0
  6
Continuous
 62
     0
100
AcDbPoint
 10
174.7283429999999
 20
195.305575
 30
0.0
  0
POINT
  5
33F
330
19
100
AcDbEntity
  8
0
  6
Continuous
 62
     0
100
AcDbPoint
 10
154.728343
 20
195.305575
 30
0.0
  0
POINT
  5
340
330
19
100
AcDbEntity
  8
0
  6
Continuous
 62
     0
100
AcDbPoint
 10
206.7283429999998
 20
175.305575
 30
0.0
  0
POINT
  5
341
330
19
100
AcDbEntity
  8
0
  6
Continuous
 62
     0
100
AcDbPoint
 10
154.728343
 20
175.305575
 30
0.0
  0
POINT
  5
342
330
19
100
AcDbEntity
  8
0
  6
Continuous
 62
     0
100
AcDbPoint
 10
188.228343
 20
175.305575
 30
0.0
  0
POINT
  5
343
330
19
100
AcDbEntity
  8
0
  6
Continuous
 62
     0
100
AcDbPoint
 10
194.7283429999997
 20
173.305575
 30
0.0
  0
POINT
  5
344
330
19
100
AcDbEntity
  8
0
  6
Continuous
 62
     0
100
AcDbPoint
 10
206.7283429999998
 20
173.305575
 30
0.0
  0
POINT
  5
345
330
19
100
AcDbEntity
  8
0
  6
Continuous
 62
     0
100
AcDbPoint
 10
154.728343
 20
173.305575
 30
0.0
  0
POINT
  5
346
330
19
100
AcDbEntity
  8
0
  6
Continuous
 62
     0
100
AcDbPoint
 10
154.728343
 20
165.305575
 30
0.0
  0
POINT
  5
347
330
19
100
AcDbEntity
  8
0
  6
Continuous
 62
     0
100
AcDbPoint
 10
194.7283429999997
 20
165.305575
 30
0.0
  0
POINT
  5
348
330
19
100
AcDbEntity
  8
0
  6
Continuous
 62
     0
100
AcDbPoint
 10
191.7283429999999
 20
165.305575
 30
0.0
  0
POINT
  5
349
330
19
100
AcDbEntity
  8
0
  6
Continuous
 62
     0
100
AcDbPoint
 10
191.7283429999999
 20
164.305575
 30
0.0
  0
POINT
  5
34A
330
19
100
AcDbEntity
  8
0
  6
Continuous
 62
     0
100
AcDbPoint
 10
157.728343
 20
164.305575
 30
0.0
  0
POINT
  5
34B
330
19
100
AcDbEntity
  8
0
  6
Continuous
 62
     0
100
AcDbPoint
 10
157.728343
 20
165.305575
 30
0.0
  0
POINT
  5
34C
330
19
100
AcDbEntity
  8
0
  6
Continuous
 62
     0
100
AcDbPoint
 10
174.7283429999999
 20
195.305575
 30
0.0
  0
POINT
  5
34D
330
19
100
AcDbEntity
  8
0
  6
Continuous
 62
     0
100
AcDbPoint
 10
188.228343
 20
195.305575
 30
0.0
  0
POINT
  5
34E
330
19
100
AcDbEntity
  8
0
  6
Continuous
 62
     0
100
AcDbPoint
 10
459.728343
 20
164.305575
 30
0.0
  0
POINT
  5
34F
330
19
100
AcDbEntity
  8
0
  6
Continuous
 62
     0
100
AcDbPoint
 10
425.728343
 20
164.305575
 30
0.0
  0
POINT
  5
350
330
19
100
AcDbEntity
  8
0
  6
Continuous
 62
     0
100
AcDbPoint
 10
425.728343
 20
165.305575
 30
0.0
  0
POINT
  5
351
330
19
100
AcDbEntity
  8
0
  6
Continuous
 62
     0
100
AcDbPoint
 10
459.728343
 20
165.305575
 30
0.0
  0
POINT
  5
352
330
19
100
AcDbEntity
  8
0
  6
Continuous
 62
     0
100
AcDbPoint
 10
422.7283429999998
 20
173.305575
 30
0.0
  0
POINT
  5
353
330
19
100
AcDbEntity
  8
0
  6
Continuous
 62
     0
100
AcDbPoint
 10
422.7283429999998
 20
165.305575
 30
0.0
  0
POINT
  5
354
330
19
100
AcDbEntity
  8
0
  6
Continuous
 62
     0
100
AcDbPoint
 10
462.728343
 20
165.305575
 30
0.0
  0
POINT
  5
355
330
19
100
AcDbEntity
  8
0
  6
Continuous
 62
     0
100
AcDbPoint
 10
410.7283429999998
 20
175.305575
 30
0.0
  0
POINT
  5
356
330
19
100
AcDbEntity
  8
0
  6
Continuous
 62
     0
100
AcDbPoint
 10
410.7283429999998
 20
173.305575
 30
0.0
  0
POINT
  5
357
330
19
100
AcDbEntity
  8
0
  6
Continuous
 62
     0
100
AcDbPoint
 10
462.728343
 20
173.305575
 30
0.0
  0
POINT
  5
358
330
19
100
AcDbEntity
  8
0
  6
Continuous
 62
     0
100
AcDbPoint
 10
429.228343
 20
175.305575
 30
0.0
  0
POINT
  5
359
330
19
100
AcDbEntity
  8
0
  6
Continuous
 62
     0
100
AcDbPoint
 10
462.728343
 20
175.305575
 30
0.0
  0
POINT
  5
35A
330
19
100
AcDbEntity
  8
0
  6
Continuous
 62
     0
100
AcDbPoint
 10
429.228343
 20
195.305575
 30
0.0
  0
POINT
  5
35B
330
19
100
AcDbEntity
  8
0
  6
Continuous
 62
     0
100
AcDbPoint
 10
462.728343
 20
195.305575
 30
0.0
  0
POINT
  5
35C
330
19
100
AcDbEntity
  8
0
  6
Continuous
 62
     0
100
AcDbPoint
 10
442.728343
 20
195.305575
 30
0.0
  0
POINT
  5
35D
330
19
100
AcDbEntity
  8
0
  6
Continuous
 62
     0
100
AcDbPoint
 10
167.7283429999999
 20
197.305575
 30
0.0
  0
POINT
  5
35E
330
19
100
AcDbEntity
  8
0
  6
Continuous
 62
     0
100
AcDbPoint
 10
174.228343
 20
197.305575
 30
0.0
  0
POINT
  5
35F
330
19
100
AcDbEntity
  8
0
  6
Continuous
 62
     0
100
AcDbPoint
 10
182.7283429999999
 20
201.3055749999999
 30
0.0
  0
POINT
  5
360
330
19
100
AcDbEntity
  8
0
  6
Continuous
 62
     0
100
AcDbPoint
 10
149.7283429999999
 20
197.305575
 30
0.0
  0
POINT
  5
361
330
19
100
AcDbEntity
  8
0
  6
Continuous
 62
     0
100
AcDbPoint
 10
149.7283429999999
 20
205.3055749999999
 30
0.0
  0
POINT
  5
362
330
19
100
AcDbEntity
  8
0
  6
Continuous
 62
     0
100
AcDbPoint
 10
149.7283429999999
 20
201.3055749999999
 30
0.0
  0
POINT
  5
363
330
19
100
AcDbEntity
  8
0
  6
Continuous
 62
     0
100
AcDbPoint
 10
149.7283429999999
 20
208.805575
 30
0.0
  0
POINT
  5
364
330
19
100
AcDbEntity
  8
0
  6
Continuous
 62
     0
100
AcDbPoint
 10
167.7283429999999
 20
208.805575
 30
0.0
  0
POINT
  5
365
330
19
100
AcDbEntity
  8
0
  6
Continuous
 62
     0
100
AcDbPoint
 10
158.728343
 20
208.805575
 30
0.0
  0
POINT
  5
366
330
19
100
AcDbEntity
  8
0
  6
Continuous
 62
     0
100
AcDbPoint
 10
163.728343
 20
208.805575
 30
0.0
  0
POINT
  5
367
330
19
100
AcDbEntity
  8
0
  6
Continuous
 62
     0
100
AcDbPoint
 10
153.728343
 20
208.805575
 30
0.0
  0
POINT
  5
368
330
19
100
AcDbEntity
  8
0
  6
Continuous
 62
     0
100
AcDbPoint
 10
167.7283429999999
 20
205.3055749999999
 30
0.0
  0
POINT
  5
369
330
19
100
AcDbEntity
  8
0
  6
Continuous
 62
     0
100
AcDbPoint
 10
167.7283429999999
 20
204.305575
 30
0.0
  0
POINT
  5
36A
330
19
100
AcDbEntity
  8
0
  6
Continuous
 62
     0
100
AcDbPoint
 10
169.2283429999999
 20
198.305575
 30
0.0
  0
POINT
  5
36B
330
19
100
AcDbEntity
  8
0
  6
Continuous
 62
     0
100
AcDbPoint
 10
167.7283429999999
 20
201.3055749999999
 30
0.0
  0
POINT
  5
36C
330
19
100
AcDbEntity
  8
0
  6
Continuous
 62
     0
100
AcDbPoint
 10
169.2283429999999
 20
201.3055749999999
 30
0.0
  0
POINT
  5
36D
330
19
100
AcDbEntity
  8
0
  6
Continuous
 62
     0
100
AcDbPoint
 10
169.2283429999999
 20
202.805575
 30
0.0
  0
POINT
  5
36E
330
19
100
AcDbEntity
  8
0
  6
Continuous
 62
     0
100
AcDbPoint
 10
177.2283429999999
 20
202.805575
 30
0.0
  0
POINT
  5
36F
330
19
100
AcDbEntity
  8
0
  6
Continuous
 62
     0
100
AcDbPoint
 10
177.2283429999999
 20
199.8055749999999
 30
0.0
  0
POINT
  5
370
330
19
100
AcDbEntity
  8
0
  6
Continuous
 62
     0
100
AcDbPoint
 10
169.2283429999999
 20
199.8055749999999
 30
0.0
  0
POINT
  5
371
330
19
100
AcDbEntity
  8
0
  6
Continuous
 62
     0
100
AcDbPoint
 10
177.2283429999999
 20
201.3055749999999
 30
0.0
  0
POINT
  5
372
330
19
100
AcDbEntity
  8
0
  6
Continuous
 62
     0
100
AcDbPoint
 10
174.228343
 20
201.3055749999999
 30
0.0
  0
POINT
  5
373
330
19
100
AcDbEntity
  8
0
  6
Continuous
 62
     0
100
AcDbPoint
 10
192.7283429999999
 20
201.3055749999999
 30
0.0
  0
POINT
  5
374
330
19
100
AcDbEntity
  8
0
  6
Continuous
 62
     0
100
AcDbPoint
 10
182.7283429999999
 20
201.3055749999999
 30
0.0
  0
POINT
  5
375
330
19
100
AcDbEntity
  8
0
  6
Continuous
 62
     0
100
AcDbPoint
 10
174.228343
 20
201.3055749999999
 30
0.0
  0
POINT
  5
376
330
19
100
AcDbEntity
  8
0
  6
Continuous
 62
     0
100
AcDbPoint
 10
176.228343
 20
197.305575
 30
0.0
  0
POINT
  5
377
330
19
100
AcDbEntity
  8
0
  6
Continuous
 62
     0
100
AcDbPoint
 10
196.7283429999999
 20
197.305575
 30
0.0
  0
POINT
  5
378
330
19
100
AcDbEntity
  8
0
  6
Continuous
 62
     0
100
AcDbPoint
 10
196.7283429999999
 20
205.3055749999999
 30
0.0
  0
POINT
  5
379
330
19
100
AcDbEntity
  8
0
  6
Continuous
 62
     0
100
AcDbPoint
 10
169.2283429999999
 20
204.305575
 30
0.0
  0
POINT
  5
37A
330
19
100
AcDbEntity
  8
0
  6
Continuous
 62
     0
100
AcDbPoint
 10
163.728343
 20
208.805575
 30
0.0
  0
POINT
  5
37B
330
19
100
AcDbEntity
  8
0
  6
Continuous
 62
     0
100
AcDbPoint
 10
153.728343
 20
208.805575
 30
0.0
  0
POINT
  5
37C
330
19
100
AcDbEntity
  8
0
  6
Continuous
 62
     0
100
AcDbPoint
 10
163.728343
 20
208.805575
 30
0.0
  0
POINT
  5
37D
330
19
100
AcDbEntity
  8
0
  6
Continuous
 62
     0
100
AcDbPoint
 10
163.728343
 20
208.805575
 30
0.0
  0
POINT
  5
37E
330
19
100
AcDbEntity
  8
0
  6
Continuous
 62
     0
100
AcDbPoint
 10
153.728343
 20
208.805575
 30
0.0
  0
POINT
  5
37F
330
19
100
AcDbEntity
  8
0
  6
Continuous
 62
     0
100
AcDbPoint
 10
153.728343
 20
208.805575
 30
0.0
  0
POINT
  5
380
330
19
100
AcDbEntity
  8
0
  6
Continuous
 62
     0
100
AcDbPoint
 10
176.228343
 20
205.3055749999999
 30
0.0
  0
POINT
  5
381
330
19
100
AcDbEntity
  8
0
  6
Continuous
 62
     0
100
AcDbPoint
 10
167.7283429999999
 20
198.305575
 30
0.0
  0
POINT
  5
382
330
19
100
AcDbEntity
  8
0
  6
Continuous
 62
     0
100
AcDbPoint
 10
167.7283429999999
 20
212.305575
 30
0.0
  0
POINT
  5
383
330
19
100
AcDbEntity
  8
0
  6
Continuous
 62
     0
100
AcDbPoint
 10
149.7283429999999
 20
212.305575
 30
0.0
  0
POINT
  5
384
330
19
100
AcDbEntity
  8
0
  6
Continuous
 62
     0
100
AcDbPoint
 10
149.7283429999999
 20
201.3055749999999
 30
0.0
  0
POINT
  5
385
330
19
100
AcDbEntity
  8
0
  6
Continuous
 62
     0
100
AcDbPoint
 10
174.228343
 20
205.3055749999999
 30
0.0
  0
POINT
  5
386
330
19
100
AcDbEntity
  8
0
  6
Continuous
 62
     0
100
AcDbPoint
 10
449.728343
 20
197.305575
 30
0.0
  0
POINT
  5
387
330
19
100
AcDbEntity
  8
0
  6
Continuous
 62
     0
100
AcDbPoint
 10
443.228343
 20
197.305575
 30
0.0
  0
POINT
  5
388
330
19
100
AcDbEntity
  8
0
  6
Continuous
 62
     0
100
AcDbPoint
 10
434.728343
 20
201.3055749999999
 30
0.0
  0
POINT
  5
389
330
19
100
AcDbEntity
  8
0
  6
Continuous
 62
     0
100
AcDbPoint
 10
467.728343
 20
197.305575
 30
0.0
  0
POINT
  5
38A
330
19
100
AcDbEntity
  8
0
  6
Continuous
 62
     0
100
AcDbPoint
 10
467.728343
 20
205.3055749999999
 30
0.0
  0
POINT
  5
38B
330
19
100
AcDbEntity
  8
0
  6
Continuous
 62
     0
100
AcDbPoint
 10
467.728343
 20
201.3055749999999
 30
0.0
  0
POINT
  5
38C
330
19
100
AcDbEntity
  8
0
  6
Continuous
 62
     0
100
AcDbPoint
 10
467.728343
 20
208.805575
 30
0.0
  0
POINT
  5
38D
330
19
100
AcDbEntity
  8
0
  6
Continuous
 62
     0
100
AcDbPoint
 10
449.728343
 20
208.805575
 30
0.0
  0
POINT
  5
38E
330
19
100
AcDbEntity
  8
0
  6
Continuous
 62
     0
100
AcDbPoint
 10
458.728343
 20
208.805575
 30
0.0
  0
POINT
  5
38F
330
19
100
AcDbEntity
  8
0
  6
Continuous
 62
     0
100
AcDbPoint
 10
453.728343
 20
208.805575
 30
0.0
  0
POINT
  5
390
330
19
100
AcDbEntity
  8
0
  6
Continuous
 62
     0
100
AcDbPoint
 10
463.728343
 20
208.805575
 30
0.0
  0
POINT
  5
391
330
19
100
AcDbEntity
  8
0
  6
Continuous
 62
     0
100
AcDbPoint
 10
449.728343
 20
205.3055749999999
 30
0.0
  0
POINT
  5
392
330
19
100
AcDbEntity
  8
0
  6
Continuous
 62
     0
100
AcDbPoint
 10
449.728343
 20
204.305575
 30
0.0
  0
POINT
  5
393
330
19
100
AcDbEntity
  8
0
  6
Continuous
 62
     0
100
AcDbPoint
 10
448.2283429999998
 20
198.305575
 30
0.0
  0
POINT
  5
394
330
19
100
AcDbEntity
  8
0
  6
Continuous
 62
     0
100
AcDbPoint
 10
449.728343
 20
201.3055749999999
 30
0.0
  0
POINT
  5
395
330
19
100
AcDbEntity
  8
0
  6
Continuous
 62
     0
100
AcDbPoint
 10
448.2283429999998
 20
201.3055749999999
 30
0.0
  0
POINT
  5
396
330
19
100
AcDbEntity
  8
0
  6
Continuous
 62
     0
100
AcDbPoint
 10
448.2283429999998
 20
202.805575
 30
0.0
  0
POINT
  5
397
330
19
100
AcDbEntity
  8
0
  6
Continuous
 62
     0
100
AcDbPoint
 10
440.2283429999997
 20
202.805575
 30
0.0
  0
POINT
  5
398
330
19
100
AcDbEntity
  8
0
  6
Continuous
 62
     0
100
AcDbPoint
 10
440.2283429999997
 20
199.8055749999999
 30
0.0
  0
POINT
  5
399
330
19
100
AcDbEntity
  8
0
  6
Continuous
 62
     0
100
AcDbPoint
 10
448.2283429999998
 20
199.8055749999999
 30
0.0
  0
POINT
  5
39A
330
19
100
AcDbEntity
  8
0
  6
Continuous
 62
     0
100
AcDbPoint
 10
440.2283429999997
 20
201.3055749999999
 30
0.0
  0
POINT
  5
39B
330
19
100
AcDbEntity
  8
0
  6
Continuous
 62
     0
100
AcDbPoint
 10
443.228343
 20
201.3055749999999
 30
0.0
  0
POINT
  5
39C
330
19
100
AcDbEntity
  8
0
  6
Continuous
 62
     0
100
AcDbPoint
 10
443.228343
 20
205.3055749999999
 30
0.0
  0
POINT
  5
39D
330
19
100
AcDbEntity
  8
0
  6
Continuous
 62
     0
100
AcDbPoint
 10
424.728343
 20
201.3055749999999
 30
0.0
  0
POINT
  5
39E
330
19
100
AcDbEntity
  8
0
  6
Continuous
 62
     0
100
AcDbPoint
 10
434.728343
 20
201.3055749999999
 30
0.0
  0
POINT
  5
39F
330
19
100
AcDbEntity
  8
0
  6
Continuous
 62
     0
100
AcDbPoint
 10
443.228343
 20
201.3055749999999
 30
0.0
  0
POINT
  5
3A0
330
19
100
AcDbEntity
  8
0
  6
Continuous
 62
     0
100
AcDbPoint
 10
441.228343
 20
197.305575
 30
0.0
  0
POINT
  5
3A1
330
19
100
AcDbEntity
  8
0
  6
Continuous
 62
     0
100
AcDbPoint
 10
420.728343
 20
197.305575
 30
0.0
  0
POINT
  5
3A2
330
19
100
AcDbEntity
  8
0
  6
Continuous
 62
     0
100
AcDbPoint
 10
420.728343
 20
205.3055749999999
 30
0.0
  0
POINT
  5
3A3
330
19
100
AcDbEntity
  8
0
  6
Continuous
 62
     0
100
AcDbPoint
 10
448.2283429999998
 20
204.305575
 30
0.0
  0
POINT
  5
3A4
330
19
100
AcDbEntity
  8
0
  6
Continuous
 62
     0
100
AcDbPoint
 10
453.728343
 20
208.805575
 30
0.0
  0
POINT
  5
3A5
330
19
100
AcDbEntity
  8
0
  6
Continuous
 62
     0
100
AcDbPoint
 10
463.728343
 20
208.805575
 30
0.0
  0
POINT
  5
3A6
330
19
100
AcDbEntity
  8
0
  6
Continuous
 62
     0
100
AcDbPoint
 10
453.728343
 20
208.805575
 30
0.0
  0
POINT
  5
3A7
330
19
100
AcDbEntity
  8
0
  6
Continuous
 62
     0
100
AcDbPoint
 10
453.728343
 20
208.805575
 30
0.0
  0
POINT
  5
3A8
330
19
100
AcDbEntity
  8
0
  6
Continuous
 62
     0
100
AcDbPoint
 10
463.728343
 20
208.805575
 30
0.0
  0
POINT
  5
3A9
330
19
100
AcDbEntity
  8
0
  6
Continuous
 62
     0
100
AcDbPoint
 10
463.728343
 20
208.805575
 30
0.0
  0
POINT
  5
3AA
330
19
100
AcDbEntity
  8
0
  6
Continuous
 62
     0
100
AcDbPoint
 10
441.228343
 20
205.3055749999999
 30
0.0
  0
POINT
  5
3AB
330
19
100
AcDbEntity
  8
0
  6
Continuous
 62
     0
100
AcDbPoint
 10
449.728343
 20
198.305575
 30
0.0
  0
POINT
  5
3AC
330
19
100
AcDbEntity
  8
0
  6
Continuous
 62
     0
100
AcDbPoint
 10
449.728343
 20
212.305575
 30
0.0
  0
POINT
  5
3AD
330
19
100
AcDbEntity
  8
0
  6
Continuous
 62
     0
100
AcDbPoint
 10
467.728343
 20
212.305575
 30
0.0
  0
POINT
  5
3AE
330
19
100
AcDbEntity
  8
0
  6
Continuous
 62
     0
100
AcDbPoint
 10
467.728343
 20
201.3055749999999
 30
0.0
  0
POINT
  5
3AF
330
19
100
AcDbEntity
  8
0
  6
Continuous
 62
     0
100
AcDbPoint
 10
308.7283429999998
 20
223.1055749999999
 30
0.0
  0
POINT
  5
3B0
330
19
100
AcDbEntity
  8
0
  6
Continuous
 62
     0
100
AcDbPoint
 10
165.528343
 20
308.3055749999997
 30
0.0
  0
POINT
  5
3B1
330
19
100
AcDbEntity
  8
0
  6
Continuous
 62
     0
100
AcDbPoint
 10
451.9283429999998
 20
308.3055749999997
 30
0.0
  0
POINT
  5
3B2
330
19
100
AcDbEntity
  8
0
  6
Continuous
 62
     0
100
AcDbPoint
 10
451.9283429999998
 20
223.1055749999999
 30
0.0
  0
POINT
  5
3B3
330
19
100
AcDbEntity
  8
0
  6
Continuous
 62
     0
100
AcDbPoint
 10
165.528343
 20
223.1055749999999
 30
0.0
  0
POINT
  5
3B4
330
19
100
AcDbEntity
  8
0
  6
Continuous
 62
     0
100
AcDbPoint
 10
451.9283429999998
 20
393.505575
 30
0.0
  0
POINT
  5
3B5
330
19
100
AcDbEntity
  8
0
  6
Continuous
 62
     0
100
AcDbPoint
 10
308.7283429999998
 20
393.505575
 30
0.0
  0
POINT
  5
3B6
330
19
100
AcDbEntity
  8
0
  6
Continuous
 62
     0
100
AcDbPoint
 10
165.528343
 20
393.505575
 30
0.0
  0
POINT
  5
3B7
330
19
100
AcDbEntity
  8
0
  6
Continuous
 62
     0
100
AcDbPoint
 10
458.728343
 20
208.805575
 30
0.0
  0
POINT
  5
3B8
330
19
100
AcDbEntity
  8
0
  6
Continuous
 62
     0
100
AcDbPoint
 10
155.728343
 20
403.3055749999999
 30
0.0
  0
POINT
  5
3B9
330
19
100
AcDbEntity
  8
0
  6
Continuous
 62
     0
100
AcDbPoint
 10
453.728343
 20
208.805575
 30
0.0
  0
POINT
  5
3BA
330
19
100
AcDbEntity
  8
0
  6
Continuous
 62
     0
100
AcDbPoint
 10
463.728343
 20
208.805575
 30
0.0
  0
POINT
  5
3BB
330
19
100
AcDbEntity
  8
0
  6
Continuous
 62
     0
100
AcDbPoint
 10
453.728343
 20
208.805575
 30
0.0
  0
POINT
  5
3BC
330
19
100
AcDbEntity
  8
0
  6
Continuous
 62
     0
100
AcDbPoint
 10
453.728343
 20
208.805575
 30
0.0
  0
POINT
  5
3BD
330
19
100
AcDbEntity
  8
0
  6
Continuous
 62
     0
100
AcDbPoint
 10
463.728343
 20
208.805575
 30
0.0
  0
POINT
  5
3BE
330
19
100
AcDbEntity
  8
0
  6
Continuous
 62
     0
100
AcDbPoint
 10
463.728343
 20
208.805575
 30
0.0
  0
POINT
  5
3BF
330
19
100
AcDbEntity
  8
0
  6
Continuous
 62
     0
100
AcDbPoint
 10
163.728343
 20
208.805575
 30
0.0
  0
POINT
  5
3C0
330
19
100
AcDbEntity
  8
0
  6
Continuous
 62
     0
100
AcDbPoint
 10
158.728343
 20
208.805575
 30
0.0
  0
POINT
  5
3C1
330
19
100
AcDbEntity
  8
0
  6
Continuous
 62
     0
100
AcDbPoint
 10
153.728343
 20
208.805575
 30
0.0
  0
POINT
  5
3C2
330
19
100
AcDbEntity
  8
0
  6
Continuous
 62
     0
100
AcDbPoint
 10
163.728343
 20
208.805575
 30
0.0
  0
POINT
  5
3C3
330
19
100
AcDbEntity
  8
0
  6
Continuous
 62
     0
100
AcDbPoint
 10
163.728343
 20
208.805575
 30
0.0
  0
POINT
  5
3C4
330
19
100
AcDbEntity
  8
0
  6
Continuous
 62
     0
100
AcDbPoint
 10
153.728343
 20
208.805575
 30
0.0
  0
POINT
  5
3C5
330
19
100
AcDbEntity
  8
0
  6
Continuous
 62
     0
100
AcDbPoint
 10
153.728343
 20
208.805575
 30
0.0
  0
POINT
  5
3C6
330
19
100
AcDbEntity
  8
0
  6
Continuous
 62
     0
100
AcDbPoint
 10
143.7283429999999
 20
415.305575
 30
0.0
  0
POINT
  5
3C7
330
19
100
AcDbEntity
  8
0
  6
Continuous
 62
     0
100
AcDbPoint
 10
470.228343
 20
195.305575
 30
0.0
  0
POINT
  5
3C8
330
19
100
AcDbEntity
  8
0
  6
Continuous
 62
     0
100
AcDbPoint
 10
308.7283429999998
 20
195.305575
 30
0.0
  0
POINT
  5
3C9
330
19
100
AcDbEntity
  8
0
  6
Continuous
 62
     0
100
AcDbPoint
 10
143.7283429999999
 20
305.3055749999998
 30
0.0
  0
POINT
  5
3CA
330
19
100
AcDbEntity
  8
0
  6
Continuous
 62
     0
100
AcDbPoint
 10
308.7283429999998
 20
415.305575
 30
0.0
  0
POINT
  5
3CB
330
19
100
AcDbEntity
  8
0
  6
Continuous
 62
     0
100
AcDbPoint
 10
473.7283429999997
 20
305.3055749999998
 30
0.0
  0
POINT
  5
3CC
330
19
100
AcDbEntity
  8
0
  6
Continuous
 62
     0
100
AcDbPoint
 10
473.7283429999997
 20
195.305575
 30
0.0
  0
POINT
  5
3CD
330
19
100
AcDbEntity
  8
0
  6
Continuous
 62
     0
100
AcDbPoint
 10
473.7283429999997
 20
415.305575
 30
0.0
  0
POINT
  5
3CE
330
19
100
AcDbEntity
  8
0
  6
Continuous
 62
     0
100
AcDbPoint
 10
143.7283429999999
 20
195.305575
 30
0.0
  0
POINT
  5
3CF
330
19
100
AcDbEntity
  8
0
  6
Continuous
 62
     0
100
AcDbPoint
 10
463.728343
 20
415.305575
 30
0.0
  0
POINT
  5
3D0
330
19
100
AcDbEntity
  8
0
  6
Continuous
 62
     0
100
AcDbPoint
 10
153.728343
 20
415.305575
 30
0.0
  0
POINT
  5
3D1
330
19
100
AcDbEntity
  8
0
  6
Continuous
 62
     0
100
AcDbPoint
 10
358.7283429999998
 20
415.305575
 30
0.0
  0
POINT
  5
3D2
330
19
100
AcDbEntity
  8
0
  6
Continuous
 62
     0
100
AcDbPoint
 10
258.7283429999999
 20
415.305575
 30
0.0
  0
POINT
  5
3D3
330
19
100
AcDbEntity
  8
0
  6
Continuous
 62
     0
100
AcDbPoint
 10
258.7283429999999
 20
402.305575
 30
0.0
  0
POINT
  5
3D4
330
19
100
AcDbEntity
  8
0
  6
Continuous
 62
     0
100
AcDbPoint
 10
358.7283429999998
 20
402.305575
 30
0.0
  0
POINT
  5
3D5
330
19
100
AcDbEntity
  8
0
  6
Continuous
 62
     0
100
AcDbPoint
 10
361.728343
 20
415.305575
 30
0.0
  0
POINT
  5
3D6
330
19
100
AcDbEntity
  8
0
  6
Continuous
 62
     0
100
AcDbPoint
 10
255.728343
 20
415.305575
 30
0.0
  0
POINT
  5
3D7
330
19
100
AcDbEntity
  8
0
  6
Continuous
 62
     0
100
AcDbPoint
 10
192.7283429999999
 20
201.3055749999999
 30
0.0
  0
POINT
  5
3D8
330
19
100
AcDbEntity
  8
0
  6
Continuous
 62
     0
100
AcDbPoint
 10
182.7283429999999
 20
201.3055749999999
 30
0.0
  0
POINT
  5
3D9
330
19
100
AcDbEntity
  8
0
  6
Continuous
 62
     0
100
AcDbPoint
 10
182.7283429999999
 20
201.3055749999999
 30
0.0
  0
POINT
  5
3DA
330
19
100
AcDbEntity
  8
0
  6
Continuous
 62
     0
100
AcDbPoint
 10
424.728343
 20
201.3055749999999
 30
0.0
  0
POINT
  5
3DB
330
19
100
AcDbEntity
  8
0
  6
Continuous
 62
     0
100
AcDbPoint
 10
434.728343
 20
201.3055749999999
 30
0.0
  0
POINT
  5
3DC
330
19
100
AcDbEntity
  8
0
  6
Continuous
 62
     0
100
AcDbPoint
 10
308.7283429999998
 20
195.305575
 30
0.0
  0
POINT
  5
3DD
330
19
100
AcDbEntity
  8
0
  6
Continuous
 62
     0
100
AcDbPoint
 10
143.7283429999999
 20
195.305575
 30
0.0
  0
POINT
  5
3DE
330
19
100
AcDbEntity
  8
0
  6
Continuous
 62
     0
100
AcDbPoint
 10
143.7283429999999
 20
415.305575
 30
0.0
  0
POINT
  5
3DF
330
19
100
AcDbEntity
  8
0
  6
Continuous
 62
     0
100
AcDbPoint
 10
473.7283429999997
 20
415.305575
 30
0.0
  0
POINT
  5
3E0
330
19
100
AcDbEntity
  8
0
  6
Continuous
 62
     0
100
AcDbPoint
 10
472.9283429999998
 20
414.505575
 30
0.0
  0
POINT
  5
3E1
330
19
100
AcDbEntity
  8
0
  6
Continuous
 62
     0
100
AcDbPoint
 10
308.7283429999998
 20
415.305575
 30
0.0
  0
POINT
  5
3E2
330
19
100
AcDbEntity
  8
0
  6
Continuous
 62
     0
100
AcDbPoint
 10
473.7283429999997
 20
195.305575
 30
0.0
  0
POINT
  5
3E3
330
19
100
AcDbEntity
  8
0
  6
Continuous
 62
     0
100
AcDbPoint
 10
461.7283429999998
 20
403.3055749999999
 30
0.0
  0
POINT
  5
3E4
330
19
100
AcDbEntity
  8
0
  6
Continuous
 62
     0
100
AcDbPoint
 10
308.7283429999998
 20
175.805575
 30
0.0
  0
POINT
  5
3E5
330
19
100
AcDbEntity
  8
0
  6
Continuous
 62
     0
100
AcDbPoint
 10
473.7283429999997
 20
390.8055749999998
 30
0.0
  0
POINT
  5
3E6
330
19
100
AcDbEntity
  8
0
  6
Continuous
 62
     0
100
AcDbPoint
 10
479.428343
 20
394.6805749999998
 30
0.0
  0
POINT
  5
3E7
330
19
100
AcDbEntity
  8
0
  6
Continuous
 62
     0
100
AcDbPoint
 10
477.0783429999998
 20
388.8680749999998
 30
0.0
  0
POINT
  5
3E8
330
19
100
AcDbEntity
  8
0
  6
Continuous
 62
     0
100
AcDbPoint
 10
1023.228343
 20
305.3055749999998
 30
0.0
  0
POINT
  5
3E9
330
19
100
AcDbEntity
  8
0
  6
Continuous
 62
     0
100
AcDbPoint
 10
983.228343
 20
195.305575
 30
0.0
  0
POINT
  5
3EA
330
19
100
AcDbEntity
  8
0
  6
Continuous
 62
     0
100
AcDbPoint
 10
1013.428342999999
 20
177.305575
 30
0.0
  0
POINT
  5
3EB
330
19
100
AcDbEntity
  8
0
  6
Continuous
 62
     0
100
AcDbPoint
 10
1013.028342999999
 20
173.305575
 30
0.0
  0
POINT
  5
3EC
330
19
100
AcDbEntity
  8
0
  6
Continuous
 62
     0
100
AcDbPoint
 10
308.7283429999998
 20
500.3055749999998
 30
0.0
  0
POINT
  5
3ED
330
19
100
AcDbEntity
  8
0
  6
Continuous
 62
     0
100
AcDbPoint
 10
453.728343
 20
500.3055749999998
 30
0.0
  0
POINT
  5
3EE
330
19
100
AcDbEntity
  8
0
  6
Continuous
 62
     0
100
AcDbPoint
 10
469.7283429999997
 20
500.3055749999998
 30
0.0
  0
POINT
  5
3EF
330
19
100
AcDbEntity
  8
0
  6
Continuous
 62
     0
100
AcDbPoint
 10
461.7283429999998
 20
500.3055749999998
 30
0.0
  0
POINT
  5
3F0
330
19
100
AcDbEntity
  8
0
  6
Continuous
 62
     0
100
AcDbPoint
 10
461.7283429999998
 20
500.3055749999998
 30
0.0
  0
POINT
  5
3F1
330
19
100
AcDbEntity
  8
0
  6
Continuous
 62
     0
100
AcDbPoint
 10
155.728343
 20
500.3055749999998
 30
0.0
  0
POINT
  5
3F2
330
19
100
AcDbEntity
  8
0
  6
Continuous
 62
     0
100
AcDbPoint
 10
308.7283429999998
 20
743.805575
 30
0.0
  0
POINT
  5
3F3
330
19
100
AcDbEntity
  8
0
  6
Continuous
 62
     0
100
AcDbPoint
 10
308.7283429999998
 20
744.605575
 30
0.0
  0
POINT
  5
3F4
330
19
100
AcDbEntity
  8
0
  6
Continuous
 62
     0
100
AcDbPoint
 10
581.1500009999997
 20
175.031412
 30
0.0
  0
POINT
  5
3F5
330
19
100
AcDbEntity
  8
0
  6
Continuous
 62
     0
100
AcDbPoint
 10
570.6659819999997
 20
173.1827969999999
 30
0.0
  0
POINT
  5
3F6
330
19
100
AcDbEntity
  8
0
  6
Continuous
 62
     0
100
AcDbPoint
 10
738.152111
 20
324.421859
 30
0.0
  0
POINT
  5
3F7
330
19
100
AcDbEntity
  8
0
  6
Continuous
 62
     0
100
AcDbPoint
 10
609.900193
 20
201.4163899999999
 30
0.0
  0
POINT
  5
3F8
330
19
100
AcDbEntity
  8
0
  6
Continuous
 62
     0
100
AcDbPoint
 10
733.0579269999997
 20
330.118745
 30
0.0
  0
POINT
  5
3F9
330
19
100
AcDbEntity
  8
0
  6
Continuous
 62
     0
100
AcDbPoint
 10
603.869461
 20
206.486772
 30
0.0
  0
POINT
  5
3FA
330
19
100
AcDbEntity
  8
0
  6
Continuous
 62
     0
100
AcDbPoint
 10
784.228343
 20
308.3055749999997
 30
0.0
  0
POINT
  5
3FB
330
19
100
AcDbEntity
  8
0
  6
Continuous
 62
     0
100
AcDbPoint
 10
942.4101610000001
 20
379.3055749999998
 30
0.0
  0
POINT
  5
3FC
330
19
100
AcDbEntity
  8
0
  6
Continuous
 62
     0
100
AcDbPoint
 10
926.59198
 20
379.3055749999998
 30
0.0
  0
POINT
  5
3FD
330
19
100
AcDbEntity
  8
0
  6
Continuous
 62
     0
100
AcDbPoint
 10
910.7737980000001
 20
379.3055749999998
 30
0.0
  0
POINT
  5
3FE
330
19
100
AcDbEntity
  8
0
  6
Continuous
 62
     0
100
AcDbPoint
 10
894.955616
 20
379.3055749999998
 30
0.0
  0
POINT
  5
3FF
330
19
100
AcDbEntity
  8
0
  6
Continuous
 62
     0
100
AcDbPoint
 10
879.137434
 20
379.3055749999998
 30
0.0
  0
POINT
  5
400
330
19
100
AcDbEntity
  8
0
  6
Continuous
 62
     0
100
AcDbPoint
 10
863.3192519999999
 20
379.3055749999998
 30
0.0
  0
POINT
  5
401
330
19
100
AcDbEntity
  8
0
  6
Continuous
 62
     0
100
AcDbPoint
 10
847.5010699999996
 20
379.3055749999998
 30
0.0
  0
POINT
  5
402
330
19
100
AcDbEntity
  8
0
  6
Continuous
 62
     0
100
AcDbPoint
 10
831.682889
 20
379.3055749999998
 30
0.0
  0
POINT
  5
403
330
19
100
AcDbEntity
  8
0
  6
Continuous
 62
     0
100
AcDbPoint
 10
815.864707
 20
379.3055749999998
 30
0.0
  0
POINT
  5
404
330
19
100
AcDbEntity
  8
0
  6
Continuous
 62
     0
100
AcDbPoint
 10
800.0465249999999
 20
379.3055749999998
 30
0.0
  0
POINT
  5
405
330
19
100
AcDbEntity
  8
0
  6
Continuous
 62
     0
100
AcDbPoint
 10
942.4101610000001
 20
237.305575
 30
0.0
  0
POINT
  5
406
330
19
100
AcDbEntity
  8
0
  6
Continuous
 62
     0
100
AcDbPoint
 10
926.59198
 20
237.305575
 30
0.0
  0
POINT
  5
407
330
19
100
AcDbEntity
  8
0
  6
Continuous
 62
     0
100
AcDbPoint
 10
910.7737980000001
 20
237.305575
 30
0.0
  0
POINT
  5
408
330
19
100
AcDbEntity
  8
0
  6
Continuous
 62
     0
100
AcDbPoint
 10
894.955616
 20
237.305575
 30
0.0
  0
POINT
  5
409
330
19
100
AcDbEntity
  8
0
  6
Continuous
 62
     0
100
AcDbPoint
 10
879.137434
 20
237.305575
 30
0.0
  0
POINT
  5
40A
330
19
100
AcDbEntity
  8
0
  6
Continuous
 62
     0
100
AcDbPoint
 10
863.3192519999999
 20
237.305575
 30
0.0
  0
POINT
  5
40B
330
19
100
AcDbEntity
  8
0
  6
Continuous
 62
     0
100
AcDbPoint
 10
847.5010699999996
 20
237.305575
 30
0.0
  0
POINT
  5
40C
330
19
100
AcDbEntity
  8
0
  6
Continuous
 62
     0
100
AcDbPoint
 10
831.682889
 20
237.305575
 30
0.0
  0
POINT
  5
40D
330
19
100
AcDbEntity
  8
0
  6
Continuous
 62
     0
100
AcDbPoint
 10
815.864707
 20
237.305575
 30
0.0
  0
POINT
  5
40E
330
19
100
AcDbEntity
  8
0
  6
Continuous
 62
     0
100
AcDbPoint
 10
800.0465249999999
 20
237.305575
 30
0.0
  0
POINT
  5
40F
330
19
100
AcDbEntity
  8
0
  6
Continuous
 62
     0
100
AcDbPoint
 10
149.7283429999999
 20
744.605575
 30
0.0
  0
POINT
  5
410
330
19
100
AcDbEntity
  8
0
  6
Continuous
 62
     0
100
AcDbPoint
 10
143.7283429999999
 20
743.805575
 30
0.0
  0
POINT
  5
411
330
19
100
AcDbEntity
  8
0
  6
Continuous
 62
     0
100
AcDbPoint
 10
992.228343
 20
165.305575
 30
0.0
  0
LINE
  5
412
330
19
100
AcDbEntity
  8
0
  6
HIDDEN
 62
     0
 48
10.0
100
AcDbLine
 10
958.228343
 20
237.305575
 30
0.0
 11
784.228343
 21
237.305575
 31
0.0
  0
LINE
  5
413
330
19
100
AcDbEntity
  8
0
  6
HIDDEN
 62
     0
 48
10.0
100
AcDbLine
 10
958.228343
 20
379.3055749999998
 30
0.0
 11
958.228343
 21
237.305575
 31
0.0
  0
LINE
  5
414
330
19
100
AcDbEntity
  8
0
  6
HIDDEN
 62
     0
 48
10.0
100
AcDbLine
 10
784.228343
 20
379.3055749999998
 30
0.0
 11
958.228343
 21
379.3055749999998
 31
0.0
  0
LINE
  5
415
330
19
100
AcDbEntity
  8
0
  6
PHANTOM2
 62
     0
 48
10.0
100
AcDbLine
 10
609.900193
 20
201.4163899999999
 30
0.0
 11
603.869461
 21
206.486772
 31
0.0
  0
LINE
  5
416
330
19
100
AcDbEntity
  8
0
  6
PHANTOM2
 62
     0
 48
10.0
100
AcDbLine
 10
738.152111
 20
324.421859
 30
0.0
 11
733.0579269999997
 21
330.118745
 31
0.0
  0
ARC
  5
417
330
19
100
AcDbEntity
  8
0
  6
PHANTOM2
 62
     0
 48
10.0
100
AcDbCircle
 10
740.6502059999996
 20
193.45341
 30
0.0
 40
130.9922709999999
100
AcDbArc
 50
91.092729
 51
176.514859
  0
LINE
  5
418
330
19
100
AcDbEntity
  8
0
  6
PHANTOM2
 62
     0
 48
10.0
100
AcDbLine
 10
570.6659819999997
 20
173.1827969999999
 30
0.0
 11
581.1500009999997
 21
175.031412
 31
0.0
  0
LINE
  5
419
330
19
100
AcDbEntity
  8
0
  6
PHANTOM2
 62
     0
 48
10.0
100
AcDbLine
 10
564.871715
 20
167.5916919999997
 30
0.0
 11
781.5294209999997
 21
205.7942909999999
 31
0.0
  0
ARC
  5
41A
330
19
100
AcDbEntity
  8
0
  6
Continuous
 62
     0
100
AcDbCircle
 10
568.46365
 20
170.2558999999999
 30
0.0
 40
2.0
100
AcDbArc
 50
280.0
 51
10.0
  0
LINE
  5
41B
330
19
100
AcDbEntity
  8
0
  6
PHANTOM2
 62
     0
 48
10.0
100
AcDbLine
 10
772.123058
 20
189.389787
 30
0.0
 11
781.0436570000002
 21
196.435043
 31
0.0
  0
ARC
  5
41C
330
19
100
AcDbEntity
  8
0
  6
Continuous
 62
     0
100
AcDbCircle
 10
573.44477
 20
165.0416459999999
 30
0.0
 40
5.0
100
AcDbArc
 50
280.0
 51
10.0
  0
ARC
  5
41D
330
19
100
AcDbEntity
  8
0
  6
Continuous
 62
     0
100
AcDbCircle
 10
572.229233
 20
171.9353
 30
0.0
 40
2.0
100
AcDbArc
 50
141.4096219999999
 51
190.0
  0
LINE
  5
41E
330
19
100
AcDbEntity
  8
0
  6
Continuous
 62
     0
100
AcDbLine
 10
570.433266
 20
170.6031959999999
 30
0.0
 11
570.259617
 21
171.588004
 31
0.0
  0
ARC
  5
41F
330
19
100
AcDbEntity
  8
0
  6
Continuous
 62
     0
100
AcDbCircle
 10
580.107695
 20
173.324486
 30
0.0
 40
2.0
100
AcDbArc
 50
10.0
 51
58.590378
  0
LINE
  5
420
330
19
100
AcDbEntity
  8
0
  6
Continuous
 62
     0
100
AcDbLine
 10
582.250959
 20
172.6869739999999
 30
0.0
 11
582.07731
 21
173.671782
 31
0.0
  0
ARC
  5
421
330
19
100
AcDbEntity
  8
0
  6
PHANTOM2
 62
     0
 48
10.0
100
AcDbCircle
 10
769.643901
 20
192.52886
 30
0.0
 40
4.0
100
AcDbArc
 50
280.0
 51
308.3007559999999
  0
ARC
  5
422
330
19
100
AcDbEntity
  8
0
  6
Continuous
 62
     0
100
AcDbCircle
 10
569.9099169999997
 20
156.2949429999999
 30
0.0
 40
3.0
100
AcDbArc
 50
190.0
 51
280.0
  0
LINE
  5
423
330
19
100
AcDbEntity
  8
0
  6
Continuous
 62
     0
100
AcDbLine
 10
782.5037299999997
 20
200.268708
 30
0.0
 11
782.3976619999997
 21
200.8702519999999
 31
0.0
  0
ARC
  5
424
330
19
100
AcDbEntity
  8
0
  6
PHANTOM2
 62
     0
 48
10.0
100
AcDbCircle
 10
778.564499
 20
199.5741149999999
 30
0.0
 40
4.0
100
AcDbArc
 50
308.3007559999999
 51
10.0
  0
LINE
  5
425
330
19
100
AcDbEntity
  8
0
  6
PHANTOM2
 62
     0
 48
10.0
100
AcDbLine
 10
781.5294209999997
 20
205.7942909999999
 30
0.0
 11
782.3976619999997
 21
200.8702519999999
 31
0.0
  0
LINE
  5
426
330
19
100
AcDbEntity
  8
0
  6
PHANTOM2
 62
     0
 48
10.0
100
AcDbLine
 10
771.6813440000001
 20
204.057809
 30
0.0
 11
772.289112
 21
200.610982
 31
0.0
  0
LINE
  5
427
330
19
100
AcDbEntity
  8
0
  6
HIDDEN
 62
     0
 48
10.0
100
AcDbLine
 10
779.5598059999996
 20
205.4469939999999
 30
0.0
 11
780.1675740000002
 21
202.000167
 31
0.0
  0
ARC
  5
428
330
19
100
AcDbEntity
  8
0
  6
PHANTOM2
 62
     0
 48
10.0
100
AcDbCircle
 10
774.8962389999997
 20
203.101542
 30
0.0
 40
0.5
100
AcDbArc
 50
100.0
 51
190.0
  0
ARC
  5
429
330
19
100
AcDbEntity
  8
0
  6
PHANTOM2
 62
     0
 48
10.0
100
AcDbCircle
 10
775.5908319999997
 20
199.162311
 30
0.0
 40
0.5
100
AcDbArc
 50
190.0
 51
280.0
  0
LINE
  5
42A
330
19
100
AcDbEntity
  8
0
  6
PHANTOM2
 62
     0
 48
10.0
100
AcDbLine
 10
775.0984279999999
 20
199.075487
 30
0.0
 11
774.4038349999997
 21
203.0147179999999
 31
0.0
  0
ARC
  5
42B
330
19
100
AcDbEntity
  8
0
  6
PHANTOM2
 62
     0
 48
10.0
100
AcDbCircle
 10
776.865855
 20
203.4488379999999
 30
0.0
 40
0.5
100
AcDbArc
 50
10.0
 51
100.0
  0
LINE
  5
42C
330
19
100
AcDbEntity
  8
0
  6
PHANTOM2
 62
     0
 48
10.0
100
AcDbLine
 10
776.77903
 20
203.941242
 30
0.0
 11
774.809415
 21
203.5939459999999
 31
0.0
  0
ARC
  5
42D
330
19
100
AcDbEntity
  8
0
  6
HIDDEN
 62
     0
 48
10.0
100
AcDbCircle
 10
777.5604469999997
 20
199.509607
 30
0.0
 40
0.5
100
AcDbArc
 50
280.0
 51
10.0
  0
LINE
  5
42E
330
19
100
AcDbEntity
  8
0
  6
PHANTOM2
 62
     0
 48
10.0
100
AcDbLine
 10
778.052851
 20
199.5964309999999
 30
0.0
 11
777.358258
 21
203.5356619999999
 31
0.0
  0
LINE
  5
42F
330
19
100
AcDbEntity
  8
0
  6
PHANTOM2
 62
     0
 48
10.0
100
AcDbLine
 10
775.6776559999997
 20
198.669907
 30
0.0
 11
777.6472710000001
 21
199.017203
 31
0.0
  0
CIRCLE
  5
430
330
19
100
AcDbEntity
  8
0
  6
PHANTOM2
 62
     0
 48
10.0
100
AcDbCircle
 10
776.228343
 20
201.3055749999999
 30
0.0
 40
4.0
  0
LINE
  5
431
330
19
100
AcDbEntity
  8
0
  6
PHANTOM2
 62
     0
 48
10.0
100
AcDbLine
 10
765.65593
 20
197.918233
 30
0.0
 11
765.134986
 21
200.8726559999999
 31
0.0
  0
LINE
  5
432
330
19
100
AcDbEntity
  8
0
  6
PHANTOM2
 62
     0
 48
10.0
100
AcDbLine
 10
765.134986
 20
200.8726559999999
 30
0.0
 11
775.9678709999997
 21
202.782786
 31
0.0
  0
LINE
  5
433
330
19
100
AcDbEntity
  8
0
  6
PHANTOM2
 62
     0
 48
10.0
100
AcDbLine
 10
775.9678709999997
 20
202.782786
 30
0.0
 11
776.488815
 21
199.8283629999999
 31
0.0
  0
LINE
  5
434
330
19
100
AcDbEntity
  8
0
  6
PHANTOM2
 62
     0
 48
10.0
100
AcDbLine
 10
776.488815
 20
199.8283629999999
 30
0.0
 11
765.65593
 21
197.918233
 31
0.0
  0
LINE
  5
435
330
19
100
AcDbEntity
  8
0
  6
Continuous
 62
     0
100
AcDbLine
 10
568.4041639999998
 20
159.0757179999999
 30
0.0
 11
574.313011
 21
160.1176069999999
 31
0.0
  0
LINE
  5
436
330
19
100
AcDbEntity
  8
0
  6
PHANTOM2
 62
     0
 48
10.0
100
AcDbLine
 10
570.430861
 20
153.3405199999999
 30
0.0
 11
770.3384940000002
 21
188.5896289999999
 31
0.0
  0
LINE
  5
437
330
19
100
AcDbEntity
  8
0
  6
Continuous
 62
     0
100
AcDbLine
 10
566.7818449999997
 20
156.758806
 30
0.0
 11
566.955494
 21
155.7739989999999
 31
0.0
  0
LINE
  5
438
330
19
100
AcDbEntity
  8
0
  6
Continuous
 62
     0
100
AcDbLine
 10
564.871715
 20
167.5916919999997
 30
0.0
 11
566.868669
 21
156.2664019999999
 31
0.0
  0
ARC
  5
439
330
19
100
AcDbEntity
  8
0
  6
Continuous
 62
     0
100
AcDbCircle
 10
568.751461
 20
157.1061029999999
 30
0.0
 40
2.0
100
AcDbArc
 50
100.0
 51
190.0
  0
LINE
  5
43A
330
19
100
AcDbEntity
  8
0
  6
Continuous
 62
     0
100
AcDbLine
 10
578.3688089999997
 20
165.909887
 30
0.0
 11
577.674216
 21
169.8491179999997
 31
0.0
  0
ARC
  5
43B
330
19
100
AcDbEntity
  8
0
  6
Continuous
 62
     0
100
AcDbCircle
 10
584.220574
 20
173.0342709999999
 30
0.0
 40
2.0
100
AcDbArc
 50
190.0
 51
280.0
  0
LINE
  5
43C
330
19
100
AcDbEntity
  8
0
  6
Continuous
 62
     0
100
AcDbLine
 10
144.7283429999997
 20
744.605575
 30
0.0
 11
144.7283429999997
 21
743.805575
 31
0.0
  0
LINE
  5
43D
330
19
100
AcDbEntity
  8
0
  6
Continuous
 62
     0
100
AcDbLine
 10
472.7283429999998
 20
743.805575
 30
0.0
 11
472.7283429999998
 21
744.605575
 31
0.0
  0
LINE
  5
43E
330
19
100
AcDbEntity
  8
0
  6
Continuous
 62
     0
100
AcDbLine
 10
149.7283429999999
 20
502.305575
 30
0.0
 11
149.7283429999999
 21
503.3055749999999
 31
0.0
  0
ARC
  5
43F
330
19
100
AcDbEntity
  8
0
  6
Continuous
 62
     0
100
AcDbCircle
 10
147.7283429999999
 20
502.305575
 30
0.0
 40
2.0
100
AcDbArc
 50
270.0
 51
0.0
  0
ARC
  5
440
330
19
100
AcDbEntity
  8
0
  6
Continuous
 62
     0
100
AcDbCircle
 10
163.728343
 20
502.305575
 30
0.0
 40
2.0
100
AcDbArc
 50
180.0
 51
270.0
  0
ARC
  5
441
330
19
100
AcDbEntity
  8
0
  6
Continuous
 62
     0
100
AcDbCircle
 10
159.728343
 20
503.3055749999999
 30
0.0
 40
2.0
100
AcDbArc
 50
0.0
 51
48.590378
  0
LINE
  5
442
330
19
100
AcDbEntity
  8
0
  6
Continuous
 62
     0
100
AcDbLine
 10
161.728343
 20
502.305575
 30
0.0
 11
161.728343
 21
503.3055749999999
 31
0.0
  0
ARC
  5
443
330
19
100
AcDbEntity
  8
0
  6
Continuous
 62
     0
100
AcDbCircle
 10
151.7283429999999
 20
503.3055749999999
 30
0.0
 40
2.0
100
AcDbArc
 50
131.4096219999999
 51
180.0
  0
LINE
  5
444
330
19
100
AcDbEntity
  8
0
  6
Continuous
 62
     0
100
AcDbLine
 10
467.728343
 20
502.305575
 30
0.0
 11
467.728343
 21
503.3055749999999
 31
0.0
  0
ARC
  5
445
330
19
100
AcDbEntity
  8
0
  6
Continuous
 62
     0
100
AcDbCircle
 10
465.7283429999998
 20
503.3055749999999
 30
0.0
 40
2.0
100
AcDbArc
 50
0.0
 51
48.590378
  0
ARC
  5
446
330
19
100
AcDbEntity
  8
0
  6
Continuous
 62
     0
100
AcDbCircle
 10
469.7283429999997
 20
502.305575
 30
0.0
 40
2.0
100
AcDbArc
 50
180.0
 51
270.0
  0
ARC
  5
447
330
19
100
AcDbEntity
  8
0
  6
Continuous
 62
     0
100
AcDbCircle
 10
453.728343
 20
502.305575
 30
0.0
 40
2.0
100
AcDbArc
 50
270.0
 51
0.0
  0
LINE
  5
448
330
19
100
AcDbEntity
  8
0
  6
Continuous
 62
     0
100
AcDbLine
 10
455.728343
 20
502.305575
 30
0.0
 11
455.728343
 21
503.3055749999999
 31
0.0
  0
ARC
  5
449
330
19
100
AcDbEntity
  8
0
  6
Continuous
 62
     0
100
AcDbCircle
 10
457.728343
 20
503.3055749999999
 30
0.0
 40
2.0
100
AcDbArc
 50
131.4096219999999
 51
180.0
  0
LINE
  5
44A
330
19
100
AcDbEntity
  8
0
  6
Continuous
 62
     0
100
AcDbLine
 10
143.7283429999999
 20
504.8055749999998
 30
0.0
 11
143.7283429999999
 21
743.805575
 31
0.0
  0
LINE
  5
44B
330
19
100
AcDbEntity
  8
0
  6
Continuous
 62
     0
100
AcDbLine
 10
473.7283429999997
 20
743.805575
 30
0.0
 11
473.7283429999997
 21
504.8055749999998
 31
0.0
  0
ARC
  5
44C
330
19
100
AcDbEntity
  8
0
  6
Continuous
 62
     0
100
AcDbCircle
 10
147.228343
 20
492.7851549999998
 30
0.0
 40
3.5
100
AcDbArc
 50
180.0
 51
267.1768789999999
  0
ARC
  5
44D
330
19
100
AcDbEntity
  8
0
  6
Continuous
 62
     0
100
AcDbCircle
 10
470.228343
 20
492.7851549999998
 30
0.0
 40
3.5
100
AcDbArc
 50
272.823121
 51
0.0
  0
LINE
  5
44E
330
19
100
AcDbEntity
  8
0
  6
Continuous
 62
     0
100
AcDbLine
 10
143.7283429999999
 20
492.7851549999998
 30
0.0
 11
143.7283429999999
 21
500.3055749999998
 31
0.0
  0
LINE
  5
44F
330
19
100
AcDbEntity
  8
0
  6
Continuous
 62
     0
100
AcDbLine
 10
258.7283429999999
 20
498.305575
 30
0.0
 11
258.7283429999999
 21
493.305575
 31
0.0
  0
ARC
  5
450
330
19
100
AcDbEntity
  8
0
  6
Continuous
 62
     0
100
AcDbCircle
 10
256.7283429999999
 20
498.305575
 30
0.0
 40
2.0
100
AcDbArc
 50
0.0
 51
90.0
  0
LINE
  5
451
330
19
100
AcDbEntity
  8
0
  6
Continuous
 62
     0
100
AcDbLine
 10
358.7283429999998
 20
498.305575
 30
0.0
 11
358.7283429999998
 21
493.305575
 31
0.0
  0
ARC
  5
452
330
19
100
AcDbEntity
  8
0
  6
Continuous
 62
     0
100
AcDbCircle
 10
360.7283429999998
 20
498.305575
 30
0.0
 40
2.0
100
AcDbArc
 50
90.0
 51
180.0
  0
LINE
  5
453
330
19
100
AcDbEntity
  8
0
  6
Continuous
 62
     0
100
AcDbLine
 10
473.7283429999997
 20
492.7851549999998
 30
0.0
 11
473.7283429999997
 21
500.3055749999998
 31
0.0
  0
LINE
  5
454
330
19
100
AcDbEntity
  8
0
  6
Continuous
 62
     0
100
AcDbLine
 10
260.7283429999999
 20
491.3055749999998
 30
0.0
 11
356.7283429999998
 21
491.3055749999998
 31
0.0
  0
ARC
  5
455
330
19
100
AcDbEntity
  8
0
  6
Continuous
 62
     0
100
AcDbCircle
 10
260.7283429999999
 20
493.305575
 30
0.0
 40
2.0
100
AcDbArc
 50
180.0
 51
270.0
  0
ARC
  5
456
330
19
100
AcDbEntity
  8
0
  6
Continuous
 62
     0
100
AcDbCircle
 10
356.7283429999998
 20
493.305575
 30
0.0
 40
2.0
100
AcDbArc
 50
270.0
 51
0.0
  0
LINE
  5
457
330
19
100
AcDbEntity
  8
0
  6
Continuous
 62
     0
100
AcDbLine
 10
256.7283429999999
 20
500.3055749999998
 30
0.0
 11
360.7283429999998
 21
500.3055749999998
 31
0.0
  0
LINE
  5
458
330
19
100
AcDbEntity
  8
0
  6
Continuous
 62
     0
100
AcDbLine
 10
360.7283429999998
 20
500.3055749999998
 30
0.0
 11
473.7283429999997
 21
500.3055749999998
 31
0.0
  0
ARC
  5
459
330
19
100
AcDbEntity
  8
0
  6
Continuous
 62
     0
100
AcDbCircle
 10
308.7283429999998
 20
3767.805575
 30
0.0
 40
3282.5
100
AcDbArc
 50
267.1768789999999
 51
272.823121
  0
LINE
  5
45A
330
19
100
AcDbEntity
  8
0
  6
Continuous
 62
     0
100
AcDbLine
 10
256.7283429999999
 20
500.3055749999998
 30
0.0
 11
143.7283429999999
 21
500.3055749999998
 31
0.0
  0
LINE
  5
45B
330
19
100
AcDbEntity
  8
0
  6
Continuous
 62
     0
100
AcDbLine
 10
1034.178694
 20
173.305575
 30
0.0
 11
1013.028342999999
 21
173.305575
 31
0.0
  0
LINE
  5
45C
330
19
100
AcDbEntity
  8
0
  6
Continuous
 62
     0
100
AcDbLine
 10
1035.422432999997
 20
177.305575
 30
0.0
 11
1013.428342999999
 21
177.305575
 31
0.0
  0
LINE
  5
45D
330
19
100
AcDbEntity
  8
0
  6
Continuous
 62
     0
100
AcDbLine
 10
1033.45127
 20
195.305575
 30
0.0
 11
1023.228343
 21
195.305575
 31
0.0
  0
LINE
  5
45E
330
19
100
AcDbEntity
  8
0
  6
Continuous
 62
     0
100
AcDbLine
 10
1034.044136999999
 20
193.305575
 30
0.0
 11
1015.028342999998
 21
193.305575
 31
0.0
  0
LINE
  5
45F
330
19
100
AcDbEntity
  8
0
  6
HIDDEN
 62
     0
 48
10.0
370
     9
100
AcDbLine
 10
1015.028342999998
 20
193.305575
 30
0.0
 11
991.0283429999999
 21
193.305575
 31
0.0
  0
LINE
  5
460
330
19
100
AcDbEntity
  8
0
  6
HIDDEN
 62
     0
 48
10.0
370
     9
100
AcDbLine
 10
1013.028342999999
 20
173.305575
 30
0.0
 11
1000.228343
 21
173.305575
 31
0.0
  0
LINE
  5
461
330
19
100
AcDbEntity
  8
0
  6
HIDDEN
 62
     0
 48
10.0
370
     9
100
AcDbLine
 10
1013.428342999999
 20
177.305575
 30
0.0
 11
1000.228343
 21
177.305575
 31
0.0
  0
LINE
  5
462
330
19
100
AcDbEntity
  8
0
  6
Continuous
 62
     0
100
AcDbLine
 10
973.628343
 20
191.305575
 30
0.0
 11
973.628343
 21
192.3055749999999
 31
0.0
  0
ARC
  5
463
330
19
100
AcDbEntity
  8
0
  6
Continuous
 62
     0
100
AcDbCircle
 10
973.628343
 20
193.305575
 30
0.0
 40
2.0
100
AcDbArc
 50
180.0
 51
0.0
  0
ARC
  5
464
330
19
100
AcDbEntity
  8
0
  6
Continuous
 62
     0
100
AcDbCircle
 10
970.2283429999999
 20
193.805575
 30
0.0
 40
0.5
100
AcDbArc
 50
180.0
 51
270.0
  0
LINE
  5
465
330
19
100
AcDbEntity
  8
0
  6
Continuous
 62
     0
100
AcDbLine
 10
969.728343
 20
193.805575
 30
0.0
 11
969.728343
 21
195.305575
 31
0.0
  0
ARC
  5
466
330
19
100
AcDbEntity
  8
0
  6
HIDDEN
 62
     0
 48
10.0
370
     9
100
AcDbCircle
 10
990.0283429999999
 20
193.305575
 30
0.0
 40
1.0
100
AcDbArc
 50
270.0
 51
0.0
  0
ARC
  5
467
330
19
100
AcDbEntity
  8
0
  6
Continuous
 62
     0
100
AcDbCircle
 10
978.2283429999999
 20
193.305575
 30
0.0
 40
1.0
100
AcDbArc
 50
219.218439
 51
270.0
  0
LINE
  5
468
330
19
100
AcDbEntity
  8
0
  6
HIDDEN
 62
     0
 48
10.0
370
     9
100
AcDbLine
 10
989.5283429999999
 20
192.3055749999999
 30
0.0
 11
990.0283429999999
 21
192.3055749999999
 31
0.0
  0
LINE
  5
469
330
19
100
AcDbEntity
  8
0
  6
Continuous
 62
     0
100
AcDbLine
 10
989.5283429999999
 20
192.3055749999999
 30
0.0
 11
978.2283429999999
 21
192.3055749999999
 31
0.0
  0
LINE
  5
46A
330
19
100
AcDbEntity
  8
0
  6
HIDDEN
 62
     0
 48
10.0
370
     9
100
AcDbLine
 10
991.0283429999999
 20
193.305575
 30
0.0
 11
991.0283429999999
 21
195.305575
 31
0.0
  0
LINE
  5
46B
330
19
100
AcDbEntity
  8
0
  6
Continuous
 62
     0
100
AcDbLine
 10
991.0283429999999
 20
195.305575
 30
0.0
 11
969.728343
 21
195.305575
 31
0.0
  0
ARC
  5
46C
330
19
100
AcDbEntity
  8
0
  6
Continuous
 62
     0
100
AcDbCircle
 10
976.0840399999999
 20
191.555575
 30
0.0
 40
1.767766999999999
100
AcDbArc
 50
39.218439
 51
98.130102
  0
LINE
  5
46D
330
19
100
AcDbEntity
  8
0
  6
Continuous
 62
     0
100
AcDbLine
 10
975.8340399999999
 20
193.305575
 30
0.0
 11
970.2283429999999
 21
193.305575
 31
0.0
  0
LINE
  5
46E
330
19
100
AcDbEntity
  8
0
  6
Continuous
 62
     0
100
AcDbLine
 10
986.728343
 20
181.805575
 30
0.0
 11
986.728343
 21
192.3055749999999
 31
0.0
  0
LINE
  5
46F
330
19
100
AcDbEntity
  8
0
  6
Continuous
 62
     0
100
AcDbLine
 10
979.728343
 20
174.8055749999999
 30
0.0
 11
979.728343
 21
192.3055749999999
 31
0.0
  0
ARC
  5
470
330
19
100
AcDbEntity
  8
0
  6
Continuous
 62
     0
100
AcDbCircle
 10
989.7283429999999
 20
181.805575
 30
0.0
 40
3.0
100
AcDbArc
 50
180.0
 51
270.0
  0
LINE
  5
471
330
19
100
AcDbEntity
  8
0
  6
HIDDEN
 62
     0
 48
10.0
370
     9
100
AcDbLine
 10
990.8783429999999
 20
178.805575
 30
0.0
 11
1000.228343
 21
178.805575
 31
0.0
  0
LINE
  5
472
330
19
100
AcDbEntity
  8
0
  6
Continuous
 62
     0
100
AcDbLine
 10
990.8783429999999
 20
178.805575
 30
0.0
 11
989.7283429999999
 21
178.805575
 31
0.0
  0
ARC
  5
473
330
19
100
AcDbEntity
  8
0
  6
Continuous
 62
     0
100
AcDbCircle
 10
982.7283429999999
 20
174.8055749999999
 30
0.0
 40
3.0
100
AcDbArc
 50
180.0
 51
270.0
  0
LINE
  5
474
330
19
100
AcDbEntity
  8
0
  6
HIDDEN
 62
     0
 48
10.0
370
     9
100
AcDbLine
 10
991.5783430000001
 20
171.8055749999999
 30
0.0
 11
1000.228343
 21
171.8055749999999
 31
0.0
  0
LINE
  5
475
330
19
100
AcDbEntity
  8
0
  6
Continuous
 62
     0
100
AcDbLine
 10
991.5783430000001
 20
171.8055749999999
 30
0.0
 11
982.7283429999999
 21
171.8055749999999
 31
0.0
  0
LINE
  5
476
330
19
100
AcDbEntity
  8
0
  6
HIDDEN
 62
     0
 48
10.0
370
     9
100
AcDbLine
 10
1000.228343
 20
178.805575
 30
0.0
 11
1000.228343
 21
171.8055749999999
 31
0.0
  0
LINE
  5
477
330
19
100
AcDbEntity
  8
0
  6
Continuous
 62
     0
100
AcDbLine
 10
992.1382939999999
 20
166.206071
 30
0.0
 11
989.228343
 21
195.305575
 31
0.0
  0
ARC
  5
478
330
19
100
AcDbEntity
  8
0
  6
Continuous
 62
     0
100
AcDbCircle
 10
993.1333309999999
 20
166.305575
 30
0.0
 40
1.0
100
AcDbArc
 50
185.710593
 51
270.0
  0
LINE
  5
479
330
19
100
AcDbEntity
  8
0
  6
Continuous
 62
     0
100
AcDbLine
 10
993.1333309999999
 20
165.305575
 30
0.0
 11
1011.323356
 21
165.305575
 31
0.0
  0
LINE
  5
47A
330
19
100
AcDbEntity
  8
0
  6
Continuous
 62
     0
100
AcDbLine
 10
1012.318392999999
 20
166.206071
 30
0.0
 11
1015.228343
 21
195.305575
 31
0.0
  0
ARC
  5
47B
330
19
100
AcDbEntity
  8
0
  6
Continuous
 62
     0
100
AcDbCircle
 10
1011.323356
 20
166.305575
 30
0.0
 40
1.0
100
AcDbArc
 50
270.0
 51
354.289407
  0
LINE
  5
47C
330
19
100
AcDbEntity
  8
0
  6
Continuous
 62
     0
100
AcDbLine
 10
1024.028343
 20
196.305575
 30
0.0
 11
1023.228343
 21
196.305575
 31
0.0
  0
LINE
  5
47D
330
19
100
AcDbEntity
  8
0
  6
Continuous
 62
     0
100
AcDbLine
 10
1024.028343
 20
414.305575
 30
0.0
 11
1024.028343
 21
196.305575
 31
0.0
  0
LINE
  5
47E
330
19
100
AcDbEntity
  8
0
  6
Continuous
 62
     0
100
AcDbLine
 10
1023.228343
 20
414.305575
 30
0.0
 11
1024.028343
 21
414.305575
 31
0.0
  0
LINE
  5
47F
330
19
100
AcDbEntity
  8
0
  6
Continuous
 62
     0
100
AcDbLine
 10
803.2610809999999
 20
394.700216
 30
0.0
 11
809.9005700000001
 21
394.700216
 31
0.0
  0
LINE
  5
480
330
19
100
AcDbEntity
  8
0
  6
Continuous
 62
     0
100
AcDbLine
 10
801.4783429999999
 20
383.0555749999998
 30
0.0
 11
801.4783429999999
 21
398.5555749999998
 31
0.0
  0
LINE
  5
481
330
19
100
AcDbEntity
  8
0
  6
Continuous
 62
     0
100
AcDbLine
 10
811.978343
 20
383.0555749999998
 30
0.0
 11
801.4783429999999
 21
383.0555749999998
 31
0.0
  0
LINE
  5
482
330
19
100
AcDbEntity
  8
0
  6
Continuous
 62
     0
100
AcDbLine
 10
811.978343
 20
398.5555749999998
 30
0.0
 11
811.978343
 21
383.0555749999998
 31
0.0
  0
LINE
  5
483
330
19
100
AcDbEntity
  8
0
  6
Continuous
 62
     0
100
AcDbLine
 10
801.4783429999999
 20
398.5555749999998
 30
0.0
 11
811.978343
 21
398.5555749999998
 31
0.0
  0
LINE
  5
484
330
19
100
AcDbEntity
  8
0
  6
Continuous
 62
     0
100
AcDbLine
 10
799.228343
 20
400.3055749999998
 30
0.0
 11
799.228343
 21
381.3055749999998
 31
0.0
  0
ARC
  5
485
330
19
100
AcDbEntity
  8
0
  6
Continuous
 62
     0
100
AcDbCircle
 10
800.228343
 20
381.3055749999998
 30
0.0
 40
1.0
100
AcDbArc
 50
180.0
 51
270.0
  0
LINE
  5
486
330
19
100
AcDbEntity
  8
0
  6
Continuous
 62
     0
100
AcDbLine
 10
800.228343
 20
380.305575
 30
0.0
 11
813.2283429999999
 21
380.305575
 31
0.0
  0
LINE
  5
487
330
19
100
AcDbEntity
  8
0
  6
Continuous
 62
     0
100
AcDbLine
 10
814.228343
 20
381.3055749999998
 30
0.0
 11
814.228343
 21
400.3055749999998
 31
0.0
  0
ARC
  5
488
330
19
100
AcDbEntity
  8
0
  6
Continuous
 62
     0
100
AcDbCircle
 10
813.2283429999999
 20
381.3055749999998
 30
0.0
 40
1.0
100
AcDbArc
 50
270.0
 51
0.0
  0
LINE
  5
489
330
19
100
AcDbEntity
  8
0
  6
Continuous
 62
     0
100
AcDbLine
 10
800.228343
 20
401.3055749999998
 30
0.0
 11
813.2283429999999
 21
401.3055749999998
 31
0.0
  0
ARC
  5
48A
330
19
100
AcDbEntity
  8
0
  6
Continuous
 62
     0
100
AcDbCircle
 10
800.228343
 20
400.3055749999998
 30
0.0
 40
1.0
100
AcDbArc
 50
90.0
 51
180.0
  0
ARC
  5
48B
330
19
100
AcDbEntity
  8
0
  6
Continuous
 62
     0
100
AcDbCircle
 10
813.2283429999999
 20
400.3055749999998
 30
0.0
 40
1.0
100
AcDbArc
 50
0.0
 51
90.0
  0
LINE
  5
48C
330
19
100
AcDbEntity
  8
0
  6
Continuous
 62
     0
100
AcDbLine
 10
842.7283429999999
 20
163.305575
 30
0.0
 11
842.7283429999999
 21
164.305575
 31
0.0
  0
LINE
  5
48D
330
19
100
AcDbEntity
  8
0
  6
Continuous
 62
     0
100
AcDbLine
 10
774.728343
 20
163.305575
 30
0.0
 11
842.7283429999999
 21
163.305575
 31
0.0
  0
LINE
  5
48E
330
19
100
AcDbEntity
  8
0
  6
Continuous
 62
     0
100
AcDbLine
 10
774.728343
 20
164.305575
 30
0.0
 11
774.728343
 21
163.305575
 31
0.0
  0
ARC
  5
48F
330
19
100
AcDbEntity
  8
0
  6
Continuous
 62
     0
100
AcDbCircle
 10
775.728343
 20
407.3055749999999
 30
0.0
 40
5.0
100
AcDbArc
 50
180.0
 51
270.0
  0
LINE
  5
490
330
19
100
AcDbEntity
  8
0
  6
Continuous
 62
     0
100
AcDbLine
 10
779.728343
 20
415.305575
 30
0.0
 11
779.728343
 21
195.305575
 31
0.0
  0
ARC
  5
491
330
19
100
AcDbEntity
  8
0
  6
Continuous
 62
     0
100
AcDbCircle
 10
781.7283429999997
 20
411.305575
 30
0.0
 40
2.0
100
AcDbArc
 50
180.0
 51
270.0
  0
ARC
  5
492
330
19
100
AcDbEntity
  8
0
  6
Continuous
 62
     0
100
AcDbCircle
 10
782.728343
 20
407.3055749999999
 30
0.0
 40
2.0
100
AcDbArc
 50
41.40962199999999
 51
90.0
  0
LINE
  5
493
330
19
100
AcDbEntity
  8
0
  6
Continuous
 62
     0
100
AcDbLine
 10
781.7283429999997
 20
409.3055749999998
 30
0.0
 11
782.728343
 21
409.3055749999998
 31
0.0
  0
ARC
  5
494
330
19
100
AcDbEntity
  8
0
  6
Continuous
 62
     0
100
AcDbCircle
 10
782.728343
 20
399.3055749999998
 30
0.0
 40
2.0
100
AcDbArc
 50
270.0
 51
318.5903779999998
  0
ARC
  5
495
330
19
100
AcDbEntity
  8
0
  6
Continuous
 62
     0
100
AcDbCircle
 10
781.7283429999997
 20
395.3055749999998
 30
0.0
 40
2.0
100
AcDbArc
 50
90.0
 51
180.0
  0
LINE
  5
496
330
19
100
AcDbEntity
  8
0
  6
Continuous
 62
     0
100
AcDbLine
 10
781.7283429999997
 20
397.3055749999998
 30
0.0
 11
782.728343
 21
397.3055749999998
 31
0.0
  0
LINE
  5
497
330
19
100
AcDbEntity
  8
0
  6
Continuous
 62
     0
100
AcDbLine
 10
764.7283429999996
 20
412.3055749999998
 30
0.0
 11
764.7283429999996
 21
209.3140449999999
 31
0.0
  0
ARC
  5
498
330
19
100
AcDbEntity
  8
0
  6
Continuous
 62
     0
100
AcDbCircle
 10
768.7283429999999
 20
209.3140449999999
 30
0.0
 40
4.0
100
AcDbArc
 50
180.0
 51
208.3007559999999
  0
ARC
  5
499
330
19
100
AcDbEntity
  8
0
  6
Continuous
 62
     0
100
AcDbCircle
 10
767.728343
 20
412.3055749999998
 30
0.0
 40
3.0
100
AcDbArc
 50
90.0
 51
180.0
  0
ARC
  5
49A
330
19
100
AcDbEntity
  8
0
  6
Continuous
 62
     0
100
AcDbCircle
 10
768.7283429999999
 20
413.3055749999998
 30
0.0
 40
2.0
100
AcDbArc
 50
0.0
 51
90.0
  0
LINE
  5
49B
330
19
100
AcDbEntity
  8
0
  6
Continuous
 62
     0
100
AcDbLine
 10
774.117519
 20
195.305575
 30
0.0
 11
774.728343
 21
195.305575
 31
0.0
  0
ARC
  5
49C
330
19
100
AcDbEntity
  8
0
  6
Continuous
 62
     0
100
AcDbCircle
 10
774.117519
 20
199.305575
 30
0.0
 40
4.0
100
AcDbArc
 50
208.3007559999999
 51
270.0
  0
LINE
  5
49D
330
19
100
AcDbEntity
  8
0
  6
Continuous
 62
     0
100
AcDbLine
 10
765.206459
 20
207.4176459999999
 30
0.0
 11
770.595635
 21
197.409175
 31
0.0
  0
LINE
  5
49E
330
19
100
AcDbEntity
  8
0
  6
Continuous
 62
     0
100
AcDbLine
 10
775.728343
 20
402.305575
 30
0.0
 11
779.728343
 21
402.305575
 31
0.0
  0
LINE
  5
49F
330
19
100
AcDbEntity
  8
0
  6
Continuous
 62
     0
100
AcDbLine
 10
779.728343
 20
195.305575
 30
0.0
 11
774.728343
 21
195.305575
 31
0.0
  0
LINE
  5
4A0
330
19
100
AcDbEntity
  8
0
  6
Continuous
 62
     0
100
AcDbLine
 10
785.2283429999999
 20
415.305575
 30
0.0
 11
1023.228343
 21
415.305575
 31
0.0
  0
ARC
  5
4A1
330
19
100
AcDbEntity
  8
0
  6
Continuous
 62
     0
100
AcDbCircle
 10
785.2283429999999
 20
414.305575
 30
0.0
 40
1.0
100
AcDbArc
 50
90.0
 51
180.0
  0
LINE
  5
4A2
330
19
100
AcDbEntity
  8
0
  6
Continuous
 62
     0
100
AcDbLine
 10
845.728343
 20
187.3055749999999
 30
0.0
 11
852.2283429999996
 21
187.3055749999999
 31
0.0
  0
LINE
  5
4A3
330
19
100
AcDbEntity
  8
0
  6
Continuous
 62
     0
100
AcDbLine
 10
812.2283429999999
 20
187.3055749999999
 30
0.0
 11
772.228343
 21
187.3055749999999
 31
0.0
  0
ARC
  5
4A4
330
19
100
AcDbEntity
  8
0
  6
Continuous
 62
     0
100
AcDbCircle
 10
847.228343
 20
179.305575
 30
0.0
 40
5.0
100
AcDbArc
 50
270.0
 51
0.0
  0
LINE
  5
4A5
330
19
100
AcDbEntity
  8
0
  6
Continuous
 62
     0
100
AcDbLine
 10
807.228343
 20
174.305575
 30
0.0
 11
777.2283429999996
 21
174.305575
 31
0.0
  0
LINE
  5
4A6
330
19
100
AcDbEntity
  8
0
  6
Continuous
 62
     0
100
AcDbLine
 10
772.228343
 20
179.305575
 30
0.0
 11
772.228343
 21
187.3055749999999
 31
0.0
  0
LINE
  5
4A7
330
19
100
AcDbEntity
  8
0
  6
Continuous
 62
     0
100
AcDbLine
 10
812.2283429999999
 20
179.305575
 30
0.0
 11
812.2283429999999
 21
187.3055749999999
 31
0.0
  0
ARC
  5
4A8
330
19
100
AcDbEntity
  8
0
  6
Continuous
 62
     0
100
AcDbCircle
 10
777.2283429999996
 20
179.305575
 30
0.0
 40
5.0
100
AcDbArc
 50
180.0
 51
270.0
  0
LINE
  5
4A9
330
19
100
AcDbEntity
  8
0
  6
Continuous
 62
     0
100
AcDbLine
 10
852.2283429999996
 20
179.305575
 30
0.0
 11
852.2283429999996
 21
187.3055749999999
 31
0.0
  0
LINE
  5
4AA
330
19
100
AcDbEntity
  8
0
  6
Continuous
 62
     0
100
AcDbLine
 10
845.728343
 20
174.305575
 30
0.0
 11
847.228343
 21
174.305575
 31
0.0
  0
LINE
  5
4AB
330
19
100
AcDbEntity
  8
0
  6
Continuous
 62
     0
100
AcDbLine
 10
812.2283429999999
 20
174.305575
 30
0.0
 11
802.2283429999996
 21
174.305575
 31
0.0
  0
LINE
  5
4AC
330
19
100
AcDbEntity
  8
0
  6
Continuous
 62
     0
100
AcDbLine
 10
790.728343
 20
172.305575
 30
0.0
 11
845.728343
 21
172.305575
 31
0.0
  0
LINE
  5
4AD
330
19
100
AcDbEntity
  8
0
  6
Continuous
 62
     0
100
AcDbLine
 10
844.728343
 20
174.305575
 30
0.0
 11
812.2283429999999
 21
174.305575
 31
0.0
  0
LINE
  5
4AE
330
19
100
AcDbEntity
  8
0
  6
Continuous
 62
     0
100
AcDbLine
 10
812.2283429999999
 20
193.305575
 30
0.0
 11
812.2283429999999
 21
174.305575
 31
0.0
  0
LINE
  5
4AF
330
19
100
AcDbEntity
  8
0
  6
Continuous
 62
     0
100
AcDbLine
 10
845.728343
 20
172.305575
 30
0.0
 11
845.728343
 21
193.305575
 31
0.0
  0
ARC
  5
4B0
330
19
100
AcDbEntity
  8
0
  6
Continuous
 62
     0
100
AcDbCircle
 10
844.728343
 20
193.305575
 30
0.0
 40
1.0
100
AcDbArc
 50
0.0
 51
90.0
  0
ARC
  5
4B1
330
19
100
AcDbEntity
  8
0
  6
Continuous
 62
     0
100
AcDbCircle
 10
813.2283429999999
 20
193.305575
 30
0.0
 40
1.0
100
AcDbArc
 50
90.0
 51
180.0
  0
LINE
  5
4B2
330
19
100
AcDbEntity
  8
0
  6
Continuous
 62
     0
100
AcDbLine
 10
813.2283429999999
 20
194.305575
 30
0.0
 11
844.728343
 21
194.305575
 31
0.0
  0
LINE
  5
4B3
330
19
100
AcDbEntity
  8
0
  6
Continuous
 62
     0
100
AcDbLine
 10
845.728343
 20
173.305575
 30
0.0
 11
845.728343
 21
164.305575
 31
0.0
  0
LINE
  5
4B4
330
19
100
AcDbEntity
  8
0
  6
Continuous
 62
     0
100
AcDbLine
 10
845.728343
 20
164.305575
 30
0.0
 11
771.728343
 21
164.305575
 31
0.0
  0
LINE
  5
4B5
330
19
100
AcDbEntity
  8
0
  6
Continuous
 62
     0
100
AcDbLine
 10
771.728343
 20
169.4053129999999
 30
0.0
 11
771.728343
 21
164.305575
 31
0.0
  0
ARC
  5
4B6
330
19
100
AcDbEntity
  8
0
  6
Continuous
 62
     0
100
AcDbCircle
 10
772.7283429999999
 20
169.4053129999999
 30
0.0
 40
1.0
100
AcDbArc
 50
96.00900600000001
 51
180.0
  0
LINE
  5
4B7
330
19
100
AcDbEntity
  8
0
  6
Continuous
 62
     0
100
AcDbLine
 10
772.623658
 20
170.3998179999999
 30
0.0
 11
790.728343
 21
172.305575
 31
0.0
  0
LINE
  5
4B8
330
19
100
AcDbEntity
  8
0
  6
Continuous
 62
     0
100
AcDbLine
 10
790.728343
 20
173.305575
 30
0.0
 11
790.728343
 21
172.305575
 31
0.0
  0
ARC
  5
4B9
330
19
100
AcDbEntity
  8
0
  6
Continuous
 62
     0
100
AcDbCircle
 10
791.728343
 20
173.305575
 30
0.0
 40
1.0
100
AcDbArc
 50
90.0
 51
180.0
  0
LINE
  5
4BA
330
19
100
AcDbEntity
  8
0
  6
Continuous
 62
     0
100
AcDbLine
 10
791.728343
 20
174.305575
 30
0.0
 11
812.2283429999999
 21
174.305575
 31
0.0
  0
LINE
  5
4BB
330
19
100
AcDbEntity
  8
0
  6
Continuous
 62
     0
100
AcDbLine
 10
844.728343
 20
194.305575
 30
0.0
 11
844.728343
 21
195.305575
 31
0.0
  0
LINE
  5
4BC
330
19
100
AcDbEntity
  8
0
  6
Continuous
 62
     0
100
AcDbLine
 10
844.728343
 20
195.305575
 30
0.0
 11
813.2283429999999
 21
195.305575
 31
0.0
  0
LINE
  5
4BD
330
19
100
AcDbEntity
  8
0
  6
Continuous
 62
     0
100
AcDbLine
 10
813.2283429999999
 20
195.305575
 30
0.0
 11
813.2283429999999
 21
194.305575
 31
0.0
  0
ARC
  5
4BE
330
19
100
AcDbEntity
  8
0
  6
Continuous
 62
     0
100
AcDbCircle
 10
844.728343
 20
173.305575
 30
0.0
 40
1.0
100
AcDbArc
 50
0.0
 51
90.0
  0
LINE
  5
4BF
330
19
100
AcDbEntity
  8
0
  6
Continuous
 62
     0
100
AcDbLine
 10
790.728343
 20
172.305575
 30
0.0
 11
789.7283429999996
 21
164.305575
 31
0.0
  0
LINE
  5
4C0
330
19
100
AcDbEntity
  8
0
  6
Continuous
 62
     0
100
AcDbLine
 10
779.728343
 20
205.3055749999999
 30
0.0
 11
784.228343
 21
205.3055749999999
 31
0.0
  0
LINE
  5
4C1
330
19
100
AcDbEntity
  8
0
  6
HIDDEN
 62
     0
 48
10.0
100
AcDbLine
 10
779.728343
 20
205.3055749999999
 30
0.0
 11
776.228343
 21
205.3055749999999
 31
0.0
  0
LINE
  5
4C2
330
19
100
AcDbEntity
  8
0
  6
Continuous
 62
     0
100
AcDbLine
 10
779.728343
 20
197.305575
 30
0.0
 11
784.228343
 21
197.305575
 31
0.0
  0
LINE
  5
4C3
330
19
100
AcDbEntity
  8
0
  6
HIDDEN
 62
     0
 48
10.0
100
AcDbLine
 10
779.728343
 20
197.305575
 30
0.0
 11
776.228343
 21
197.305575
 31
0.0
  0
LINE
  5
4C4
330
19
100
AcDbEntity
  8
0
  6
Continuous
 62
     0
100
AcDbLine
 10
782.2283429999997
 20
197.305575
 30
0.0
 11
782.2283429999997
 21
205.3055749999999
 31
0.0
  0
ARC
  5
4C5
330
19
100
AcDbEntity
  8
0
  6
HIDDEN
 62
     0
 48
10.0
100
AcDbCircle
 10
778.228343
 20
202.305575
 30
0.0
 40
0.5
100
AcDbArc
 50
0.0
 51
90.0
  0
ARC
  5
4C6
330
19
100
AcDbEntity
  8
0
  6
HIDDEN
 62
     0
 48
10.0
100
AcDbCircle
 10
774.228343
 20
202.305575
 30
0.0
 40
0.5
100
AcDbArc
 50
90.0
 51
180.0
  0
LINE
  5
4C7
330
19
100
AcDbEntity
  8
0
  6
HIDDEN
 62
     0
 48
10.0
100
AcDbLine
 10
774.228343
 20
202.805575
 30
0.0
 11
778.228343
 21
202.805575
 31
0.0
  0
ARC
  5
4C8
330
19
100
AcDbEntity
  8
0
  6
HIDDEN
 62
     0
 48
10.0
100
AcDbCircle
 10
778.228343
 20
200.305575
 30
0.0
 40
0.5
100
AcDbArc
 50
270.0
 51
0.0
  0
LINE
  5
4C9
330
19
100
AcDbEntity
  8
0
  6
HIDDEN
 62
     0
 48
10.0
100
AcDbLine
 10
778.728343
 20
200.305575
 30
0.0
 11
778.728343
 21
202.305575
 31
0.0
  0
ARC
  5
4CA
330
19
100
AcDbEntity
  8
0
  6
HIDDEN
 62
     0
 48
10.0
100
AcDbCircle
 10
774.228343
 20
200.305575
 30
0.0
 40
0.5
100
AcDbArc
 50
180.0
 51
270.0
  0
LINE
  5
4CB
330
19
100
AcDbEntity
  8
0
  6
HIDDEN
 62
     0
 48
10.0
100
AcDbLine
 10
774.228343
 20
199.8055749999999
 30
0.0
 11
778.228343
 21
199.8055749999999
 31
0.0
  0
LINE
  5
4CC
330
19
100
AcDbEntity
  8
0
  6
HIDDEN
 62
     0
 48
10.0
100
AcDbLine
 10
773.7283429999997
 20
202.305575
 30
0.0
 11
773.7283429999997
 21
200.305575
 31
0.0
  0
CIRCLE
  5
4CD
330
19
100
AcDbEntity
  8
0
  6
HIDDEN
 62
     0
 48
10.0
100
AcDbCircle
 10
776.228343
 20
201.3055749999999
 30
0.0
 40
4.0
  0
LINE
  5
4CE
330
19
100
AcDbEntity
  8
0
  6
HIDDEN
 62
     0
 48
10.0
100
AcDbLine
 10
774.728343
 20
212.305575
 30
0.0
 11
777.7283429999997
 21
212.305575
 31
0.0
  0
LINE
  5
4CF
330
19
100
AcDbEntity
  8
0
  6
HIDDEN
 62
     0
 48
10.0
100
AcDbLine
 10
777.7283429999997
 20
212.305575
 30
0.0
 11
777.7283429999997
 21
201.3055749999999
 31
0.0
  0
LINE
  5
4D0
330
19
100
AcDbEntity
  8
0
  6
HIDDEN
 62
     0
 48
10.0
100
AcDbLine
 10
777.7283429999997
 20
201.3055749999999
 30
0.0
 11
774.728343
 21
201.3055749999999
 31
0.0
  0
LINE
  5
4D1
330
19
100
AcDbEntity
  8
0
  6
HIDDEN
 62
     0
 48
10.0
100
AcDbLine
 10
774.728343
 20
201.3055749999999
 30
0.0
 11
774.728343
 21
212.305575
 31
0.0
  0
LINE
  5
4D2
330
19
100
AcDbEntity
  8
0
  6
Continuous
 62
     0
100
AcDbLine
 10
782.728343
 20
224.347322
 30
0.0
 11
782.728343
 21
382.505575
 31
0.0
  0
ARC
  5
4D3
330
19
100
AcDbEntity
  8
0
  6
Continuous
 62
     0
100
AcDbCircle
 10
784.9257809999997
 20
385.1773799999998
 30
0.0
 40
7.413219999999999
100
AcDbArc
 50
107.2427989999999
 51
134.5156429999998
  0
ARC
  5
4D4
330
19
100
AcDbEntity
  8
0
  6
HIDDEN
 62
     0
 48
10.0
100
AcDbCircle
 10
784.9257809999997
 20
385.1773799999998
 30
0.0
 40
7.413219999999999
100
AcDbArc
 50
134.5156429999998
 51
230.7688279999999
  0
LINE
  5
4D5
330
19
100
AcDbEntity
  8
0
  6
Continuous
 62
     0
100
AcDbLine
 10
782.728343
 20
392.257429
 30
0.0
 11
782.728343
 21
382.505575
 31
0.0
  0
LINE
  5
4D6
330
19
100
AcDbEntity
  8
0
  6
Continuous
 62
     0
100
AcDbLine
 10
782.728343
 20
393.505575
 30
0.0
 11
784.228343
 21
393.505575
 31
0.0
  0
LINE
  5
4D7
330
19
100
AcDbEntity
  8
0
  6
Continuous
 62
     0
100
AcDbLine
 10
782.728343
 20
223.1055749999999
 30
0.0
 11
784.228343
 21
223.1055749999999
 31
0.0
  0
ARC
  5
4D8
330
19
100
AcDbEntity
  8
0
  6
Continuous
 62
     0
100
AcDbCircle
 10
784.9257809999997
 20
385.1773799999998
 30
0.0
 40
8.61322
100
AcDbArc
 50
104.780926
 51
127.1156389999999
  0
ARC
  5
4D9
330
19
100
AcDbEntity
  8
0
  6
HIDDEN
 62
     0
 48
10.0
100
AcDbCircle
 10
784.9257809999997
 20
385.1773799999998
 30
0.0
 40
8.61322
100
AcDbArc
 50
127.1156389999999
 51
230.7688279999999
  0
LINE
  5
4DA
330
19
100
AcDbEntity
  8
0
  6
HIDDEN
 62
     0
 48
10.0
100
AcDbLine
 10
780.2372839999997
 20
379.435095
 30
0.0
 11
779.4783429999996
 21
378.505575
 31
0.0
  0
ARC
  5
4DB
330
19
100
AcDbEntity
  8
0
  6
HIDDEN
 62
     0
 48
10.0
100
AcDbCircle
 10
784.7633509999996
 20
231.398576
 30
0.0
 40
8.539035999999999
100
AcDbArc
 50
128.237546
 51
233.868114
  0
ARC
  5
4DC
330
19
100
AcDbEntity
  8
0
  6
Continuous
 62
     0
100
AcDbCircle
 10
784.7633509999996
 20
231.398576
 30
0.0
 40
8.539035999999999
100
AcDbArc
 50
233.868114
 51
256.2126999999999
  0
ARC
  5
4DD
330
19
100
AcDbEntity
  8
0
  6
HIDDEN
 62
     0
 48
10.0
100
AcDbCircle
 10
784.7633509999996
 20
231.398576
 30
0.0
 40
7.339036
100
AcDbArc
 50
128.237546
 51
226.681094
  0
ARC
  5
4DE
330
19
100
AcDbEntity
  8
0
  6
Continuous
 62
     0
100
AcDbCircle
 10
784.7633509999996
 20
231.398576
 30
0.0
 40
7.339036
100
AcDbArc
 50
226.681094
 51
253.901743
  0
LINE
  5
4DF
330
19
100
AcDbEntity
  8
0
  6
HIDDEN
 62
     0
 48
10.0
100
AcDbLine
 10
779.4783429999996
 20
238.1055749999999
 30
0.0
 11
780.221051
 21
237.163033
 31
0.0
  0
LINE
  5
4E0
330
19
100
AcDbEntity
  8
0
  6
Continuous
 62
     0
100
AcDbLine
 10
779.728343
 20
415.305575
 30
0.0
 11
768.228343
 21
415.305575
 31
0.0
  0
LINE
  5
4E1
330
19
100
AcDbEntity
  8
0
  6
Continuous
 62
     0
100
AcDbLine
 10
768.7283429999999
 20
415.305575
 30
0.0
 11
767.728343
 21
415.305575
 31
0.0
  0
LINE
  5
4E2
330
19
100
AcDbEntity
  8
0
  6
Continuous
 62
     0
100
AcDbLine
 10
770.728343
 20
413.3055749999998
 30
0.0
 11
770.728343
 21
407.3055749999999
 31
0.0
  0
LINE
  5
4E3
330
19
100
AcDbEntity
  8
0
  6
Continuous
 62
     0
100
AcDbLine
 10
784.228343
 20
414.305575
 30
0.0
 11
784.228343
 21
196.305575
 31
0.0
  0
ARC
  5
4E4
330
19
100
AcDbEntity
  8
0
  6
Continuous
 62
     0
100
AcDbCircle
 10
785.2283429999999
 20
196.305575
 30
0.0
 40
1.0
100
AcDbArc
 50
180.0
 51
270.0
  0
LINE
  5
4E5
330
19
100
AcDbEntity
  8
0
  6
Continuous
 62
     0
100
AcDbLine
 10
1023.228343
 20
195.305575
 30
0.0
 11
1023.228343
 21
415.305575
 31
0.0
  0
LINE
  5
4E6
330
19
100
AcDbEntity
  8
0
  6
Continuous
 62
     0
100
AcDbLine
 10
475.6582749999998
 20
383.0555749999998
 30
0.0
 11
475.728343
 21
383.0555749999998
 31
0.0
  0
LINE
  5
4E7
330
19
100
AcDbEntity
  8
0
  6
Continuous
 62
     0
100
AcDbLine
 10
478.9062549999998
 20
395.227356
 30
0.0
 11
475.728343
 21
398.5555749999998
 31
0.0
  0
ARC
  5
4E8
330
19
100
AcDbEntity
  8
0
  6
Continuous
 62
     0
100
AcDbCircle
 10
478.1830059999998
 20
394.5367689999998
 30
0.0
 40
1.0
100
AcDbArc
 50
330.6090619999999
 51
43.676571
  0
ARC
  5
4E9
330
19
100
AcDbEntity
  8
0
  6
Continuous
 62
     0
100
AcDbCircle
 10
495.3821709999998
 20
384.8491209999998
 30
0.0
 40
18.739854
100
AcDbArc
 50
150.609062
 51
182.3039239999999
  0
ARC
  5
4EA
330
19
100
AcDbEntity
  8
0
  6
Continuous
 62
     0
100
AcDbCircle
 10
475.6582749999998
 20
384.055575
 30
0.0
 40
1.0
100
AcDbArc
 50
270.0
 51
2.303924
  0
LINE
  5
4EB
330
19
100
AcDbEntity
  8
0
  6
Continuous
 62
     0
100
AcDbLine
 10
474.728343
 20
380.305575
 30
0.0
 11
473.7283429999997
 21
380.305575
 31
0.0
  0
LINE
  5
4EC
330
19
100
AcDbEntity
  8
0
  6
Continuous
 62
     0
100
AcDbLine
 10
475.728343
 20
381.3055749999998
 30
0.0
 11
475.728343
 21
400.3055749999998
 31
0.0
  0
ARC
  5
4ED
330
19
100
AcDbEntity
  8
0
  6
Continuous
 62
     0
100
AcDbCircle
 10
474.728343
 20
381.3055749999998
 30
0.0
 40
1.0
100
AcDbArc
 50
270.0
 51
0.0
  0
LINE
  5
4EE
330
19
100
AcDbEntity
  8
0
  6
Continuous
 62
     0
100
AcDbLine
 10
474.728343
 20
401.3055749999998
 30
0.0
 11
473.7283429999997
 21
401.3055749999998
 31
0.0
  0
ARC
  5
4EF
330
19
100
AcDbEntity
  8
0
  6
Continuous
 62
     0
100
AcDbCircle
 10
474.728343
 20
400.3055749999998
 30
0.0
 40
1.0
100
AcDbArc
 50
0.0
 51
90.0
  0
LINE
  5
4F0
330
19
100
AcDbEntity
  8
0
  6
Continuous
 62
     0
100
AcDbLine
 10
143.7283429999999
 20
188.805575
 30
0.0
 11
473.7283429999997
 21
188.805575
 31
0.0
  0
LINE
  5
4F1
330
19
100
AcDbEntity
  8
0
  6
Continuous
 62
     0
100
AcDbLine
 10
143.7283429999999
 20
180.805575
 30
0.0
 11
143.7283429999999
 21
188.805575
 31
0.0
  0
ARC
  5
4F2
330
19
100
AcDbEntity
  8
0
  6
Continuous
 62
     0
100
AcDbCircle
 10
148.7283429999999
 20
180.805575
 30
0.0
 40
5.0
100
AcDbArc
 50
180.0
 51
270.0
  0
LINE
  5
4F3
330
19
100
AcDbEntity
  8
0
  6
Continuous
 62
     0
100
AcDbLine
 10
148.7283429999999
 20
175.805575
 30
0.0
 11
468.7283429999998
 21
175.805575
 31
0.0
  0
LINE
  5
4F4
330
19
100
AcDbEntity
  8
0
  6
Continuous
 62
     0
100
AcDbLine
 10
473.7283429999997
 20
180.805575
 30
0.0
 11
473.7283429999997
 21
188.805575
 31
0.0
  0
ARC
  5
4F5
330
19
100
AcDbEntity
  8
0
  6
Continuous
 62
     0
100
AcDbCircle
 10
468.7283429999998
 20
180.805575
 30
0.0
 40
5.0
100
AcDbArc
 50
270.0
 51
0.0
  0
LINE
  5
4F6
330
19
100
AcDbEntity
  8
0
  6
Continuous
 62
     0
100
AcDbLine
 10
154.728343
 20
188.805575
 30
0.0
 11
154.728343
 21
195.305575
 31
0.0
  0
LINE
  5
4F7
330
19
100
AcDbEntity
  8
0
  6
Continuous
 62
     0
100
AcDbLine
 10
154.728343
 20
175.305575
 30
0.0
 11
154.728343
 21
173.305575
 31
0.0
  0
LINE
  5
4F8
330
19
100
AcDbEntity
  8
0
  6
Continuous
 62
     0
100
AcDbLine
 10
194.7283429999997
 20
165.305575
 30
0.0
 11
194.7283429999997
 21
173.305575
 31
0.0
  0
LINE
  5
4F9
330
19
100
AcDbEntity
  8
0
  6
Continuous
 62
     0
100
AcDbLine
 10
206.7283429999998
 20
174.305575
 30
0.0
 11
206.7283429999998
 21
173.305575
 31
0.0
  0
ARC
  5
4FA
330
19
100
AcDbEntity
  8
0
  6
Continuous
 62
     0
100
AcDbCircle
 10
205.728343
 20
174.305575
 30
0.0
 40
1.0
100
AcDbArc
 50
0.0
 51
90.0
  0
LINE
  5
4FB
330
19
100
AcDbEntity
  8
0
  6
Continuous
 62
     0
100
AcDbLine
 10
154.728343
 20
173.305575
 30
0.0
 11
206.7283429999998
 21
173.305575
 31
0.0
  0
LINE
  5
4FC
330
19
100
AcDbEntity
  8
0
  6
Continuous
 62
     0
100
AcDbLine
 10
191.7283429999999
 20
165.305575
 30
0.0
 11
191.7283429999999
 21
164.305575
 31
0.0
  0
LINE
  5
4FD
330
19
100
AcDbEntity
  8
0
  6
Continuous
 62
     0
100
AcDbLine
 10
157.728343
 20
164.305575
 30
0.0
 11
157.728343
 21
165.305575
 31
0.0
  0
LINE
  5
4FE
330
19
100
AcDbEntity
  8
0
  6
Continuous
 62
     0
100
AcDbLine
 10
154.728343
 20
173.305575
 30
0.0
 11
154.728343
 21
165.305575
 31
0.0
  0
LINE
  5
4FF
330
19
100
AcDbEntity
  8
0
  6
Continuous
 62
     0
100
AcDbLine
 10
188.228343
 20
188.805575
 30
0.0
 11
188.228343
 21
195.305575
 31
0.0
  0
LINE
  5
500
330
19
100
AcDbEntity
  8
0
  6
Continuous
 62
     0
100
AcDbLine
 10
205.728343
 20
175.305575
 30
0.0
 11
154.728343
 21
175.305575
 31
0.0
  0
LINE
  5
501
330
19
100
AcDbEntity
  8
0
  6
Continuous
 62
     0
100
AcDbLine
 10
154.728343
 20
165.305575
 30
0.0
 11
194.7283429999997
 21
165.305575
 31
0.0
  0
LINE
  5
502
330
19
100
AcDbEntity
  8
0
  6
Continuous
 62
     0
100
AcDbLine
 10
191.7283429999999
 20
164.305575
 30
0.0
 11
157.728343
 21
164.305575
 31
0.0
  0
LINE
  5
503
330
19
100
AcDbEntity
  8
0
  6
Continuous
 62
     0
100
AcDbLine
 10
459.728343
 20
164.305575
 30
0.0
 11
459.728343
 21
165.305575
 31
0.0
  0
LINE
  5
504
330
19
100
AcDbEntity
  8
0
  6
Continuous
 62
     0
100
AcDbLine
 10
425.728343
 20
164.305575
 30
0.0
 11
459.728343
 21
164.305575
 31
0.0
  0
LINE
  5
505
330
19
100
AcDbEntity
  8
0
  6
Continuous
 62
     0
100
AcDbLine
 10
425.728343
 20
165.305575
 30
0.0
 11
425.728343
 21
164.305575
 31
0.0
  0
LINE
  5
506
330
19
100
AcDbEntity
  8
0
  6
Continuous
 62
     0
100
AcDbLine
 10
422.7283429999998
 20
165.305575
 30
0.0
 11
422.7283429999998
 21
173.305575
 31
0.0
  0
LINE
  5
507
330
19
100
AcDbEntity
  8
0
  6
Continuous
 62
     0
100
AcDbLine
 10
462.728343
 20
165.305575
 30
0.0
 11
422.7283429999998
 21
165.305575
 31
0.0
  0
LINE
  5
508
330
19
100
AcDbEntity
  8
0
  6
Continuous
 62
     0
100
AcDbLine
 10
462.728343
 20
173.305575
 30
0.0
 11
462.728343
 21
165.305575
 31
0.0
  0
LINE
  5
509
330
19
100
AcDbEntity
  8
0
  6
Continuous
 62
     0
100
AcDbLine
 10
411.7283429999998
 20
175.305575
 30
0.0
 11
462.728343
 21
175.305575
 31
0.0
  0
ARC
  5
50A
330
19
100
AcDbEntity
  8
0
  6
Continuous
 62
     0
100
AcDbCircle
 10
411.7283429999998
 20
174.305575
 30
0.0
 40
1.0
100
AcDbArc
 50
90.0
 51
180.0
  0
LINE
  5
50B
330
19
100
AcDbEntity
  8
0
  6
Continuous
 62
     0
100
AcDbLine
 10
410.7283429999998
 20
174.305575
 30
0.0
 11
410.7283429999998
 21
173.305575
 31
0.0
  0
LINE
  5
50C
330
19
100
AcDbEntity
  8
0
  6
Continuous
 62
     0
100
AcDbLine
 10
462.728343
 20
173.305575
 30
0.0
 11
410.7283429999998
 21
173.305575
 31
0.0
  0
LINE
  5
50D
330
19
100
AcDbEntity
  8
0
  6
Continuous
 62
     0
100
AcDbLine
 10
462.728343
 20
175.305575
 30
0.0
 11
462.728343
 21
173.305575
 31
0.0
  0
LINE
  5
50E
330
19
100
AcDbEntity
  8
0
  6
Continuous
 62
     0
100
AcDbLine
 10
429.228343
 20
188.805575
 30
0.0
 11
429.228343
 21
195.305575
 31
0.0
  0
LINE
  5
50F
330
19
100
AcDbEntity
  8
0
  6
Continuous
 62
     0
100
AcDbLine
 10
462.728343
 20
188.805575
 30
0.0
 11
462.728343
 21
195.305575
 31
0.0
  0
LINE
  5
510
330
19
100
AcDbEntity
  8
0
  6
HIDDEN
 62
     0
 48
10.0
100
AcDbLine
 10
149.7283429999999
 20
205.3055749999999
 30
0.0
 11
149.7283429999999
 21
197.305575
 31
0.0
  0
LINE
  5
511
330
19
100
AcDbEntity
  8
0
  6
HIDDEN
 62
     0
 48
10.0
100
AcDbLine
 10
149.7283429999999
 20
197.305575
 30
0.0
 11
167.7283429999999
 21
197.305575
 31
0.0
  0
LINE
  5
512
330
19
100
AcDbEntity
  8
0
  6
HIDDEN
 62
     0
 48
10.0
100
AcDbLine
 10
194.7283429999997
 20
205.3055749999999
 30
0.0
 11
174.228343
 21
205.3055749999999
 31
0.0
  0
LINE
  5
513
330
19
100
AcDbEntity
  8
0
  6
HIDDEN
 62
     0
 48
10.0
100
AcDbLine
 10
167.7283429999999
 20
197.305575
 30
0.0
 11
167.7283429999999
 21
205.3055749999999
 31
0.0
  0
LINE
  5
514
330
19
100
AcDbEntity
  8
0
  6
HIDDEN
 62
     0
 48
10.0
100
AcDbLine
 10
167.7283429999999
 20
204.305575
 30
0.0
 11
169.2283429999999
 21
204.305575
 31
0.0
  0
LINE
  5
515
330
19
100
AcDbEntity
  8
0
  6
HIDDEN
 62
     0
 48
10.0
100
AcDbLine
 10
169.2283429999999
 20
198.305575
 30
0.0
 11
167.7283429999999
 21
198.305575
 31
0.0
  0
LINE
  5
516
330
19
100
AcDbEntity
  8
0
  6
HIDDEN
 62
     0
 48
10.0
100
AcDbLine
 10
169.2283429999999
 20
204.305575
 30
0.0
 11
169.2283429999999
 21
198.305575
 31
0.0
  0
LINE
  5
517
330
19
100
AcDbEntity
  8
0
  6
HIDDEN
 62
     0
 48
10.0
100
AcDbLine
 10
177.2283429999999
 20
202.805575
 30
0.0
 11
177.2283429999999
 21
199.8055749999999
 31
0.0
  0
CIRCLE
  5
518
330
19
100
AcDbEntity
  8
0
  6
HIDDEN
 62
     0
 48
10.0
100
AcDbCircle
 10
192.7283429999999
 20
201.3055749999999
 30
0.0
 40
1.6
  0
ARC
  5
519
330
19
100
AcDbEntity
  8
0
  6
HIDDEN
 62
     0
 48
10.0
100
AcDbCircle
 10
194.7283429999997
 20
203.3055749999999
 30
0.0
 40
2.0
100
AcDbArc
 50
0.0
 51
90.0
  0
LINE
  5
51A
330
19
100
AcDbEntity
  8
0
  6
HIDDEN
 62
     0
 48
10.0
100
AcDbLine
 10
196.7283429999999
 20
199.305575
 30
0.0
 11
196.7283429999999
 21
203.3055749999999
 31
0.0
  0
CIRCLE
  5
51B
330
19
100
AcDbEntity
  8
0
  6
HIDDEN
 62
     0
 48
10.0
100
AcDbCircle
 10
153.728343
 20
208.805575
 30
0.0
 40
1.6
  0
LINE
  5
51C
330
19
100
AcDbEntity
  8
0
  6
HIDDEN
 62
     0
 48
10.0
100
AcDbLine
 10
169.2283429999999
 20
202.805575
 30
0.0
 11
177.2283429999999
 21
202.805575
 31
0.0
  0
LINE
  5
51D
330
19
100
AcDbEntity
  8
0
  6
HIDDEN
 62
     0
 48
10.0
100
AcDbLine
 10
174.228343
 20
197.305575
 30
0.0
 11
174.228343
 21
205.3055749999999
 31
0.0
  0
LINE
  5
51E
330
19
100
AcDbEntity
  8
0
  6
HIDDEN
 62
     0
 48
10.0
100
AcDbLine
 10
176.228343
 20
205.3055749999999
 30
0.0
 11
176.228343
 21
197.305575
 31
0.0
  0
CIRCLE
  5
51F
330
19
100
AcDbEntity
  8
0
  6
HIDDEN
 62
     0
 48
10.0
100
AcDbCircle
 10
182.7283429999999
 20
201.3055749999999
 30
0.0
 40
1.6
  0
ARC
  5
520
330
19
100
AcDbEntity
  8
0
  6
HIDDEN
 62
     0
 48
10.0
100
AcDbCircle
 10
194.7283429999997
 20
199.305575
 30
0.0
 40
2.0
100
AcDbArc
 50
270.0
 51
0.0
  0
LINE
  5
521
330
19
100
AcDbEntity
  8
0
  6
HIDDEN
 62
     0
 48
10.0
100
AcDbLine
 10
177.2283429999999
 20
199.8055749999999
 30
0.0
 11
169.2283429999999
 21
199.8055749999999
 31
0.0
  0
ARC
  5
522
330
19
100
AcDbEntity
  8
0
  6
HIDDEN
 62
     0
 48
10.0
100
AcDbCircle
 10
165.7283429999999
 20
210.305575
 30
0.0
 40
2.0
100
AcDbArc
 50
0.0
 51
90.0
  0
ARC
  5
523
330
19
100
AcDbEntity
  8
0
  6
HIDDEN
 62
     0
 48
10.0
100
AcDbCircle
 10
151.7283429999999
 20
210.305575
 30
0.0
 40
2.0
100
AcDbArc
 50
90.0
 51
180.0
  0
CIRCLE
  5
524
330
19
100
AcDbEntity
  8
0
  6
HIDDEN
 62
     0
 48
10.0
100
AcDbCircle
 10
163.728343
 20
208.805575
 30
0.0
 40
1.6
  0
LINE
  5
525
330
19
100
AcDbEntity
  8
0
  6
HIDDEN
 62
     0
 48
10.0
100
AcDbLine
 10
149.7283429999999
 20
210.305575
 30
0.0
 11
149.7283429999999
 21
205.3055749999999
 31
0.0
  0
LINE
  5
526
330
19
100
AcDbEntity
  8
0
  6
HIDDEN
 62
     0
 48
10.0
100
AcDbLine
 10
167.7283429999999
 20
205.3055749999999
 30
0.0
 11
149.7283429999999
 21
205.3055749999999
 31
0.0
  0
LINE
  5
527
330
19
100
AcDbEntity
  8
0
  6
HIDDEN
 62
     0
 48
10.0
100
AcDbLine
 10
151.7283429999999
 20
212.305575
 30
0.0
 11
165.7283429999999
 21
212.305575
 31
0.0
  0
LINE
  5
528
330
19
100
AcDbEntity
  8
0
  6
HIDDEN
 62
     0
 48
10.0
100
AcDbLine
 10
167.7283429999999
 20
210.305575
 30
0.0
 11
167.7283429999999
 21
205.3055749999999
 31
0.0
  0
LINE
  5
529
330
19
100
AcDbEntity
  8
0
  6
HIDDEN
 62
     0
 48
10.0
100
AcDbLine
 10
194.7283429999997
 20
197.305575
 30
0.0
 11
174.228343
 21
197.305575
 31
0.0
  0
LINE
  5
52A
330
19
100
AcDbEntity
  8
0
  6
HIDDEN
 62
     0
 48
10.0
100
AcDbLine
 10
467.728343
 20
197.305575
 30
0.0
 11
449.728343
 21
197.305575
 31
0.0
  0
LINE
  5
52B
330
19
100
AcDbEntity
  8
0
  6
HIDDEN
 62
     0
 48
10.0
100
AcDbLine
 10
422.7283429999998
 20
205.3055749999999
 30
0.0
 11
443.228343
 21
205.3055749999999
 31
0.0
  0
LINE
  5
52C
330
19
100
AcDbEntity
  8
0
  6
HIDDEN
 62
     0
 48
10.0
100
AcDbLine
 10
449.728343
 20
197.305575
 30
0.0
 11
449.728343
 21
205.3055749999999
 31
0.0
  0
LINE
  5
52D
330
19
100
AcDbEntity
  8
0
  6
HIDDEN
 62
     0
 48
10.0
100
AcDbLine
 10
449.728343
 20
204.305575
 30
0.0
 11
448.2283429999998
 21
204.305575
 31
0.0
  0
LINE
  5
52E
330
19
100
AcDbEntity
  8
0
  6
HIDDEN
 62
     0
 48
10.0
100
AcDbLine
 10
448.2283429999998
 20
198.305575
 30
0.0
 11
449.728343
 21
198.305575
 31
0.0
  0
LINE
  5
52F
330
19
100
AcDbEntity
  8
0
  6
HIDDEN
 62
     0
 48
10.0
100
AcDbLine
 10
448.2283429999998
 20
204.305575
 30
0.0
 11
448.2283429999998
 21
198.305575
 31
0.0
  0
LINE
  5
530
330
19
100
AcDbEntity
  8
0
  6
HIDDEN
 62
     0
 48
10.0
100
AcDbLine
 10
440.2283429999997
 20
202.805575
 30
0.0
 11
440.2283429999997
 21
199.8055749999999
 31
0.0
  0
LINE
  5
531
330
19
100
AcDbEntity
  8
0
  6
HIDDEN
 62
     0
 48
10.0
100
AcDbLine
 10
422.7283429999998
 20
197.305575
 30
0.0
 11
443.228343
 21
197.305575
 31
0.0
  0
CIRCLE
  5
532
330
19
100
AcDbEntity
  8
0
  6
HIDDEN
 62
     0
 48
10.0
100
AcDbCircle
 10
424.728343
 20
201.3055749999999
 30
0.0
 40
1.6
  0
LINE
  5
533
330
19
100
AcDbEntity
  8
0
  6
HIDDEN
 62
     0
 48
10.0
100
AcDbLine
 10
420.728343
 20
199.305575
 30
0.0
 11
420.728343
 21
203.3055749999999
 31
0.0
  0
CIRCLE
  5
534
330
19
100
AcDbEntity
  8
0
  6
HIDDEN
 62
     0
 48
10.0
100
AcDbCircle
 10
463.728343
 20
208.805575
 30
0.0
 40
1.6
  0
LINE
  5
535
330
19
100
AcDbEntity
  8
0
  6
HIDDEN
 62
     0
 48
10.0
100
AcDbLine
 10
448.2283429999998
 20
202.805575
 30
0.0
 11
440.2283429999997
 21
202.805575
 31
0.0
  0
LINE
  5
536
330
19
100
AcDbEntity
  8
0
  6
HIDDEN
 62
     0
 48
10.0
100
AcDbLine
 10
443.228343
 20
197.305575
 30
0.0
 11
443.228343
 21
205.3055749999999
 31
0.0
  0
LINE
  5
537
330
19
100
AcDbEntity
  8
0
  6
HIDDEN
 62
     0
 48
10.0
100
AcDbLine
 10
441.228343
 20
205.3055749999999
 30
0.0
 11
441.228343
 21
197.305575
 31
0.0
  0
CIRCLE
  5
538
330
19
100
AcDbEntity
  8
0
  6
HIDDEN
 62
     0
 48
10.0
100
AcDbCircle
 10
434.728343
 20
201.3055749999999
 30
0.0
 40
1.6
  0
ARC
  5
539
330
19
100
AcDbEntity
  8
0
  6
HIDDEN
 62
     0
 48
10.0
100
AcDbCircle
 10
422.7283429999998
 20
199.305575
 30
0.0
 40
2.0
100
AcDbArc
 50
180.0
 51
270.0
  0
LINE
  5
53A
330
19
100
AcDbEntity
  8
0
  6
HIDDEN
 62
     0
 48
10.0
100
AcDbLine
 10
440.2283429999997
 20
199.8055749999999
 30
0.0
 11
448.2283429999998
 21
199.8055749999999
 31
0.0
  0
ARC
  5
53B
330
19
100
AcDbEntity
  8
0
  6
HIDDEN
 62
     0
 48
10.0
100
AcDbCircle
 10
451.7283429999998
 20
210.305575
 30
0.0
 40
2.0
100
AcDbArc
 50
90.0
 51
180.0
  0
ARC
  5
53C
330
19
100
AcDbEntity
  8
0
  6
HIDDEN
 62
     0
 48
10.0
100
AcDbCircle
 10
465.7283429999998
 20
210.305575
 30
0.0
 40
2.0
100
AcDbArc
 50
0.0
 51
90.0
  0
CIRCLE
  5
53D
330
19
100
AcDbEntity
  8
0
  6
HIDDEN
 62
     0
 48
10.0
100
AcDbCircle
 10
453.728343
 20
208.805575
 30
0.0
 40
1.6
  0
LINE
  5
53E
330
19
100
AcDbEntity
  8
0
  6
HIDDEN
 62
     0
 48
10.0
100
AcDbLine
 10
467.728343
 20
210.305575
 30
0.0
 11
467.728343
 21
205.3055749999999
 31
0.0
  0
LINE
  5
53F
330
19
100
AcDbEntity
  8
0
  6
HIDDEN
 62
     0
 48
10.0
100
AcDbLine
 10
449.728343
 20
210.305575
 30
0.0
 11
449.728343
 21
205.3055749999999
 31
0.0
  0
LINE
  5
540
330
19
100
AcDbEntity
  8
0
  6
HIDDEN
 62
     0
 48
10.0
100
AcDbLine
 10
449.728343
 20
205.3055749999999
 30
0.0
 11
467.728343
 21
205.3055749999999
 31
0.0
  0
LINE
  5
541
330
19
100
AcDbEntity
  8
0
  6
HIDDEN
 62
     0
 48
10.0
100
AcDbLine
 10
467.728343
 20
205.3055749999999
 30
0.0
 11
467.728343
 21
197.305575
 31
0.0
  0
LINE
  5
542
330
19
100
AcDbEntity
  8
0
  6
HIDDEN
 62
     0
 48
10.0
100
AcDbLine
 10
465.7283429999998
 20
212.305575
 30
0.0
 11
451.7283429999998
 21
212.305575
 31
0.0
  0
ARC
  5
543
330
19
100
AcDbEntity
  8
0
  6
HIDDEN
 62
     0
 48
10.0
100
AcDbCircle
 10
422.7283429999998
 20
203.3055749999999
 30
0.0
 40
2.0
100
AcDbArc
 50
90.0
 51
180.0
  0
LINE
  5
544
330
19
100
AcDbEntity
  8
0
  6
HIDDEN
 62
     0
 48
10.0
100
AcDbLine
 10
165.528343
 20
393.505575
 30
0.0
 11
165.528343
 21
223.1055749999999
 31
0.0
  0
LINE
  5
545
330
19
100
AcDbEntity
  8
0
  6
HIDDEN
 62
     0
 48
10.0
100
AcDbLine
 10
451.9283429999998
 20
223.1055749999999
 30
0.0
 11
451.9283429999998
 21
393.505575
 31
0.0
  0
LINE
  5
546
330
19
100
AcDbEntity
  8
0
  6
HIDDEN
 62
     0
 48
10.0
100
AcDbLine
 10
436.928343
 20
243.105575
 30
0.0
 11
436.928343
 21
373.505575
 31
0.0
  0
LINE
  5
547
330
19
100
AcDbEntity
  8
0
  6
HIDDEN
 62
     0
 48
10.0
100
AcDbLine
 10
180.528343
 20
373.505575
 30
0.0
 11
180.528343
 21
243.105575
 31
0.0
  0
ARC
  5
548
330
19
100
AcDbEntity
  8
0
  6
HIDDEN
 62
     0
 48
10.0
100
AcDbCircle
 10
185.528343
 20
243.105575
 30
0.0
 40
5.0
100
AcDbArc
 50
180.0
 51
270.0
  0
ARC
  5
549
330
19
100
AcDbEntity
  8
0
  6
HIDDEN
 62
     0
 48
10.0
100
AcDbCircle
 10
185.528343
 20
373.505575
 30
0.0
 40
5.0
100
AcDbArc
 50
90.0
 51
180.0
  0
ARC
  5
54A
330
19
100
AcDbEntity
  8
0
  6
HIDDEN
 62
     0
 48
10.0
100
AcDbCircle
 10
431.9283429999998
 20
373.505575
 30
0.0
 40
5.0
100
AcDbArc
 50
0.0
 51
90.0
  0
ARC
  5
54B
330
19
100
AcDbEntity
  8
0
  6
HIDDEN
 62
     0
 48
10.0
100
AcDbCircle
 10
431.9283429999998
 20
243.105575
 30
0.0
 40
5.0
100
AcDbArc
 50
270.0
 51
0.0
  0
LINE
  5
54C
330
19
100
AcDbEntity
  8
0
  6
HIDDEN
 62
     0
 48
10.0
100
AcDbLine
 10
165.528343
 20
223.1055749999999
 30
0.0
 11
451.9283429999998
 21
223.1055749999999
 31
0.0
  0
CIRCLE
  5
54D
330
19
100
AcDbEntity
  8
0
  6
HIDDEN
 62
     0
 48
10.0
100
AcDbCircle
 10
461.7283429999998
 20
403.3055749999999
 30
0.0
 40
4.0
  0
CIRCLE
  5
54E
330
19
100
AcDbEntity
  8
0
  6
HIDDEN
 62
     0
 48
10.0
100
AcDbCircle
 10
155.728343
 20
403.3055749999999
 30
0.0
 40
4.0
  0
CIRCLE
  5
54F
330
19
100
AcDbEntity
  8
0
  6
HIDDEN
 62
     0
 48
10.0
100
AcDbCircle
 10
461.7283429999998
 20
403.3055749999999
 30
0.0
 40
6.0
  0
CIRCLE
  5
550
330
19
100
AcDbEntity
  8
0
  6
HIDDEN
 62
     0
 48
10.0
100
AcDbCircle
 10
155.728343
 20
403.3055749999999
 30
0.0
 40
6.0
  0
LINE
  5
551
330
19
100
AcDbEntity
  8
0
  6
HIDDEN
 62
     0
 48
10.0
100
AcDbLine
 10
467.242969
 20
208.805575
 30
0.0
 11
450.288117
 21
208.805575
 31
0.0
  0
LINE
  5
552
330
19
100
AcDbEntity
  8
0
  6
HIDDEN
 62
     0
 48
10.0
100
AcDbLine
 10
453.728343
 20
204.984927
 30
0.0
 11
453.728343
 21
212.15526
 31
0.0
  0
CIRCLE
  5
553
330
19
100
AcDbEntity
  8
0
  6
HIDDEN
 62
     0
 48
10.0
100
AcDbCircle
 10
463.728343
 20
208.805575
 30
0.0
 40
2.0
  0
CIRCLE
  5
554
330
19
100
AcDbEntity
  8
0
  6
HIDDEN
 62
     0
 48
10.0
100
AcDbCircle
 10
453.728343
 20
208.805575
 30
0.0
 40
2.0
  0
CIRCLE
  5
555
330
19
100
AcDbEntity
  8
0
  6
HIDDEN
 62
     0
 48
10.0
100
AcDbCircle
 10
153.728343
 20
208.805575
 30
0.0
 40
2.0
  0
LINE
  5
556
330
19
100
AcDbEntity
  8
0
  6
HIDDEN
 62
     0
 48
10.0
100
AcDbLine
 10
150.084101
 20
208.805575
 30
0.0
 11
167.2863639999999
 21
208.805575
 31
0.0
  0
CIRCLE
  5
557
330
19
100
AcDbEntity
  8
0
  6
HIDDEN
 62
     0
 48
10.0
100
AcDbCircle
 10
163.728343
 20
208.805575
 30
0.0
 40
2.0
  0
LINE
  5
558
330
19
100
AcDbEntity
  8
0
  6
HIDDEN
 62
     0
 48
10.0
100
AcDbLine
 10
163.728343
 20
212.3369229999999
 30
0.0
 11
163.728343
 21
204.9086729999999
 31
0.0
  0
LINE
  5
559
330
19
100
AcDbEntity
  8
0
  6
HIDDEN
 62
     0
 48
10.0
100
AcDbLine
 10
153.728343
 20
205.1693129999999
 30
0.0
 11
153.728343
 21
212.076283
 31
0.0
  0
LINE
  5
55A
330
19
100
AcDbEntity
  8
0
  6
Continuous
 62
     0
100
AcDbLine
 10
143.7283429999999
 20
198.805575
 30
0.0
 11
143.7283429999999
 21
411.8055749999999
 31
0.0
  0
LINE
  5
55B
330
19
100
AcDbEntity
  8
0
  6
Continuous
 62
     0
100
AcDbLine
 10
255.728343
 20
415.305575
 30
0.0
 11
361.728343
 21
415.305575
 31
0.0
  0
ARC
  5
55C
330
19
100
AcDbEntity
  8
0
  6
HIDDEN
 62
     0
 48
10.0
100
AcDbCircle
 10
256.7283429999999
 20
413.3055749999998
 30
0.0
 40
2.0
100
AcDbArc
 50
0.0
 51
90.0
  0
ARC
  5
55D
330
19
100
AcDbEntity
  8
0
  6
Continuous
 62
     0
100
AcDbCircle
 10
147.228343
 20
411.8055749999999
 30
0.0
 40
3.5
100
AcDbArc
 50
90.0
 51
180.0
  0
ARC
  5
55E
330
19
100
AcDbEntity
  8
0
  6
HIDDEN
 62
     0
 48
10.0
100
AcDbCircle
 10
360.7283429999998
 20
413.3055749999998
 30
0.0
 40
2.0
100
AcDbArc
 50
90.0
 51
180.0
  0
ARC
  5
55F
330
19
100
AcDbEntity
  8
0
  6
Continuous
 62
     0
100
AcDbCircle
 10
470.228343
 20
411.8055749999999
 30
0.0
 40
3.5
100
AcDbArc
 50
0.0
 51
90.0
  0
LINE
  5
560
330
19
100
AcDbEntity
  8
0
  6
Continuous
 62
     0
100
AcDbLine
 10
470.228343
 20
415.305575
 30
0.0
 11
360.7283429999998
 21
415.305575
 31
0.0
  0
ARC
  5
561
330
19
100
AcDbEntity
  8
0
  6
Continuous
 62
     0
100
AcDbCircle
 10
470.228343
 20
198.805575
 30
0.0
 40
3.5
100
AcDbArc
 50
270.0
 51
0.0
  0
LINE
  5
562
330
19
100
AcDbEntity
  8
0
  6
Continuous
 62
     0
100
AcDbLine
 10
147.228343
 20
195.305575
 30
0.0
 11
470.228343
 21
195.305575
 31
0.0
  0
ARC
  5
563
330
19
100
AcDbEntity
  8
0
  6
Continuous
 62
     0
100
AcDbCircle
 10
147.228343
 20
198.805575
 30
0.0
 40
3.5
100
AcDbArc
 50
180.0
 51
270.0
  0
ARC
  5
564
330
19
100
AcDbEntity
  8
0
  6
HIDDEN
 62
     0
 48
10.0
100
AcDbCircle
 10
353.728343
 20
407.3055749999999
 30
0.0
 40
5.0
100
AcDbArc
 50
270.0
 51
0.0
  0
LINE
  5
565
330
19
100
AcDbEntity
  8
0
  6
HIDDEN
 62
     0
 48
10.0
100
AcDbLine
 10
358.7283429999998
 20
413.3055749999998
 30
0.0
 11
358.7283429999998
 21
407.3055749999999
 31
0.0
  0
LINE
  5
566
330
19
100
AcDbEntity
  8
0
  6
HIDDEN
 62
     0
 48
10.0
100
AcDbLine
 10
263.728343
 20
402.305575
 30
0.0
 11
353.728343
 21
402.305575
 31
0.0
  0
ARC
  5
567
330
19
100
AcDbEntity
  8
0
  6
HIDDEN
 62
     0
 48
10.0
100
AcDbCircle
 10
263.728343
 20
407.3055749999999
 30
0.0
 40
5.0
100
AcDbArc
 50
180.0
 51
270.0
  0
LINE
  5
568
330
19
100
AcDbEntity
  8
0
  6
HIDDEN
 62
     0
 48
10.0
100
AcDbLine
 10
258.7283429999999
 20
413.3055749999998
 30
0.0
 11
258.7283429999999
 21
407.3055749999999
 31
0.0
  0
LINE
  5
569
330
19
100
AcDbEntity
  8
0
  6
Continuous
 62
     0
100
AcDbLine
 10
147.228343
 20
415.305575
 30
0.0
 11
256.7283429999999
 21
415.305575
 31
0.0
  0
LINE
  5
56A
330
19
100
AcDbEntity
  8
0
  6
Continuous
 62
     0
100
AcDbLine
 10
473.7283429999997
 20
411.8055749999999
 30
0.0
 11
473.7283429999997
 21
198.805575
 31
0.0
  0
CIRCLE
  5
56B
330
19
100
AcDbEntity
  8
0
  6
HIDDEN
 62
     0
 48
10.0
100
AcDbCircle
 10
192.7283429999999
 20
201.3055749999999
 30
0.0
 40
1.199999999999999
  0
CIRCLE
  5
56C
330
19
100
AcDbEntity
  8
0
  6
HIDDEN
 62
     0
 48
10.0
100
AcDbCircle
 10
182.7283429999999
 20
201.3055749999999
 30
0.0
 40
1.199999999999999
  0
CIRCLE
  5
56D
330
19
100
AcDbEntity
  8
0
  6
HIDDEN
 62
     0
 48
10.0
100
AcDbCircle
 10
434.728343
 20
201.3055749999999
 30
0.0
 40
1.199999999999999
  0
CIRCLE
  5
56E
330
19
100
AcDbEntity
  8
0
  6
HIDDEN
 62
     0
 48
10.0
100
AcDbCircle
 10
424.728343
 20
201.3055749999999
 30
0.0
 40
1.199999999999999
  0
CIRCLE
  5
56F
330
19
100
AcDbEntity
  8
0
  6
HIDDEN
 62
     0
 48
10.0
100
AcDbCircle
 10
182.7283429999999
 20
201.3055749999999
 30
0.0
 40
1.5
  0
LINE
  5
570
330
19
100
AcDbEntity
  8
0
  6
HIDDEN
 62
     0
 48
10.0
100
AcDbLine
 10
182.7283429999999
 20
204.935735
 30
0.0
 11
182.7283429999999
 21
197.4882589999999
 31
0.0
  0
LINE
  5
571
330
19
100
AcDbEntity
  8
0
  6
HIDDEN
 62
     0
 48
10.0
100
AcDbLine
 10
192.7283429999999
 20
204.710054
 30
0.0
 11
192.7283429999999
 21
197.7139399999999
 31
0.0
  0
LINE
  5
572
330
19
100
AcDbEntity
  8
0
  6
HIDDEN
 62
     0
 48
10.0
100
AcDbLine
 10
175.605829
 20
201.3055749999999
 30
0.0
 11
195.917129
 21
201.3055749999999
 31
0.0
  0
CIRCLE
  5
573
330
19
100
AcDbEntity
  8
0
  6
HIDDEN
 62
     0
 48
10.0
100
AcDbCircle
 10
192.7283429999999
 20
201.3055749999999
 30
0.0
 40
1.5
  0
LINE
  5
574
330
19
100
AcDbEntity
  8
0
  6
HIDDEN
 62
     0
 48
10.0
100
AcDbLine
 10
434.728343
 20
204.710054
 30
0.0
 11
434.728343
 21
197.7139399999999
 31
0.0
  0
LINE
  5
575
330
19
100
AcDbEntity
  8
0
  6
HIDDEN
 62
     0
 48
10.0
100
AcDbLine
 10
424.728343
 20
204.935735
 30
0.0
 11
424.728343
 21
197.4882589999999
 31
0.0
  0
LINE
  5
576
330
19
100
AcDbEntity
  8
0
  6
HIDDEN
 62
     0
 48
10.0
100
AcDbLine
 10
420.605829
 20
201.3055749999999
 30
0.0
 11
440.9171289999998
 21
201.3055749999999
 31
0.0
  0
CIRCLE
  5
577
330
19
100
AcDbEntity
  8
0
  6
HIDDEN
 62
     0
 48
10.0
100
AcDbCircle
 10
424.728343
 20
201.3055749999999
 30
0.0
 40
1.5
  0
CIRCLE
  5
578
330
19
100
AcDbEntity
  8
0
  6
HIDDEN
 62
     0
 48
10.0
100
AcDbCircle
 10
434.728343
 20
201.3055749999999
 30
0.0
 40
1.5
  0
LINE
  5
579
330
19
100
AcDbEntity
  8
0
  6
HIDDEN
 62
     0
 48
10.0
100
AcDbLine
 10
165.528343
 20
393.505575
 30
0.0
 11
451.9283429999998
 21
393.505575
 31
0.0
  0
LINE
  5
57A
330
19
100
AcDbEntity
  8
0
  6
HIDDEN
 62
     0
 48
10.0
100
AcDbLine
 10
185.528343
 20
378.505575
 30
0.0
 11
431.9283429999998
 21
378.505575
 31
0.0
  0
LINE
  5
57B
330
19
100
AcDbEntity
  8
0
  6
HIDDEN
 62
     0
 48
10.0
100
AcDbLine
 10
185.528343
 20
238.1055749999999
 30
0.0
 11
431.9283429999998
 21
238.1055749999999
 31
0.0
  0
LINE
  5
57C
330
19
100
AcDbEntity
  8
0
  6
HIDDEN
 62
     0
 48
10.0
100
AcDbLine
 10
463.728343
 20
205.208999
 30
0.0
 11
463.728343
 21
212.2299509999999
 31
0.0
  0
LINE
  5
57D
330
19
100
AcDbEntity
  8
0
  6
Continuous
 62
     0
100
AcDbLine
 10
143.7283429999999
 20
743.805575
 30
0.0
 11
473.7283429999997
 21
743.805575
 31
0.0
  0
LINE
  5
57E
330
19
100
AcDbEntity
  8
0
  6
Continuous
 62
     0
100
AcDbLine
 10
472.7283429999998
 20
744.605575
 30
0.0
 11
144.7283429999997
 21
744.605575
 31
0.0
  0
LINE
  5
57F
330
19
100
AcDbEntity
  8
0
  6
Continuous
 62
     0
100
AcDbLine
 10
473.7283429999997
 20
504.8055749999998
 30
0.0
 11
143.7283429999999
 21
504.8055749999998
 31
0.0
  0
LINE
  5
580
330
19
100
AcDbEntity
  8
0
  6
HIDDEN
 62
     0
 48
10.0
100
AcDbLine
 10
776.228343
 20
386.005575
 30
0.0
 11
776.228343
 21
230.605575
 31
0.0
  0
LINE
  5
581
330
19
100
AcDbEntity
  8
0
  6
Continuous
 62
     0
100
AcDbLine
 10
785.2283429999999
 20
195.305575
 30
0.0
 11
1023.228343
 21
195.305575
 31
0.0
  0
TEXT
  5
582
330
19
100
AcDbEntity
  8
0
  6
PHANTOM2
 62
     0
 48
10.0
100
AcDbText
 10
622.3911049999998
 20
292.149375
 30
0.0
 40
7.0
  1
100%%d
 41
0.714286
100
AcDbText
  0
LWPOLYLINE
  5
583
330
19
100
AcDbEntity
  8
0
  6
Continuous
 62
     0
100
AcDbPolyline
 90
       41
 70
     0
 43
0.0
 10
1034.142188
 20
202.9022219999999
 10
1032.974474
 20
202.3559559999999
 10
1031.933567
 20
201.78514
 10
1031.146276
 20
201.1652259999999
 10
1030.739408
 20
200.471665
 10
1030.849441
 20
199.530529
 10
1031.434050999999
 20
198.473124
 10
1032.254672
 20
197.321239
 10
1033.072742999999
 20
196.096662
 10
1033.698778999998
 20
194.788306
 10
1034.040373
 20
193.476185
 10
1034.068291999999
 20
192.2104129999999
 10
1033.753299
 20
191.0411029999999
 10
1033.136161
 20
190.038211
 10
1032.347566
 20
189.091574
 10
1031.556974999997
 20
188.123174
 10
1030.933853
 20
187.0549889999999
 10
1030.618968
 20
185.864449
 10
1030.608291
 20
184.6053219999999
 10
1030.881923
 20
183.380055
 10
1031.419964
 20
182.291097
 10
1032.069459999999
 20
181.515195
 10
1032.823392
 20
180.8288469999999
 10
1033.604777
 20
180.144457
 10
1034.336633
 20
179.374428
 10
1034.97455
 20
178.4065169999999
 10
1035.417936999998
 20
177.3309909999999
 10
1035.612338
 20
176.232044
 10
1035.5033
 20
175.19387
 10
1034.736164999997
 20
173.850809
 10
1033.530784999999
 20
172.671887
 10
1032.266523
 20
171.4900659999998
 10
1031.322742
 20
170.13831
 10
1031.034018
 20
169.0765429999999
 10
1031.025161
 20
167.941559
 10
1031.262317
 20
166.811201
 10
1031.711631
 20
165.7633069999999
 10
1032.417925
 20
164.7633879999998
 10
1033.289657999999
 20
163.912208
 10
1034.271684
 20
163.1601889999999
 10
1035.308856
 20
162.457749
  0
LINE
  5
5AE
330
19
100
AcDbEntity
  8
0
 62
     0
 48
10.0
370
    60
100
AcDbLine
 10
1146.087332
 20
799.955269
 30
0.0
 11
43.087332
 21
799.955269
 31
0.0
  0
POINT
  5
5AF
330
19
100
AcDbEntity
  8
0
  6
Continuous
 62
     0
100
AcDbPoint
 10
342.728343
 20
297.3055749999998
 30
0.0
  0
POINT
  5
5B0
330
19
100
AcDbEntity
  8
0
  6
Continuous
 62
     0
100
AcDbPoint
 10
322.7283429999999
 20
297.3055749999998
 30
0.0
  0
POINT
  5
5B1
330
19
100
AcDbEntity
  8
0
  6
Continuous
 62
     0
100
AcDbPoint
 10
342.728343
 20
319.3055749999998
 30
0.0
  0
POINT
  5
5B2
330
19
100
AcDbEntity
  8
0
  6
Continuous
 62
     0
100
AcDbPoint
 10
322.7283429999999
 20
319.3055749999998
 30
0.0
  0
POINT
  5
5B3
330
19
100
AcDbEntity
  8
0
  6
Continuous
 62
     0
100
AcDbPoint
 10
342.728343
 20
306.3055749999997
 30
0.0
  0
POINT
  5
5B4
330
19
100
AcDbEntity
  8
0
  6
Continuous
 62
     0
100
AcDbPoint
 10
322.7283429999999
 20
306.3055749999997
 30
0.0
  0
POINT
  5
5B5
330
19
100
AcDbEntity
  8
0
  6
Continuous
 62
     0
100
AcDbPoint
 10
342.728343
 20
310.3055749999998
 30
0.0
  0
POINT
  5
5B6
330
19
100
AcDbEntity
  8
0
  6
Continuous
 62
     0
100
AcDbPoint
 10
322.7283429999999
 20
310.3055749999998
 30
0.0
  0
POINT
  5
5B7
330
19
100
AcDbEntity
  8
0
  6
Continuous
 62
     0
100
AcDbPoint
 10
344.728343
 20
308.3055749999997
 30
0.0
  0
POINT
  5
5B8
330
19
100
AcDbEntity
  8
0
  6
Continuous
 62
     0
100
AcDbPoint
 10
324.7283429999999
 20
308.3055749999997
 30
0.0
  0
POINT
  5
5B9
330
19
100
AcDbEntity
  8
0
  6
Continuous
 62
     0
100
AcDbPoint
 10
340.728343
 20
308.3055749999997
 30
0.0
  0
POINT
  5
5BA
330
19
100
AcDbEntity
  8
0
  6
Continuous
 62
     0
100
AcDbPoint
 10
320.7283429999999
 20
308.3055749999997
 30
0.0
  0
POINT
  5
5BB
330
19
100
AcDbEntity
  8
0
  6
Continuous
 62
     0
100
AcDbPoint
 10
344.728343
 20
328.3055749999998
 30
0.0
  0
POINT
  5
5BC
330
19
100
AcDbEntity
  8
0
  6
Continuous
 62
     0
100
AcDbPoint
 10
340.728343
 20
328.3055749999998
 30
0.0
  0
POINT
  5
5BD
330
19
100
AcDbEntity
  8
0
  6
Continuous
 62
     0
100
AcDbPoint
 10
324.7283429999999
 20
328.3055749999998
 30
0.0
  0
POINT
  5
5BE
330
19
100
AcDbEntity
  8
0
  6
Continuous
 62
     0
100
AcDbPoint
 10
320.7283429999999
 20
328.3055749999998
 30
0.0
  0
POINT
  5
5BF
330
19
100
AcDbEntity
  8
0
  6
Continuous
 62
     0
100
AcDbPoint
 10
344.728343
 20
323.3055749999998
 30
0.0
  0
POINT
  5
5C0
330
19
100
AcDbEntity
  8
0
  6
Continuous
 62
     0
100
AcDbPoint
 10
324.7283429999999
 20
323.3055749999998
 30
0.0
  0
POINT
  5
5C1
330
19
100
AcDbEntity
  8
0
  6
Continuous
 62
     0
100
AcDbPoint
 10
340.728343
 20
323.3055749999998
 30
0.0
  0
POINT
  5
5C2
330
19
100
AcDbEntity
  8
0
  6
Continuous
 62
     0
100
AcDbPoint
 10
320.7283429999999
 20
323.3055749999998
 30
0.0
  0
POINT
  5
5C3
330
19
100
AcDbEntity
  8
0
  6
Continuous
 62
     0
100
AcDbPoint
 10
327.2283429999998
 20
276.8055749999999
 30
0.0
  0
POINT
  5
5C4
330
19
100
AcDbEntity
  8
0
  6
Continuous
 62
     0
100
AcDbPoint
 10
327.2283429999998
 20
280.8055749999999
 30
0.0
  0
POINT
  5
5C5
330
19
100
AcDbEntity
  8
0
  6
Continuous
 62
     0
100
AcDbPoint
 10
338.228343
 20
276.8055749999999
 30
0.0
  0
POINT
  5
5C6
330
19
100
AcDbEntity
  8
0
  6
Continuous
 62
     0
100
AcDbPoint
 10
338.228343
 20
280.8055749999999
 30
0.0
  0
POINT
  5
5C7
330
19
100
AcDbEntity
  8
0
  6
Continuous
 62
     0
100
AcDbPoint
 10
332.728343
 20
276.8055749999999
 30
0.0
  0
POINT
  5
5C8
330
19
100
AcDbEntity
  8
0
  6
Continuous
 62
     0
100
AcDbPoint
 10
332.728343
 20
280.8055749999999
 30
0.0
  0
POINT
  5
5C9
330
19
100
AcDbEntity
  8
0
  6
Continuous
 62
     0
100
AcDbPoint
 10
332.728343
 20
279.3055749999999
 30
0.0
  0
POINT
  5
5CA
330
19
100
AcDbEntity
  8
0
  6
Continuous
 62
     0
100
AcDbPoint
 10
343.228343
 20
278.3055749999999
 30
0.0
  0
POINT
  5
5CB
330
19
100
AcDbEntity
  8
0
  6
Continuous
 62
     0
100
AcDbPoint
 10
322.228343
 20
278.3055749999999
 30
0.0
  0
POINT
  5
5CC
330
19
100
AcDbEntity
  8
0
  6
Continuous
 62
     0
100
AcDbPoint
 10
343.228343
 20
288.305575
 30
0.0
  0
POINT
  5
5CD
330
19
100
AcDbEntity
  8
0
  6
Continuous
 62
     0
100
AcDbPoint
 10
323.2283429999998
 20
288.305575
 30
0.0
  0
POINT
  5
5CE
330
19
100
AcDbEntity
  8
0
  6
Continuous
 62
     0
100
AcDbPoint
 10
342.228343
 20
288.305575
 30
0.0
  0
POINT
  5
5CF
330
19
100
AcDbEntity
  8
0
  6
Continuous
 62
     0
100
AcDbPoint
 10
322.228343
 20
288.305575
 30
0.0
  0
POINT
  5
5D0
330
19
100
AcDbEntity
  8
0
  6
Continuous
 62
     0
100
AcDbPoint
 10
344.728343
 20
288.305575
 30
0.0
  0
POINT
  5
5D1
330
19
100
AcDbEntity
  8
0
  6
Continuous
 62
     0
100
AcDbPoint
 10
340.728343
 20
288.305575
 30
0.0
  0
POINT
  5
5D2
330
19
100
AcDbEntity
  8
0
  6
Continuous
 62
     0
100
AcDbPoint
 10
324.7283429999999
 20
288.305575
 30
0.0
  0
POINT
  5
5D3
330
19
100
AcDbEntity
  8
0
  6
Continuous
 62
     0
100
AcDbPoint
 10
320.7283429999999
 20
288.305575
 30
0.0
  0
POINT
  5
5D4
330
19
100
AcDbEntity
  8
0
  6
Continuous
 62
     0
100
AcDbPoint
 10
324.7283429999999
 20
293.3055749999997
 30
0.0
  0
POINT
  5
5D5
330
19
100
AcDbEntity
  8
0
  6
Continuous
 62
     0
100
AcDbPoint
 10
344.728343
 20
293.3055749999997
 30
0.0
  0
POINT
  5
5D6
330
19
100
AcDbEntity
  8
0
  6
Continuous
 62
     0
100
AcDbPoint
 10
320.7283429999999
 20
293.3055749999997
 30
0.0
  0
POINT
  5
5D7
330
19
100
AcDbEntity
  8
0
  6
Continuous
 62
     0
100
AcDbPoint
 10
340.728343
 20
293.3055749999997
 30
0.0
  0
POINT
  5
5D8
330
19
100
AcDbEntity
  8
0
  6
Continuous
 62
     0
100
AcDbPoint
 10
346.978343
 20
297.5555749999998
 30
0.0
  0
POINT
  5
5D9
330
19
100
AcDbEntity
  8
0
  6
Continuous
 62
     0
100
AcDbPoint
 10
338.478343
 20
297.5555749999998
 30
0.0
  0
POINT
  5
5DA
330
19
100
AcDbEntity
  8
0
  6
Continuous
 62
     0
100
AcDbPoint
 10
326.9783429999999
 20
297.5555749999998
 30
0.0
  0
POINT
  5
5DB
330
19
100
AcDbEntity
  8
0
  6
Continuous
 62
     0
100
AcDbPoint
 10
318.4783429999999
 20
297.5555749999998
 30
0.0
  0
POINT
  5
5DC
330
19
100
AcDbEntity
  8
0
  6
Continuous
 62
     0
100
AcDbPoint
 10
326.9783429999999
 20
323.3055749999998
 30
0.0
  0
POINT
  5
5DD
330
19
100
AcDbEntity
  8
0
  6
Continuous
 62
     0
100
AcDbPoint
 10
346.978343
 20
323.3055749999998
 30
0.0
  0
POINT
  5
5DE
330
19
100
AcDbEntity
  8
0
  6
Continuous
 62
     0
100
AcDbPoint
 10
318.4783429999999
 20
323.3055749999998
 30
0.0
  0
POINT
  5
5DF
330
19
100
AcDbEntity
  8
0
  6
Continuous
 62
     0
100
AcDbPoint
 10
338.478343
 20
323.3055749999998
 30
0.0
  0
POINT
  5
5E0
330
19
100
AcDbEntity
  8
0
  6
Continuous
 62
     0
100
AcDbPoint
 10
342.728343
 20
293.3055749999997
 30
0.0
  0
POINT
  5
5E1
330
19
100
AcDbEntity
  8
0
  6
Continuous
 62
     0
100
AcDbPoint
 10
322.7283429999999
 20
293.3055749999997
 30
0.0
  0
POINT
  5
5E2
330
19
100
AcDbEntity
  8
0
  6
Continuous
 62
     0
100
AcDbPoint
 10
342.728343
 20
323.3055749999998
 30
0.0
  0
POINT
  5
5E3
330
19
100
AcDbEntity
  8
0
  6
Continuous
 62
     0
100
AcDbPoint
 10
322.7283429999999
 20
323.3055749999998
 30
0.0
  0
POINT
  5
5E4
330
19
100
AcDbEntity
  8
0
  6
Continuous
 62
     0
100
AcDbPoint
 10
342.728343
 20
308.3055749999997
 30
0.0
  0
POINT
  5
5E5
330
19
100
AcDbEntity
  8
0
  6
Continuous
 62
     0
100
AcDbPoint
 10
322.7283429999999
 20
308.3055749999997
 30
0.0
  0
POINT
  5
5E6
330
19
100
AcDbEntity
  8
0
  6
Continuous
 62
     0
100
AcDbPoint
 10
349.7283429999998
 20
302.805575
 30
0.0
  0
POINT
  5
5E7
330
19
100
AcDbEntity
  8
0
  6
Continuous
 62
     0
100
AcDbPoint
 10
315.728343
 20
302.805575
 30
0.0
  0
POINT
  5
5E8
330
19
100
AcDbEntity
  8
0
  6
Continuous
 62
     0
100
AcDbPoint
 10
349.7283429999998
 20
313.8055749999998
 30
0.0
  0
POINT
  5
5E9
330
19
100
AcDbEntity
  8
0
  6
Continuous
 62
     0
100
AcDbPoint
 10
315.728343
 20
313.8055749999998
 30
0.0
  0
POINT
  5
5EA
330
19
100
AcDbEntity
  8
0
  6
Continuous
 62
     0
100
AcDbPoint
 10
349.7283429999998
 20
308.3055749999997
 30
0.0
  0
POINT
  5
5EB
330
19
100
AcDbEntity
  8
0
  6
Continuous
 62
     0
100
AcDbPoint
 10
315.728343
 20
308.3055749999997
 30
0.0
  0
POINT
  5
5EC
330
19
100
AcDbEntity
  8
0
  6
Continuous
 62
     0
100
AcDbPoint
 10
309.628343
 20
304.3055749999997
 30
0.0
  0
POINT
  5
5ED
330
19
100
AcDbEntity
  8
0
  6
Continuous
 62
     0
100
AcDbPoint
 10
277.828343
 20
304.3055749999997
 30
0.0
  0
POINT
  5
5EE
330
19
100
AcDbEntity
  8
0
  6
Continuous
 62
     0
100
AcDbPoint
 10
309.628343
 20
312.3055749999998
 30
0.0
  0
POINT
  5
5EF
330
19
100
AcDbEntity
  8
0
  6
Continuous
 62
     0
100
AcDbPoint
 10
277.828343
 20
312.3055749999998
 30
0.0
  0
POINT
  5
5F0
330
19
100
AcDbEntity
  8
0
  6
Continuous
 62
     0
100
AcDbPoint
 10
293.7283429999999
 20
298.4055749999999
 30
0.0
  0
POINT
  5
5F1
330
19
100
AcDbEntity
  8
0
  6
Continuous
 62
     0
100
AcDbPoint
 10
293.7283429999999
 20
318.2055749999999
 30
0.0
  0
POINT
  5
5F2
330
19
100
AcDbEntity
  8
0
  6
Continuous
 62
     0
100
AcDbPoint
 10
309.628343
 20
308.3055749999997
 30
0.0
  0
POINT
  5
5F3
330
19
100
AcDbEntity
  8
0
  6
Continuous
 62
     0
100
AcDbPoint
 10
277.828343
 20
308.3055749999997
 30
0.0
  0
POINT
  5
5F4
330
19
100
AcDbEntity
  8
0
  6
Continuous
 62
     0
100
AcDbPoint
 10
332.728343
 20
308.3055749999997
 30
0.0
  0
POINT
  5
5F5
330
19
100
AcDbEntity
  8
0
  6
Continuous
 62
     0
100
AcDbPoint
 10
293.7283429999999
 20
308.3055749999997
 30
0.0
  0
POINT
  5
5F6
330
19
100
AcDbEntity
  8
0
  6
Continuous
 62
     0
100
AcDbPoint
 10
361.228343
 20
283.3055749999997
 30
0.0
  0
POINT
  5
5F7
330
19
100
AcDbEntity
  8
0
  6
Continuous
 62
     0
100
AcDbPoint
 10
256.2283429999999
 20
283.3055749999997
 30
0.0
  0
POINT
  5
5F8
330
19
100
AcDbEntity
  8
0
  6
Continuous
 62
     0
100
AcDbPoint
 10
361.228343
 20
333.3055749999997
 30
0.0
  0
POINT
  5
5F9
330
19
100
AcDbEntity
  8
0
  6
Continuous
 62
     0
100
AcDbPoint
 10
256.2283429999999
 20
333.3055749999997
 30
0.0
  0
POINT
  5
5FA
330
19
100
AcDbEntity
  8
0
  6
Continuous
 62
     0
100
AcDbPoint
 10
361.228343
 20
308.3055749999997
 30
0.0
  0
POINT
  5
5FB
330
19
100
AcDbEntity
  8
0
  6
Continuous
 62
     0
100
AcDbPoint
 10
256.2283429999999
 20
308.3055749999997
 30
0.0
  0
POINT
  5
5FC
330
19
100
AcDbEntity
  8
0
  6
Continuous
 62
     0
100
AcDbPoint
 10
973.7283429999999
 20
295.8055749999997
 30
0.0
  0
POINT
  5
5FD
330
19
100
AcDbEntity
  8
0
  6
Continuous
 62
     0
100
AcDbPoint
 10
971.728343
 20
295.8055749999997
 30
0.0
  0
POINT
  5
5FE
330
19
100
AcDbEntity
  8
0
  6
Continuous
 62
     0
100
AcDbPoint
 10
973.228343
 20
298.3055749999997
 30
0.0
  0
POINT
  5
5FF
330
19
100
AcDbEntity
  8
0
  6
Continuous
 62
     0
100
AcDbPoint
 10
973.228343
 20
318.3055749999998
 30
0.0
  0
POINT
  5
600
330
19
100
AcDbEntity
  8
0
  6
Continuous
 62
     0
100
AcDbPoint
 10
971.2283429999999
 20
298.3055749999997
 30
0.0
  0
POINT
  5
601
330
19
100
AcDbEntity
  8
0
  6
Continuous
 62
     0
100
AcDbPoint
 10
971.2283429999999
 20
318.3055749999998
 30
0.0
  0
POINT
  5
602
330
19
100
AcDbEntity
  8
0
  6
Continuous
 62
     0
100
AcDbPoint
 10
971.2283429999999
 20
303.3055749999998
 30
0.0
  0
POINT
  5
603
330
19
100
AcDbEntity
  8
0
  6
Continuous
 62
     0
100
AcDbPoint
 10
961.2283429999999
 20
303.3055749999998
 30
0.0
  0
POINT
  5
604
330
19
100
AcDbEntity
  8
0
  6
Continuous
 62
     0
100
AcDbPoint
 10
971.2283429999999
 20
313.305575
 30
0.0
  0
POINT
  5
605
330
19
100
AcDbEntity
  8
0
  6
Continuous
 62
     0
100
AcDbPoint
 10
961.2283429999999
 20
313.305575
 30
0.0
  0
POINT
  5
606
330
19
100
AcDbEntity
  8
0
  6
Continuous
 62
     0
100
AcDbPoint
 10
971.2283429999999
 20
308.3055749999997
 30
0.0
  0
POINT
  5
607
330
19
100
AcDbEntity
  8
0
  6
Continuous
 62
     0
100
AcDbPoint
 10
961.2283429999999
 20
308.3055749999997
 30
0.0
  0
POINT
  5
608
330
19
100
AcDbEntity
  8
0
  6
Continuous
 62
     0
100
AcDbPoint
 10
991.228343
 20
238.305575
 30
0.0
  0
POINT
  5
609
330
19
100
AcDbEntity
  8
0
  6
Continuous
 62
     0
100
AcDbPoint
 10
991.228343
 20
333.3055749999997
 30
0.0
  0
POINT
  5
60A
330
19
100
AcDbEntity
  8
0
  6
Continuous
 62
     0
100
AcDbPoint
 10
942.4101610000001
 20
237.305575
 30
0.0
  0
POINT
  5
60B
330
19
100
AcDbEntity
  8
0
  6
Continuous
 62
     0
100
AcDbPoint
 10
942.4101610000001
 20
236.305575
 30
0.0
  0
POINT
  5
60C
330
19
100
AcDbEntity
  8
0
  6
Continuous
 62
     0
100
AcDbPoint
 10
941.4101610000001
 20
237.305575
 30
0.0
  0
POINT
  5
60D
330
19
100
AcDbEntity
  8
0
  6
Continuous
 62
     0
100
AcDbPoint
 10
943.4101609999999
 20
237.305575
 30
0.0
  0
POINT
  5
60E
330
19
100
AcDbEntity
  8
0
  6
Continuous
 62
     0
100
AcDbPoint
 10
961.2283429999999
 20
283.3055749999997
 30
0.0
  0
POINT
  5
60F
330
19
100
AcDbEntity
  8
0
  6
Continuous
 62
     0
100
AcDbPoint
 10
961.2283429999999
 20
333.3055749999997
 30
0.0
  0
POINT
  5
610
330
19
100
AcDbEntity
  8
0
  6
Continuous
 62
     0
100
AcDbPoint
 10
959.728343
 20
283.3055749999997
 30
0.0
  0
POINT
  5
611
330
19
100
AcDbEntity
  8
0
  6
Continuous
 62
     0
100
AcDbPoint
 10
959.728343
 20
333.3055749999997
 30
0.0
  0
POINT
  5
612
330
19
100
AcDbEntity
  8
0
  6
Continuous
 62
     0
100
AcDbPoint
 10
958.228343
 20
283.3055749999997
 30
0.0
  0
POINT
  5
613
330
19
100
AcDbEntity
  8
0
  6
Continuous
 62
     0
100
AcDbPoint
 10
958.228343
 20
333.3055749999997
 30
0.0
  0
POINT
  5
614
330
19
100
AcDbEntity
  8
0
  6
Continuous
 62
     0
100
AcDbPoint
 10
1024.028343
 20
409.3055749999998
 30
0.0
  0
POINT
  5
615
330
19
100
AcDbEntity
  8
0
  6
Continuous
 62
     0
100
AcDbPoint
 10
1024.028343
 20
405.3055749999998
 30
0.0
  0
POINT
  5
616
330
19
100
AcDbEntity
  8
0
  6
Continuous
 62
     0
100
AcDbPoint
 10
1025.228342999999
 20
409.3055749999998
 30
0.0
  0
POINT
  5
617
330
19
100
AcDbEntity
  8
0
  6
Continuous
 62
     0
100
AcDbPoint
 10
1026.728343
 20
409.3055749999998
 30
0.0
  0
POINT
  5
618
330
19
100
AcDbEntity
  8
0
  6
Continuous
 62
     0
100
AcDbPoint
 10
1024.028343
 20
413.3055749999998
 30
0.0
  0
POINT
  5
619
330
19
100
AcDbEntity
  8
0
  6
Continuous
 62
     0
100
AcDbPoint
 10
308.7283429999998
 20
308.3055749999997
 30
0.0
  0
POINT
  5
61A
330
19
100
AcDbEntity
  8
0
  6
Continuous
 62
     0
100
AcDbPoint
 10
1024.028343
 20
409.3055749999998
 30
0.0
  0
POINT
  5
61B
330
19
100
AcDbEntity
  8
0
  6
Continuous
 62
     0
100
AcDbPoint
 10
958.228343
 20
308.3055749999997
 30
0.0
  0
POINT
  5
61C
330
19
100
AcDbEntity
  8
0
  6
Continuous
 62
     0
100
AcDbPoint
 10
942.4101610000001
 20
237.305575
 30
0.0
  0
POINT
  5
61D
330
19
100
AcDbEntity
  8
0
  6
Continuous
 62
     0
100
AcDbPoint
 10
974.228343
 20
292.3055749999998
 30
0.0
  0
POINT
  5
61E
330
19
100
AcDbEntity
  8
0
  6
Continuous
 62
     0
100
AcDbPoint
 10
277.828343
 20
308.3055749999997
 30
0.0
  0
POINT
  5
61F
330
19
100
AcDbEntity
  8
0
  6
Continuous
 62
     0
100
AcDbPoint
 10
277.828343
 20
308.3055749999997
 30
0.0
  0
POINT
  5
620
330
19
100
AcDbEntity
  8
0
  6
Continuous
 62
     0
100
AcDbPoint
 10
322.7283429999999
 20
288.305575
 30
0.0
  0
POINT
  5
621
330
19
100
AcDbEntity
  8
0
  6
Continuous
 62
     0
100
AcDbPoint
 10
342.728343
 20
288.305575
 30
0.0
  0
POINT
  5
622
330
19
100
AcDbEntity
  8
0
  6
Continuous
 62
     0
100
AcDbPoint
 10
332.728343
 20
278.8055749999999
 30
0.0
  0
POINT
  5
623
330
19
100
AcDbEntity
  8
0
  6
Continuous
 62
     0
100
AcDbPoint
 10
325.728343
 20
279.3055749999999
 30
0.0
  0
POINT
  5
624
330
19
100
AcDbEntity
  8
0
  6
Continuous
 62
     0
100
AcDbPoint
 10
325.728343
 20
278.3055749999999
 30
0.0
  0
POINT
  5
625
330
19
100
AcDbEntity
  8
0
  6
Continuous
 62
     0
100
AcDbPoint
 10
339.7283429999998
 20
278.3055749999999
 30
0.0
  0
POINT
  5
626
330
19
100
AcDbEntity
  8
0
  6
Continuous
 62
     0
100
AcDbPoint
 10
339.7283429999998
 20
279.3055749999999
 30
0.0
  0
POINT
  5
627
330
19
100
AcDbEntity
  8
0
  6
Continuous
 62
     0
100
AcDbPoint
 10
322.7283429999999
 20
330.3055749999998
 30
0.0
  0
POINT
  5
628
330
19
100
AcDbEntity
  8
0
  6
Continuous
 62
     0
100
AcDbPoint
 10
342.728343
 20
330.3055749999998
 30
0.0
  0
POINT
  5
629
330
19
100
AcDbEntity
  8
0
  6
Continuous
 62
     0
100
AcDbPoint
 10
322.7283429999999
 20
328.3055749999998
 30
0.0
  0
POINT
  5
62A
330
19
100
AcDbEntity
  8
0
  6
Continuous
 62
     0
100
AcDbPoint
 10
342.728343
 20
328.3055749999998
 30
0.0
  0
POINT
  5
62B
330
19
100
AcDbEntity
  8
0
  6
Continuous
 62
     0
100
AcDbPoint
 10
308.7283429999998
 20
333.3055749999997
 30
0.0
  0
POINT
  5
62C
330
19
100
AcDbEntity
  8
0
  6
Continuous
 62
     0
100
AcDbPoint
 10
308.7283429999998
 20
283.3055749999997
 30
0.0
  0
POINT
  5
62D
330
19
100
AcDbEntity
  8
0
  6
Continuous
 62
     0
100
AcDbPoint
 10
967.121915
 20
333.4696649999999
 30
0.0
  0
POINT
  5
62E
330
19
100
AcDbEntity
  8
0
  6
Continuous
 62
     0
100
AcDbPoint
 10
1146.087332
 20
39.9553
 30
0.0
  0
POINT
  5
62F
330
19
100
AcDbEntity
  8
0
  6
Continuous
 62
     0
100
AcDbPoint
 10
1146.087332
 20
39.9553
 30
0.0
  0
POINT
  5
630
330
19
100
AcDbEntity
  8
0
  6
Continuous
 62
     0
100
AcDbPoint
 10
1044.587332
 20
67.95529999999999
 30
0.0
  0
POINT
  5
631
330
19
100
AcDbEntity
  8
0
  6
Continuous
 62
     0
100
AcDbPoint
 10
981.5873319999999
 20
87.95529999999997
 30
0.0
  0
POINT
  5
632
330
19
100
AcDbEntity
  8
0
  6
Continuous
 62
     0
100
AcDbPoint
 10
1013.087332
 20
67.95529999999999
 30
0.0
  0
POINT
  5
633
330
19
100
AcDbEntity
  8
0
  6
Continuous
 62
     0
100
AcDbPoint
 10
981.5873319999999
 20
67.95529999999999
 30
0.0
  0
POINT
  5
634
330
19
100
AcDbEntity
  8
0
  6
Continuous
 62
     0
100
AcDbPoint
 10
918.587332
 20
87.95529999999997
 30
0.0
  0
POINT
  5
635
330
19
100
AcDbEntity
  8
0
  6
Continuous
 62
     0
100
AcDbPoint
 10
918.587332
 20
75.9553
 30
0.0
  0
POINT
  5
636
330
19
100
AcDbEntity
  8
0
  6
Continuous
 62
     0
100
AcDbPoint
 10
918.587332
 20
63.9553
 30
0.0
  0
POINT
  5
637
330
19
100
AcDbEntity
  8
0
  6
Continuous
 62
     0
100
AcDbPoint
 10
918.587332
 20
51.9553
 30
0.0
  0
POINT
  5
638
330
19
100
AcDbEntity
  8
0
  6
Continuous
 62
     0
100
AcDbPoint
 10
918.587332
 20
87.95529999999997
 30
0.0
  0
POINT
  5
639
330
19
100
AcDbEntity
  8
0
  6
Continuous
 62
     0
100
AcDbPoint
 10
870.587332
 20
87.95529999999997
 30
0.0
  0
POINT
  5
63A
330
19
100
AcDbEntity
  8
0
  6
Continuous
 62
     0
370
    40
100
AcDbPoint
 10
760.587332
 20
87.95529999999997
 30
0.0
  0
POINT
  5
63B
330
19
100
AcDbEntity
  8
0
  6
Continuous
 62
     0
100
AcDbPoint
 10
790.587332
 20
87.95529999999997
 30
0.0
  0
POINT
  5
63C
330
19
100
AcDbEntity
  8
0
  6
Continuous
 62
     0
100
AcDbPoint
 10
43.087332
 20
75.9553
 30
0.0
  0
POINT
  5
63D
330
19
100
AcDbEntity
  8
0
  6
Continuous
 62
     0
100
AcDbPoint
 10
43.087332
 20
63.9553
 30
0.0
  0
POINT
  5
63E
330
19
100
AcDbEntity
  8
0
  6
Continuous
 62
     0
100
AcDbPoint
 10
43.087332
 20
87.95529999999997
 30
0.0
  0
POINT
  5
63F
330
19
100
AcDbEntity
  8
0
  6
Continuous
 62
     0
100
AcDbPoint
 10
1146.087332
 20
799.955269
 30
0.0
  0
POINT
  5
640
330
19
100
AcDbEntity
  8
0
  6
Continuous
 62
     0
100
AcDbPoint
 10
43.087332
 20
39.9553
 30
0.0
  0
POINT
  5
641
330
19
100
AcDbEntity
  8
0
  6
Continuous
 62
     0
100
AcDbPoint
 10
373.087332
 20
99.9553
 30
0.0
  0
LINE
  5
642
330
19
100
AcDbEntity
  8
0
  6
Continuous
 62
     0
100
AcDbLine
 10
192.329371
 20
101.842235
 30
0.0
 11
225.9935129999999
 21
101.842235
 31
0.0
  0
LINE
  5
643
330
19
100
AcDbEntity
  8
0
  6
Continuous
 62
     0
100
AcDbLine
 10
521.381278
 20
101.733613
 30
0.0
 11
549.374399
 21
101.733613
 31
0.0
  0
LINE
  5
644
330
19
100
AcDbEntity
  8
0
  6
Continuous
 62
     0
370
    40
100
AcDbLine
 10
760.587332
 20
87.95529999999997
 30
0.0
 11
760.587332
 21
39.9553
 31
0.0
  0
LINE
  5
645
330
19
100
AcDbEntity
  8
0
  6
Continuous
 62
     0
370
    40
100
AcDbLine
 10
703.087332
 20
111.9553
 30
0.0
 11
703.087332
 21
39.9553
 31
0.0
  0
LINE
  5
646
330
19
100
AcDbEntity
  8
0
  6
Continuous
 62
     0
100
AcDbLine
 10
593.087332
 20
99.9553
 30
0.0
 11
593.087332
 21
39.9553
 31
0.0
  0
LINE
  5
647
330
19
100
AcDbEntity
  8
0
  6
Continuous
 62
     0
100
AcDbLine
 10
918.587332
 20
87.95529999999997
 30
0.0
 11
918.587332
 21
39.9553
 31
0.0
  0
LINE
  5
648
330
19
100
AcDbEntity
  8
0
  6
Continuous
 62
     0
100
AcDbLine
 10
918.587332
 20
51.9553
 30
0.0
 11
981.5873319999999
 21
51.9553
 31
0.0
  0
LINE
  5
649
330
19
100
AcDbEntity
  8
0
  6
Continuous
 62
     0
100
AcDbLine
 10
992.092652
 20
69.66324300000001
 30
0.0
 11
1002.106500999998
 21
79.677092
 31
0.0
  0
LINE
  5
64A
330
19
100
AcDbEntity
  8
0
  6
Continuous
 62
     0
100
AcDbLine
 10
981.5873319999999
 20
67.95529999999999
 30
0.0
 11
981.5873319999999
 21
87.95529999999997
 31
0.0
  0
LINE
  5
64B
330
19
100
AcDbEntity
  8
0
  6
Continuous
 62
     0
100
AcDbLine
 10
483.087332
 20
99.9553
 30
0.0
 11
483.087332
 21
39.9553
 31
0.0
  0
LINE
  5
64C
330
19
100
AcDbEntity
  8
0
  6
Continuous
 62
     0
100
AcDbLine
 10
373.087332
 20
111.9553
 30
0.0
 11
373.087332
 21
39.9553
 31
0.0
  0
LINE
  5
64D
330
19
100
AcDbEntity
  8
0
  6
Continuous
 62
     0
100
AcDbLine
 10
267.1658113098363
 20
99.9553
 30
0.0
 11
267.1658113098363
 21
39.9553
 31
0.0
  0
LINE
  5
64E
330
19
100
AcDbEntity
  8
0
  6
Continuous
 62
     0
100
AcDbLine
 10
1044.587332
 20
39.9553
 30
0.0
 11
1044.587332
 21
87.95529999999997
 31
0.0
  0
LINE
  5
64F
330
19
100
AcDbEntity
  8
0
  6
Continuous
 62
     0
100
AcDbLine
 10
1023.592652
 20
69.66324300000001
 30
0.0
 11
1033.606501
 21
79.677092
 31
0.0
  0
LINE
  5
650
330
19
100
AcDbEntity
  8
0
  6
Continuous
 62
     0
100
AcDbLine
 10
898.6794079999999
 20
39.9553
 30
0.0
 11
898.6794079999999
 21
81.95529999999996
 31
0.0
  0
LINE
  5
651
330
19
100
AcDbEntity
  8
0
  6
Continuous
 62
     0
100
AcDbLine
 10
870.587332
 20
81.95529999999996
 30
0.0
 11
918.587332
 21
81.95529999999996
 31
0.0
  0
LINE
  5
652
330
19
100
AcDbEntity
  8
0
  6
Continuous
 62
     0
100
AcDbLine
 10
870.587332
 20
75.9553
 30
0.0
 11
918.587332
 21
75.9553
 31
0.0
  0
LINE
  5
653
330
19
100
AcDbEntity
  8
0
  6
Continuous
 62
     0
100
AcDbLine
 10
870.587332
 20
69.95529999999999
 30
0.0
 11
918.587332
 21
69.95529999999999
 31
0.0
  0
LINE
  5
654
330
19
100
AcDbEntity
  8
0
  6
Continuous
 62
     0
100
AcDbLine
 10
870.587332
 20
63.9553
 30
0.0
 11
918.587332
 21
63.9553
 31
0.0
  0
LINE
  5
655
330
19
100
AcDbEntity
  8
0
  6
Continuous
 62
     0
100
AcDbLine
 10
870.587332
 20
57.9553
 30
0.0
 11
918.587332
 21
57.9553
 31
0.0
  0
LINE
  5
656
330
19
100
AcDbEntity
  8
0
  6
Continuous
 62
     0
100
AcDbLine
 10
870.587332
 20
51.9553
 30
0.0
 11
918.587332
 21
51.9553
 31
0.0
  0
LINE
  5
657
330
19
100
AcDbEntity
  8
0
  6
Continuous
 62
     0
100
AcDbLine
 10
870.587332
 20
45.9553
 30
0.0
 11
918.587332
 21
45.9553
 31
0.0
  0
LINE
  5
658
330
19
100
AcDbEntity
  8
0
  6
Continuous
 62
     0
100
AcDbLine
 10
870.587332
 20
51.9553
 30
0.0
 11
760.587332
 21
51.9553
 31
0.0
  0
LINE
  5
659
330
19
100
AcDbEntity
  8
0
  6
Continuous
 62
     0
100
AcDbLine
 10
870.587332
 20
63.9553
 30
0.0
 11
760.587332
 21
63.9553
 31
0.0
  0
LINE
  5
65A
330
19
100
AcDbEntity
  8
0
  6
Continuous
 62
     0
100
AcDbLine
 10
870.587332
 20
75.9553
 30
0.0
 11
760.587332
 21
75.9553
 31
0.0
  0
LINE
  5
65B
330
19
100
AcDbEntity
  8
0
  6
Continuous
 62
     0
100
AcDbLine
 10
790.587332
 20
87.95529999999997
 30
0.0
 11
790.587332
 21
39.9553
 31
0.0
  0
LINE
  5
65C
330
19
100
AcDbEntity
  8
0
  6
Continuous
 62
     0
100
AcDbLine
 10
1013.087332
 20
67.95529999999999
 30
0.0
 11
1013.087332
 21
87.95529999999997
 31
0.0
  0
LINE
  5
65D
330
19
100
AcDbEntity
  8
0
  6
Continuous
 62
     0
100
AcDbLine
 10
870.587332
 20
87.95529999999997
 30
0.0
 11
870.587332
 21
39.9553
 31
0.0
  0
LINE
  5
65E
330
19
100
AcDbEntity
  8
0
  6
Continuous
 62
     0
100
AcDbLine
 10
918.587332
 20
87.95529999999997
 30
0.0
 11
918.587332
 21
39.9553
 31
0.0
  0
LINE
  5
65F
330
19
100
AcDbEntity
  8
0
  6
Continuous
 62
     0
370
    40
100
AcDbLine
 10
760.587332
 20
87.95529999999997
 30
0.0
 11
1146.087332
 21
87.95529999999997
 31
0.0
  0
CIRCLE
  5
661
330
19
100
AcDbEntity
  8
0
  6
HIDDEN
 62
     0
 48
10.0
100
AcDbCircle
 10
342.728343
 20
319.3055749999998
 30
0.0
 40
1.199999999999999
  0
CIRCLE
  5
662
330
19
100
AcDbEntity
  8
0
  6
HIDDEN
 62
     0
 48
10.0
100
AcDbCircle
 10
322.7283429999999
 20
319.3055749999998
 30
0.0
 40
1.199999999999999
  0
CIRCLE
  5
663
330
19
100
AcDbEntity
  8
0
  6
HIDDEN
 62
     0
 48
10.0
100
AcDbCircle
 10
342.728343
 20
297.3055749999998
 30
0.0
 40
1.199999999999999
  0
CIRCLE
  5
664
330
19
100
AcDbEntity
  8
0
  6
HIDDEN
 62
     0
 48
10.0
100
AcDbCircle
 10
322.7283429999999
 20
297.3055749999998
 30
0.0
 40
1.199999999999999
  0
LINE
  5
665
330
19
100
AcDbEntity
  8
0
  6
HIDDEN
 62
     0
 48
10.0
100
AcDbLine
 10
322.7283429999999
 20
310.3055749999998
 30
0.0
 11
322.7283429999999
 21
306.3055749999997
 31
0.0
  0
LINE
  5
666
330
19
100
AcDbEntity
  8
0
  6
HIDDEN
 62
     0
 48
10.0
100
AcDbLine
 10
324.7283429999999
 20
308.3055749999997
 30
0.0
 11
320.7283429999999
 21
308.3055749999997
 31
0.0
  0
LINE
  5
667
330
19
100
AcDbEntity
  8
0
  6
HIDDEN
 62
     0
 48
10.0
100
AcDbLine
 10
342.728343
 20
310.3055749999998
 30
0.0
 11
342.728343
 21
306.3055749999997
 31
0.0
  0
LINE
  5
668
330
19
100
AcDbEntity
  8
0
  6
HIDDEN
 62
     0
 48
10.0
100
AcDbLine
 10
344.728343
 20
308.3055749999997
 30
0.0
 11
340.728343
 21
308.3055749999997
 31
0.0
  0
CIRCLE
  5
669
330
19
100
AcDbEntity
  8
0
  6
HIDDEN
 62
     0
 48
10.0
100
AcDbCircle
 10
342.728343
 20
328.3055749999998
 30
0.0
 40
1.0
  0
CIRCLE
  5
66A
330
19
100
AcDbEntity
  8
0
  6
HIDDEN
 62
     0
 48
10.0
100
AcDbCircle
 10
322.7283429999999
 20
328.3055749999998
 30
0.0
 40
1.0
  0
LINE
  5
66B
330
19
100
AcDbEntity
  8
0
  6
HIDDEN
 62
     0
 48
10.0
100
AcDbLine
 10
344.728343
 20
323.3055749999998
 30
0.0
 11
344.728343
 21
328.3055749999998
 31
0.0
  0
LINE
  5
66C
330
19
100
AcDbEntity
  8
0
  6
HIDDEN
 62
     0
 48
10.0
100
AcDbLine
 10
340.728343
 20
328.3055749999998
 30
0.0
 11
340.728343
 21
323.3055749999998
 31
0.0
  0
LINE
  5
66D
330
19
100
AcDbEntity
  8
0
  6
HIDDEN
 62
     0
 48
10.0
100
AcDbLine
 10
324.7283429999999
 20
323.3055749999998
 30
0.0
 11
324.7283429999999
 21
328.3055749999998
 31
0.0
  0
LINE
  5
66E
330
19
100
AcDbEntity
  8
0
  6
HIDDEN
 62
     0
 48
10.0
100
AcDbLine
 10
320.7283429999999
 20
328.3055749999998
 30
0.0
 11
320.7283429999999
 21
323.3055749999998
 31
0.0
  0
ARC
  5
66F
330
19
100
AcDbEntity
  8
0
  6
HIDDEN
 62
     0
 48
10.0
100
AcDbCircle
 10
342.728343
 20
328.3055749999998
 30
0.0
 40
2.0
100
AcDbArc
 50
0.0
 51
180.0
  0
ARC
  5
670
330
19
100
AcDbEntity
  8
0
  6
HIDDEN
 62
     0
 48
10.0
100
AcDbCircle
 10
322.7283429999999
 20
328.3055749999998
 30
0.0
 40
2.0
100
AcDbArc
 50
0.0
 51
180.0
  0
LINE
  5
671
330
19
100
AcDbEntity
  8
0
  6
HIDDEN
 62
     0
 48
10.0
100
AcDbLine
 10
339.7283429999998
 20
279.3055749999999
 30
0.0
 11
338.228343
 21
280.8055749999999
 31
0.0
  0
LINE
  5
672
330
19
100
AcDbEntity
  8
0
  6
HIDDEN
 62
     0
 48
10.0
100
AcDbLine
 10
338.228343
 20
276.8055749999999
 30
0.0
 11
339.7283429999998
 21
278.3055749999999
 31
0.0
  0
LINE
  5
673
330
19
100
AcDbEntity
  8
0
  6
HIDDEN
 62
     0
 48
10.0
100
AcDbLine
 10
325.728343
 20
278.3055749999999
 30
0.0
 11
327.2283429999998
 21
276.8055749999999
 31
0.0
  0
LINE
  5
674
330
19
100
AcDbEntity
  8
0
  6
HIDDEN
 62
     0
 48
10.0
100
AcDbLine
 10
327.2283429999998
 20
280.8055749999999
 30
0.0
 11
325.728343
 21
279.3055749999999
 31
0.0
  0
LINE
  5
675
330
19
100
AcDbEntity
  8
0
  6
HIDDEN
 62
     0
 48
10.0
100
AcDbLine
 10
339.7283429999998
 20
278.3055749999999
 30
0.0
 11
339.7283429999998
 21
279.3055749999999
 31
0.0
  0
LINE
  5
676
330
19
100
AcDbEntity
  8
0
  6
HIDDEN
 62
     0
 48
10.0
100
AcDbLine
 10
338.228343
 20
276.8055749999999
 30
0.0
 11
327.2283429999998
 21
276.8055749999999
 31
0.0
  0
LINE
  5
677
330
19
100
AcDbEntity
  8
0
  6
HIDDEN
 62
     0
 48
10.0
100
AcDbLine
 10
325.728343
 20
278.3055749999999
 30
0.0
 11
325.728343
 21
279.3055749999999
 31
0.0
  0
LINE
  5
678
330
19
100
AcDbEntity
  8
0
  6
HIDDEN
 62
     0
 48
10.0
100
AcDbLine
 10
338.228343
 20
280.8055749999999
 30
0.0
 11
327.2283429999998
 21
280.8055749999999
 31
0.0
  0
LINE
  5
679
330
19
100
AcDbEntity
  8
0
  6
HIDDEN
 62
     0
 48
10.0
100
AcDbLine
 10
342.228343
 20
280.305575
 30
0.0
 11
342.228343
 21
288.305575
 31
0.0
  0
ARC
  5
67A
330
19
100
AcDbEntity
  8
0
  6
HIDDEN
 62
     0
 48
10.0
100
AcDbCircle
 10
341.228343
 20
280.305575
 30
0.0
 40
1.0
100
AcDbArc
 50
270.0
 51
0.0
  0
LINE
  5
67B
330
19
100
AcDbEntity
  8
0
  6
HIDDEN
 62
     0
 48
10.0
100
AcDbLine
 10
323.2283429999998
 20
280.305575
 30
0.0
 11
323.2283429999998
 21
288.305575
 31
0.0
  0
ARC
  5
67C
330
19
100
AcDbEntity
  8
0
  6
HIDDEN
 62
     0
 48
10.0
100
AcDbCircle
 10
324.228343
 20
280.305575
 30
0.0
 40
1.0
100
AcDbArc
 50
180.0
 51
270.0
  0
LINE
  5
67D
330
19
100
AcDbEntity
  8
0
  6
HIDDEN
 62
     0
 48
10.0
100
AcDbLine
 10
325.728343
 20
279.3055749999999
 30
0.0
 11
324.228343
 21
279.3055749999999
 31
0.0
  0
LINE
  5
67E
330
19
100
AcDbEntity
  8
0
  6
HIDDEN
 62
     0
 48
10.0
100
AcDbLine
 10
339.7283429999998
 20
279.3055749999999
 30
0.0
 11
341.228343
 21
279.3055749999999
 31
0.0
  0
LINE
  5
67F
330
19
100
AcDbEntity
  8
0
  6
HIDDEN
 62
     0
 48
10.0
100
AcDbLine
 10
343.228343
 20
279.8055749999999
 30
0.0
 11
343.228343
 21
288.305575
 31
0.0
  0
ARC
  5
680
330
19
100
AcDbEntity
  8
0
  6
HIDDEN
 62
     0
 48
10.0
100
AcDbCircle
 10
341.7283429999999
 20
279.8055749999999
 30
0.0
 40
1.5
100
AcDbArc
 50
270.0
 51
0.0
  0
LINE
  5
681
330
19
100
AcDbEntity
  8
0
  6
HIDDEN
 62
     0
 48
10.0
100
AcDbLine
 10
325.728343
 20
278.3055749999999
 30
0.0
 11
323.728343
 21
278.3055749999999
 31
0.0
  0
LINE
  5
682
330
19
100
AcDbEntity
  8
0
  6
HIDDEN
 62
     0
 48
10.0
100
AcDbLine
 10
339.7283429999998
 20
278.3055749999999
 30
0.0
 11
341.7283429999999
 21
278.3055749999999
 31
0.0
  0
LINE
  5
683
330
19
100
AcDbEntity
  8
0
  6
HIDDEN
 62
     0
 48
10.0
100
AcDbLine
 10
322.228343
 20
279.8055749999999
 30
0.0
 11
322.228343
 21
288.305575
 31
0.0
  0
ARC
  5
684
330
19
100
AcDbEntity
  8
0
  6
HIDDEN
 62
     0
 48
10.0
100
AcDbCircle
 10
323.728343
 20
279.8055749999999
 30
0.0
 40
1.5
100
AcDbArc
 50
180.0
 51
270.0
  0
LINE
  5
685
330
19
100
AcDbEntity
  8
0
  6
HIDDEN
 62
     0
 48
10.0
100
AcDbLine
 10
344.728343
 20
288.305575
 30
0.0
 11
344.728343
 21
293.3055749999997
 31
0.0
  0
LINE
  5
686
330
19
100
AcDbEntity
  8
0
  6
HIDDEN
 62
     0
 48
10.0
100
AcDbLine
 10
340.728343
 20
288.305575
 30
0.0
 11
344.728343
 21
288.305575
 31
0.0
  0
LINE
  5
687
330
19
100
AcDbEntity
  8
0
  6
HIDDEN
 62
     0
 48
10.0
100
AcDbLine
 10
340.728343
 20
293.3055749999997
 30
0.0
 11
340.728343
 21
288.305575
 31
0.0
  0
LINE
  5
688
330
19
100
AcDbEntity
  8
0
  6
HIDDEN
 62
     0
 48
10.0
100
AcDbLine
 10
324.7283429999999
 20
288.305575
 30
0.0
 11
324.7283429999999
 21
293.3055749999997
 31
0.0
  0
LINE
  5
689
330
19
100
AcDbEntity
  8
0
  6
HIDDEN
 62
     0
 48
10.0
100
AcDbLine
 10
320.7283429999999
 20
288.305575
 30
0.0
 11
324.7283429999999
 21
288.305575
 31
0.0
  0
LINE
  5
68A
330
19
100
AcDbEntity
  8
0
  6
HIDDEN
 62
     0
 48
10.0
100
AcDbLine
 10
320.7283429999999
 20
293.3055749999997
 30
0.0
 11
320.7283429999999
 21
288.305575
 31
0.0
  0
ARC
  5
68B
330
19
100
AcDbEntity
  8
0
  6
HIDDEN
 62
     0
 48
10.0
100
AcDbCircle
 10
342.728343
 20
297.5555749999998
 30
0.0
 40
4.25
100
AcDbArc
 50
180.0
 51
0.0
  0
ARC
  5
68C
330
19
100
AcDbEntity
  8
0
  6
HIDDEN
 62
     0
 48
10.0
100
AcDbCircle
 10
322.7283429999999
 20
297.5555749999998
 30
0.0
 40
4.25
100
AcDbArc
 50
180.0
 51
0.0
  0
LINE
  5
68D
330
19
100
AcDbEntity
  8
0
  6
HIDDEN
 62
     0
 48
10.0
100
AcDbLine
 10
345.4783429999998
 20
323.3055749999998
 30
0.0
 11
339.9783429999998
 21
323.3055749999998
 31
0.0
  0
ARC
  5
68E
330
19
100
AcDbEntity
  8
0
  6
HIDDEN
 62
     0
 48
10.0
100
AcDbCircle
 10
345.4783429999998
 20
321.8055749999998
 30
0.0
 40
1.5
100
AcDbArc
 50
0.0
 51
90.0
  0
ARC
  5
68F
330
19
100
AcDbEntity
  8
0
  6
HIDDEN
 62
     0
 48
10.0
100
AcDbCircle
 10
339.9783429999998
 20
321.8055749999998
 30
0.0
 40
1.5
100
AcDbArc
 50
90.0
 51
180.0
  0
LINE
  5
690
330
19
100
AcDbEntity
  8
0
  6
HIDDEN
 62
     0
 48
10.0
100
AcDbLine
 10
346.978343
 20
321.8055749999998
 30
0.0
 11
346.978343
 21
313.8055749999998
 31
0.0
  0
LINE
  5
691
330
19
100
AcDbEntity
  8
0
  6
HIDDEN
 62
     0
 48
10.0
100
AcDbLine
 10
346.978343
 20
297.5555749999998
 30
0.0
 11
346.978343
 21
302.805575
 31
0.0
  0
LINE
  5
692
330
19
100
AcDbEntity
  8
0
  6
HIDDEN
 62
     0
 48
10.0
100
AcDbLine
 10
338.478343
 20
297.5555749999998
 30
0.0
 11
338.478343
 21
302.805575
 31
0.0
  0
LINE
  5
693
330
19
100
AcDbEntity
  8
0
  6
HIDDEN
 62
     0
 48
10.0
100
AcDbLine
 10
338.478343
 20
321.8055749999998
 30
0.0
 11
338.478343
 21
313.8055749999998
 31
0.0
  0
LINE
  5
694
330
19
100
AcDbEntity
  8
0
  6
HIDDEN
 62
     0
 48
10.0
100
AcDbLine
 10
326.9783429999999
 20
321.8055749999998
 30
0.0
 11
326.9783429999999
 21
313.8055749999998
 31
0.0
  0
LINE
  5
695
330
19
100
AcDbEntity
  8
0
  6
HIDDEN
 62
     0
 48
10.0
100
AcDbLine
 10
326.9783429999999
 20
297.5555749999998
 30
0.0
 11
326.9783429999999
 21
302.805575
 31
0.0
  0
LINE
  5
696
330
19
100
AcDbEntity
  8
0
  6
HIDDEN
 62
     0
 48
10.0
100
AcDbLine
 10
318.4783429999999
 20
297.5555749999998
 30
0.0
 11
318.4783429999999
 21
302.805575
 31
0.0
  0
LINE
  5
697
330
19
100
AcDbEntity
  8
0
  6
HIDDEN
 62
     0
 48
10.0
100
AcDbLine
 10
318.4783429999999
 20
321.8055749999998
 30
0.0
 11
318.4783429999999
 21
313.8055749999998
 31
0.0
  0
LINE
  5
698
330
19
100
AcDbEntity
  8
0
  6
HIDDEN
 62
     0
 48
10.0
100
AcDbLine
 10
325.4783429999998
 20
323.3055749999998
 30
0.0
 11
319.978343
 21
323.3055749999998
 31
0.0
  0
ARC
  5
699
330
19
100
AcDbEntity
  8
0
  6
HIDDEN
 62
     0
 48
10.0
100
AcDbCircle
 10
325.4783429999998
 20
321.8055749999998
 30
0.0
 40
1.5
100
AcDbArc
 50
0.0
 51
90.0
  0
ARC
  5
69A
330
19
100
AcDbEntity
  8
0
  6
HIDDEN
 62
     0
 48
10.0
100
AcDbCircle
 10
319.978343
 20
321.8055749999998
 30
0.0
 40
1.5
100
AcDbArc
 50
90.0
 51
180.0
  0
CIRCLE
  5
69B
330
19
100
AcDbEntity
  8
0
  6
HIDDEN
 62
     0
 48
10.0
100
AcDbCircle
 10
342.728343
 20
308.3055749999997
 30
0.0
 40
3.7
  0
CIRCLE
  5
69C
330
19
100
AcDbEntity
  8
0
  6
HIDDEN
 62
     0
 48
10.0
100
AcDbCircle
 10
322.7283429999999
 20
308.3055749999997
 30
0.0
 40
3.7
  0
LINE
  5
69D
330
19
100
AcDbEntity
  8
0
  6
HIDDEN
 62
     0
 48
10.0
100
AcDbLine
 10
337.7283429999998
 20
313.8055749999998
 30
0.0
 11
337.7283429999998
 21
302.805575
 31
0.0
  0
LINE
  5
69E
330
19
100
AcDbEntity
  8
0
  6
HIDDEN
 62
     0
 48
10.0
100
AcDbLine
 10
327.728343
 20
313.8055749999998
 30
0.0
 11
327.728343
 21
302.805575
 31
0.0
  0
CIRCLE
  5
69F
330
19
100
AcDbEntity
  8
0
  6
HIDDEN
 62
     0
 48
10.0
100
AcDbCircle
 10
332.728343
 20
308.3055749999997
 30
0.0
 40
2.35
  0
LINE
  5
6A0
330
19
100
AcDbEntity
  8
0
  6
HIDDEN
 62
     0
 48
10.0
100
AcDbLine
 10
349.7283429999998
 20
313.8055749999998
 30
0.0
 11
349.7283429999998
 21
302.805575
 31
0.0
  0
LINE
  5
6A1
330
19
100
AcDbEntity
  8
0
  6
HIDDEN
 62
     0
 48
10.0
100
AcDbLine
 10
315.728343
 20
302.805575
 30
0.0
 11
349.7283429999998
 21
302.805575
 31
0.0
  0
LINE
  5
6A2
330
19
100
AcDbEntity
  8
0
  6
HIDDEN
 62
     0
 48
10.0
100
AcDbLine
 10
315.728343
 20
313.8055749999998
 30
0.0
 11
315.728343
 21
302.805575
 31
0.0
  0
LINE
  5
6A3
330
19
100
AcDbEntity
  8
0
  6
HIDDEN
 62
     0
 48
10.0
100
AcDbLine
 10
349.7283429999998
 20
313.8055749999998
 30
0.0
 11
315.728343
 21
313.8055749999998
 31
0.0
  0
LINE
  5
6A4
330
19
100
AcDbEntity
  8
0
  6
HIDDEN
 62
     0
 48
10.0
100
AcDbLine
 10
287.270385
 20
300.801924
 30
0.0
 11
277.828343
 21
304.3055749999997
 31
0.0
  0
LINE
  5
6A5
330
19
100
AcDbEntity
  8
0
  6
HIDDEN
 62
     0
 48
10.0
100
AcDbLine
 10
300.186302
 20
300.801924
 30
0.0
 11
309.628343
 21
304.3055749999997
 31
0.0
  0
LINE
  5
6A6
330
19
100
AcDbEntity
  8
0
  6
HIDDEN
 62
     0
 48
10.0
100
AcDbLine
 10
300.186302
 20
315.809225
 30
0.0
 11
309.628343
 21
312.3055749999998
 31
0.0
  0
LINE
  5
6A7
330
19
100
AcDbEntity
  8
0
  6
HIDDEN
 62
     0
 48
10.0
100
AcDbLine
 10
287.270385
 20
315.809225
 30
0.0
 11
277.828343
 21
312.3055749999998
 31
0.0
  0
ARC
  5
6A8
330
19
100
AcDbEntity
  8
0
  6
HIDDEN
 62
     0
 48
10.0
100
AcDbCircle
 10
309.628343
 20
308.3055749999997
 30
0.0
 40
4.0
100
AcDbArc
 50
270.0
 51
90.0
  0
ARC
  5
6A9
330
19
100
AcDbEntity
  8
0
  6
HIDDEN
 62
     0
 48
10.0
100
AcDbCircle
 10
277.828343
 20
308.3055749999997
 30
0.0
 40
4.0
100
AcDbArc
 50
90.0
 51
180.0
  0
ARC
  5
6AA
330
19
100
AcDbEntity
  8
0
  6
HIDDEN
 62
     0
 48
10.0
100
AcDbCircle
 10
277.828343
 20
308.3055749999997
 30
0.0
 40
4.0
100
AcDbArc
 50
179.99996
 51
270.0
  0
ARC
  5
6AB
330
19
100
AcDbEntity
  8
0
  6
HIDDEN
 62
     0
 48
10.0
100
AcDbCircle
 10
293.7283429999999
 20
308.3055749999997
 30
0.0
 40
9.9
100
AcDbArc
 50
49.283324
 51
130.716676
  0
ARC
  5
6AC
330
19
100
AcDbEntity
  8
0
  6
HIDDEN
 62
     0
 48
10.0
100
AcDbCircle
 10
293.7283429999999
 20
308.3055749999997
 30
0.0
 40
9.9
100
AcDbArc
 50
229.2833239999999
 51
310.7166759999998
  0
CIRCLE
  5
6AD
330
19
100
AcDbEntity
  8
0
  6
HIDDEN
 62
     0
 48
10.0
100
AcDbCircle
 10
293.7283429999999
 20
308.3055749999997
 30
0.0
 40
8.5
  0
LINE
  5
6AE
330
19
100
AcDbEntity
  8
0
  6
HIDDEN
 62
     0
 48
10.0
100
AcDbLine
 10
351.7283429999998
 20
283.3055749999997
 30
0.0
 11
351.7283429999998
 21
333.3055749999997
 31
0.0
  0
LINE
  5
6AF
330
19
100
AcDbEntity
  8
0
  6
HIDDEN
 62
     0
 48
10.0
100
AcDbLine
 10
265.728343
 20
333.3055749999997
 30
0.0
 11
265.728343
 21
283.3055749999997
 31
0.0
  0
LINE
  5
6B0
330
19
100
AcDbEntity
  8
0
  6
HIDDEN
 62
     0
 48
10.0
100
AcDbLine
 10
361.228343
 20
283.3055749999997
 30
0.0
 11
361.228343
 21
333.3055749999997
 31
0.0
  0
LINE
  5
6B1
330
19
100
AcDbEntity
  8
0
  6
HIDDEN
 62
     0
 48
10.0
100
AcDbLine
 10
256.2283429999999
 20
283.3055749999997
 30
0.0
 11
361.228343
 21
283.3055749999997
 31
0.0
  0
LINE
  5
6B2
330
19
100
AcDbEntity
  8
0
  6
HIDDEN
 62
     0
 48
10.0
100
AcDbLine
 10
256.2283429999999
 20
333.3055749999997
 30
0.0
 11
256.2283429999999
 21
283.3055749999997
 31
0.0
  0
LINE
  5
6B3
330
19
100
AcDbEntity
  8
0
  6
HIDDEN
 62
     0
 48
10.0
100
AcDbLine
 10
361.228343
 20
333.3055749999997
 30
0.0
 11
256.2283429999999
 21
333.3055749999997
 31
0.0
  0
CIRCLE
  5
6B4
330
19
100
AcDbEntity
  8
0
  6
HIDDEN
 62
     0
 48
10.0
100
AcDbCircle
 10
974.228343
 20
292.3055749999998
 30
0.0
 40
2.0
  0
ARC
  5
6B5
330
19
100
AcDbEntity
  8
0
  6
HIDDEN
 62
     0
 48
10.0
100
AcDbCircle
 10
979.2283429999999
 20
298.6055749999998
 30
0.0
 40
8.005622999999998
100
AcDbArc
 50
182.147585
 51
217.247411
  0
ARC
  5
6B6
330
19
100
AcDbEntity
  8
0
  6
HIDDEN
 62
     0
 48
10.0
100
AcDbCircle
 10
981.228343
 20
298.6055749999998
 30
0.0
 40
8.005622999999998
100
AcDbArc
 50
182.147585
 51
212.629737
  0
LINE
  5
6B7
330
19
100
AcDbEntity
  8
0
  6
HIDDEN
 62
     0
 48
10.0
100
AcDbLine
 10
971.2283429999999
 20
298.3055749999997
 30
0.0
 11
971.2283429999999
 21
303.3055749999998
 31
0.0
  0
LINE
  5
6B8
330
19
100
AcDbEntity
  8
0
  6
HIDDEN
 62
     0
 48
10.0
100
AcDbLine
 10
973.228343
 20
298.3055749999997
 30
0.0
 11
971.2283429999999
 21
298.3055749999997
 31
0.0
  0
LINE
  5
6B9
330
19
100
AcDbEntity
  8
0
  6
HIDDEN
 62
     0
 48
10.0
100
AcDbLine
 10
973.228343
 20
318.3055749999998
 30
0.0
 11
973.228343
 21
298.3055749999997
 31
0.0
  0
LINE
  5
6BA
330
19
100
AcDbEntity
  8
0
  6
HIDDEN
 62
     0
 48
10.0
100
AcDbLine
 10
971.2283429999999
 20
318.3055749999998
 30
0.0
 11
973.228343
 21
318.3055749999998
 31
0.0
  0
LINE
  5
6BB
330
19
100
AcDbEntity
  8
0
  6
HIDDEN
 62
     0
 48
10.0
100
AcDbLine
 10
971.2283429999999
 20
313.305575
 30
0.0
 11
971.2283429999999
 21
318.3055749999998
 31
0.0
  0
LINE
  5
6BC
330
19
100
AcDbEntity
  8
0
  6
HIDDEN
 62
     0
 48
10.0
100
AcDbLine
 10
971.2283429999999
 20
303.3055749999998
 30
0.0
 11
961.2283429999999
 21
303.3055749999998
 31
0.0
  0
LINE
  5
6BD
330
19
100
AcDbEntity
  8
0
  6
HIDDEN
 62
     0
 48
10.0
100
AcDbLine
 10
971.2283429999999
 20
313.305575
 30
0.0
 11
971.2283429999999
 21
303.3055749999998
 31
0.0
  0
LINE
  5
6BE
330
19
100
AcDbEntity
  8
0
  6
HIDDEN
 62
     0
 48
10.0
100
AcDbLine
 10
961.2283429999999
 20
313.305575
 30
0.0
 11
971.2283429999999
 21
313.305575
 31
0.0
  0
LINE
  5
6BF
330
19
100
AcDbEntity
  8
0
  6
HIDDEN
 62
     0
 48
10.0
100
AcDbLine
 10
991.228343
 20
333.3055749999997
 30
0.0
 11
991.228343
 21
283.3055749999997
 31
0.0
  0
LINE
  5
6C0
330
19
100
AcDbEntity
  8
0
  6
HIDDEN
 62
     0
 48
10.0
100
AcDbLine
 10
961.2283429999999
 20
333.3055749999997
 30
0.0
 11
991.228343
 21
333.3055749999997
 31
0.0
  0
ARC
  5
6C1
330
19
100
AcDbEntity
  8
0
  6
HIDDEN
 62
     0
 48
10.0
100
AcDbCircle
 10
942.4101610000001
 20
237.305575
 30
0.0
 40
1.0
100
AcDbArc
 50
180.0
 51
0.0
  0
LINE
  5
6C2
330
19
100
AcDbEntity
  8
0
  6
HIDDEN
 62
     0
 48
10.0
100
AcDbLine
 10
959.728343
 20
283.3055749999997
 30
0.0
 11
959.728343
 21
333.3055749999997
 31
0.0
  0
LINE
  5
6C3
330
19
100
AcDbEntity
  8
0
  6
HIDDEN
 62
     0
 48
10.0
100
AcDbLine
 10
961.2283429999999
 20
283.3055749999997
 30
0.0
 11
958.228343
 21
283.3055749999997
 31
0.0
  0
LINE
  5
6C4
330
19
100
AcDbEntity
  8
0
  6
HIDDEN
 62
     0
 48
10.0
100
AcDbLine
 10
961.2283429999999
 20
333.3055749999997
 30
0.0
 11
961.2283429999999
 21
283.3055749999997
 31
0.0
  0
LINE
  5
6C5
330
19
100
AcDbEntity
  8
0
  6
HIDDEN
 62
     0
 48
10.0
100
AcDbLine
 10
958.228343
 20
333.3055749999997
 30
0.0
 11
961.2283429999999
 21
333.3055749999997
 31
0.0
  0
ARC
  5
6C6
330
19
100
AcDbEntity
  8
0
  6
Continuous
 62
     0
100
AcDbCircle
 10
1022.415379999997
 20
409.3055749999998
 30
0.0
 40
4.312962999999998
100
AcDbArc
 50
291.9613
 51
68.0387
  0
LINE
  5
6C7
330
19
100
AcDbEntity
  8
0
  6
Continuous
 62
     0
100
AcDbLine
 10
1025.228342999999
 20
409.3055749999998
 30
0.0
 11
1026.728343
 21
409.3055749999998
 31
0.0
  0
LINE
  5
6C9
330
19
100
AcDbEntity
  8
0
  6
Continuous
 62
     0
100
AcDbLine
 10
154.533409131707
 20
99.9553
 30
0.0
 11
154.533409131707
 21
39.9553
 31
0.0
  0
LINE
  5
6CA
330
19
100
AcDbEntity
  8
0
370
    60
100
AcDbLine
 10
1146.087332
 20
39.9553
 30
0.0
 11
43.087332
 21
39.9553
 31
0.0
  0
LINE
  5
6CB
330
19
100
AcDbEntity
  8
0
  6
Continuous
 62
     0
100
AcDbLine
 10
703.087332
 20
51.9553
 30
0.0
 11
43.087332
 21
51.9553
 31
0.0
  0
LINE
  5
6CC
330
19
100
AcDbEntity
  8
0
  6
Continuous
 62
     0
100
AcDbLine
 10
703.087332
 20
63.9553
 30
0.0
 11
43.087332
 21
63.9553
 31
0.0
  0
LINE
  5
6CD
330
19
100
AcDbEntity
  8
0
  6
Continuous
 62
     0
100
AcDbLine
 10
703.087332
 20
75.9553
 30
0.0
 11
43.087332
 21
75.9553
 31
0.0
  0
LINE
  5
6CE
330
19
100
AcDbEntity
  8
0
  6
Continuous
 62
     0
100
AcDbLine
 10
703.087332
 20
87.95529999999997
 30
0.0
 11
43.087332
 21
87.95529999999997
 31
0.0
  0
LINE
  5
6CF
330
19
100
AcDbEntity
  8
0
  6
Continuous
 62
     0
100
AcDbLine
 10
703.087332
 20
99.9553
 30
0.0
 11
43.087332
 21
99.9553
 31
0.0
  0
LINE
  5
6D0
330
19
100
AcDbEntity
  8
0
  6
Continuous
 62
     0
370
    40
100
AcDbLine
 10
703.087332
 20
111.9553
 30
0.0
 11
43.087332
 21
111.9553
 31
0.0
  0
LINE
  5
6D1
330
19
100
AcDbEntity
  8
0
  6
Continuous
 62
     0
100
AcDbLine
 10
918.587332
 20
75.9553
 30
0.0
 11
981.5873319999999
 21
75.9553
 31
0.0
  0
LINE
  5
6D2
330
19
100
AcDbEntity
  8
0
  6
Continuous
 62
     0
100
AcDbLine
 10
981.5873319999999
 20
67.95529999999999
 30
0.0
 11
981.5873319999999
 21
39.9553
 31
0.0
  0
LINE
  5
6D3
330
19
100
AcDbEntity
  8
0
  6
Continuous
 62
     0
100
AcDbLine
 10
918.587332
 20
63.9553
 30
0.0
 11
981.5873319999999
 21
63.9553
 31
0.0
  0
LINE
  5
6D6
330
19
100
AcDbEntity
  8
0
370
    60
100
AcDbLine
 10
43.087332
 20
799.95533
 30
0.0
 11
43.087332
 21
39.9553
 31
0.0
  0
LINE
  5
6D8
330
19
100
AcDbEntity
  8
0
  6
Continuous
 62
     0
100
AcDbLine
 10
981.5873319999999
 20
67.95529999999999
 30
0.0
 11
1146.087332
 21
67.95529999999999
 31
0.0
  0
LINE
  5
6D9
330
19
100
AcDbEntity
  8
0
370
    60
100
AcDbLine
 10
1146.087332
 20
39.9553
 30
0.0
 11
1146.087332
 21
799.955269
 31
0.0
  0
TEXT
  5
6DA
330
19
100
AcDbEntity
  8
0
  6
Continuous
 62
     0
100
AcDbText
 10
194.741259
 20
102.479329
 30
0.0
 40
7.0
  1
材質又は定格
 41
0.714286
100
AcDbText
  0
TEXT
  5
6DB
330
19
100
AcDbEntity
  8
0
  6
Continuous
 62
     0
100
AcDbText
 10
526.741259
 20
102.479329
 30
0.0
 40
7.0
  1
仕　　様
 41
0.714286
100
AcDbText
  0
TEXT
  5
6DC
330
19
100
AcDbEntity
  8
0
  6
Continuous
 62
     0
100
AcDbText
 10
340.9078604251615
 20
83.110198
 30
0.0
 40
3.0
  1
2
 41
0.666667
100
AcDbText
  0
TEXT
  5
6DD
330
19
100
AcDbEntity
  8
0
  6
Continuous
 62
     0
100
AcDbText
 10
412.2412589999998
 20
90.47932900000001
 30
0.0
 40
7.0
  1
固定サーモスタッド
 41
0.714286
100
AcDbText
  0
TEXT
  5
6DE
330
19
100
AcDbEntity
  8
0
  6
Continuous
 62
     0
100
AcDbText
 10
376.7412589999998
 20
90.47932900000001
 30
0.0
 40
7.0
  1
温度調節
 41
0.714286
100
AcDbText
  0
TEXT
  5
6DF
330
19
100
AcDbEntity
  8
0
  6
Continuous
 62
     0
100
AcDbText
 10
317.5865546431055
 20
90.47932900000001
 30
0.0
 40
7.0
  1
113℃　15A
 41
0.714286
100
AcDbText
  0
TEXT
  5
6E0
330
19
100
AcDbEntity
  8
0
  6
Continuous
 62
     0
100
AcDbText
 10
270.8197383098363
 20
90.47932900000001
 30
0.0
 40
7.0
  1
温度ヒューズ
 41
0.714286
100
AcDbText
  0
TEXT
  5
6E1
330
19
100
AcDbEntity
  8
0
  6
Continuous
 62
     0
100
AcDbText
 10
216.8274528390178
 20
90.47932900000001
 30
0.0
 40
7.0
  1
AC250V-15A
 41
0.714286
100
AcDbText
  0
TEXT
  5
6E2
330
19
100
AcDbEntity
  8
0
  6
Continuous
 62
     0
100
AcDbText
 10
157.4491944618736
 20
90.47932900000001
 30
0.0
 40
7.0
  1
電源スイッチ
 41
0.714286
100
AcDbText
  0
TEXT
  5
6E3
330
19
100
AcDbEntity
  8
0
  6
Continuous
 62
     0
100
AcDbText
 10
107.9536562895397
 20
90.47932900000001
 30
0.0
 40
7.0
  1
SPCC
 41
0.714286
100
AcDbText
  0
TEXT
  5
6E4
330
19
100
AcDbEntity
  8
0
  6
Continuous
 62
     0
100
AcDbText
 10
46.74125899999999
 20
90.47932900000001
 30
0.0
 40
7.0
  1
本体
 41
0.714286
100
AcDbText
  0
TEXT
  5
6E5
330
19
100
AcDbEntity
  8
0
  6
Continuous
 62
     0
100
AcDbText
 10
412.2412589999998
 20
78.479329
 30
0.0
 40
7.0
  1
65℃～75℃
 41
0.714286
100
AcDbText
  0
TEXT
  5
6E6
330
19
100
AcDbEntity
  8
0
  6
Continuous
 62
     0
100
AcDbText
 10
376.7412589999998
 20
78.479329
 30
0.0
 40
7.0
  1
庫内温度
 41
0.714286
100
AcDbText
  0
TEXT
  5
6E7
330
19
100
AcDbEntity
  8
0
  6
Continuous
 62
     0
100
AcDbText
 10
317.5865546431055
 20
78.479329
 30
0.0
 40
7.0
  1
1.25mm  2M
 41
0.714286
100
AcDbText
  0
TEXT
  5
6E8
330
19
100
AcDbEntity
  8
0
  6
Continuous
 62
     0
100
AcDbText
 10
270.8197383098363
 20
78.479329
 30
0.0
 40
7.0
  1
アース線
 41
0.714286
100
AcDbText
  0
TEXT
  5
6E9
330
19
100
AcDbEntity
  8
0
  6
Continuous
 62
     0
100
AcDbText
 10
216.8274528390178
 20
78.479329
 30
0.0
 40
7.0
  1
PP
 41
0.714286
100
AcDbText
  0
TEXT
  5
6EA
330
19
100
AcDbEntity
  8
0
  6
Continuous
 62
     0
100
AcDbText
 10
157.4491944618736
 20
78.479329
 30
0.0
 40
7.0
  1
水受皿
 41
0.714286
100
AcDbText
  0
TEXT
  5
6EB
330
19
100
AcDbEntity
  8
0
  6
Continuous
 62
     0
100
AcDbText
 10
107.9536562895397
 20
78.479329
 30
0.0
 40
7.0
  1
ALP
 41
0.714286
100
AcDbText
  0
TEXT
  5
6EC
330
19
100
AcDbEntity
  8
0
  6
Continuous
 62
     0
100
AcDbText
 10
46.74125899999999
 20
78.479329
 30
0.0
 40
7.0
  1
中箱
 41
0.714286
100
AcDbText
  0
TEXT
  5
6ED
330
19
100
AcDbEntity
  8
0
  6
Continuous
100
AcDbText
 10
412.2412589999998
 20
42.479329
 30
0.0
 40
7.0
  1
260Wx171Dx145H
 41
0.714286
100
AcDbText
  0
TEXT
  5
6EE
330
19
100
AcDbEntity
  8
0
  6
Continuous
 62
     0
100
AcDbText
 10
376.7412589999998
 20
42.479329
 30
0.0
 40
7.0
  1
中箱寸法
 41
0.714286
100
AcDbText
  0
TEXT
  5
6EF
330
19
100
AcDbEntity
  8
0
  6
Continuous
 62
     0
100
AcDbText
 10
376.7412589999998
 20
54.47932900000001
 30
0.0
 40
7.0
  1
内容積
 41
0.714286
100
AcDbText
  0
TEXT
  5
6F0
330
19
100
AcDbEntity
  8
0
  6
Continuous
 62
     0
100
AcDbText
 10
412.2412589999998
 20
54.47932900000001
 30
0.0
 40
7.0
  1
6L
 41
0.714286
100
AcDbText
  0
TEXT
  5
6F1
330
19
100
AcDbEntity
  8
0
  6
Continuous
 62
     0
100
AcDbText
 10
412.2412589999998
 20
66.479329
 30
0.0
 40
7.0
  1
温度ヒューズ
 41
0.714286
100
AcDbText
  0
TEXT
  5
6F2
330
19
100
AcDbEntity
  8
0
  6
Continuous
 62
     0
100
AcDbText
 10
376.7412589999998
 20
66.479329
 30
0.0
 40
7.0
  1
安全装置
 41
0.714286
100
AcDbText
  0
TEXT
  5
6F3
330
19
100
AcDbEntity
  8
0
  6
Continuous
 62
     0
100
AcDbText
 10
216.8274528390178
 20
42.479329
 30
0.0
 40
7.0
  1
75℃　OFF
 41
0.714286
100
AcDbText
  0
TEXT
  5
6F4
330
19
100
AcDbEntity
  8
0
  6
Continuous
 62
     0
100
AcDbText
 10
157.4491944618736
 20
42.479329
 30
0.0
 40
7.0
  1
固定サーモスタット
 41
0.714286
100
AcDbText
  0
TEXT
  5
6F5
330
19
100
AcDbEntity
  8
0
  6
Continuous
 62
     0
100
AcDbText
 10
157.4491944618736
 20
54.47932900000001
 30
0.0
 40
7.0
  1
電源コード
 41
0.714286
100
AcDbText
  0
TEXT
  5
6F6
330
19
100
AcDbEntity
  8
0
  6
Continuous
 62
     0
100
AcDbText
 10
216.8274528390178
 20
54.47932900000001
 30
0.0
 40
7.0
  1
2M
 41
0.714286
100
AcDbText
  0
TEXT
  5
6F7
330
19
100
AcDbEntity
  8
0
  6
Continuous
 62
     0
100
AcDbText
 10
216.8274528390178
 20
66.479329
 30
0.0
 40
7.0
  1
Cu-Ni合金
 41
0.714286
100
AcDbText
  0
TEXT
  5
6F8
330
19
100
AcDbEntity
  8
0
  6
Continuous
 62
     0
100
AcDbText
 10
157.4491944618736
 20
66.479329
 30
0.0
 40
7.0
  1
発熱体
 41
0.714286
100
AcDbText
  0
TEXT
  5
6F9
330
19
100
AcDbEntity
  8
0
  6
Continuous
 62
     0
100
AcDbText
 10
952.207622
 20
42.34341899999999
 30
0.0
 40
7.0
  1
柴田
 41
0.714286
100
AcDbText
  0
TEXT
  5
6FA
330
19
100
AcDbEntity
  8
0
  6
Continuous
 62
     0
100
AcDbText
 10
952.207622
 20
54.34341899999999
 30
0.0
 40
7.0
  1
柴田
 41
0.714286
100
AcDbText
  0
TEXT
  5
6FB
330
19
100
AcDbEntity
  8
0
  6
Continuous
 62
     0
100
AcDbText
 10
1000.32717
 20
69.81124499999999
 30
0.0
 40
7.0
  1
3
 41
0.714286
100
AcDbText
  0
TEXT
  5
6FC
330
19
100
AcDbEntity
  8
0
  6
Continuous
 62
     0
100
AcDbText
 10
989.4754179999999
 20
73.559981
 30
0.0
 40
7.0
  1
1
 41
0.714286
100
AcDbText
  0
TEXT
  5
6FD
330
19
100
AcDbEntity
  8
0
  6
Continuous
 62
     0
100
AcDbText
 10
107.9536562895397
 20
66.479329
 30
0.0
 40
7.0
  1
耐熱ABS
 41
0.714286
100
AcDbText
  0
TEXT
  5
6FF
330
19
100
AcDbEntity
  8
0
  6
Continuous
 62
     0
100
AcDbText
 10
107.9536562895397
 20
42.479329
 30
0.0
 40
7.0
  1
PP
 41
0.714286
100
AcDbText
  0
TEXT
  5
700
330
19
100
AcDbEntity
  8
0
  6
Continuous
 62
     0
100
AcDbText
 10
46.74125899999999
 20
42.479329
 30
0.0
 40
7.0
  1
L脚
 41
0.714286
100
AcDbText
  0
TEXT
  5
701
330
19
100
AcDbEntity
  8
0
  6
Continuous
 62
     0
100
AcDbText
 10
46.74125899999999
 20
54.47932900000001
 30
0.0
 40
7.0
  1
エアタイトパッキン
 41
0.714286
100
AcDbText
  0
TEXT
  5
702
330
19
100
AcDbEntity
  8
0
  6
Continuous
 62
     0
100
AcDbText
 10
46.74125899999999
 20
66.479329
 30
0.0
 40
7.0
  1
扉
 41
0.714286
100
AcDbText
  0
TEXT
  5
703
330
19
100
AcDbEntity
  8
0
  6
Continuous
 62
     0
100
AcDbText
 10
793.1987892379744
 20
42.89615762624839
 30
0.0
 40
7.0
  1
4.8kg
 41
0.714286
100
AcDbText
  0
TEXT
  5
704
330
19
100
AcDbEntity
  8
0
  6
Continuous
100
AcDbText
 10
793.1987892379744
 20
54.47932900000001
 30
0.0
 40
7.0
  1
330Wx260Dx251H
 41
0.714286
100
AcDbText
  0
TEXT
  5
705
330
19
100
AcDbEntity
  8
0
  6
Continuous
 62
     0
100
AcDbText
 10
793.1987892379744
 20
66.479329
 30
0.0
 40
7.0
  1
205W
 41
0.714286
100
AcDbText
  0
TEXT
  5
706
330
19
100
AcDbEntity
  8
0
  6
Continuous
 62
     0
100
AcDbText
 10
793.1987892379744
 20
78.479329
 30
0.0
 40
7.0
  1
単層　100V 50/60Hz
 41
0.714286
100
AcDbText
  0
TEXT
  5
707
330
19
100
AcDbEntity
  8
0
  6
Continuous
 62
     0
100
AcDbText
 10
764.0792085662666
 20
42.479329
 30
0.0
 40
7.0
  1
質　　量
 41
0.714286
100
AcDbText
  0
TEXT
  5
708
330
19
100
AcDbEntity
  8
0
  6
Continuous
 62
     0
100
AcDbText
 10
764.0792085662666
 20
54.47932900000001
 30
0.0
 40
7.0
  1
外形寸法
 41
0.714286
100
AcDbText
  0
TEXT
  5
709
330
19
100
AcDbEntity
  8
0
  6
Continuous
 62
     0
100
AcDbText
 10
764.0792085662666
 20
66.479329
 30
0.0
 40
7.0
  1
消費電力
 41
0.714286
100
AcDbText
  0
TEXT
  5
70A
330
19
100
AcDbEntity
  8
0
  6
Continuous
 62
     0
100
AcDbText
 10
764.0792085662666
 20
78.479329
 30
0.0
 40
7.0
  1
電　　源
 41
0.714286
100
AcDbText
  0
TEXT
  5
70B
330
19
100
AcDbEntity
  8
0
  6
Continuous
 62
     0
100
AcDbText
 10
1031.82717
 20
69.81124499999999
 30
0.0
 40
7.0
  1
1
 41
0.714286
100
AcDbText
  0
TEXT
  5
70C
330
19
100
AcDbEntity
  8
0
  6
Continuous
 62
     0
100
AcDbText
 10
1020.975418
 20
73.559981
 30
0.0
 40
7.0
  1
1
 41
0.714286
100
AcDbText
  0
TEXT
  5
70D
330
19
100
AcDbEntity
  8
0
  6
Continuous
 62
     0
100
AcDbText
 10
904.130231
 20
76.309296
 30
0.0
 40
5.0
  1
許容差
 41
0.6
100
AcDbText
  0
TEXT
  5
70E
330
19
100
AcDbEntity
  8
0
  6
Continuous
 62
     0
100
AcDbText
 10
879.6302310000001
 20
76.309296
 30
0.0
 40
5.0
  1
呼ビ寸法
 41
0.6
100
AcDbText
  0
TEXT
  5
70F
330
19
100
AcDbEntity
  8
0
  6
Continuous
 62
     0
100
AcDbText
 10
875.630231
 20
82.30929600000001
 30
0.0
 40
5.0
  1
指定以外ﾉ寸法ニ対スル許容差
 41
0.6
100
AcDbText
  0
TEXT
  5
710
330
19
100
AcDbEntity
  8
0
  6
Continuous
 62
     0
100
AcDbText
 10
900.630231
 20
40.50929599999999
 30
0.0
 40
5.0
  1
%%p0.5
 41
0.6
100
AcDbText
  0
TEXT
  5
711
330
19
100
AcDbEntity
  8
0
  6
Continuous
 62
     0
100
AcDbText
 10
900.630231
 20
46.609296
 30
0.0
 40
5.0
  1
%%p0.3
 41
0.6
100
AcDbText
  0
TEXT
  5
712
330
19
100
AcDbEntity
  8
0
  6
Continuous
 62
     0
100
AcDbText
 10
900.630231
 20
52.60929599999999
 30
0.0
 40
5.0
  1
%%p0.2
 41
0.6
100
AcDbText
  0
TEXT
  5
713
330
19
100
AcDbEntity
  8
0
  6
Continuous
 62
     0
100
AcDbText
 10
900.630231
 20
58.509296
 30
0.0
 40
5.0
  1
%%p0.15
 41
0.6
100
AcDbText
  0
TEXT
  5
714
330
19
100
AcDbEntity
  8
0
  6
Continuous
 62
     0
100
AcDbText
 10
900.630231
 20
64.55929600000001
 30
0.0
 40
5.0
  1
%%p0.1
 41
0.6
100
AcDbText
  0
TEXT
  5
715
330
19
100
AcDbEntity
  8
0
  6
Continuous
 62
     0
100
AcDbText
 10
873.6302310000002
 20
40.50929599999999
 30
0.0
 40
5.0
  1
400～1000
 41
0.6
100
AcDbText
  0
TEXT
  5
716
330
19
100
AcDbEntity
  8
0
  6
Continuous
 62
     0
100
AcDbText
 10
873.6302310000002
 20
46.609296
 30
0.0
 40
5.0
  1
120～400
 41
0.6
100
AcDbText
  0
TEXT
  5
717
330
19
100
AcDbEntity
  8
0
  6
Continuous
 62
     0
100
AcDbText
 10
873.6302310000002
 20
52.60929599999999
 30
0.0
 40
5.0
  1
 30～120
 41
0.6
100
AcDbText
  0
TEXT
  5
718
330
19
100
AcDbEntity
  8
0
  6
Continuous
 62
     0
100
AcDbText
 10
873.6302310000002
 20
58.509296
 30
0.0
 40
5.0
  1
  6～30
 41
0.6
100
AcDbText
  0
TEXT
  5
719
330
19
100
AcDbEntity
  8
0
  6
Continuous
 62
     0
100
AcDbText
 10
873.6302310000002
 20
64.55929600000001
 30
0.0
 40
5.0
  1
  3～6
 41
0.6
100
AcDbText
  0
TEXT
  5
71A
330
19
100
AcDbEntity
  8
0
  6
Continuous
 62
     0
100
AcDbText
 10
900.630231
 20
70.559296
 30
0.0
 40
5.0
  1
%%p0.05
 41
0.6
100
AcDbText
  0
TEXT
  5
71B
330
19
100
AcDbEntity
  8
0
  6
Continuous
 62
     0
100
AcDbText
 10
873.6302310000002
 20
70.559296
 30
0.0
 40
5.0
  1
  0～3
 41
0.6
100
AcDbText
  0
TEXT
  5
71D
330
19
100
AcDbEntity
  8
0
  6
Continuous
 62
     0
100
AcDbText
 10
952.207622
 20
66.34341899999999
 30
0.0
 40
7.0
  1
勇元
 41
0.714286
100
AcDbText
  0
TEXT
  5
71E
330
19
100
AcDbEntity
  8
0
  6
Continuous
 62
     0
100
AcDbText
 10
935.0873319999999
 20
78.4553
 30
0.0
 40
7.0
  1
06'/02/27
 41
0.714286
100
AcDbText
  0
TEXT
  5
71F
330
19
100
AcDbEntity
  8
0
  6
Continuous
 62
     0
100
AcDbText
 10
1025.828921
 20
81.29950200000001
 30
0.0
 40
5.0
  1
Q'TY
 41
0.6
100
AcDbText
  0
TEXT
  5
720
330
19
100
AcDbEntity
  8
0
  6
Continuous
 62
     0
100
AcDbText
 10
1016.828921
 20
81.04950200000002
 30
0.0
 40
5.0
  1
個数
 41
0.6
100
AcDbText
  0
TEXT
  5
721
330
19
100
AcDbEntity
  8
0
  6
Continuous
 62
     0
100
AcDbText
 10
1047.039817
 20
54.92868299999999
 30
0.0
 40
5.0
  1
DRG.NO.
 41
0.6
100
AcDbText
  0
TEXT
  5
722
330
19
100
AcDbEntity
  8
0
  6
Continuous
 62
     0
100
AcDbText
 10
993.7725739999999
 20
61.71897900000001
 30
0.0
 40
5.0
  1
TYPE
 41
0.6
100
AcDbText
  0
TEXT
  5
723
330
19
100
AcDbEntity
  8
0
  6
Continuous
 62
     0
100
AcDbText
 10
920.426613
 20
76.839942
 30
0.0
 40
5.0
  1
DATA
 41
0.6
100
AcDbText
  0
TEXT
  5
724
330
19
100
AcDbEntity
  8
0
  6
Continuous
 62
     0
100
AcDbText
 10
992.2102159999999
 20
81.869317
 30
0.0
 40
5.0
  1
SCALE
 41
0.6
100
AcDbText
  0
TEXT
  5
725
330
19
100
AcDbEntity
  8
0
  6
Continuous
 62
     0
100
AcDbText
 10
920.539817
 20
64.42868299999999
 30
0.0
 40
5.0
  1
APPRO.
 41
0.6
100
AcDbText
  0
TEXT
  5
726
330
19
100
AcDbEntity
  8
0
  6
Continuous
 62
     0
100
AcDbText
 10
920.587332
 20
40.4553
 30
0.0
 40
5.0
  1
DRAWN
 41
0.6
100
AcDbText
  0
TEXT
  5
727
330
19
100
AcDbEntity
  8
0
  6
Continuous
 62
     0
100
AcDbText
 10
920.6398169999999
 20
52.428683
 30
0.0
 40
5.0
  1
DESI.
 41
0.6
100
AcDbText
  0
TEXT
  5
728
330
19
100
AcDbEntity
  8
0
  6
Continuous
 62
     0
100
AcDbText
 10
920.426613
 20
82.08994200000002
 30
0.0
 40
5.0
  1
作成
 41
0.6
100
AcDbText
  0
TEXT
  5
729
330
19
100
AcDbEntity
  8
0
  6
Continuous
 62
     0
100
AcDbText
 10
983.5398169999999
 20
82.17868299999997
 30
0.0
 40
5.0
  1
尺度
 41
0.6
100
AcDbText
  0
TEXT
  5
72A
330
19
100
AcDbEntity
  8
0
  6
Continuous
 62
     0
100
AcDbText
 10
920.587332
 20
45.7053
 30
0.0
 40
5.0
  1
製図
 41
0.6
100
AcDbText
  0
TEXT
  5
72B
330
19
100
AcDbEntity
  8
0
  6
Continuous
 62
     0
100
AcDbText
 10
920.6398169999999
 20
57.67868299999999
 30
0.0
 40
5.0
  1
設計
 41
0.6
100
AcDbText
  0
TEXT
  5
72C
330
19
100
AcDbEntity
  8
0
  6
Continuous
 62
     0
100
AcDbText
 10
920.539817
 20
69.67868299999999
 30
0.0
 40
5.0
  1
承認
 41
0.6
100
AcDbText
  0
TEXT
  5
72D
330
19
100
AcDbEntity
  8
0
  6
Continuous
 62
     0
100
AcDbText
 10
984.039817
 20
61.67868299999999
 30
0.0
 40
5.0
  1
機名
 41
0.6
100
AcDbText
  0
TEXT
  5
72E
330
19
100
AcDbEntity
  8
0
  6
Continuous
 62
     0
100
AcDbText
 10
1047.039817
 20
61.67868299999999
 30
0.0
 40
5.0
  1
図番
 41
0.6
100
AcDbText
  0
TEXT
  5
730
330
19
100
AcDbEntity
  8
0
  6
Continuous
 62
     0
100
AcDbText
 10
1063.552282523829
 20
42.27847997930839
 30
0.0
 40
9.0
  1
TP-35(W)(B)
 41
0.777778
100
AcDbText
  0
TEXT
  5
731
330
19
100
AcDbEntity
  8
0
  6
Continuous
 62
     0
100
AcDbText
 10
1008.775864236586
 20
51.65981942058618
 30
0.0
 40
8.0
  1
TP-35
 41
0.777778
100
AcDbText
  0
POINT
  5
733
330
19
100
AcDbEntity
  8
0
  6
Continuous
 62
     0
100
AcDbPoint
 10
308.7283429999998
 20
308.3055749999997
 30
0.0
  0
POINT
  5
734
330
19
100
AcDbEntity
  8
0
  6
Continuous
 62
     0
100
AcDbPoint
 10
958.228343
 20
308.3055749999997
 30
0.0
  0
POINT
  5
735
330
19
100
AcDbEntity
  8
0
  6
Continuous
 62
     0
100
AcDbPoint
 10
942.6879470000001
 20
256.826902
 30
0.0
  0
POINT
  5
737
330
19
100
AcDbEntity
  8
0
  6
Continuous
 62
     0
100
AcDbPoint
 10
326.339931
 20
495.6430809999998
 30
0.0
  0
POINT
  5
738
330
19
100
AcDbEntity
  8
0
  6
Continuous
 62
     0
100
AcDbPoint
 10
173.3473909999999
 20
325.905089
 30
0.0
  0
POINT
  5
739
330
19
100
AcDbEntity
  8
0
  6
Continuous
 62
     0
100
AcDbPoint
 10
199.987883
 20
313.7265779999999
 30
0.0
  0
POINT
  5
73A
330
19
100
AcDbEntity
  8
0
  6
Continuous
 62
     0
100
AcDbPoint
 10
269.687678
 20
181.655641
 30
0.0
  0
LEADER
  5
10A2
330
19
100
AcDbEntity
  8
0
  6
Continuous
 62
     3
100
AcDbLeader
  3
DIM1
 76
     3
 10
326.5475950014633
 20
495.3627366946697
 30
0.0
 10
346.9107168567932
 20
471.9187841229237
 30
0.0
 10
370.8385670776218
 20
471.9187841229237
 30
0.0
1001
ACAD
1000
DSTYLE
1002
{
1070
   341
1005
C4
1070
    41
1040
3.0
1070
   343
1005
C0
1002
}
  0
TEXT
  5
10A4
330
19
100
AcDbEntity
  8
0
  6
Continuous
 62
     0
100
AcDbText
 10
1060.083851735011
 20
72.97852767571967
 30
0.0
 40
9.0
  1
株式会社 アンナカ
 41
0.777778
100
AcDbText
  0
TEXT
  5
129C
330
19
100
AcDbEntity
  8
0
  6
Continuous
 62
     0
370
    -3
100
AcDbText
 10
1129.587332
 20
791.330269
 30
0.0
 40
6.0
  1
承認
 41
0.8203125
  7
ED_VECTOR
 72
     5
 11
1140.087332
 21
791.330269
 31
0.0
100
AcDbText
  0
TEXT
  5
129D
330
19
100
AcDbEntity
  8
0
  6
Continuous
 62
     0
370
    -3
100
AcDbText
 10
1124.9384
 20
786.282439
 30
0.0
 40
2.595659999999999
  1
APPROVED
 41
0.9948645380968764
  7
ED_VECTOR
 72
     5
 11
1144.736264
 21
786.282439
 31
0.0
100
AcDbText
  0
TEXT
  5
129E
330
19
100
AcDbEntity
  8
0
  6
Continuous
 62
     0
370
    -3
100
AcDbText
 10
1129.587332
 20
776.330269
 30
0.0
 40
6.0
  1
宮木
 41
0.8203125
  7
ED_VECTOR
 72
     5
 11
1140.087332
 21
776.330269
 31
0.0
100
AcDbText
  0
LINE
  5
12A1
330
19
100
AcDbEntity
  8
0
  6
Continuous
 62
     0
370
    -3
100
AcDbLine
 10
958.5873319999999
 20
784.955269
 30
0.0
 11
1146.087332
 21
784.955269
 31
0.0
  0
LINE
  5
12A2
330
19
100
AcDbEntity
  8
0
  6
Continuous
 62
     0
370
    -3
100
AcDbLine
 10
958.5873319999999
 20
773.705269
 30
0.0
 11
1146.087332
 21
773.705269
 31
0.0
  0
LINE
  5
12A3
330
19
100
AcDbEntity
  8
0
  6
Continuous
 62
     0
370
    -3
100
AcDbLine
 10
958.5873319999999
 20
762.455269
 30
0.0
 11
1146.087332
 21
762.455269
 31
0.0
  0
LINE
  5
12A4
330
19
100
AcDbEntity
  8
0
  6
Continuous
 62
     0
370
    -3
100
AcDbLine
 10
958.5873319999999
 20
751.205269
 30
0.0
 11
1146.087332
 21
751.205269
 31
0.0
  0
TEXT
  5
12A5
330
19
100
AcDbEntity
  8
0
  6
Continuous
 62
     0
370
    -3
100
AcDbText
 10
1107.087332
 20
776.330269
 30
0.0
 40
6.0
  1
福田
 41
0.8467741935483871
  7
ED_VECTOR
 72
     5
 11
1117.587332
 21
776.330269
 31
0.0
100
AcDbText
  0
LINE
  5
12A6
330
19
100
AcDbEntity
  8
0
  6
Continuous
 62
     0
370
    -3
100
AcDbLine
 10
1101.087332
 20
799.955269
 30
0.0
 11
1101.087332
 21
751.205269
 31
0.0
  0
LINE
  5
12A7
330
19
100
AcDbEntity
  8
0
  6
Continuous
 62
     0
370
    -3
100
AcDbLine
 10
1123.587332
 20
799.955269
 30
0.0
 11
1123.587332
 21
751.205269
 31
0.0
  0
LINE
  5
12AA
330
19
100
AcDbEntity
  8
0
  6
Continuous
 62
     0
370
    -3
100
AcDbLine
 10
958.5873319999999
 20
799.955269
 30
0.0
 11
958.5873319999999
 21
751.205269
 31
0.0
  0
LINE
  5
12AB
330
19
100
AcDbEntity
  8
0
  6
Continuous
 62
     0
370
    -3
100
AcDbLine
 10
973.5873319999999
 20
799.955269
 30
0.0
 11
973.5873319999999
 21
751.205269
 31
0.0
  0
LINE
  5
12AC
330
19
100
AcDbEntity
  8
0
  6
Continuous
 62
     0
370
    -3
100
AcDbLine
 10
1003.587332
 20
799.955269
 30
0.0
 11
1003.587332
 21
751.205269
 31
0.0
  0
TEXT
  5
12AE
330
19
100
AcDbEntity
  8
0
  6
Continuous
 62
     0
370
    -3
100
AcDbText
 10
1032.087332
 20
791.330269
 30
0.0
 40
6.0
  1
訂　正　記　事
 41
0.829918032786885
  7
ED_VECTOR
 72
     5
 11
1072.587332
 21
791.330269
 31
0.0
100
AcDbText
  0
TEXT
  5
12AF
330
19
100
AcDbEntity
  8
0
  6
Continuous
 62
     0
370
    -3
100
AcDbText
 10
1022.325351499999
 20
785.9580144999996
 30
0.0
 40
3.244508999999998
  1
REVISED DESCRIPTION
 41
1.0127829099637
  7
ED_VECTOR
 72
     5
 11
1082.3493125
 21
785.9580144999996
 31
0.0
100
AcDbText
  0
TEXT
  5
12B1
330
19
100
AcDbEntity
  8
0
  6
Continuous
 62
     0
370
    -3
100
AcDbText
 10
980.337332
 20
791.330269
 30
0.0
 40
6.0
  1
年月日
 41
0.8593749999999939
  7
ED_VECTOR
 72
     5
 11
996.8373319999999
 21
791.330269
 31
0.0
100
AcDbText
  0
TEXT
  5
12B4
330
19
100
AcDbEntity
  8
0
  6
Continuous
 62
     0
370
    -3
100
AcDbText
 10
982.5849364999999
 20
785.9580144999996
 30
0.0
 40
3.244508999999998
  1
DATE
 41
1.009099962148632
  7
ED_VECTOR
 72
     5
 11
994.5897275
 21
785.9580144999996
 31
0.0
100
AcDbText
  0
TEXT
  5
12B5
330
19
100
AcDbEntity
  8
0
  6
Continuous
 62
     0
370
    -3
100
AcDbText
 10
960.0849365
 20
785.9580144999996
 30
0.0
 40
3.244508999999998
  1
ITEM
 41
1.009099962148632
  7
ED_VECTOR
 72
     5
 11
972.0897275
 21
785.9580144999996
 31
0.0
100
AcDbText
  0
TEXT
  5
12B8
330
19
100
AcDbEntity
  8
0
  6
Continuous
 62
     0
370
    -3
100
AcDbText
 10
960.837332
 20
791.330269
 30
0.0
 40
6.0
  1
符号
 41
0.8203125
  7
ED_VECTOR
 72
     5
 11
971.337332
 21
791.330269
 31
0.0
100
AcDbText
  0
TEXT
  5
12BA
330
19
100
AcDbEntity
  8
0
  6
Continuous
 62
     0
370
    -3
100
AcDbText
 10
1104.734297
 20
785.9580144999996
 30
0.0
 40
3.244508999999998
  1
CHAGE
 41
1.004294816697493
  7
ED_VECTOR
 72
     5
 11
1119.940366999998
 21
785.9580144999996
 31
0.0
100
AcDbText
  0
TEXT
  5
12BD
330
19
100
AcDbEntity
  8
0
  6
Continuous
 62
     0
370
    -3
100
AcDbText
 10
1107.087332
 20
791.330269
 30
0.0
 40
6.0
  1
担当
 41
0.8467741935483868
  7
ED_VECTOR
 72
     5
 11
1117.587332
 21
791.330269
 31
0.0
100
AcDbText
  0
TEXT
  5
12BE
330
19
100
AcDbEntity
  8
0
  6
Continuous
 62
     0
370
    -3
100
AcDbText
 10
975.6356239348834
 20
776.2111996106406
 30
0.0
 40
6.0
  1
2020.03.03
 41
0.4476566944285466
  7
ED_VECTOR
 72
     5
 11
1001.599712211739
 21
776.2111996106406
 31
0.0
100
AcDbText
  0
LINE
  5
12C0
330
19
100
AcDbEntity
  8
0
 62
     2
100
AcDbLine
 10
1130.527566671658
 20
54.94620764258563
 30
0.0
 11
1144.327566671658
 21
54.94620764258563
 31
0.0
  0
LINE
  5
12C1
330
19
100
AcDbEntity
  8
0
 62
     2
100
AcDbLine
 10
1144.327566671658
 20
54.94620764258563
 30
0.0
 11
1137.427566671658
 21
66.94620764258562
 31
0.0
  0
TEXT
  5
12C2
330
19
100
AcDbEntity
  8
0
 62
     2
100
AcDbText
 10
1136.304137786324
 20
56.31192498278134
 30
0.0
 40
6.0
  1
1
100
AcDbText
  0
LINE
  5
12C3
330
19
100
AcDbEntity
  8
0
 62
     2
100
AcDbLine
 10
1137.427566671658
 20
66.94620764258562
 30
0.0
 11
1130.527566671658
 21
54.94620764258563
 31
0.0
  0
LINE
  5
12C5
102
{ACAD_REACTORS
330
12CA
102
}
330
19
100
AcDbEntity
  8
0
 62
     2
100
AcDbLine
 10
823.540971740943
 20
74.96540649050477
 30
0.0
 11
818.0209717409432
 21
65.36540649050476
 31
0.0
  0
TEXT
  5
12C6
102
{ACAD_REACTORS
330
12CA
102
}
330
19
100
AcDbEntity
  8
0
 62
     2
100
AcDbText
 10
822.6422286326759
 20
66.45798036266132
 30
0.0
 40
4.799999999999998
  1
1
100
AcDbText
  0
LINE
  5
12C7
102
{ACAD_REACTORS
330
12CA
102
}
330
19
100
AcDbEntity
  8
0
 62
     2
100
AcDbLine
 10
829.0609717409427
 20
65.36540649050476
 30
0.0
 11
823.540971740943
 21
74.96540649050477
 31
0.0
  0
LINE
  5
12C8
102
{ACAD_REACTORS
330
12CA
102
}
330
19
100
AcDbEntity
  8
0
 62
     2
100
AcDbLine
 10
818.0209717409432
 20
65.36540649050476
 30
0.0
 11
829.0609717409427
 21
65.36540649050476
 31
0.0
  0
TEXT
  5
12C9
330
19
100
AcDbEntity
  8
0
 62
     2
100
AcDbText
 10
832.7669500530998
 20
66.479329
 30
0.0
 40
7.0
  1
220W
 41
0.714286
100
AcDbText
  0
LINE
  5
12CB
330
19
100
AcDbEntity
  8
0
 62
     2
 48
10.0
100
AcDbLine
 10
830.8230822477771
 20
70.91897333735051
 30
0.0
 11
853.9349843317339
 21
70.91897333735051
 31
0.0
  0
LINE
  5
12CC
330
19
100
AcDbEntity
  8
0
 62
     2
 48
10.0
100
AcDbLine
 10
830.8230822477771
 20
67.76019562089913
 30
0.0
 11
853.9349843317339
 21
67.76019562089913
 31
0.0
  0
LINE
  5
12CD
102
{ACAD_REACTORS
330
12D1
102
}
330
19
100
AcDbEntity
  8
0
 62
     2
100
AcDbLine
 10
353.2521718290078
 20
101.5898416153347
 30
0.0
 11
364.2921718290073
 21
101.5898416153347
 31
0.0
  0
LINE
  5
12CE
102
{ACAD_REACTORS
330
12D1
102
}
330
19
100
AcDbEntity
  8
0
 62
     2
100
AcDbLine
 10
364.2921718290073
 20
101.5898416153347
 30
0.0
 11
358.7721718290076
 21
111.1898416153348
 31
0.0
  0
TEXT
  5
12CF
102
{ACAD_REACTORS
330
12D1
102
}
330
19
100
AcDbEntity
  8
0
 62
     2
100
AcDbText
 10
357.8734287207403
 20
102.6824154874913
 30
0.0
 40
4.799999999999998
  1
1
100
AcDbText
  0
LINE
  5
12D0
102
{ACAD_REACTORS
330
12D1
102
}
330
19
100
AcDbEntity
  8
0
 62
     2
100
AcDbLine
 10
358.7721718290076
 20
111.1898416153348
 30
0.0
 11
353.2521718290078
 21
101.5898416153347
 31
0.0
  0
TEXT
  5
12D2
330
19
100
AcDbEntity
  8
0
  6
Continuous
 62
     2
100
AcDbText
 10
358.7375106601553
 20
90.47932900000001
 30
0.0
 40
7.0
  1
10A
 41
0.714286
100
AcDbText
  0
LINE
  5
12D3
330
19
100
AcDbEntity
  8
0
  6
Continuous
 62
     2
 48
10.0
100
AcDbLine
 10
356.8571555189119
 20
92.08698711842226
 30
0.0
 11
371.8541299454863
 21
92.08698711842226
 31
0.0
  0
LINE
  5
12D4
330
19
100
AcDbEntity
  8
0
  6
Continuous
 62
     2
 48
10.0
100
AcDbLine
 10
356.8571555189119
 20
95.24576483487363
 30
0.0
 11
371.8541299454863
 21
95.24576483487363
 31
0.0
  0
TEXT
  5
12DA
330
19
100
AcDbEntity
  8
0
  6
Continuous
 62
     2
100
AcDbText
 10
216.8167558993514
 20
117.0219388840005
 30
0.0
 40
7.0
  1
AC125V-10A
 41
0.714286
100
AcDbText
  0
LINE
  5
12DB
330
19
100
AcDbEntity
  8
0
  6
Continuous
 62
     2
 48
10.0
100
AcDbLine
 10
214.7088847036374
 20
121.8841984741129
 30
0.0
 11
264.9333711493109
 21
121.8841984741129
 31
0.0
  0
LINE
  5
12DC
330
19
100
AcDbEntity
  8
0
  6
Continuous
 62
     2
 48
10.0
100
AcDbLine
 10
214.7088847036374
 20
118.7254207576615
 30
0.0
 11
264.9333711493109
 21
118.7254207576615
 31
0.0
  0
TEXT
  5
12DE
102
{ACAD_REACTORS
330
12E2
102
}
330
19
100
AcDbEntity
  8
0
 62
     2
100
AcDbText
 10
206.7668850995985
 20
117.3081165335934
 30
0.0
 40
4.799999999999998
  1
1
100
AcDbText
  0
LINE
  5
12DF
102
{ACAD_REACTORS
330
12E2
102
}
330
19
100
AcDbEntity
  8
0
 62
     2
100
AcDbLine
 10
207.6656282078656
 20
125.8155426614369
 30
0.0
 11
202.1456282078659
 21
116.215542661437
 31
0.0
  0
LINE
  5
12E0
102
{ACAD_REACTORS
330
12E2
102
}
330
19
100
AcDbEntity
  8
0
 62
     2
100
AcDbLine
 10
213.1856282078654
 20
116.215542661437
 30
0.0
 11
207.6656282078656
 21
125.8155426614369
 31
0.0
  0
LINE
  5
12E1
102
{ACAD_REACTORS
330
12E2
102
}
330
19
100
AcDbEntity
  8
0
 62
     2
100
AcDbLine
 10
202.1456282078659
 20
116.215542661437
 30
0.0
 11
213.1856282078654
 21
116.215542661437
 31
0.0
  0
LINE
  5
1318
102
{ACAD_REACTORS
330
131C
102
}
330
19
100
AcDbEntity
  8
0
 62
     0
100
AcDbLine
 10
960.6404196259223
 20
774.4632829341115
 30
0.0
 11
971.6804196259218
 21
774.4632829341115
 31
0.0
  0
LINE
  5
1319
102
{ACAD_REACTORS
330
131C
102
}
330
19
100
AcDbEntity
  8
0
 62
     0
100
AcDbLine
 10
966.1604196259222
 20
784.0632829341115
 30
0.0
 11
960.6404196259223
 21
774.4632829341115
 31
0.0
  0
TEXT
  5
131A
102
{ACAD_REACTORS
330
131C
102
}
330
19
100
AcDbEntity
  8
0
 62
     0
100
AcDbText
 10
965.2616765176551
 20
775.5558568062681
 30
0.0
 40
4.799999999999998
  1
1
100
AcDbText
  0
LINE
  5
131B
102
{ACAD_REACTORS
330
131C
102
}
330
19
100
AcDbEntity
  8
0
 62
     0
100
AcDbLine
 10
971.6804196259218
 20
774.4632829341115
 30
0.0
 11
966.1604196259222
 21
784.0632829341115
 31
0.0
  0
LINE
  5
13BD
330
19
100
AcDbEntity
  8
0
  6
HIDDEN
 62
     0
 48
10.0
100
AcDbLine
 10
961.2283429999999
 20
283.3055749999997
 30
0.0
 11
991.228343
 21
283.3055749999997
 31
0.0
  0
DIMENSION
  5
13F6
330
19
100
AcDbEntity
  8
0
  6
Continuous
 62
     0
100
AcDbDimension
  2
*D19
 10
479.1830041720825
 20
451.2264070000001
 30
0.0
 11
308.758343
 21
451.2264070000001
 31
0.0
 70
   160
  1
336
 71
     5
 42
335.4546611720826
  3
DIM1
100
AcDbAlignedDimension
 13
143.7283429999999
 23
416.3055749999998
 33
0.0
 14
479.1830041720825
 24
394.5348569771955
 34
0.0
100
AcDbRotatedDimension
1001
ACAD
1000
DSTYLE
1002
{
1070
   271
1070
     1
1002
}
  0
TEXT
  5
14DC
330
19
100
AcDbEntity
  8
0
  6
Continuous
 62
     0
370
    -3
100
AcDbText
 10
1005.929694339342
 20
776.1624535
 30
0.0
 40
6.0
  1
消費電力、定格及び材質の修正
 41
0.7854352441143035
 72
     5
 11
1083.844870555481
 21
776.1624535
 31
0.0
100
AcDbText
  0
LINE
  5
14FE
330
19
100
AcDbEntity
  8
0
 62
     2
370
    13
100
AcDbLine
 10
136.5088668321891
 20
58.72331750482937
 30
0.0
 11
133.6826268321891
 21
63.63851750482939
 31
0.0
  0
LINE
  5
14FF
330
19
100
AcDbEntity
  8
0
 62
     2
370
    13
100
AcDbLine
 10
133.6826268321891
 20
63.63851750482939
 30
0.0
 11
130.8563868321895
 21
58.72331750482937
 31
0.0
  0
TEXT
  5
1500
330
19
100
AcDbEntity
  8
0
  6
Continuous
 62
     2
370
    13
100
AcDbText
 10
137.2371614028695
 20
58.89910457199107
 30
0.0
 40
5.0
  1
合成ゴム
 41
0.714286
100
AcDbText
  0
LINE
  5
1501
330
19
100
AcDbEntity
  8
0
 62
     2
370
    13
100
AcDbLine
 10
130.8563868321895
 20
58.72331750482937
 30
0.0
 11
136.5088668321891
 21
58.72331750482937
 31
0.0
  0
TEXT
  5
1502
330
19
100
AcDbEntity
  8
0
  6
Continuous
 62
     0
100
AcDbText
 10
106.4124064381122
 20
52.25811596560856
 30
0.0
 40
6.0
  1
シリコーンゴム
 41
0.714286
100
AcDbText
  0
LINE
  5
1503
330
19
100
AcDbEntity
  8
0
  6
Continuous
 62
     2
 48
10.0
370
    13
100
AcDbLine
 10
136.4485638939105
 20
62.18645417788131
 30
0.0
 11
153.3953565868538
 21
62.18645417788131
 31
0.0
  0
LINE
  5
1504
330
19
100
AcDbEntity
  8
0
  6
Continuous
 62
     2
 48
10.0
370
    13
100
AcDbLine
 10
136.4485638939105
 20
59.94428023429911
 30
0.0
 11
153.3953565868538
 21
59.94428023429911
 31
0.0
  0
TEXT
  5
1505
330
19
100
AcDbEntity
  8
文字
 62
     2
370
    13
100
AcDbText
 10
133.2224703607564
 20
59.28271532737353
 30
0.0
 40
2.457599999999999
  1
1
100
AcDbText
  0
ENDSEC
  0
SECTION
  2
OBJECTS
  0
DICTIONARY
  5
C
330
0
100
AcDbDictionary
281
     1
  3
ACAD_GROUP
350
D
  3
ACAD_LAYOUT
350
1092
  3
ACAD_MLINESTYLE
350
E
  3
ACAD_PLOTSETTINGS
350
1093
  3
ACAD_PLOTSTYLENAME
350
1090
  0
DICTIONARY
  5
D
102
{ACAD_REACTORS
330
C
102
}
330
C
100
AcDbDictionary
281
     1
  3
*A1
350
12CA
  3
*A2
350
12D1
  3
*A3
350
12E2
  3
*A4
350
131C
  3
*A5
350
1BD6
  3
*A6
350
1BD7
  3
*A7
350
1BD8
  3
*A8
350
1BD9
  0
DICTIONARY
  5
1092
102
{ACAD_REACTORS
330
C
102
}
330
C
100
AcDbDictionary
281
     1
  3
Model
350
1094
  3
ﾚｲｱｳﾄ1
350
1095
  0
DICTIONARY
  5
E
102
{ACAD_REACTORS
330
C
102
}
330
C
100
AcDbDictionary
281
     1
  3
STANDARD
350
1C
  0
DICTIONARY
  5
1093
102
{ACAD_REACTORS
330
C
102
}
330
C
100
AcDbDictionary
281
     1
  0
ACDBDICTIONARYWDFLT
  5
1090
102
{ACAD_REACTORS
330
C
102
}
330
C
100
AcDbDictionary
281
     1
  3
Normal
350
1091
100
AcDbDictionaryWithDefault
340
1091
  0
GROUP
  5
12CA
102
{ACAD_REACTORS
330
D
102
}
330
D
100
AcDbGroup
300

 70
     1
 71
     1
340
12C7
340
12C8
340
12C6
340
12C5
  0
GROUP
  5
12D1
102
{ACAD_REACTORS
330
D
102
}
330
D
100
AcDbGroup
300

 70
     1
 71
     1
340
12CE
340
12CD
340
12CF
340
12D0
  0
GROUP
  5
12E2
102
{ACAD_REACTORS
330
D
102
}
330
D
100
AcDbGroup
300

 70
     1
 71
     1
340
12E0
340
12E1
340
12DE
340
12DF
  0
GROUP
  5
131C
102
{ACAD_REACTORS
330
D
102
}
330
D
100
AcDbGroup
300

 70
     1
 71
     1
340
131B
340
1318
340
131A
340
1319
  0
GROUP
  5
1BD6
102
{ACAD_REACTORS
330
D
102
}
330
D
100
AcDbGroup
300

 70
     1
 71
     1
  0
GROUP
  5
1BD7
102
{ACAD_REACTORS
330
D
102
}
330
D
100
AcDbGroup
300

 70
     1
 71
     1
  0
GROUP
  5
1BD8
102
{ACAD_REACTORS
330
D
102
}
330
D
100
AcDbGroup
300

 70
     1
 71
     1
  0
GROUP
  5
1BD9
102
{ACAD_REACTORS
330
D
102
}
330
D
100
AcDbGroup
300

 70
     1
 71
     1
  0
LAYOUT
  5
1094
102
{ACAD_REACTORS
330
1092
102
}
330
1092
100
AcDbPlotSettings
  1

  2
PrimoPDF
  4
A3
  6

 40
3.174999952316282
 41
3.174999952316282
 42
3.17498779296875
 43
3.17498779296875
 44
297.0106506347656
 45
419.9889831542968
 46
9.619999999999999
 47
9.859999999999999
 48
43.087332
 49
39.9553
140
1146.087332506638
141
799.955269
142
1.0
143
2.799999999999998
 70
 11940
 72
     1
 73
     1
 74
     4
  7
monochrome.ctb
 75
     0
147
0.3571428571428572
148
-43.087332
149
-39.9553
100
AcDbLayout
  1
Model
 70
     1
 71
     0
 10
0.0
 20
0.0
 11
12.0
 21
9.0
 12
0.0
 22
0.0
 32
0.0
 14
0.0
 24
0.0
 34
0.0
 15
0.0
 25
0.0
 35
0.0
146
0.0
 13
0.0
 23
0.0
 33
0.0
 16
1.0
 26
0.0
 36
0.0
 17
0.0
 27
1.0
 37
0.0
 76
     0
330
19
  0
LAYOUT
  5
1095
102
{ACAD_REACTORS
330
1092
102
}
330
1092
100
AcDbPlotSettings
  1

  2
なし
  4

  6

 40
0.0
 41
0.0
 42
0.0
 43
0.0
 44
0.0
 45
0.0
 46
0.0
 47
0.0
 48
0.0
 49
0.0
140
0.0
141
0.0
142
1.0
143
1.0
 70
   688
 72
     0
 73
     0
 74
     5
  7
monochrome.ctb
 75
    16
147
1.0
148
0.0
149
0.0
100
AcDbLayout
  1
ﾚｲｱｳﾄ1
 70
     1
 71
     1
 10
0.0
 20
0.0
 11
1188.0
 21
840.0
 12
0.0
 22
0.0
 32
0.0
 14
1.000000000000000E+20
 24
1.000000000000000E+20
 34
1.000000000000000E+20
 15
-1.000000000000000E+20
 25
-1.000000000000000E+20
 35
-1.000000000000000E+20
146
0.0
 13
0.0
 23
0.0
 33
0.0
 16
1.0
 26
0.0
 36
0.0
 17
0.0
 27
1.0
 37
0.0
 76
     0
330
16
  0
MLINESTYLE
  5
1C
102
{ACAD_REACTORS
330
E
102
}
330
E
100
AcDbMlineStyle
  2
STANDARD
 70
     0
  3

 62
     0
 51
90.0
 52
90.0
 71
     2
 49
0.5
 62
   256
  6
BYLAYER
 49
-0.5
 62
   256
  6
BYLAYER
  0
ACDBPLACEHOLDER
  5
1091
102
{ACAD_REACTORS
330
1090
102
}
330
1090
  0
ENDSEC
  0
EOF
