  0
SECTION
  2
HEADER
  9
$ACADVER
  1
AC1015
  9
$ACADMAINTVER
 70
     6
  9
$DWGCODEPAGE
  3
ANSI_932
  9
$INSBASE
 10
0.0
 20
0.0
 30
0.0
  9
$EXTMIN
 10
44.649898
 20
38.355556
 30
0.0
  9
$EXTMAX
 10
1147.649898
 20
798.355586
 30
0.0
  9
$LIMMIN
 10
0.0
 20
0.0
  9
$LIMMAX
 10
1188.0
 20
840.0
  9
$ORTHOMODE
 70
     1
  9
$REGENMODE
 70
     1
  9
$FILLMODE
 70
     1
  9
$QTEXTMODE
 70
     0
  9
$MIRRTEXT
 70
     1
  9
$LTSCALE
 40
1.0
  9
$ATTMODE
 70
     1
  9
$TEXTSIZE
 40
3.5
  9
$TRACEWID
 40
0.05
  9
$TEXTSTYLE
  7
STANDARD
  9
$CLAYER
  8
0
  9
$CELTYPE
  6
CONTINUOUS
  9
$CECOLOR
 62
   256
  9
$CELTSCALE
 40
10.0
  9
$DISPSILH
 70
     0
  9
$DIMSCALE
 40
1.0
  9
$DIMASZ
 40
4.0
  9
$DIMEXO
 40
1.0
  9
$DIMDLI
 40
3.0
  9
$DIMRND
 40
0.0
  9
$DIMDLE
 40
0.0
  9
$DIMEXE
 40
1.0
  9
$DIMTP
 40
0.0
  9
$DIMTM
 40
0.0
  9
$DIMTXT
 40
6.0
  9
$DIMCEN
 40
0.0
  9
$DIMTSZ
 40
0.0
  9
$DIMTOL
 70
     0
  9
$DIMLIM
 70
     0
  9
$DIMTIH
 70
     0
  9
$DIMTOH
 70
     0
  9
$DIMSE1
 70
     0
  9
$DIMSE2
 70
     0
  9
$DIMTAD
 70
     1
  9
$DIMZIN
 70
     8
  9
$DIMBLK
  1
OPEN
  9
$DIMASO
 70
     1
  9
$DIMSHO
 70
     1
  9
$DIMPOST
  1

  9
$DIMAPOST
  1

  9
$DIMALT
 70
     0
  9
$DIMALTD
 70
     2
  9
$DIMALTF
 40
0.03937
  9
$DIMLFAC
 40
1.0
  9
$DIMTOFL
 70
     1
  9
$DIMTVP
 40
0.75
  9
$DIMTIX
 70
     0
  9
$DIMSOXD
 70
     0
  9
$DIMSAH
 70
     1
  9
$DIMBLK1
  1
OPEN
  9
$DIMBLK2
  1
OPEN
  9
$DIMSTYLE
  2
DIM1
  9
$DIMCLRD
 70
     3
  9
$DIMCLRE
 70
     3
  9
$DIMCLRT
 70
     0
  9
$DIMTFAC
 40
0.5
  9
$DIMGAP
 40
1.5
  9
$DIMJUST
 70
     0
  9
$DIMSD1
 70
     0
  9
$DIMSD2
 70
     0
  9
$DIMTOLJ
 70
     1
  9
$DIMTZIN
 70
     8
  9
$DIMALTZ
 70
     0
  9
$DIMALTTZ
 70
     0
  9
$DIMUPT
 70
     1
  9
$DIMDEC
 70
     4
  9
$DIMTDEC
 70
     4
  9
$DIMALTU
 70
     2
  9
$DIMALTTD
 70
     2
  9
$DIMTXSTY
  7
STANDARD
  9
$DIMAUNIT
 70
     0
  9
$DIMADEC
 70
     0
  9
$DIMALTRND
 40
0.0
  9
$DIMAZIN
 70
     0
  9
$DIMDSEP
 70
    46
  9
$DIMATFIT
 70
     3
  9
$DIMFRAC
 70
     0
  9
$DIMLDRBLK
  1
OPEN
  9
$DIMLUNIT
 70
     2
  9
$DIMLWD
 70
    -2
  9
$DIMLWE
 70
    -2
  9
$DIMTMOVE
 70
     0
  9
$LUNITS
 70
     2
  9
$LUPREC
 70
     4
  9
$SKETCHINC
 40
0.1
  9
$FILLETRAD
 40
10.0
  9
$AUNITS
 70
     0
  9
$AUPREC
 70
     0
  9
$MENU
  1
acad
  9
$ELEVATION
 40
0.0
  9
$PELEVATION
 40
0.0
  9
$THICKNESS
 40
0.0
  9
$LIMCHECK
 70
     0
  9
$CHAMFERA
 40
10.0
  9
$CHAMFERB
 40
10.0
  9
$CHAMFERC
 40
20.0
  9
$CHAMFERD
 40
0.0
  9
$SKPOLY
 70
     0
  9
$TDCREATE
 40
2450901.470568402
  9
$TDUCREATE
 40
2450901.095568402
  9
$TDUPDATE
 40
2459383.395901493
  9
$TDUUPDATE
 40
2459383.020901493
  9
$TDINDWG
 40
0.2261114583
  9
$TDUSRTIMER
 40
0.2261076620
  9
$USRTIMER
 70
     1
  9
$ANGBASE
 50
0.0
  9
$ANGDIR
 70
     0
  9
$PDMODE
 70
     0
  9
$PDSIZE
 40
0.0
  9
$PLINEWID
 40
0.0
  9
$SPLFRAME
 70
     0
  9
$SPLINETYPE
 70
     6
  9
$SPLINESEGS
 70
     8
  9
$HANDSEED
  5
2FFC
  9
$SURFTAB1
 70
     6
  9
$SURFTAB2
 70
     6
  9
$SURFTYPE
 70
     6
  9
$SURFU
 70
     6
  9
$SURFV
 70
     6
  9
$UCSBASE
  2

  9
$UCSNAME
  2

  9
$UCSORG
 10
0.0
 20
0.0
 30
0.0
  9
$UCSXDIR
 10
1.0
 20
0.0
 30
0.0
  9
$UCSYDIR
 10
0.0
 20
1.0
 30
0.0
  9
$UCSORTHOREF
  2

  9
$UCSORTHOVIEW
 70
     0
  9
$UCSORGTOP
 10
0.0
 20
0.0
 30
0.0
  9
$UCSORGBOTTOM
 10
0.0
 20
0.0
 30
0.0
  9
$UCSORGLEFT
 10
0.0
 20
0.0
 30
0.0
  9
$UCSORGRIGHT
 10
0.0
 20
0.0
 30
0.0
  9
$UCSORGFRONT
 10
0.0
 20
0.0
 30
0.0
  9
$UCSORGBACK
 10
0.0
 20
0.0
 30
0.0
  9
$PUCSBASE
  2

  9
$PUCSNAME
  2

  9
$PUCSORG
 10
0.0
 20
0.0
 30
0.0
  9
$PUCSXDIR
 10
1.0
 20
0.0
 30
0.0
  9
$PUCSYDIR
 10
0.0
 20
1.0
 30
0.0
  9
$PUCSORTHOREF
  2

  9
$PUCSORTHOVIEW
 70
     0
  9
$PUCSORGTOP
 10
0.0
 20
0.0
 30
0.0
  9
$PUCSORGBOTTOM
 10
0.0
 20
0.0
 30
0.0
  9
$PUCSORGLEFT
 10
0.0
 20
0.0
 30
0.0
  9
$PUCSORGRIGHT
 10
0.0
 20
0.0
 30
0.0
  9
$PUCSORGFRONT
 10
0.0
 20
0.0
 30
0.0
  9
$PUCSORGBACK
 10
0.0
 20
0.0
 30
0.0
  9
$USERI1
 70
     0
  9
$USERI2
 70
     0
  9
$USERI3
 70
     0
  9
$USERI4
 70
     0
  9
$USERI5
 70
     0
  9
$USERR1
 40
0.0
  9
$USERR2
 40
0.0
  9
$USERR3
 40
0.0
  9
$USERR4
 40
0.0
  9
$USERR5
 40
0.0
  9
$WORLDVIEW
 70
     1
  9
$SHADEDGE
 70
     3
  9
$SHADEDIF
 70
    70
  9
$TILEMODE
 70
     1
  9
$MAXACTVP
 70
    16
  9
$PINSBASE
 10
0.0
 20
0.0
 30
0.0
  9
$PLIMCHECK
 70
     0
  9
$PEXTMIN
 10
0.0
 20
0.0
 30
0.0
  9
$PEXTMAX
 10
1800.0
 20
1800.0
 30
1800.0
  9
$PLIMMIN
 10
0.0
 20
0.0
  9
$PLIMMAX
 10
1188.0
 20
840.0
  9
$UNITMODE
 70
     0
  9
$VISRETAIN
 70
     0
  9
$PLINEGEN
 70
     0
  9
$PSLTSCALE
 70
     1
  9
$TREEDEPTH
 70
  3020
  9
$CMLSTYLE
  2
STANDARD
  9
$CMLJUST
 70
     0
  9
$CMLSCALE
 40
1.0
  9
$PROXYGRAPHICS
 70
     0
  9
$MEASUREMENT
 70
     0
  9
$CELWEIGHT
370
    -1
  9
$ENDCAPS
280
     0
  9
$JOINSTYLE
280
     0
  9
$LWDISPLAY
290
     1
  9
$INSUNITS
 70
     0
  9
$HYPERLINKBASE
  1

  9
$STYLESHEET
  1
MONOCHROME.CTB
  9
$XEDIT
290
     1
  9
$CEPSNTYPE
380
     0
  9
$PSTYLEMODE
290
     1
  9
$FINGERPRINTGUID
  2
{21C0BD5F-3348-4BE2-9799-4C0337B76E38}
  9
$VERSIONGUID
  2
{F96E834A-6D5B-42FE-BA16-00ACB0ACA656}
  9
$EXTNAMES
290
     1
  9
$PSVPSCALE
 40
0.0
  9
$OLESTARTUP
290
     0
  0
ENDSEC
  0
SECTION
  2
CLASSES
  0
CLASS
  1
ACDBDICTIONARYWDFLT
  2
AcDbDictionaryWithDefault
  3
AutoCAD 2000
 90
        0
280
     0
281
     0
  0
CLASS
  1
ACDBPLACEHOLDER
  2
AcDbPlaceHolder
  3
AutoCAD 2000
 90
        0
280
     0
281
     0
  0
CLASS
  1
LAYOUT
  2
AcDbLayout
  3
AutoCAD 2000
 90
        0
280
     0
281
     0
  0
ENDSEC
  0
SECTION
  2
TABLES
  0
TABLE
  2
VPORT
  5
8
330
0
100
AcDbSymbolTable
 70
     2
  0
VPORT
  5
2FFB
330
8
100
AcDbSymbolTableRecord
100
AcDbViewportTableRecord
  2
*Active
 70
     0
 10
0.0
 20
0.0
 11
1.0
 21
1.0
 12
593.6303611145198
 22
402.1378171869365
 13
0.0
 23
0.0
 14
10.0
 24
10.0
 15
10.0
 25
10.0
 16
0.0
 26
0.0
 36
1.0
 17
0.0
 27
0.0
 37
0.0
 40
1042.411664381398
 41
1.46679499518768
 42
50.0
 43
0.0
 44
0.0
 50
0.0
 51
0.0
 71
     0
 72
   100
 73
     1
 74
     0
 75
     0
 76
     0
 77
     0
 78
     0
281
     0
 65
     1
110
0.0
120
0.0
130
0.0
111
1.0
121
0.0
131
0.0
112
0.0
122
1.0
132
0.0
 79
     0
146
0.0
  0
ENDTAB
  0
TABLE
  2
LTYPE
  5
12D
330
0
100
AcDbSymbolTable
 70
     4
  0
LTYPE
  5
14
330
12D
100
AcDbSymbolTableRecord
100
AcDbLinetypeTableRecord
  2
BYBLOCK
 70
     0
  3

 72
    65
 73
     0
 40
0.0
  0
LTYPE
  5
15
330
12D
100
AcDbSymbolTableRecord
100
AcDbLinetypeTableRecord
  2
BYLAYER
 70
     0
  3

 72
    65
 73
     0
 40
0.0
  0
LTYPE
  5
92
330
12D
100
AcDbSymbolTableRecord
100
AcDbLinetypeTableRecord
  2
CONTINUOUS
 70
     0
  3
Solid line
 72
    65
 73
     0
 40
0.0
  0
LTYPE
  5
97
330
12D
100
AcDbSymbolTableRecord
100
AcDbLinetypeTableRecord
  2
CENTER2
 70
     0
  3
___ _ ___ _ ___ _ ___ _ ___ _ ___ _ ___ _ ___ _
 72
    65
 73
     4
 40
1.125
 49
0.75
 74
     0
 49
-0.125
 74
     0
 49
0.125
 74
     0
 49
-0.125
 74
     0
  0
LTYPE
  5
A5
330
12D
100
AcDbSymbolTableRecord
100
AcDbLinetypeTableRecord
  2
HIDDEN
 70
     0
  3
__ __ __ __ __ __ __ __ __ __ __ __ __ __ __ __
 72
    65
 73
     2
 40
0.375
 49
0.25
 74
     0
 49
-0.125
 74
     0
  0
LTYPE
  5
A9
330
12D
100
AcDbSymbolTableRecord
100
AcDbLinetypeTableRecord
  2
PHANTOM2
 70
     0
  3
___ _ _ ___ _ _ ___ _ _ ___ _ _ ___ _ _ ___ _ _
 72
    65
 73
     6
 40
1.25
 49
0.625
 74
     0
 49
-0.125
 74
     0
 49
0.125
 74
     0
 49
-0.125
 74
     0
 49
0.125
 74
     0
 49
-0.125
 74
     0
  0
ENDTAB
  0
TABLE
  2
LAYER
  5
12E
330
0
100
AcDbSymbolTable
 70
     3
  0
LAYER
  5
12F
330
12E
100
AcDbSymbolTableRecord
100
AcDbLayerTableRecord
  2
0
 70
     0
 62
     7
  6
CONTINUOUS
370
    -3
390
1132
  0
LAYER
  5
101E
330
12E
100
AcDbSymbolTableRecord
100
AcDbLayerTableRecord
  2
DEFPOINTS
 70
     0
 62
     7
  6
CONTINUOUS
290
     0
370
    -3
390
1132
  0
LAYER
  5
135C
330
12E
100
AcDbSymbolTableRecord
100
AcDbLayerTableRecord
  2
文字
 70
     0
 62
     7
  6
CONTINUOUS
370
    -3
390
1132
  0
ENDTAB
  0
TABLE
  2
STYLE
  5
3
330
0
100
AcDbSymbolTable
 70
     2
  0
STYLE
  5
10
330
3
100
AcDbSymbolTableRecord
100
AcDbTextStyleTableRecord
  2
STANDARD
 70
     0
 40
0.0
 41
0.8
 50
0.0
 71
     0
 42
3.5
  3
simplex
  4
extfont
  0
STYLE
  5
135D
330
3
100
AcDbSymbolTableRecord
100
AcDbTextStyleTableRecord
  2
ED_VECTOR
 70
     0
 40
0.0
 41
1.0
 50
0.0
 71
     0
 42
0.2
  3
MONOTXT.SHX
  4
BIGFONT.SHX
  0
ENDTAB
  0
TABLE
  2
VIEW
  5
6
330
0
100
AcDbSymbolTable
 70
     0
  0
ENDTAB
  0
TABLE
  2
UCS
  5
7
330
0
100
AcDbSymbolTable
 70
     0
  0
ENDTAB
  0
TABLE
  2
APPID
  5
9
330
0
100
AcDbSymbolTable
 70
     1
  0
APPID
  5
11
330
9
100
AcDbSymbolTableRecord
100
AcDbRegAppTableRecord
  2
ACAD
 70
     0
  0
ENDTAB
  0
TABLE
  2
DIMSTYLE
  5
A
330
0
100
AcDbSymbolTable
 70
     2
100
AcDbDimStyleTable
 71
     1
340
1D
  0
DIMSTYLE
105
1D
102
{ACAD_REACTORS
330
62A
330
62B
330
62C
330
62D
330
62E
330
62F
330
630
330
631
330
632
330
633
330
635
330
636
330
637
330
639
330
63A
330
63B
330
63D
330
63E
330
6BA
330
6BB
330
6BC
330
280F
330
280E
330
283B
330
283C
330
28B3
102
}
330
A
100
AcDbSymbolTableRecord
100
AcDbDimStyleTableRecord
  2
DIM1
 70
     0
 41
4.0
 42
1.0
 43
30.0
 44
1.0
 73
     0
 74
     0
 77
     1
 78
     8
140
6.0
141
0.0
146
0.5
147
1.5
172
     1
173
     1
176
     3
177
     3
284
     8
288
     1
340
10
341
C0
342
C0
343
C0
344
C0
  0
DIMSTYLE
105
2936
330
A
100
AcDbSymbolTableRecord
100
AcDbDimStyleTableRecord
  2
STANDARD_WS
 70
     0
 41
3.0
 42
2.0
 43
4.0
 44
2.0
 73
     0
 77
     1
 78
     8
140
2.5
141
3.0
143
0.0394
147
1.0
171
     4
172
     1
271
     0
272
     0
273
     8
274
     4
340
10
  0
ENDTAB
  0
TABLE
  2
BLOCK_RECORD
  5
1
330
0
100
AcDbSymbolTable
 70
    58
  0
BLOCK_RECORD
  5
19
330
1
100
AcDbSymbolTableRecord
100
AcDbBlockTableRecord
  2
*MODEL_SPACE
340
1135
  0
BLOCK_RECORD
  5
16
330
1
100
AcDbSymbolTableRecord
100
AcDbBlockTableRecord
  2
*PAPER_SPACE
340
1136
  0
BLOCK_RECORD
  5
C0
330
1
100
AcDbSymbolTableRecord
100
AcDbBlockTableRecord
  2
_OPEN
340
0
102
{BLKREFS
331
10AD
331
10AE
331
1081
331
1082
331
10A2
331
10A3
331
1097
331
1098
331
10FC
331
10FD
331
10F1
331
10F2
331
10E6
331
10E7
331
10DB
331
10DC
331
10B8
331
10B9
331
1112
331
1113
331
1032
331
1033
331
1048
331
1049
331
1060
331
1061
331
103D
331
103E
331
1027
331
1028
331
1076
331
1077
331
10D0
331
10D1
331
101B
331
101C
331
106B
331
106C
331
1107
331
1108
331
282B
331
282C
331
2834
331
2835
331
2858
331
2859
331
2861
331
2862
331
286A
331
286B
331
28BA
331
28BB
331
2DC9
331
2DCA
331
2DD5
331
2DD6
331
2DE1
331
2DE2
331
2DED
331
2DEE
331
2DF9
331
2DFA
331
2E05
331
2E06
331
2E11
331
2E12
331
2E1D
331
2E1E
331
2E29
331
2E2A
331
2E35
331
2E36
331
2E41
331
2E42
331
2E4D
331
2E4E
331
2E59
331
2E5A
331
2E65
331
2E66
331
2E71
331
2E72
331
2E7D
331
2E7E
331
2E89
331
2E8A
331
2E97
331
2E98
331
2EA3
331
2EA4
331
2EAF
331
2EB0
331
2EBB
331
2EBC
331
2EC7
331
2EC8
331
2ED3
331
2ED4
331
2EDF
331
2EE0
331
2EEB
331
2EEC
331
2EF9
331
2EFA
331
2F04
331
2F05
331
2F0D
331
2F0E
331
2F16
331
2F17
331
2F1F
331
2F20
331
2F28
331
2F29
331
2F31
331
2F32
331
2F3A
331
2F3B
331
2F43
331
2F44
331
2F4C
331
2F4D
331
2F55
331
2F56
331
2F5E
331
2F5F
331
2F67
331
2F68
331
2F70
331
2F71
331
2F79
331
2F7A
331
2F82
331
2F83
331
2F8B
331
2F8C
331
2F94
331
2F95
331
2F9F
331
2FA0
331
2FA8
331
2FA9
331
2FB1
331
2FB2
331
2FBA
331
2FBB
331
2FC3
331
2FC4
331
2FCC
331
2FCD
331
2FD5
331
2FD6
331
2FDE
331
2FDF
331
2FE9
331
2FEA
102
}
  0
BLOCK_RECORD
  5
C1
330
1
100
AcDbSymbolTableRecord
100
AcDbBlockTableRecord
  2
_ORIGIN
340
0
  0
BLOCK_RECORD
  5
C2
330
1
100
AcDbSymbolTableRecord
100
AcDbBlockTableRecord
  2
_OBLIQUE
340
0
  0
BLOCK_RECORD
  5
C3
330
1
100
AcDbSymbolTableRecord
100
AcDbBlockTableRecord
  2
_NONE
340
0
  0
BLOCK_RECORD
  5
C4
330
1
100
AcDbSymbolTableRecord
100
AcDbBlockTableRecord
  2
_DOT
340
0
  0
BLOCK_RECORD
  5
130
330
1
100
AcDbSymbolTableRecord
100
AcDbBlockTableRecord
  2
*D5
340
0
  0
BLOCK_RECORD
  5
131
330
1
100
AcDbSymbolTableRecord
100
AcDbBlockTableRecord
  2
*D6
340
0
  0
BLOCK_RECORD
  5
132
330
1
100
AcDbSymbolTableRecord
100
AcDbBlockTableRecord
  2
*D7
340
0
  0
BLOCK_RECORD
  5
133
330
1
100
AcDbSymbolTableRecord
100
AcDbBlockTableRecord
  2
*D8
340
0
  0
BLOCK_RECORD
  5
134
330
1
100
AcDbSymbolTableRecord
100
AcDbBlockTableRecord
  2
*D9
340
0
  0
BLOCK_RECORD
  5
135
330
1
100
AcDbSymbolTableRecord
100
AcDbBlockTableRecord
  2
*D10
340
0
  0
BLOCK_RECORD
  5
136
330
1
100
AcDbSymbolTableRecord
100
AcDbBlockTableRecord
  2
*D11
340
0
  0
BLOCK_RECORD
  5
137
330
1
100
AcDbSymbolTableRecord
100
AcDbBlockTableRecord
  2
*D12
340
0
  0
BLOCK_RECORD
  5
138
330
1
100
AcDbSymbolTableRecord
100
AcDbBlockTableRecord
  2
*D13
340
0
  0
BLOCK_RECORD
  5
139
330
1
100
AcDbSymbolTableRecord
100
AcDbBlockTableRecord
  2
*D14
340
0
  0
BLOCK_RECORD
  5
13B
330
1
100
AcDbSymbolTableRecord
100
AcDbBlockTableRecord
  2
*D15
340
0
  0
BLOCK_RECORD
  5
13C
330
1
100
AcDbSymbolTableRecord
100
AcDbBlockTableRecord
  2
*D16
340
0
  0
BLOCK_RECORD
  5
13D
330
1
100
AcDbSymbolTableRecord
100
AcDbBlockTableRecord
  2
*D17
340
0
  0
BLOCK_RECORD
  5
13F
330
1
100
AcDbSymbolTableRecord
100
AcDbBlockTableRecord
  2
*D18
340
0
  0
BLOCK_RECORD
  5
140
330
1
100
AcDbSymbolTableRecord
100
AcDbBlockTableRecord
  2
*D19
340
0
  0
BLOCK_RECORD
  5
141
330
1
100
AcDbSymbolTableRecord
100
AcDbBlockTableRecord
  2
*D20
340
0
  0
BLOCK_RECORD
  5
143
330
1
100
AcDbSymbolTableRecord
100
AcDbBlockTableRecord
  2
*D21
340
0
  0
BLOCK_RECORD
  5
144
330
1
100
AcDbSymbolTableRecord
100
AcDbBlockTableRecord
  2
*D22
340
0
  0
BLOCK_RECORD
  5
145
330
1
100
AcDbSymbolTableRecord
100
AcDbBlockTableRecord
  2
*D23
340
0
  0
BLOCK_RECORD
  5
146
330
1
100
AcDbSymbolTableRecord
100
AcDbBlockTableRecord
  2
*D24
340
0
  0
BLOCK_RECORD
  5
147
330
1
100
AcDbSymbolTableRecord
100
AcDbBlockTableRecord
  2
*D25
340
0
  0
BLOCK_RECORD
  5
2810
330
1
100
AcDbSymbolTableRecord
100
AcDbBlockTableRecord
  2
*D26
340
0
  0
BLOCK_RECORD
  5
281C
330
1
100
AcDbSymbolTableRecord
100
AcDbBlockTableRecord
  2
*D27
340
0
  0
BLOCK_RECORD
  5
283D
330
1
100
AcDbSymbolTableRecord
100
AcDbBlockTableRecord
  2
*D28
340
0
  0
BLOCK_RECORD
  5
2849
330
1
100
AcDbSymbolTableRecord
100
AcDbBlockTableRecord
  2
*D29
340
0
  0
BLOCK_RECORD
  5
2875
330
1
100
AcDbSymbolTableRecord
100
AcDbBlockTableRecord
  2
A$C66D572F7
340
0
  0
BLOCK_RECORD
  5
28B4
330
1
100
AcDbSymbolTableRecord
100
AcDbBlockTableRecord
  2
*D31
340
0
  0
BLOCK_RECORD
  5
2DC5
330
1
100
AcDbSymbolTableRecord
100
AcDbBlockTableRecord
  2
*D32
340
0
  0
BLOCK_RECORD
  5
2DD1
330
1
100
AcDbSymbolTableRecord
100
AcDbBlockTableRecord
  2
*D33
340
0
  0
BLOCK_RECORD
  5
2DDD
330
1
100
AcDbSymbolTableRecord
100
AcDbBlockTableRecord
  2
*D34
340
0
  0
BLOCK_RECORD
  5
2DE9
330
1
100
AcDbSymbolTableRecord
100
AcDbBlockTableRecord
  2
*D35
340
0
  0
BLOCK_RECORD
  5
2DF5
330
1
100
AcDbSymbolTableRecord
100
AcDbBlockTableRecord
  2
*D36
340
0
  0
BLOCK_RECORD
  5
2E01
330
1
100
AcDbSymbolTableRecord
100
AcDbBlockTableRecord
  2
*D37
340
0
  0
BLOCK_RECORD
  5
2E0D
330
1
100
AcDbSymbolTableRecord
100
AcDbBlockTableRecord
  2
*D38
340
0
  0
BLOCK_RECORD
  5
2E19
330
1
100
AcDbSymbolTableRecord
100
AcDbBlockTableRecord
  2
*D39
340
0
  0
BLOCK_RECORD
  5
2E25
330
1
100
AcDbSymbolTableRecord
100
AcDbBlockTableRecord
  2
*D40
340
0
  0
BLOCK_RECORD
  5
2E31
330
1
100
AcDbSymbolTableRecord
100
AcDbBlockTableRecord
  2
*D41
340
0
  0
BLOCK_RECORD
  5
2E3D
330
1
100
AcDbSymbolTableRecord
100
AcDbBlockTableRecord
  2
*D42
340
0
  0
BLOCK_RECORD
  5
2E49
330
1
100
AcDbSymbolTableRecord
100
AcDbBlockTableRecord
  2
*D43
340
0
  0
BLOCK_RECORD
  5
2E55
330
1
100
AcDbSymbolTableRecord
100
AcDbBlockTableRecord
  2
*D44
340
0
  0
BLOCK_RECORD
  5
2E61
330
1
100
AcDbSymbolTableRecord
100
AcDbBlockTableRecord
  2
*D45
340
0
  0
BLOCK_RECORD
  5
2E6D
330
1
100
AcDbSymbolTableRecord
100
AcDbBlockTableRecord
  2
*D46
340
0
  0
BLOCK_RECORD
  5
2E79
330
1
100
AcDbSymbolTableRecord
100
AcDbBlockTableRecord
  2
*D47
340
0
  0
BLOCK_RECORD
  5
2E85
330
1
100
AcDbSymbolTableRecord
100
AcDbBlockTableRecord
  2
*D48
340
0
  0
BLOCK_RECORD
  5
2E91
330
1
100
AcDbSymbolTableRecord
100
AcDbBlockTableRecord
  2
*D49
340
0
  0
BLOCK_RECORD
  5
2E9F
330
1
100
AcDbSymbolTableRecord
100
AcDbBlockTableRecord
  2
*D50
340
0
  0
BLOCK_RECORD
  5
2EAB
330
1
100
AcDbSymbolTableRecord
100
AcDbBlockTableRecord
  2
*D51
340
0
  0
BLOCK_RECORD
  5
2EB7
330
1
100
AcDbSymbolTableRecord
100
AcDbBlockTableRecord
  2
*D52
340
0
  0
BLOCK_RECORD
  5
2EC3
330
1
100
AcDbSymbolTableRecord
100
AcDbBlockTableRecord
  2
*D53
340
0
  0
BLOCK_RECORD
  5
2ECF
330
1
100
AcDbSymbolTableRecord
100
AcDbBlockTableRecord
  2
*D54
340
0
  0
BLOCK_RECORD
  5
2EDB
330
1
100
AcDbSymbolTableRecord
100
AcDbBlockTableRecord
  2
*D55
340
0
  0
BLOCK_RECORD
  5
2EE7
330
1
100
AcDbSymbolTableRecord
100
AcDbBlockTableRecord
  2
*D56
340
0
  0
BLOCK_RECORD
  5
2EF3
330
1
100
AcDbSymbolTableRecord
100
AcDbBlockTableRecord
  2
*D57
340
0
  0
ENDTAB
  0
ENDSEC
  0
SECTION
  2
BLOCKS
  0
BLOCK
  5
1A
330
19
100
AcDbEntity
  8
0
100
AcDbBlockBegin
  2
*MODEL_SPACE
 70
     0
 10
0.0
 20
0.0
 30
0.0
  3
*MODEL_SPACE
  1

  0
ENDBLK
  5
1B
330
19
100
AcDbEntity
  8
0
100
AcDbBlockEnd
  0
BLOCK
  5
17
330
16
100
AcDbEntity
 67
     1
  8
0
100
AcDbBlockBegin
  2
*PAPER_SPACE
 70
     0
 10
0.0
 20
0.0
 30
0.0
  3
*PAPER_SPACE
  1

  0
ENDBLK
  5
18
330
16
100
AcDbEntity
 67
     1
  8
0
100
AcDbBlockEnd
  0
BLOCK
  5
2B
330
C0
100
AcDbEntity
  8
0
100
AcDbBlockBegin
  2
_OPEN
 70
     0
 10
0.0
 20
0.0
 30
0.0
  3
_OPEN
  1

  0
LINE
  5
2C
330
C0
100
AcDbEntity
  8
0
  6
ByBlock
 62
     0
100
AcDbLine
 10
-1.0
 20
0.1667
 30
0.0
 11
0.0
 21
0.0
 31
0.0
  0
LINE
  5
2D
330
C0
100
AcDbEntity
  8
0
  6
ByBlock
 62
     0
100
AcDbLine
 10
0.0
 20
0.0
 30
0.0
 11
-1.0
 21
-0.1667
 31
0.0
  0
LINE
  5
2E
330
C0
100
AcDbEntity
  8
0
  6
ByBlock
 62
     0
100
AcDbLine
 10
0.0
 20
0.0
 30
0.0
 11
-1.0
 21
0.0
 31
0.0
  0
ENDBLK
  5
2F
330
C0
100
AcDbEntity
  8
0
100
AcDbBlockEnd
  0
BLOCK
  5
C5
330
C1
100
AcDbEntity
  8
0
100
AcDbBlockBegin
  2
_ORIGIN
 70
     0
 10
0.0
 20
0.0
 30
0.0
  3
_ORIGIN
  1

  0
CIRCLE
  5
C6
330
C1
100
AcDbEntity
  8
0
  6
ByBlock
 62
     0
100
AcDbCircle
 10
0.0
 20
0.0
 30
0.0
 40
0.5
  0
LINE
  5
C7
330
C1
100
AcDbEntity
  8
0
  6
ByBlock
 62
     0
100
AcDbLine
 10
0.0
 20
0.0
 30
0.0
 11
-1.0
 21
0.0
 31
0.0
  0
ENDBLK
  5
C8
330
C1
100
AcDbEntity
  8
0
100
AcDbBlockEnd
  0
BLOCK
  5
D0
330
C2
100
AcDbEntity
  8
0
100
AcDbBlockBegin
  2
_OBLIQUE
 70
     0
 10
0.0
 20
0.0
 30
0.0
  3
_OBLIQUE
  1

  0
LINE
  5
E0
330
C2
100
AcDbEntity
  8
0
  6
ByBlock
 62
     0
100
AcDbLine
 10
-0.5
 20
-0.5
 30
0.0
 11
0.5
 21
0.5
 31
0.0
  0
ENDBLK
  5
E1
330
C2
100
AcDbEntity
  8
0
100
AcDbBlockEnd
  0
BLOCK
  5
E2
330
C3
100
AcDbEntity
  8
0
100
AcDbBlockBegin
  2
_NONE
 70
     0
 10
0.0
 20
0.0
 30
0.0
  3
_NONE
  1

  0
CIRCLE
  5
E3
330
C3
100
AcDbEntity
  8
0
  6
ByBlock
 62
     0
100
AcDbCircle
 10
0.0
 20
0.0
 30
0.0
 40
0.25
  0
ENDBLK
  5
E4
330
C3
100
AcDbEntity
  8
0
100
AcDbBlockEnd
  0
BLOCK
  5
C9
330
C4
100
AcDbEntity
  8
0
100
AcDbBlockBegin
  2
_DOT
 70
     0
 10
0.0
 20
0.0
 30
0.0
  3
_DOT
  1

  0
LWPOLYLINE
  5
CA
330
C4
100
AcDbEntity
  8
0
  6
ByBlock
 62
     0
100
AcDbPolyline
 90
        2
 70
     1
 43
0.5
 10
-0.25
 20
0.0
 42
1.0
 10
0.25
 20
0.0
 42
1.0
  0
LINE
  5
CE
330
C4
100
AcDbEntity
  8
0
  6
ByBlock
 62
     0
100
AcDbLine
 10
-0.5
 20
0.0
 30
0.0
 11
-1.0
 21
0.0
 31
0.0
  0
ENDBLK
  5
CF
330
C4
100
AcDbEntity
  8
0
100
AcDbBlockEnd
  0
BLOCK
  5
10A9
330
130
100
AcDbEntity
  8
0
 48
10.0
100
AcDbBlockBegin
  2
*D5
 70
     1
 10
0.0
 20
0.0
 30
0.0
  3
*D5
  1

  0
LINE
  5
10AA
330
130
100
AcDbEntity
  8
0
  6
ByBlock
 62
     3
 48
10.0
100
AcDbLine
 10
802.576548
 20
349.6936799999998
 30
0.0
 11
802.576548
 21
336.180679
 31
0.0
  0
LINE
  5
10AB
330
130
100
AcDbEntity
  8
0
  6
ByBlock
 62
     3
 48
10.0
100
AcDbLine
 10
977.576548
 20
349.6936799999998
 30
0.0
 11
977.576548
 21
336.180679
 31
0.0
  0
LINE
  5
10AC
330
130
100
AcDbEntity
  8
0
  6
ByBlock
 62
     3
 48
10.0
100
AcDbLine
 10
806.5765479999999
 20
337.1806789999999
 30
0.0
 11
973.5765479999999
 21
337.1806789999999
 31
0.0
  0
INSERT
  5
10AD
330
130
100
AcDbEntity
  8
0
  6
ByBlock
 62
     3
 48
10.0
100
AcDbBlockReference
  2
_OPEN
 10
802.576548
 20
337.1806789999999
 30
0.0
 41
4.0
 42
4.0
 43
4.0
 50
180.0
  0
INSERT
  5
10AE
330
130
100
AcDbEntity
  8
0
  6
ByBlock
 62
     3
 48
10.0
100
AcDbBlockReference
  2
_OPEN
 10
977.576548
 20
337.1806789999999
 30
0.0
 41
4.0
 42
4.0
 43
4.0
  0
MTEXT
  5
10AF
330
130
100
AcDbEntity
  8
0
  6
ByBlock
 62
     0
 48
10.0
100
AcDbMText
 10
890.1065480000001
 20
341.6806789999998
 30
0.0
 40
6.0
 41
0.0
 71
     5
 72
     1
  1
\A1;175
 73
     1
 44
1.0
  0
POINT
  5
10B0
330
130
100
AcDbEntity
  8
DEFPOINTS
  6
ByBlock
 62
     0
 48
10.0
100
AcDbPoint
 10
802.576548
 20
350.6936799999998
 30
0.0
  0
POINT
  5
10B1
330
130
100
AcDbEntity
  8
DEFPOINTS
  6
ByBlock
 62
     0
 48
10.0
100
AcDbPoint
 10
977.576548
 20
350.6936799999998
 30
0.0
  0
POINT
  5
10B2
330
130
100
AcDbEntity
  8
DEFPOINTS
  6
ByBlock
 62
     0
 48
10.0
100
AcDbPoint
 10
977.576548
 20
337.1806789999999
 30
0.0
  0
ENDBLK
  5
10B3
330
130
100
AcDbEntity
  8
0
 48
10.0
100
AcDbBlockEnd
  0
BLOCK
  5
107D
330
131
100
AcDbEntity
  8
0
 48
10.0
100
AcDbBlockBegin
  2
*D6
 70
     1
 10
0.0
 20
0.0
 30
0.0
  3
*D6
  1

  0
LINE
  5
107E
330
131
100
AcDbEntity
  8
0
  6
ByBlock
 62
     3
 48
10.0
100
AcDbLine
 10
735.576548
 20
491.1936799999998
 30
0.0
 11
735.576548
 21
229.1612419999999
 31
0.0
  0
LINE
  5
107F
330
131
100
AcDbEntity
  8
0
  6
ByBlock
 62
     3
 48
10.0
100
AcDbLine
 10
762.576548
 20
280.6936799999999
 30
0.0
 11
762.576548
 21
229.1612419999999
 31
0.0
  0
LINE
  5
1080
330
131
100
AcDbEntity
  8
0
  6
ByBlock
 62
     3
 48
10.0
100
AcDbLine
 10
739.576548
 20
230.161242
 30
0.0
 11
758.576548
 21
230.161242
 31
0.0
  0
INSERT
  5
1081
330
131
100
AcDbEntity
  8
0
  6
ByBlock
 62
     3
 48
10.0
100
AcDbBlockReference
  2
_OPEN
 10
735.576548
 20
230.161242
 30
0.0
 41
4.0
 42
4.0
 43
4.0
 50
180.0
  0
INSERT
  5
1082
330
131
100
AcDbEntity
  8
0
  6
ByBlock
 62
     3
 48
10.0
100
AcDbBlockReference
  2
_OPEN
 10
762.576548
 20
230.161242
 30
0.0
 41
4.0
 42
4.0
 43
4.0
  0
MTEXT
  5
1083
330
131
100
AcDbEntity
  8
0
  6
ByBlock
 62
     0
 48
10.0
100
AcDbMText
 10
749.096548
 20
234.661242
 30
0.0
 40
6.0
 41
0.0
 71
     5
 72
     1
  1
\A1;27
 73
     1
 44
1.0
  0
POINT
  5
1084
330
131
100
AcDbEntity
  8
DEFPOINTS
  6
ByBlock
 62
     0
 48
10.0
100
AcDbPoint
 10
735.576548
 20
492.19368
 30
0.0
  0
POINT
  5
1085
330
131
100
AcDbEntity
  8
DEFPOINTS
  6
ByBlock
 62
     0
 48
10.0
100
AcDbPoint
 10
762.576548
 20
281.6936799999998
 30
0.0
  0
POINT
  5
1086
330
131
100
AcDbEntity
  8
DEFPOINTS
  6
ByBlock
 62
     0
 48
10.0
100
AcDbPoint
 10
762.576548
 20
230.161242
 30
0.0
  0
ENDBLK
  5
1087
330
131
100
AcDbEntity
  8
0
 48
10.0
100
AcDbBlockEnd
  0
BLOCK
  5
109E
330
132
100
AcDbEntity
  8
0
 48
10.0
100
AcDbBlockBegin
  2
*D7
 70
     1
 10
0.0
 20
0.0
 30
0.0
  3
*D7
  1

  0
LINE
  5
109F
330
132
100
AcDbEntity
  8
0
  6
ByBlock
 62
     3
 48
10.0
100
AcDbLine
 10
762.576548
 20
280.6936799999999
 30
0.0
 11
762.576548
 21
229.1612419999999
 31
0.0
  0
LINE
  5
10A0
330
132
100
AcDbEntity
  8
0
  6
ByBlock
 62
     3
 48
10.0
100
AcDbLine
 10
1052.576548
 20
279.6936799999999
 30
0.0
 11
1052.576548
 21
229.1612419999999
 31
0.0
  0
LINE
  5
10A1
330
132
100
AcDbEntity
  8
0
  6
ByBlock
 62
     3
 48
10.0
100
AcDbLine
 10
766.576548
 20
230.161242
 30
0.0
 11
1048.576547999998
 21
230.161242
 31
0.0
  0
INSERT
  5
10A2
330
132
100
AcDbEntity
  8
0
  6
ByBlock
 62
     3
 48
10.0
100
AcDbBlockReference
  2
_OPEN
 10
762.576548
 20
230.161242
 30
0.0
 41
4.0
 42
4.0
 43
4.0
 50
180.0
  0
INSERT
  5
10A3
330
132
100
AcDbEntity
  8
0
  6
ByBlock
 62
     3
 48
10.0
100
AcDbBlockReference
  2
_OPEN
 10
1052.576548
 20
230.161242
 30
0.0
 41
4.0
 42
4.0
 43
4.0
  0
MTEXT
  5
10A4
330
132
100
AcDbEntity
  8
0
  6
ByBlock
 62
     0
 48
10.0
100
AcDbMText
 10
907.606548
 20
234.661242
 30
0.0
 40
6.0
 41
0.0
 71
     5
 72
     1
  1
\A1;290
 73
     1
 44
1.0
  0
POINT
  5
10A5
330
132
100
AcDbEntity
  8
DEFPOINTS
  6
ByBlock
 62
     0
 48
10.0
100
AcDbPoint
 10
762.576548
 20
281.6936799999998
 30
0.0
  0
POINT
  5
10A6
330
132
100
AcDbEntity
  8
DEFPOINTS
  6
ByBlock
 62
     0
 48
10.0
100
AcDbPoint
 10
1052.576548
 20
280.6936799999999
 30
0.0
  0
POINT
  5
10A7
330
132
100
AcDbEntity
  8
DEFPOINTS
  6
ByBlock
 62
     0
 48
10.0
100
AcDbPoint
 10
1052.576548
 20
230.161242
 30
0.0
  0
ENDBLK
  5
10A8
330
132
100
AcDbEntity
  8
0
 48
10.0
100
AcDbBlockEnd
  0
BLOCK
  5
1093
330
133
100
AcDbEntity
  8
0
 48
10.0
100
AcDbBlockBegin
  2
*D8
 70
     1
 10
0.0
 20
0.0
 30
0.0
  3
*D8
  1

  0
LINE
  5
1094
330
133
100
AcDbEntity
  8
0
  6
ByBlock
 62
     3
 48
10.0
100
AcDbLine
 10
978.576548
 20
310.6936799999998
 30
0.0
 11
925.6666119999996
 21
310.6936799999998
 31
0.0
  0
LINE
  5
1095
330
133
100
AcDbEntity
  8
0
  6
ByBlock
 62
     3
 48
10.0
100
AcDbLine
 10
987.576548
 20
285.6936799999998
 30
0.0
 11
925.6666119999996
 21
285.6936799999998
 31
0.0
  0
LINE
  5
1096
330
133
100
AcDbEntity
  8
0
  6
ByBlock
 62
     3
 48
10.0
100
AcDbLine
 10
926.6666119999996
 20
306.6936799999998
 30
0.0
 11
926.6666119999996
 21
289.6936799999998
 31
0.0
  0
INSERT
  5
1097
330
133
100
AcDbEntity
  8
0
  6
ByBlock
 62
     3
 48
10.0
100
AcDbBlockReference
  2
_OPEN
 10
926.6666119999996
 20
310.6936799999998
 30
0.0
 41
4.0
 42
4.0
 43
4.0
 50
90.0
  0
INSERT
  5
1098
330
133
100
AcDbEntity
  8
0
  6
ByBlock
 62
     3
 48
10.0
100
AcDbBlockReference
  2
_OPEN
 10
926.6666119999996
 20
285.6936799999998
 30
0.0
 41
4.0
 42
4.0
 43
4.0
 50
270.0
  0
MTEXT
  5
1099
330
133
100
AcDbEntity
  8
0
  6
ByBlock
 62
     0
 48
10.0
100
AcDbMText
 10
922.1666119999996
 20
298.2136799999998
 30
0.0
 40
6.0
 41
0.0
 71
     5
 72
     1
  1
\A1;25
 11
0.0
 21
1.0
 31
0.0
 73
     1
 44
1.0
  0
POINT
  5
109A
330
133
100
AcDbEntity
  8
DEFPOINTS
  6
ByBlock
 62
     0
 48
10.0
100
AcDbPoint
 10
979.576548
 20
310.6936799999998
 30
0.0
  0
POINT
  5
109B
330
133
100
AcDbEntity
  8
DEFPOINTS
  6
ByBlock
 62
     0
 48
10.0
100
AcDbPoint
 10
988.5765479999999
 20
285.6936799999998
 30
0.0
  0
POINT
  5
109C
330
133
100
AcDbEntity
  8
DEFPOINTS
  6
ByBlock
 62
     0
 48
10.0
100
AcDbPoint
 10
926.6666119999996
 20
285.6936799999998
 30
0.0
  0
ENDBLK
  5
109D
330
133
100
AcDbEntity
  8
0
 48
10.0
100
AcDbBlockEnd
  0
BLOCK
  5
10F8
330
134
100
AcDbEntity
  8
0
 48
10.0
100
AcDbBlockBegin
  2
*D9
 70
     1
 10
0.0
 20
0.0
 30
0.0
  3
*D9
  1

  0
LINE
  5
10F9
330
134
100
AcDbEntity
  8
0
  6
ByBlock
 62
     3
 48
10.0
100
AcDbLine
 10
992.576548
 20
311.6936799999998
 30
0.0
 11
992.576548
 21
322.818534
 31
0.0
  0
LINE
  5
10FA
330
134
100
AcDbEntity
  8
0
  6
ByBlock
 62
     3
 48
10.0
100
AcDbLine
 10
968.576548
 20
311.6936799999998
 30
0.0
 11
968.576548
 21
322.818534
 31
0.0
  0
LINE
  5
10FB
330
134
100
AcDbEntity
  8
0
  6
ByBlock
 62
     3
 48
10.0
100
AcDbLine
 10
988.5765479999999
 20
321.818534
 30
0.0
 11
972.5765479999999
 21
321.818534
 31
0.0
  0
INSERT
  5
10FC
330
134
100
AcDbEntity
  8
0
  6
ByBlock
 62
     3
 48
10.0
100
AcDbBlockReference
  2
_OPEN
 10
992.576548
 20
321.818534
 30
0.0
 41
4.0
 42
4.0
 43
4.0
  0
INSERT
  5
10FD
330
134
100
AcDbEntity
  8
0
  6
ByBlock
 62
     3
 48
10.0
100
AcDbBlockReference
  2
_OPEN
 10
968.576548
 20
321.818534
 30
0.0
 41
4.0
 42
4.0
 43
4.0
 50
180.0
  0
MTEXT
  5
10FE
330
134
100
AcDbEntity
  8
0
  6
ByBlock
 62
     0
 48
10.0
100
AcDbMText
 10
980.5965479999999
 20
326.318534
 30
0.0
 40
6.0
 41
0.0
 71
     5
 72
     1
  1
\A1;24
 73
     1
 44
1.0
  0
POINT
  5
10FF
330
134
100
AcDbEntity
  8
DEFPOINTS
  6
ByBlock
 62
     0
 48
10.0
100
AcDbPoint
 10
992.576548
 20
310.6936799999998
 30
0.0
  0
POINT
  5
1100
330
134
100
AcDbEntity
  8
DEFPOINTS
  6
ByBlock
 62
     0
 48
10.0
100
AcDbPoint
 10
968.576548
 20
310.6936799999998
 30
0.0
  0
POINT
  5
1101
330
134
100
AcDbEntity
  8
DEFPOINTS
  6
ByBlock
 62
     0
 48
10.0
100
AcDbPoint
 10
968.576548
 20
321.818534
 30
0.0
  0
ENDBLK
  5
1102
330
134
100
AcDbEntity
  8
0
 48
10.0
100
AcDbBlockEnd
  0
BLOCK
  5
10ED
330
135
100
AcDbEntity
  8
0
 48
10.0
100
AcDbBlockBegin
  2
*D10
 70
     1
 10
0.0
 20
0.0
 30
0.0
  3
*D10
  1

  0
LINE
  5
10EE
330
135
100
AcDbEntity
  8
0
  6
ByBlock
 62
     3
 48
10.0
100
AcDbLine
 10
1052.576548
 20
311.6936799999998
 30
0.0
 11
1052.576548
 21
322.818534
 31
0.0
  0
LINE
  5
10EF
330
135
100
AcDbEntity
  8
0
  6
ByBlock
 62
     3
 48
10.0
100
AcDbLine
 10
992.576548
 20
311.6936799999998
 30
0.0
 11
992.576548
 21
322.818534
 31
0.0
  0
LINE
  5
10F0
330
135
100
AcDbEntity
  8
0
  6
ByBlock
 62
     3
 48
10.0
100
AcDbLine
 10
1048.576547999998
 20
321.818534
 30
0.0
 11
996.5765479999999
 21
321.818534
 31
0.0
  0
INSERT
  5
10F1
330
135
100
AcDbEntity
  8
0
  6
ByBlock
 62
     3
 48
10.0
100
AcDbBlockReference
  2
_OPEN
 10
1052.576548
 20
321.818534
 30
0.0
 41
4.0
 42
4.0
 43
4.0
  0
INSERT
  5
10F2
330
135
100
AcDbEntity
  8
0
  6
ByBlock
 62
     3
 48
10.0
100
AcDbBlockReference
  2
_OPEN
 10
992.576548
 20
321.818534
 30
0.0
 41
4.0
 42
4.0
 43
4.0
 50
180.0
  0
MTEXT
  5
10F3
330
135
100
AcDbEntity
  8
0
  6
ByBlock
 62
     0
 48
10.0
100
AcDbMText
 10
1022.596548
 20
326.318534
 30
0.0
 40
6.0
 41
0.0
 71
     5
 72
     1
  1
\A1;60
 73
     1
 44
1.0
  0
POINT
  5
10F4
330
135
100
AcDbEntity
  8
DEFPOINTS
  6
ByBlock
 62
     0
 48
10.0
100
AcDbPoint
 10
1052.576548
 20
310.6936799999998
 30
0.0
  0
POINT
  5
10F5
330
135
100
AcDbEntity
  8
DEFPOINTS
  6
ByBlock
 62
     0
 48
10.0
100
AcDbPoint
 10
992.576548
 20
310.6936799999998
 30
0.0
  0
POINT
  5
10F6
330
135
100
AcDbEntity
  8
DEFPOINTS
  6
ByBlock
 62
     0
 48
10.0
100
AcDbPoint
 10
992.576548
 20
321.818534
 30
0.0
  0
ENDBLK
  5
10F7
330
135
100
AcDbEntity
  8
0
 48
10.0
100
AcDbBlockEnd
  0
BLOCK
  5
10E2
330
136
100
AcDbEntity
  8
0
 48
10.0
100
AcDbBlockBegin
  2
*D11
 70
     1
 10
0.0
 20
0.0
 30
0.0
  3
*D11
  1

  0
LINE
  5
10E3
330
136
100
AcDbEntity
  8
0
  6
ByBlock
 62
     3
 48
10.0
100
AcDbLine
 10
1032.576547999998
 20
264.6936799999999
 30
0.0
 11
1032.576547999998
 21
247.1614849999999
 31
0.0
  0
LINE
  5
10E4
330
136
100
AcDbEntity
  8
0
  6
ByBlock
 62
     3
 48
10.0
100
AcDbLine
 10
1052.576548
 20
279.6936799999999
 30
0.0
 11
1052.576548
 21
247.1614849999999
 31
0.0
  0
LINE
  5
10E5
330
136
100
AcDbEntity
  8
0
  6
ByBlock
 62
     3
 48
10.0
100
AcDbLine
 10
1036.576547999999
 20
248.161485
 30
0.0
 11
1048.576547999998
 21
248.161485
 31
0.0
  0
INSERT
  5
10E6
330
136
100
AcDbEntity
  8
0
  6
ByBlock
 62
     3
 48
10.0
100
AcDbBlockReference
  2
_OPEN
 10
1032.576547999998
 20
248.161485
 30
0.0
 41
4.0
 42
4.0
 43
4.0
 50
180.0
  0
INSERT
  5
10E7
330
136
100
AcDbEntity
  8
0
  6
ByBlock
 62
     3
 48
10.0
100
AcDbBlockReference
  2
_OPEN
 10
1052.576548
 20
248.161485
 30
0.0
 41
4.0
 42
4.0
 43
4.0
  0
MTEXT
  5
10E8
330
136
100
AcDbEntity
  8
0
  6
ByBlock
 62
     0
 48
10.0
100
AcDbMText
 10
1042.596548
 20
252.661485
 30
0.0
 40
6.0
 41
0.0
 71
     5
 72
     1
  1
\A1;20
 73
     1
 44
1.0
  0
POINT
  5
10E9
330
136
100
AcDbEntity
  8
DEFPOINTS
  6
ByBlock
 62
     0
 48
10.0
100
AcDbPoint
 10
1032.576547999998
 20
265.6936799999999
 30
0.0
  0
POINT
  5
10EA
330
136
100
AcDbEntity
  8
DEFPOINTS
  6
ByBlock
 62
     0
 48
10.0
100
AcDbPoint
 10
1052.576548
 20
280.6936799999999
 30
0.0
  0
POINT
  5
10EB
330
136
100
AcDbEntity
  8
DEFPOINTS
  6
ByBlock
 62
     0
 48
10.0
100
AcDbPoint
 10
1052.576548
 20
248.161485
 30
0.0
  0
ENDBLK
  5
10EC
330
136
100
AcDbEntity
  8
0
 48
10.0
100
AcDbBlockEnd
  0
BLOCK
  5
1088
330
137
100
AcDbEntity
  8
0
 48
10.0
100
AcDbBlockBegin
  2
*D12
 70
     1
 10
0.0
 20
0.0
 30
0.0
  3
*D12
  1

  0
LINE
  5
2867
330
137
100
AcDbEntity
  8
0
  6
Continuous
 62
     3
 48
10.0
370
    -2
100
AcDbLine
 10
822.5765479999999
 20
264.6936799999999
 30
0.0
 11
822.5765479999999
 21
247.1614849999999
 31
0.0
  0
LINE
  5
2868
330
137
100
AcDbEntity
  8
0
  6
Continuous
 62
     3
 48
10.0
370
    -2
100
AcDbLine
 10
1032.576547999998
 20
264.6936799999999
 30
0.0
 11
1032.576547999998
 21
247.1614849999999
 31
0.0
  0
LINE
  5
2869
330
137
100
AcDbEntity
  8
0
  6
Continuous
 62
     3
 48
10.0
370
    -2
100
AcDbLine
 10
826.576548
 20
248.161485
 30
0.0
 11
1028.576547999999
 21
248.161485
 31
0.0
  0
INSERT
  5
286A
330
137
100
AcDbEntity
  8
0
  6
Continuous
 62
     3
 48
10.0
370
    -2
100
AcDbBlockReference
  2
_OPEN
 10
822.5765479999999
 20
248.161485
 30
0.0
 41
4.0
 42
4.0
 43
4.0
 50
180.0
  0
INSERT
  5
286B
330
137
100
AcDbEntity
  8
0
  6
Continuous
 62
     3
 48
10.0
370
    -2
100
AcDbBlockReference
  2
_OPEN
 10
1032.576547999998
 20
248.161485
 30
0.0
 41
4.0
 42
4.0
 43
4.0
  0
MTEXT
  5
286C
330
137
100
AcDbEntity
  8
0
  6
Continuous
 62
     0
 48
10.0
100
AcDbMText
 10
907.65034270023
 20
252.661485
 30
0.0
 40
6.0
 41
0.0
 71
     5
 72
     1
  1
\A1;210
 73
     1
 44
1.0
  0
POINT
  5
286D
330
137
100
AcDbEntity
  8
DEFPOINTS
  6
Continuous
 62
     0
 48
10.0
100
AcDbPoint
 10
822.5765479999999
 20
265.6936799999999
 30
0.0
  0
POINT
  5
286E
330
137
100
AcDbEntity
  8
DEFPOINTS
  6
Continuous
 62
     0
 48
10.0
100
AcDbPoint
 10
1032.576547999998
 20
265.6936799999999
 30
0.0
  0
POINT
  5
286F
330
137
100
AcDbEntity
  8
DEFPOINTS
  6
Continuous
 62
     0
 48
10.0
100
AcDbPoint
 10
1032.576547999998
 20
248.161485
 30
0.0
  0
ENDBLK
  5
1092
330
137
100
AcDbEntity
  8
0
 48
10.0
100
AcDbBlockEnd
  0
BLOCK
  5
10D7
330
138
100
AcDbEntity
  8
0
 48
10.0
100
AcDbBlockBegin
  2
*D13
 70
     1
 10
0.0
 20
0.0
 30
0.0
  3
*D13
  1

  0
LINE
  5
10D8
330
138
100
AcDbEntity
  8
0
  6
ByBlock
 62
     3
 48
10.0
100
AcDbLine
 10
802.576548
 20
279.6936799999999
 30
0.0
 11
802.576548
 21
247.1614849999999
 31
0.0
  0
LINE
  5
10D9
330
138
100
AcDbEntity
  8
0
  6
ByBlock
 62
     3
 48
10.0
100
AcDbLine
 10
822.5765479999999
 20
264.6936799999999
 30
0.0
 11
822.5765479999999
 21
247.1614849999999
 31
0.0
  0
LINE
  5
10DA
330
138
100
AcDbEntity
  8
0
  6
ByBlock
 62
     3
 48
10.0
100
AcDbLine
 10
806.5765479999999
 20
248.161485
 30
0.0
 11
818.576548
 21
248.161485
 31
0.0
  0
INSERT
  5
10DB
330
138
100
AcDbEntity
  8
0
  6
ByBlock
 62
     3
 48
10.0
100
AcDbBlockReference
  2
_OPEN
 10
802.576548
 20
248.161485
 30
0.0
 41
4.0
 42
4.0
 43
4.0
 50
180.0
  0
INSERT
  5
10DC
330
138
100
AcDbEntity
  8
0
  6
ByBlock
 62
     3
 48
10.0
100
AcDbBlockReference
  2
_OPEN
 10
822.5765479999999
 20
248.161485
 30
0.0
 41
4.0
 42
4.0
 43
4.0
  0
MTEXT
  5
10DD
330
138
100
AcDbEntity
  8
0
  6
ByBlock
 62
     0
 48
10.0
100
AcDbMText
 10
812.5965480000001
 20
252.661485
 30
0.0
 40
6.0
 41
0.0
 71
     5
 72
     1
  1
\A1;20
 73
     1
 44
1.0
  0
POINT
  5
10DE
330
138
100
AcDbEntity
  8
DEFPOINTS
  6
ByBlock
 62
     0
 48
10.0
100
AcDbPoint
 10
802.576548
 20
280.6936799999999
 30
0.0
  0
POINT
  5
10DF
330
138
100
AcDbEntity
  8
DEFPOINTS
  6
ByBlock
 62
     0
 48
10.0
100
AcDbPoint
 10
822.5765479999999
 20
265.6936799999999
 30
0.0
  0
POINT
  5
10E0
330
138
100
AcDbEntity
  8
DEFPOINTS
  6
ByBlock
 62
     0
 48
10.0
100
AcDbPoint
 10
822.5765479999999
 20
248.161485
 30
0.0
  0
ENDBLK
  5
10E1
330
138
100
AcDbEntity
  8
0
 48
10.0
100
AcDbBlockEnd
  0
BLOCK
  5
10B4
330
139
100
AcDbEntity
  8
0
 48
10.0
100
AcDbBlockBegin
  2
*D14
 70
     1
 10
0.0
 20
0.0
 30
0.0
  3
*D14
  1

  0
LINE
  5
10B5
330
139
100
AcDbEntity
  8
0
  6
ByBlock
 62
     3
 48
10.0
100
AcDbLine
 10
762.576548
 20
280.6936799999999
 30
0.0
 11
762.576548
 21
247.1614849999999
 31
0.0
  0
LINE
  5
10B6
330
139
100
AcDbEntity
  8
0
  6
ByBlock
 62
     3
 48
10.0
100
AcDbLine
 10
802.576548
 20
279.6936799999999
 30
0.0
 11
802.576548
 21
247.1614849999999
 31
0.0
  0
LINE
  5
10B7
330
139
100
AcDbEntity
  8
0
  6
ByBlock
 62
     3
 48
10.0
100
AcDbLine
 10
766.576548
 20
248.161485
 30
0.0
 11
798.576548
 21
248.161485
 31
0.0
  0
INSERT
  5
10B8
330
139
100
AcDbEntity
  8
0
  6
ByBlock
 62
     3
 48
10.0
100
AcDbBlockReference
  2
_OPEN
 10
762.576548
 20
248.161485
 30
0.0
 41
4.0
 42
4.0
 43
4.0
 50
180.0
  0
INSERT
  5
10B9
330
139
100
AcDbEntity
  8
0
  6
ByBlock
 62
     3
 48
10.0
100
AcDbBlockReference
  2
_OPEN
 10
802.576548
 20
248.161485
 30
0.0
 41
4.0
 42
4.0
 43
4.0
  0
MTEXT
  5
10BA
330
139
100
AcDbEntity
  8
0
  6
ByBlock
 62
     0
 48
10.0
100
AcDbMText
 10
782.5965480000001
 20
252.661485
 30
0.0
 40
6.0
 41
0.0
 71
     5
 72
     1
  1
\A1;40
 73
     1
 44
1.0
  0
POINT
  5
10BB
330
139
100
AcDbEntity
  8
DEFPOINTS
  6
ByBlock
 62
     0
 48
10.0
100
AcDbPoint
 10
762.576548
 20
281.6936799999998
 30
0.0
  0
POINT
  5
10BC
330
139
100
AcDbEntity
  8
DEFPOINTS
  6
ByBlock
 62
     0
 48
10.0
100
AcDbPoint
 10
802.576548
 20
280.6936799999999
 30
0.0
  0
POINT
  5
10BD
330
139
100
AcDbEntity
  8
DEFPOINTS
  6
ByBlock
 62
     0
 48
10.0
100
AcDbPoint
 10
802.576548
 20
248.161485
 30
0.0
  0
ENDBLK
  5
10BE
330
139
100
AcDbEntity
  8
0
 48
10.0
100
AcDbBlockEnd
  0
BLOCK
  5
110E
330
13B
100
AcDbEntity
  8
0
 48
10.0
100
AcDbBlockBegin
  2
*D15
 70
     1
 10
0.0
 20
0.0
 30
0.0
  3
*D15
  1

  0
LINE
  5
110F
330
13B
100
AcDbEntity
  8
0
  6
ByBlock
 62
     3
 48
10.0
100
AcDbLine
 10
758.576548
 20
563.6936799999999
 30
0.0
 11
758.576548
 21
589.645283
 31
0.0
  0
LINE
  5
1110
330
13B
100
AcDbEntity
  8
0
  6
ByBlock
 62
     3
 48
10.0
100
AcDbLine
 10
802.576548
 20
571.69368
 30
0.0
 11
802.576548
 21
589.645283
 31
0.0
  0
LINE
  5
1111
330
13B
100
AcDbEntity
  8
0
  6
ByBlock
 62
     3
 48
10.0
100
AcDbLine
 10
762.576548
 20
588.645283
 30
0.0
 11
798.576548
 21
588.645283
 31
0.0
  0
INSERT
  5
1112
330
13B
100
AcDbEntity
  8
0
  6
ByBlock
 62
     3
 48
10.0
100
AcDbBlockReference
  2
_OPEN
 10
758.576548
 20
588.645283
 30
0.0
 41
4.0
 42
4.0
 43
4.0
 50
180.0
  0
INSERT
  5
1113
330
13B
100
AcDbEntity
  8
0
  6
ByBlock
 62
     3
 48
10.0
100
AcDbBlockReference
  2
_OPEN
 10
802.576548
 20
588.645283
 30
0.0
 41
4.0
 42
4.0
 43
4.0
  0
MTEXT
  5
1114
330
13B
100
AcDbEntity
  8
0
  6
ByBlock
 62
     0
 48
10.0
100
AcDbMText
 10
780.5965480000001
 20
593.145283
 30
0.0
 40
6.0
 41
0.0
 71
     5
 72
     1
  1
\A1;44
 73
     1
 44
1.0
  0
POINT
  5
1115
330
13B
100
AcDbEntity
  8
DEFPOINTS
  6
ByBlock
 62
     0
 48
10.0
100
AcDbPoint
 10
758.576548
 20
562.69368
 30
0.0
  0
POINT
  5
1116
330
13B
100
AcDbEntity
  8
DEFPOINTS
  6
ByBlock
 62
     0
 48
10.0
100
AcDbPoint
 10
802.576548
 20
570.69368
 30
0.0
  0
POINT
  5
1117
330
13B
100
AcDbEntity
  8
DEFPOINTS
  6
ByBlock
 62
     0
 48
10.0
100
AcDbPoint
 10
802.576548
 20
588.645283
 30
0.0
  0
ENDBLK
  5
1118
330
13B
100
AcDbEntity
  8
0
 48
10.0
100
AcDbBlockEnd
  0
BLOCK
  5
102E
330
13C
100
AcDbEntity
  8
0
 48
10.0
100
AcDbBlockBegin
  2
*D16
 70
     1
 10
0.0
 20
0.0
 30
0.0
  3
*D16
  1

  0
LINE
  5
102F
330
13C
100
AcDbEntity
  8
0
  6
ByBlock
 62
     3
 48
10.0
100
AcDbLine
 10
533.576548
 20
490.6936799999998
 30
0.0
 11
519.8325469999998
 21
490.6936799999998
 31
0.0
  0
LINE
  5
1030
330
13C
100
AcDbEntity
  8
0
  6
ByBlock
 62
     3
 48
10.0
100
AcDbLine
 10
533.576548
 20
350.6936799999998
 30
0.0
 11
519.8325469999998
 21
350.6936799999998
 31
0.0
  0
LINE
  5
1031
330
13C
100
AcDbEntity
  8
0
  6
ByBlock
 62
     3
 48
10.0
100
AcDbLine
 10
520.832547
 20
486.6936799999998
 30
0.0
 11
520.832547
 21
354.6936799999998
 31
0.0
  0
INSERT
  5
1032
330
13C
100
AcDbEntity
  8
0
  6
ByBlock
 62
     3
 48
10.0
100
AcDbBlockReference
  2
_OPEN
 10
520.832547
 20
490.6936799999998
 30
0.0
 41
4.0
 42
4.0
 43
4.0
 50
90.0
  0
INSERT
  5
1033
330
13C
100
AcDbEntity
  8
0
  6
ByBlock
 62
     3
 48
10.0
100
AcDbBlockReference
  2
_OPEN
 10
520.832547
 20
350.6936799999998
 30
0.0
 41
4.0
 42
4.0
 43
4.0
 50
270.0
  0
MTEXT
  5
1034
330
13C
100
AcDbEntity
  8
0
  6
ByBlock
 62
     0
 48
10.0
100
AcDbMText
 10
516.332547
 20
420.72368
 30
0.0
 40
6.0
 41
0.0
 71
     5
 72
     1
  1
\A1;140
 11
0.0
 21
1.0
 31
0.0
 73
     1
 44
1.0
  0
POINT
  5
1035
330
13C
100
AcDbEntity
  8
DEFPOINTS
  6
ByBlock
 62
     0
 48
10.0
100
AcDbPoint
 10
534.5765479999998
 20
490.6936799999998
 30
0.0
  0
POINT
  5
1036
330
13C
100
AcDbEntity
  8
DEFPOINTS
  6
ByBlock
 62
     0
 48
10.0
100
AcDbPoint
 10
534.5765479999998
 20
350.6936799999998
 30
0.0
  0
POINT
  5
1037
330
13C
100
AcDbEntity
  8
DEFPOINTS
  6
ByBlock
 62
     0
 48
10.0
100
AcDbPoint
 10
520.832547
 20
350.6936799999998
 30
0.0
  0
ENDBLK
  5
1038
330
13C
100
AcDbEntity
  8
0
 48
10.0
100
AcDbBlockEnd
  0
BLOCK
  5
1044
330
13D
100
AcDbEntity
  8
0
 48
10.0
100
AcDbBlockBegin
  2
*D17
 70
     1
 10
0.0
 20
0.0
 30
0.0
  3
*D17
  1

  0
LINE
  5
1045
330
13D
100
AcDbEntity
  8
0
  6
ByBlock
 62
     3
 48
10.0
100
AcDbLine
 10
202.576548
 20
369.6936799999998
 30
0.0
 11
202.576548
 21
376.163195
 31
0.0
  0
LINE
  5
1046
330
13D
100
AcDbEntity
  8
0
  6
ByBlock
 62
     3
 48
10.0
100
AcDbLine
 10
552.576548
 20
369.6936799999998
 30
0.0
 11
552.576548
 21
376.163195
 31
0.0
  0
LINE
  5
1047
330
13D
100
AcDbEntity
  8
0
  6
ByBlock
 62
     3
 48
10.0
100
AcDbLine
 10
206.576548
 20
375.163195
 30
0.0
 11
548.576548
 21
375.163195
 31
0.0
  0
INSERT
  5
1048
330
13D
100
AcDbEntity
  8
0
  6
ByBlock
 62
     3
 48
10.0
100
AcDbBlockReference
  2
_OPEN
 10
202.576548
 20
375.163195
 30
0.0
 41
4.0
 42
4.0
 43
4.0
 50
180.0
  0
INSERT
  5
1049
330
13D
100
AcDbEntity
  8
0
  6
ByBlock
 62
     3
 48
10.0
100
AcDbBlockReference
  2
_OPEN
 10
552.576548
 20
375.163195
 30
0.0
 41
4.0
 42
4.0
 43
4.0
  0
MTEXT
  5
104A
330
13D
100
AcDbEntity
  8
0
  6
ByBlock
 62
     0
 48
10.0
100
AcDbMText
 10
377.6065479999998
 20
379.663195
 30
0.0
 40
6.0
 41
0.0
 71
     5
 72
     1
  1
\A1;350
 73
     1
 44
1.0
  0
POINT
  5
104B
330
13D
100
AcDbEntity
  8
DEFPOINTS
  6
ByBlock
 62
     0
 48
10.0
100
AcDbPoint
 10
202.576548
 20
368.6936799999998
 30
0.0
  0
POINT
  5
104C
330
13D
100
AcDbEntity
  8
DEFPOINTS
  6
ByBlock
 62
     0
 48
10.0
100
AcDbPoint
 10
552.576548
 20
368.6936799999998
 30
0.0
  0
POINT
  5
104D
330
13D
100
AcDbEntity
  8
DEFPOINTS
  6
ByBlock
 62
     0
 48
10.0
100
AcDbPoint
 10
552.576548
 20
375.163195
 30
0.0
  0
ENDBLK
  5
104E
330
13D
100
AcDbEntity
  8
0
 48
10.0
100
AcDbBlockEnd
  0
BLOCK
  5
105C
330
13F
100
AcDbEntity
  8
0
 48
10.0
100
AcDbBlockBegin
  2
*D18
 70
     1
 10
0.0
 20
0.0
 30
0.0
  3
*D18
  1

  0
LINE
  5
105D
330
13F
100
AcDbEntity
  8
0
  6
ByBlock
 62
     3
 48
10.0
100
AcDbLine
 10
152.576548
 20
279.6936799999999
 30
0.0
 11
152.576548
 21
247.1614849999999
 31
0.0
  0
LINE
  5
105E
330
13F
100
AcDbEntity
  8
0
  6
ByBlock
 62
     3
 48
10.0
100
AcDbLine
 10
172.5765479999999
 20
264.6936799999999
 30
0.0
 11
172.5765479999999
 21
247.1614849999999
 31
0.0
  0
LINE
  5
105F
330
13F
100
AcDbEntity
  8
0
  6
ByBlock
 62
     3
 48
10.0
100
AcDbLine
 10
156.576548
 20
248.161485
 30
0.0
 11
168.576548
 21
248.161485
 31
0.0
  0
INSERT
  5
1060
330
13F
100
AcDbEntity
  8
0
  6
ByBlock
 62
     3
 48
10.0
100
AcDbBlockReference
  2
_OPEN
 10
152.576548
 20
248.161485
 30
0.0
 41
4.0
 42
4.0
 43
4.0
 50
180.0
  0
INSERT
  5
1061
330
13F
100
AcDbEntity
  8
0
  6
ByBlock
 62
     3
 48
10.0
100
AcDbBlockReference
  2
_OPEN
 10
172.5765479999999
 20
248.161485
 30
0.0
 41
4.0
 42
4.0
 43
4.0
  0
MTEXT
  5
1062
330
13F
100
AcDbEntity
  8
0
  6
ByBlock
 62
     0
 48
10.0
100
AcDbMText
 10
162.5965479999998
 20
252.661485
 30
0.0
 40
6.0
 41
0.0
 71
     5
 72
     1
  1
\A1;20
 73
     1
 44
1.0
  0
POINT
  5
1063
330
13F
100
AcDbEntity
  8
DEFPOINTS
  6
ByBlock
 62
     0
 48
10.0
100
AcDbPoint
 10
152.576548
 20
280.6936799999999
 30
0.0
  0
POINT
  5
1064
330
13F
100
AcDbEntity
  8
DEFPOINTS
  6
ByBlock
 62
     0
 48
10.0
100
AcDbPoint
 10
172.5765479999999
 20
265.6936799999999
 30
0.0
  0
POINT
  5
1065
330
13F
100
AcDbEntity
  8
DEFPOINTS
  6
ByBlock
 62
     0
 48
10.0
100
AcDbPoint
 10
172.5765479999999
 20
248.161485
 30
0.0
  0
ENDBLK
  5
1066
330
13F
100
AcDbEntity
  8
0
 48
10.0
100
AcDbBlockEnd
  0
BLOCK
  5
1039
330
140
100
AcDbEntity
  8
0
 48
10.0
100
AcDbBlockBegin
  2
*D19
 70
     1
 10
0.0
 20
0.0
 30
0.0
  3
*D19
  1

  0
LINE
  5
103A
330
140
100
AcDbEntity
  8
0
  6
ByBlock
 62
     3
 48
10.0
100
AcDbLine
 10
172.5765479999999
 20
264.6936799999999
 30
0.0
 11
172.5765479999999
 21
247.1614849999999
 31
0.0
  0
LINE
  5
103B
330
140
100
AcDbEntity
  8
0
  6
ByBlock
 62
     3
 48
10.0
100
AcDbLine
 10
582.576548
 20
264.6936799999999
 30
0.0
 11
582.576548
 21
247.1614849999999
 31
0.0
  0
LINE
  5
103C
330
140
100
AcDbEntity
  8
0
  6
ByBlock
 62
     3
 48
10.0
100
AcDbLine
 10
176.5765479999999
 20
248.161485
 30
0.0
 11
578.576548
 21
248.161485
 31
0.0
  0
INSERT
  5
103D
330
140
100
AcDbEntity
  8
0
  6
ByBlock
 62
     3
 48
10.0
100
AcDbBlockReference
  2
_OPEN
 10
172.5765479999999
 20
248.161485
 30
0.0
 41
4.0
 42
4.0
 43
4.0
 50
180.0
  0
INSERT
  5
103E
330
140
100
AcDbEntity
  8
0
  6
ByBlock
 62
     3
 48
10.0
100
AcDbBlockReference
  2
_OPEN
 10
582.576548
 20
248.161485
 30
0.0
 41
4.0
 42
4.0
 43
4.0
  0
MTEXT
  5
103F
330
140
100
AcDbEntity
  8
0
  6
ByBlock
 62
     0
 48
10.0
100
AcDbMText
 10
377.6065479999998
 20
252.661485
 30
0.0
 40
6.0
 41
0.0
 71
     5
 72
     1
  1
\A1;410
 73
     1
 44
1.0
  0
POINT
  5
1040
330
140
100
AcDbEntity
  8
DEFPOINTS
  6
ByBlock
 62
     0
 48
10.0
100
AcDbPoint
 10
172.5765479999999
 20
265.6936799999999
 30
0.0
  0
POINT
  5
1041
330
140
100
AcDbEntity
  8
DEFPOINTS
  6
ByBlock
 62
     0
 48
10.0
100
AcDbPoint
 10
582.576548
 20
265.6936799999999
 30
0.0
  0
POINT
  5
1042
330
140
100
AcDbEntity
  8
DEFPOINTS
  6
ByBlock
 62
     0
 48
10.0
100
AcDbPoint
 10
582.576548
 20
248.161485
 30
0.0
  0
ENDBLK
  5
1043
330
140
100
AcDbEntity
  8
0
 48
10.0
100
AcDbBlockEnd
  0
BLOCK
  5
1023
330
141
100
AcDbEntity
  8
0
 48
10.0
100
AcDbBlockBegin
  2
*D20
 70
     1
 10
0.0
 20
0.0
 30
0.0
  3
*D20
  1

  0
LINE
  5
1024
330
141
100
AcDbEntity
  8
0
  6
ByBlock
 62
     3
 48
10.0
100
AcDbLine
 10
582.576548
 20
264.6936799999999
 30
0.0
 11
582.576548
 21
247.1614849999999
 31
0.0
  0
LINE
  5
1025
330
141
100
AcDbEntity
  8
0
  6
ByBlock
 62
     3
 48
10.0
100
AcDbLine
 10
602.576548
 20
279.6936799999999
 30
0.0
 11
602.576548
 21
247.1614849999999
 31
0.0
  0
LINE
  5
1026
330
141
100
AcDbEntity
  8
0
  6
ByBlock
 62
     3
 48
10.0
100
AcDbLine
 10
586.576548
 20
248.161485
 30
0.0
 11
598.576548
 21
248.161485
 31
0.0
  0
INSERT
  5
1027
330
141
100
AcDbEntity
  8
0
  6
ByBlock
 62
     3
 48
10.0
100
AcDbBlockReference
  2
_OPEN
 10
582.576548
 20
248.161485
 30
0.0
 41
4.0
 42
4.0
 43
4.0
 50
180.0
  0
INSERT
  5
1028
330
141
100
AcDbEntity
  8
0
  6
ByBlock
 62
     3
 48
10.0
100
AcDbBlockReference
  2
_OPEN
 10
602.576548
 20
248.161485
 30
0.0
 41
4.0
 42
4.0
 43
4.0
  0
MTEXT
  5
1029
330
141
100
AcDbEntity
  8
0
  6
ByBlock
 62
     0
 48
10.0
100
AcDbMText
 10
592.5965480000001
 20
252.661485
 30
0.0
 40
6.0
 41
0.0
 71
     5
 72
     1
  1
\A1;20
 73
     1
 44
1.0
  0
POINT
  5
102A
330
141
100
AcDbEntity
  8
DEFPOINTS
  6
ByBlock
 62
     0
 48
10.0
100
AcDbPoint
 10
582.576548
 20
265.6936799999999
 30
0.0
  0
POINT
  5
102B
330
141
100
AcDbEntity
  8
DEFPOINTS
  6
ByBlock
 62
     0
 48
10.0
100
AcDbPoint
 10
602.576548
 20
280.6936799999999
 30
0.0
  0
POINT
  5
102C
330
141
100
AcDbEntity
  8
DEFPOINTS
  6
ByBlock
 62
     0
 48
10.0
100
AcDbPoint
 10
602.576548
 20
248.161485
 30
0.0
  0
ENDBLK
  5
102D
330
141
100
AcDbEntity
  8
0
 48
10.0
100
AcDbBlockEnd
  0
BLOCK
  5
1072
330
143
100
AcDbEntity
  8
0
 48
10.0
100
AcDbBlockBegin
  2
*D21
 70
     1
 10
0.0
 20
0.0
 30
0.0
  3
*D21
  1

  0
LINE
  5
1073
330
143
100
AcDbEntity
  8
0
  6
ByBlock
 62
     3
 48
10.0
100
AcDbLine
 10
603.576548
 20
570.69368
 30
0.0
 11
641.028099
 21
570.69368
 31
0.0
  0
LINE
  5
1074
330
143
100
AcDbEntity
  8
0
  6
ByBlock
 62
     3
 48
10.0
100
AcDbLine
 10
596.5765479999999
 20
265.6936799999999
 30
0.0
 11
641.028099
 21
265.6936799999999
 31
0.0
  0
LINE
  5
1075
330
143
100
AcDbEntity
  8
0
  6
ByBlock
 62
     3
 48
10.0
100
AcDbLine
 10
640.0280989999998
 20
566.69368
 30
0.0
 11
640.0280989999998
 21
269.6936799999999
 31
0.0
  0
INSERT
  5
1076
330
143
100
AcDbEntity
  8
0
  6
ByBlock
 62
     3
 48
10.0
100
AcDbBlockReference
  2
_OPEN
 10
640.0280989999998
 20
570.69368
 30
0.0
 41
4.0
 42
4.0
 43
4.0
 50
90.0
  0
INSERT
  5
1077
330
143
100
AcDbEntity
  8
0
  6
ByBlock
 62
     3
 48
10.0
100
AcDbBlockReference
  2
_OPEN
 10
640.0280989999998
 20
265.6936799999999
 30
0.0
 41
4.0
 42
4.0
 43
4.0
 50
270.0
  0
MTEXT
  5
1078
330
143
100
AcDbEntity
  8
0
  6
ByBlock
 62
     0
 48
10.0
100
AcDbMText
 10
635.5280989999998
 20
418.22368
 30
0.0
 40
6.0
 41
0.0
 71
     5
 72
     1
  1
\A1;305
 11
0.0
 21
1.0
 31
0.0
 73
     1
 44
1.0
  0
POINT
  5
1079
330
143
100
AcDbEntity
  8
DEFPOINTS
  6
ByBlock
 62
     0
 48
10.0
100
AcDbPoint
 10
602.576548
 20
570.69368
 30
0.0
  0
POINT
  5
107A
330
143
100
AcDbEntity
  8
DEFPOINTS
  6
ByBlock
 62
     0
 48
10.0
100
AcDbPoint
 10
595.576548
 20
265.6936799999999
 30
0.0
  0
POINT
  5
107B
330
143
100
AcDbEntity
  8
DEFPOINTS
  6
ByBlock
 62
     0
 48
10.0
100
AcDbPoint
 10
640.0280989999998
 20
265.6936799999999
 30
0.0
  0
ENDBLK
  5
107C
330
143
100
AcDbEntity
  8
0
 48
10.0
100
AcDbBlockEnd
  0
BLOCK
  5
10CC
330
144
100
AcDbEntity
  8
0
 48
10.0
100
AcDbBlockBegin
  2
*D22
 70
     1
 10
0.0
 20
0.0
 30
0.0
  3
*D22
  1

  0
LINE
  5
10CD
330
144
100
AcDbEntity
  8
0
  6
ByBlock
 62
     3
 48
10.0
100
AcDbLine
 10
603.576548
 20
280.6936799999999
 30
0.0
 11
622.0353959999998
 21
280.6936799999999
 31
0.0
  0
LINE
  5
10CE
330
144
100
AcDbEntity
  8
0
  6
ByBlock
 62
     3
 48
10.0
100
AcDbLine
 10
596.5765479999999
 20
265.6936799999999
 30
0.0
 11
622.0353959999998
 21
265.6936799999999
 31
0.0
  0
LINE
  5
10CF
330
144
100
AcDbEntity
  8
0
  6
ByBlock
 62
     3
 48
10.0
100
AcDbLine
 10
621.0353959999999
 20
276.6936799999999
 30
0.0
 11
621.0353959999999
 21
269.6936799999999
 31
0.0
  0
INSERT
  5
10D0
330
144
100
AcDbEntity
  8
0
  6
ByBlock
 62
     3
 48
10.0
100
AcDbBlockReference
  2
_OPEN
 10
621.0353959999999
 20
280.6936799999999
 30
0.0
 41
4.0
 42
4.0
 43
4.0
 50
90.0
  0
INSERT
  5
10D1
330
144
100
AcDbEntity
  8
0
  6
ByBlock
 62
     3
 48
10.0
100
AcDbBlockReference
  2
_OPEN
 10
621.0353959999999
 20
265.6936799999999
 30
0.0
 41
4.0
 42
4.0
 43
4.0
 50
270.0
  0
MTEXT
  5
10D2
330
144
100
AcDbEntity
  8
0
  6
ByBlock
 62
     0
 48
10.0
100
AcDbMText
 10
616.535396
 20
273.2136799999998
 30
0.0
 40
6.0
 41
0.0
 71
     5
 72
     1
  1
\A1;15
 11
0.0
 21
1.0
 31
0.0
 73
     1
 44
1.0
  0
POINT
  5
10D3
330
144
100
AcDbEntity
  8
DEFPOINTS
  6
ByBlock
 62
     0
 48
10.0
100
AcDbPoint
 10
602.576548
 20
280.6936799999999
 30
0.0
  0
POINT
  5
10D4
330
144
100
AcDbEntity
  8
DEFPOINTS
  6
ByBlock
 62
     0
 48
10.0
100
AcDbPoint
 10
595.576548
 20
265.6936799999999
 30
0.0
  0
POINT
  5
10D5
330
144
100
AcDbEntity
  8
DEFPOINTS
  6
ByBlock
 62
     0
 48
10.0
100
AcDbPoint
 10
621.0353959999999
 20
265.6936799999999
 30
0.0
  0
ENDBLK
  5
10D6
330
144
100
AcDbEntity
  8
0
 48
10.0
100
AcDbBlockEnd
  0
BLOCK
  5
1017
330
145
100
AcDbEntity
  8
0
 48
10.0
100
AcDbBlockBegin
  2
*D23
 70
     1
 10
0.0
 20
0.0
 30
0.0
  3
*D23
  1

  0
LINE
  5
1018
330
145
100
AcDbEntity
  8
0
  6
ByBlock
 62
     3
 48
10.0
100
AcDbLine
 10
602.576548
 20
279.6936799999999
 30
0.0
 11
602.576548
 21
229.1612419999999
 31
0.0
  0
LINE
  5
1019
330
145
100
AcDbEntity
  8
0
  6
ByBlock
 62
     3
 48
10.0
100
AcDbLine
 10
152.576548
 20
279.6936799999999
 30
0.0
 11
152.576548
 21
229.1612419999999
 31
0.0
  0
LINE
  5
101A
330
145
100
AcDbEntity
  8
0
  6
ByBlock
 62
     3
 48
10.0
100
AcDbLine
 10
598.576548
 20
230.161242
 30
0.0
 11
156.576548
 21
230.161242
 31
0.0
  0
INSERT
  5
101B
330
145
100
AcDbEntity
  8
0
  6
ByBlock
 62
     3
 48
10.0
100
AcDbBlockReference
  2
_OPEN
 10
602.576548
 20
230.161242
 30
0.0
 41
4.0
 42
4.0
 43
4.0
  0
INSERT
  5
101C
330
145
100
AcDbEntity
  8
0
  6
ByBlock
 62
     3
 48
10.0
100
AcDbBlockReference
  2
_OPEN
 10
152.576548
 20
230.161242
 30
0.0
 41
4.0
 42
4.0
 43
4.0
 50
180.0
  0
MTEXT
  5
101D
330
145
100
AcDbEntity
  8
0
  6
ByBlock
 62
     0
 48
10.0
100
AcDbMText
 10
377.6065479999998
 20
234.661242
 30
0.0
 40
6.0
 41
0.0
 71
     5
 72
     1
  1
\A1;450
 73
     1
 44
1.0
  0
POINT
  5
101F
330
145
100
AcDbEntity
  8
DEFPOINTS
  6
ByBlock
 62
     0
 48
10.0
100
AcDbPoint
 10
602.576548
 20
280.6936799999999
 30
0.0
  0
POINT
  5
1020
330
145
100
AcDbEntity
  8
DEFPOINTS
  6
ByBlock
 62
     0
 48
10.0
100
AcDbPoint
 10
152.576548
 20
280.6936799999999
 30
0.0
  0
POINT
  5
1021
330
145
100
AcDbEntity
  8
DEFPOINTS
  6
ByBlock
 62
     0
 48
10.0
100
AcDbPoint
 10
152.576548
 20
230.161242
 30
0.0
  0
ENDBLK
  5
1022
330
145
100
AcDbEntity
  8
0
 48
10.0
100
AcDbBlockEnd
  0
BLOCK
  5
1067
330
146
100
AcDbEntity
  8
0
 48
10.0
100
AcDbBlockBegin
  2
*D24
 70
     1
 10
0.0
 20
0.0
 30
0.0
  3
*D24
  1

  0
LINE
  5
1068
330
146
100
AcDbEntity
  8
0
  6
ByBlock
 62
     3
 48
10.0
100
AcDbLine
 10
603.576548
 20
280.6936799999999
 30
0.0
 11
622.0353959999998
 21
280.6936799999999
 31
0.0
  0
LINE
  5
1069
330
146
100
AcDbEntity
  8
0
  6
ByBlock
 62
     3
 48
10.0
100
AcDbLine
 10
603.576548
 20
570.69368
 30
0.0
 11
622.0353959999998
 21
570.69368
 31
0.0
  0
LINE
  5
106A
330
146
100
AcDbEntity
  8
0
  6
ByBlock
 62
     3
 48
10.0
100
AcDbLine
 10
621.0353959999999
 20
284.6936799999998
 30
0.0
 11
621.0353959999999
 21
566.69368
 31
0.0
  0
INSERT
  5
106B
330
146
100
AcDbEntity
  8
0
  6
ByBlock
 62
     3
 48
10.0
100
AcDbBlockReference
  2
_OPEN
 10
621.0353959999999
 20
280.6936799999999
 30
0.0
 41
4.0
 42
4.0
 43
4.0
 50
270.0
  0
INSERT
  5
106C
330
146
100
AcDbEntity
  8
0
  6
ByBlock
 62
     3
 48
10.0
100
AcDbBlockReference
  2
_OPEN
 10
621.0353959999999
 20
570.69368
 30
0.0
 41
4.0
 42
4.0
 43
4.0
 50
90.0
  0
MTEXT
  5
106D
330
146
100
AcDbEntity
  8
0
  6
ByBlock
 62
     0
 48
10.0
100
AcDbMText
 10
616.535396
 20
425.72368
 30
0.0
 40
6.0
 41
0.0
 71
     5
 72
     1
  1
\A1;290
 11
0.0
 21
1.0
 31
0.0
 73
     1
 44
1.0
  0
POINT
  5
106E
330
146
100
AcDbEntity
  8
DEFPOINTS
  6
ByBlock
 62
     0
 48
10.0
100
AcDbPoint
 10
602.576548
 20
280.6936799999999
 30
0.0
  0
POINT
  5
106F
330
146
100
AcDbEntity
  8
DEFPOINTS
  6
ByBlock
 62
     0
 48
10.0
100
AcDbPoint
 10
602.576548
 20
570.69368
 30
0.0
  0
POINT
  5
1070
330
146
100
AcDbEntity
  8
DEFPOINTS
  6
ByBlock
 62
     0
 48
10.0
100
AcDbPoint
 10
621.0353959999999
 20
570.69368
 30
0.0
  0
ENDBLK
  5
1071
330
146
100
AcDbEntity
  8
0
 48
10.0
100
AcDbBlockEnd
  0
BLOCK
  5
1103
330
147
100
AcDbEntity
  8
0
 48
10.0
100
AcDbBlockBegin
  2
*D25
 70
     1
 10
0.0
 20
0.0
 30
0.0
  3
*D25
  1

  0
LINE
  5
1104
330
147
100
AcDbEntity
  8
0
  6
ByBlock
 62
     3
 48
10.0
100
AcDbLine
 10
802.576548
 20
571.69368
 30
0.0
 11
802.576548
 21
589.645283
 31
0.0
  0
LINE
  5
1105
330
147
100
AcDbEntity
  8
0
  6
ByBlock
 62
     3
 48
10.0
100
AcDbLine
 10
1052.576548
 20
571.69368
 30
0.0
 11
1052.576548
 21
589.645283
 31
0.0
  0
LINE
  5
1106
330
147
100
AcDbEntity
  8
0
  6
ByBlock
 62
     3
 48
10.0
100
AcDbLine
 10
806.5765479999999
 20
588.645283
 30
0.0
 11
1048.576547999998
 21
588.645283
 31
0.0
  0
INSERT
  5
1107
330
147
100
AcDbEntity
  8
0
  6
ByBlock
 62
     3
 48
10.0
100
AcDbBlockReference
  2
_OPEN
 10
802.576548
 20
588.645283
 30
0.0
 41
4.0
 42
4.0
 43
4.0
 50
180.0
  0
INSERT
  5
1108
330
147
100
AcDbEntity
  8
0
  6
ByBlock
 62
     3
 48
10.0
100
AcDbBlockReference
  2
_OPEN
 10
1052.576548
 20
588.645283
 30
0.0
 41
4.0
 42
4.0
 43
4.0
  0
MTEXT
  5
1109
330
147
100
AcDbEntity
  8
0
  6
ByBlock
 62
     0
 48
10.0
100
AcDbMText
 10
927.6065479999999
 20
593.145283
 30
0.0
 40
6.0
 41
0.0
 71
     5
 72
     1
  1
\A1;250
 73
     1
 44
1.0
  0
POINT
  5
110A
330
147
100
AcDbEntity
  8
DEFPOINTS
  6
ByBlock
 62
     0
 48
10.0
100
AcDbPoint
 10
802.576548
 20
570.69368
 30
0.0
  0
POINT
  5
110B
330
147
100
AcDbEntity
  8
DEFPOINTS
  6
ByBlock
 62
     0
 48
10.0
100
AcDbPoint
 10
1052.576548
 20
570.69368
 30
0.0
  0
POINT
  5
110C
330
147
100
AcDbEntity
  8
DEFPOINTS
  6
ByBlock
 62
     0
 48
10.0
100
AcDbPoint
 10
1052.576548
 20
588.645283
 30
0.0
  0
ENDBLK
  5
110D
330
147
100
AcDbEntity
  8
0
 48
10.0
100
AcDbBlockEnd
  0
BLOCK
  5
281A
330
2810
100
AcDbEntity
  8
0
 48
10.0
100
AcDbBlockBegin
  2
*D26
 70
     1
 10
0.0
 20
0.0
 30
0.0
  3
*D26
  1

  0
LINE
  5
2828
330
2810
100
AcDbEntity
  8
0
  6
Continuous
 62
     3
 48
10.0
370
    -2
100
AcDbLine
 10
735.576548
 20
493.1936799999999
 30
0.0
 11
735.576548
 21
211.1609999999999
 31
0.0
  0
LINE
  5
2829
330
2810
100
AcDbEntity
  8
0
  6
Continuous
 62
     3
 48
10.0
370
    -2
100
AcDbLine
 10
1056.053578602545
 20
295.2491524648646
 30
0.0
 11
1056.053578602545
 21
211.1609999999999
 31
0.0
  0
LINE
  5
282A
330
2810
100
AcDbEntity
  8
0
  6
Continuous
 62
     3
 48
10.0
370
    -2
100
AcDbLine
 10
739.576548
 20
212.1609999999999
 30
0.0
 11
1052.053578602545
 21
212.1609999999999
 31
0.0
  0
INSERT
  5
282B
330
2810
100
AcDbEntity
  8
0
  6
Continuous
 62
     3
 48
10.0
370
    -2
100
AcDbBlockReference
  2
_OPEN
 10
735.576548
 20
212.1609999999999
 30
0.0
 41
4.0
 42
4.0
 43
4.0
 50
180.0
  0
INSERT
  5
282C
330
2810
100
AcDbEntity
  8
0
  6
Continuous
 62
     3
 48
10.0
370
    -2
100
AcDbBlockReference
  2
_OPEN
 10
1056.053578602545
 20
212.1609999999999
 30
0.0
 41
4.0
 42
4.0
 43
4.0
  0
MTEXT
  5
282D
330
2810
100
AcDbEntity
  8
0
  6
Continuous
 62
     0
 48
10.0
100
AcDbMText
 10
907.606548
 20
216.6609999999999
 30
0.0
 40
6.0
 41
0.0
 71
     5
 72
     1
  1
\A1;320.5
 73
     1
 44
1.0
  0
POINT
  5
282E
330
2810
100
AcDbEntity
  8
DEFPOINTS
  6
Continuous
 62
     0
 48
10.0
100
AcDbPoint
 10
735.576548
 20
494.1936799999999
 30
0.0
  0
POINT
  5
282F
330
2810
100
AcDbEntity
  8
DEFPOINTS
  6
Continuous
 62
     0
 48
10.0
100
AcDbPoint
 10
1056.053578602545
 20
296.2491524648646
 30
0.0
  0
POINT
  5
2830
330
2810
100
AcDbEntity
  8
DEFPOINTS
  6
Continuous
 62
     0
 48
10.0
100
AcDbPoint
 10
1056.053578602545
 20
212.1609999999999
 30
0.0
  0
ENDBLK
  5
281B
330
2810
100
AcDbEntity
  8
0
 48
10.0
100
AcDbBlockEnd
  0
BLOCK
  5
2826
330
281C
100
AcDbEntity
  8
0
 48
10.0
100
AcDbBlockBegin
  2
*D27
 70
     1
 10
0.0
 20
0.0
 30
0.0
  3
*D27
  1

  0
LINE
  5
2831
330
281C
100
AcDbEntity
  8
0
  6
Continuous
 62
     3
 48
10.0
370
    -2
100
AcDbLine
 10
735.576548
 20
493.1936799999999
 30
0.0
 11
735.576548
 21
211.1609999999999
 31
0.0
  0
LINE
  5
2832
330
281C
100
AcDbEntity
  8
0
  6
Continuous
 62
     3
 48
10.0
370
    -2
100
AcDbLine
 10
1056.053578602545
 20
295.2491524648646
 30
0.0
 11
1056.053578602545
 21
211.1609999999999
 31
0.0
  0
LINE
  5
2833
330
281C
100
AcDbEntity
  8
0
  6
Continuous
 62
     3
 48
10.0
370
    -2
100
AcDbLine
 10
739.576548
 20
212.1609999999999
 30
0.0
 11
1052.053578602545
 21
212.1609999999999
 31
0.0
  0
INSERT
  5
2834
330
281C
100
AcDbEntity
  8
0
  6
Continuous
 62
     3
 48
10.0
370
    -2
100
AcDbBlockReference
  2
_OPEN
 10
735.576548
 20
212.1609999999999
 30
0.0
 41
4.0
 42
4.0
 43
4.0
 50
180.0
  0
INSERT
  5
2835
330
281C
100
AcDbEntity
  8
0
  6
Continuous
 62
     3
 48
10.0
370
    -2
100
AcDbBlockReference
  2
_OPEN
 10
1056.053578602545
 20
212.1609999999999
 30
0.0
 41
4.0
 42
4.0
 43
4.0
  0
MTEXT
  5
2836
330
281C
100
AcDbEntity
  8
0
  6
Continuous
 62
     0
 48
10.0
100
AcDbMText
 10
907.606548
 20
216.6609999999999
 30
0.0
 40
6.0
 41
0.0
 71
     5
 72
     1
  1
\A1;320.5
 73
     1
 44
1.0
  0
POINT
  5
2837
330
281C
100
AcDbEntity
  8
DEFPOINTS
  6
Continuous
 62
     0
 48
10.0
100
AcDbPoint
 10
735.576548
 20
494.1936799999999
 30
0.0
  0
POINT
  5
2838
330
281C
100
AcDbEntity
  8
DEFPOINTS
  6
Continuous
 62
     0
 48
10.0
100
AcDbPoint
 10
1056.053578602545
 20
296.2491524648646
 30
0.0
  0
POINT
  5
2839
330
281C
100
AcDbEntity
  8
DEFPOINTS
  6
Continuous
 62
     0
 48
10.0
100
AcDbPoint
 10
1056.053578602545
 20
212.1609999999999
 30
0.0
  0
ENDBLK
  5
2827
330
281C
100
AcDbEntity
  8
0
 48
10.0
100
AcDbBlockEnd
  0
BLOCK
  5
2847
330
283D
100
AcDbEntity
  8
0
 48
10.0
100
AcDbBlockBegin
  2
*D28
 70
     1
 10
0.0
 20
0.0
 30
0.0
  3
*D28
  1

  0
LINE
  5
2855
330
283D
100
AcDbEntity
  8
0
  6
Continuous
 62
     3
 48
10.0
370
    -2
100
AcDbLine
 10
609.5765479999998
 20
313.1936799999998
 30
0.0
 11
609.5765479999998
 21
211.1609999999999
 31
0.0
  0
LINE
  5
2856
330
283D
100
AcDbEntity
  8
0
  6
Continuous
 62
     3
 48
10.0
370
    -2
100
AcDbLine
 10
145.5765479999999
 20
313.1936799999998
 30
0.0
 11
145.5765479999999
 21
211.1609999999999
 31
0.0
  0
LINE
  5
2857
330
283D
100
AcDbEntity
  8
0
  6
Continuous
 62
     3
 48
10.0
370
    -2
100
AcDbLine
 10
605.5765479999998
 20
212.1609999999999
 30
0.0
 11
149.576548
 21
212.1609999999999
 31
0.0
  0
INSERT
  5
2858
330
283D
100
AcDbEntity
  8
0
  6
Continuous
 62
     3
 48
10.0
370
    -2
100
AcDbBlockReference
  2
_OPEN
 10
609.5765479999998
 20
212.1609999999999
 30
0.0
 41
4.0
 42
4.0
 43
4.0
  0
INSERT
  5
2859
330
283D
100
AcDbEntity
  8
0
  6
Continuous
 62
     3
 48
10.0
370
    -2
100
AcDbBlockReference
  2
_OPEN
 10
145.5765479999999
 20
212.1609999999999
 30
0.0
 41
4.0
 42
4.0
 43
4.0
 50
180.0
  0
MTEXT
  5
285A
330
283D
100
AcDbEntity
  8
0
  6
Continuous
 62
     0
 48
10.0
100
AcDbMText
 10
377.6065479999998
 20
216.6609999999999
 30
0.0
 40
6.0
 41
0.0
 71
     5
 72
     1
  1
\A1;464
 73
     1
 44
1.0
  0
POINT
  5
285B
330
283D
100
AcDbEntity
  8
DEFPOINTS
  6
Continuous
 62
     0
 48
10.0
100
AcDbPoint
 10
609.5765479999998
 20
314.1936799999998
 30
0.0
  0
POINT
  5
285C
330
283D
100
AcDbEntity
  8
DEFPOINTS
  6
Continuous
 62
     0
 48
10.0
100
AcDbPoint
 10
145.5765479999999
 20
314.1936799999998
 30
0.0
  0
POINT
  5
285D
330
283D
100
AcDbEntity
  8
DEFPOINTS
  6
Continuous
 62
     0
 48
10.0
100
AcDbPoint
 10
145.5765479999999
 20
212.1609999999999
 30
0.0
  0
ENDBLK
  5
2848
330
283D
100
AcDbEntity
  8
0
 48
10.0
100
AcDbBlockEnd
  0
BLOCK
  5
2853
330
2849
100
AcDbEntity
  8
0
 48
10.0
100
AcDbBlockBegin
  2
*D29
 70
     1
 10
0.0
 20
0.0
 30
0.0
  3
*D29
  1

  0
LINE
  5
285E
330
2849
100
AcDbEntity
  8
0
  6
Continuous
 62
     3
 48
10.0
370
    -2
100
AcDbLine
 10
609.5765479999998
 20
313.1936799999998
 30
0.0
 11
609.5765479999998
 21
211.1609999999999
 31
0.0
  0
LINE
  5
285F
330
2849
100
AcDbEntity
  8
0
  6
Continuous
 62
     3
 48
10.0
370
    -2
100
AcDbLine
 10
145.5765479999999
 20
313.1936799999998
 30
0.0
 11
145.5765479999999
 21
211.1609999999999
 31
0.0
  0
LINE
  5
2860
330
2849
100
AcDbEntity
  8
0
  6
Continuous
 62
     3
 48
10.0
370
    -2
100
AcDbLine
 10
605.5765479999998
 20
212.1609999999999
 30
0.0
 11
149.576548
 21
212.1609999999999
 31
0.0
  0
INSERT
  5
2861
330
2849
100
AcDbEntity
  8
0
  6
Continuous
 62
     3
 48
10.0
370
    -2
100
AcDbBlockReference
  2
_OPEN
 10
609.5765479999998
 20
212.1609999999999
 30
0.0
 41
4.0
 42
4.0
 43
4.0
  0
INSERT
  5
2862
330
2849
100
AcDbEntity
  8
0
  6
Continuous
 62
     3
 48
10.0
370
    -2
100
AcDbBlockReference
  2
_OPEN
 10
145.5765479999999
 20
212.1609999999999
 30
0.0
 41
4.0
 42
4.0
 43
4.0
 50
180.0
  0
MTEXT
  5
2863
330
2849
100
AcDbEntity
  8
0
  6
Continuous
 62
     0
 48
10.0
100
AcDbMText
 10
377.6065479999998
 20
216.6609999999999
 30
0.0
 40
6.0
 41
0.0
 71
     5
 72
     1
  1
\A1;464
 73
     1
 44
1.0
  0
POINT
  5
2864
330
2849
100
AcDbEntity
  8
DEFPOINTS
  6
Continuous
 62
     0
 48
10.0
100
AcDbPoint
 10
609.5765479999998
 20
314.1936799999998
 30
0.0
  0
POINT
  5
2865
330
2849
100
AcDbEntity
  8
DEFPOINTS
  6
Continuous
 62
     0
 48
10.0
100
AcDbPoint
 10
145.5765479999999
 20
314.1936799999998
 30
0.0
  0
POINT
  5
2866
330
2849
100
AcDbEntity
  8
DEFPOINTS
  6
Continuous
 62
     0
 48
10.0
100
AcDbPoint
 10
145.5765479999999
 20
212.1609999999999
 30
0.0
  0
ENDBLK
  5
2854
330
2849
100
AcDbEntity
  8
0
 48
10.0
100
AcDbBlockEnd
  0
BLOCK
  5
287C
330
2875
100
AcDbEntity
  8
0
 48
10.0
100
AcDbBlockBegin
  2
A$C66D572F7
 70
     0
 10
0.0
 20
0.0
 30
0.0
  3
A$C66D572F7
  1

  0
LINE
  5
2876
330
2875
100
AcDbEntity
  8
0
  6
Continuous
 62
     3
370
    -3
100
AcDbLine
 10
45.00000117162243
 20
48.74999947229479
 30
0.0
 11
45.00000117162243
 21
-0.0000005277051969
 31
0.0
  0
TEXT
  5
2877
330
2875
100
AcDbEntity
  8
0
  6
Continuous
 62
     6
370
    -3
100
AcDbText
 10
47.34236351096524
 20
24.95718397229472
 30
0.0
 40
6.0
  1
温度ヒューズの定格修正
 41
0.8311531774670186
 72
     5
 11
111.8398500824059
 21
24.95718397229472
 31
0.0
100
AcDbText
  0
LINE
  5
2878
330
2875
100
AcDbEntity
  8
0
  6
Continuous
 62
     3
370
    -3
100
AcDbLine
 10
0.0000011716224435
 20
33.7499994722948
 30
0.0
 11
187.5000011716224
 21
33.7499994722948
 31
0.0
  0
LINE
  5
2879
330
2875
100
AcDbEntity
  8
0
  6
Continuous
 62
     3
370
    -3
100
AcDbLine
 10
0.0000011716224435
 20
22.4999994722948
 30
0.0
 11
187.5000011716224
 21
22.4999994722948
 31
0.0
  0
TEXT
  5
287A
330
2875
100
AcDbEntity
  8
0
  6
Continuous
 62
     6
370
    -3
100
AcDbText
 10
73.50000117162244
 20
40.12499947229479
 30
0.0
 40
6.0
  1
訂　正　記　事
 41
0.829918032786885
  7
ED_VECTOR
 72
     5
 11
114.0000011716224
 21
40.12499947229479
 31
0.0
100
AcDbText
  0
TEXT
  5
287B
330
2875
100
AcDbEntity
  8
0
  6
Continuous
 62
     6
370
    -3
100
AcDbText
 10
63.73802067162296
 20
34.75274497229463
 30
0.0
 40
3.244508999999999
  1
REVISED DESCRIPTION
 41
1.012782909963679
  7
ED_VECTOR
 72
     5
 11
123.7619816716228
 21
34.75274497229463
 31
0.0
100
AcDbText
  0
ENDBLK
  5
287D
330
2875
100
AcDbEntity
  8
0
 48
10.0
100
AcDbBlockEnd
  0
BLOCK
  5
28C0
330
28B4
100
AcDbEntity
  8
0
 48
10.0
100
AcDbBlockBegin
  2
*D31
 70
     1
 10
0.0
 20
0.0
 30
0.0
  3
*D31
  1

  0
LINE
  5
28B5
330
28B4
100
AcDbEntity
  8
0
  6
Continuous
 62
     3
 48
10.0
370
    -2
100
AcDbLine
 10
1052.576548
 20
569.6936799999998
 30
0.0
 11
1052.576548
 21
589.645283
 31
0.0
  0
LINE
  5
28B6
330
28B4
100
AcDbEntity
  8
0
  6
Continuous
 62
     3
 48
10.0
370
    -2
100
AcDbLine
 10
1056.076548
 20
555.6936799999999
 30
0.0
 11
1056.076548
 21
589.645283
 31
0.0
  0
LINE
  5
28B7
330
28B4
100
AcDbEntity
  8
0
  6
Continuous
 62
     3
 48
10.0
370
    -2
100
AcDbLine
 10
1048.576547999998
 20
588.645283
 30
0.0
 11
1044.576547999999
 21
588.645283
 31
0.0
  0
LINE
  5
28B8
330
28B4
100
AcDbEntity
  8
0
  6
Continuous
 62
     3
 48
10.0
370
    -2
100
AcDbLine
 10
1060.076548
 20
588.645283
 30
0.0
 11
1077.133690857142
 21
588.645283
 31
0.0
  0
LINE
  5
28B9
330
28B4
100
AcDbEntity
  8
0
  6
Continuous
 62
     3
 48
10.0
370
    -2
100
AcDbLine
 10
1052.576548
 20
588.645283
 30
0.0
 11
1056.076548
 21
588.645283
 31
0.0
  0
INSERT
  5
28BA
330
28B4
100
AcDbEntity
  8
0
  6
Continuous
 62
     3
 48
10.0
370
    -2
100
AcDbBlockReference
  2
_OPEN
 10
1052.576548
 20
588.645283
 30
0.0
 41
4.0
 42
4.0
 43
4.0
  0
INSERT
  5
28BB
330
28B4
100
AcDbEntity
  8
0
  6
Continuous
 62
     3
 48
10.0
370
    -2
100
AcDbBlockReference
  2
_OPEN
 10
1056.076548
 20
588.645283
 30
0.0
 41
4.0
 42
4.0
 43
4.0
 50
180.0
  0
MTEXT
  5
28BC
330
28B4
100
AcDbEntity
  8
0
  6
Continuous
 62
     0
 48
10.0
100
AcDbMText
 10
1070.605119428571
 20
593.145283
 30
0.0
 40
6.0
 41
0.0
 71
     5
 72
     1
  1
\A1;3.5
 73
     1
 44
1.0
  0
POINT
  5
28BD
330
28B4
100
AcDbEntity
  8
DEFPOINTS
  6
Continuous
 62
     0
 48
10.0
100
AcDbPoint
 10
1052.576548
 20
568.6936799999998
 30
0.0
  0
POINT
  5
28BE
330
28B4
100
AcDbEntity
  8
DEFPOINTS
  6
Continuous
 62
     0
 48
10.0
100
AcDbPoint
 10
1056.076548
 20
554.69368
 30
0.0
  0
POINT
  5
28BF
330
28B4
100
AcDbEntity
  8
DEFPOINTS
  6
Continuous
 62
     0
 48
10.0
100
AcDbPoint
 10
1056.076548
 20
588.645283
 30
0.0
  0
ENDBLK
  5
28C1
330
28B4
100
AcDbEntity
  8
0
 48
10.0
100
AcDbBlockEnd
  0
BLOCK
  5
2DCF
330
2DC5
100
AcDbEntity
  8
0
 48
10.0
100
AcDbBlockBegin
  2
*D32
 70
     1
 10
0.0
 20
0.0
 30
0.0
  3
*D32
  1

  0
LINE
  5
2F01
330
2DC5
100
AcDbEntity
  8
0
  6
Continuous
 62
     3
 48
10.0
370
    -2
100
AcDbLine
 10
802.576548
 20
1204.938356964602
 30
0.0
 11
802.576548
 21
1191.425355964602
 31
0.0
  0
LINE
  5
2F02
330
2DC5
100
AcDbEntity
  8
0
  6
Continuous
 62
     3
 48
10.0
370
    -2
100
AcDbLine
 10
977.576548
 20
1204.938356964602
 30
0.0
 11
977.576548
 21
1191.425355964602
 31
0.0
  0
LINE
  5
2F03
330
2DC5
100
AcDbEntity
  8
0
  6
Continuous
 62
     3
 48
10.0
370
    -2
100
AcDbLine
 10
806.5765479999999
 20
1192.425355964602
 30
0.0
 11
973.5765479999999
 21
1192.425355964602
 31
0.0
  0
INSERT
  5
2F04
330
2DC5
100
AcDbEntity
  8
0
  6
Continuous
 62
     3
 48
10.0
370
    -2
100
AcDbBlockReference
  2
_OPEN
 10
802.576548
 20
1192.425355964602
 30
0.0
 41
4.0
 42
4.0
 43
4.0
 50
180.0
  0
INSERT
  5
2F05
330
2DC5
100
AcDbEntity
  8
0
  6
Continuous
 62
     3
 48
10.0
370
    -2
100
AcDbBlockReference
  2
_OPEN
 10
977.576548
 20
1192.425355964602
 30
0.0
 41
4.0
 42
4.0
 43
4.0
  0
MTEXT
  5
2F06
330
2DC5
100
AcDbEntity
  8
0
  6
Continuous
 62
     0
 48
10.0
100
AcDbMText
 10
890.1065480000001
 20
1196.925355964602
 30
0.0
 40
6.0
 41
0.0
 71
     5
 72
     1
  1
\A1;175
 73
     1
 44
1.0
  0
POINT
  5
2F07
330
2DC5
100
AcDbEntity
  8
DEFPOINTS
  6
Continuous
 62
     0
 48
10.0
100
AcDbPoint
 10
802.576548
 20
1205.938356964602
 30
0.0
  0
POINT
  5
2F08
330
2DC5
100
AcDbEntity
  8
DEFPOINTS
  6
Continuous
 62
     0
 48
10.0
100
AcDbPoint
 10
977.576548
 20
1205.938356964602
 30
0.0
  0
POINT
  5
2F09
330
2DC5
100
AcDbEntity
  8
DEFPOINTS
  6
Continuous
 62
     0
 48
10.0
100
AcDbPoint
 10
977.576548
 20
1192.425355964602
 30
0.0
  0
ENDBLK
  5
2DD0
330
2DC5
100
AcDbEntity
  8
0
 48
10.0
100
AcDbBlockEnd
  0
BLOCK
  5
2DDB
330
2DD1
100
AcDbEntity
  8
0
 48
10.0
100
AcDbBlockBegin
  2
*D33
 70
     1
 10
0.0
 20
0.0
 30
0.0
  3
*D33
  1

  0
LINE
  5
2F0A
330
2DD1
100
AcDbEntity
  8
0
  6
Continuous
 62
     3
 48
10.0
370
    -2
100
AcDbLine
 10
735.576548
 20
1346.438356964602
 30
0.0
 11
735.576548
 21
1084.405918964602
 31
0.0
  0
LINE
  5
2F0B
330
2DD1
100
AcDbEntity
  8
0
  6
Continuous
 62
     3
 48
10.0
370
    -2
100
AcDbLine
 10
762.576548
 20
1135.938356964601
 30
0.0
 11
762.576548
 21
1084.405918964602
 31
0.0
  0
LINE
  5
2F0C
330
2DD1
100
AcDbEntity
  8
0
  6
Continuous
 62
     3
 48
10.0
370
    -2
100
AcDbLine
 10
739.576548
 20
1085.405918964602
 30
0.0
 11
758.576548
 21
1085.405918964602
 31
0.0
  0
INSERT
  5
2F0D
330
2DD1
100
AcDbEntity
  8
0
  6
Continuous
 62
     3
 48
10.0
370
    -2
100
AcDbBlockReference
  2
_OPEN
 10
735.576548
 20
1085.405918964602
 30
0.0
 41
4.0
 42
4.0
 43
4.0
 50
180.0
  0
INSERT
  5
2F0E
330
2DD1
100
AcDbEntity
  8
0
  6
Continuous
 62
     3
 48
10.0
370
    -2
100
AcDbBlockReference
  2
_OPEN
 10
762.576548
 20
1085.405918964602
 30
0.0
 41
4.0
 42
4.0
 43
4.0
  0
MTEXT
  5
2F0F
330
2DD1
100
AcDbEntity
  8
0
  6
Continuous
 62
     0
 48
10.0
100
AcDbMText
 10
749.096548
 20
1089.905918964602
 30
0.0
 40
6.0
 41
0.0
 71
     5
 72
     1
  1
\A1;27
 73
     1
 44
1.0
  0
POINT
  5
2F10
330
2DD1
100
AcDbEntity
  8
DEFPOINTS
  6
Continuous
 62
     0
 48
10.0
100
AcDbPoint
 10
735.576548
 20
1347.438356964602
 30
0.0
  0
POINT
  5
2F11
330
2DD1
100
AcDbEntity
  8
DEFPOINTS
  6
Continuous
 62
     0
 48
10.0
100
AcDbPoint
 10
762.576548
 20
1136.938356964602
 30
0.0
  0
POINT
  5
2F12
330
2DD1
100
AcDbEntity
  8
DEFPOINTS
  6
Continuous
 62
     0
 48
10.0
100
AcDbPoint
 10
762.576548
 20
1085.405918964602
 30
0.0
  0
ENDBLK
  5
2DDC
330
2DD1
100
AcDbEntity
  8
0
 48
10.0
100
AcDbBlockEnd
  0
BLOCK
  5
2DE7
330
2DDD
100
AcDbEntity
  8
0
 48
10.0
100
AcDbBlockBegin
  2
*D34
 70
     1
 10
0.0
 20
0.0
 30
0.0
  3
*D34
  1

  0
LINE
  5
2F13
330
2DDD
100
AcDbEntity
  8
0
  6
Continuous
 62
     3
 48
10.0
370
    -2
100
AcDbLine
 10
762.576548
 20
1135.938356964601
 30
0.0
 11
762.576548
 21
1084.405918964602
 31
0.0
  0
LINE
  5
2F14
330
2DDD
100
AcDbEntity
  8
0
  6
Continuous
 62
     3
 48
10.0
370
    -2
100
AcDbLine
 10
1052.576548
 20
1134.938356964602
 30
0.0
 11
1052.576548
 21
1084.405918964602
 31
0.0
  0
LINE
  5
2F15
330
2DDD
100
AcDbEntity
  8
0
  6
Continuous
 62
     3
 48
10.0
370
    -2
100
AcDbLine
 10
766.576548
 20
1085.405918964602
 30
0.0
 11
1048.576547999998
 21
1085.405918964602
 31
0.0
  0
INSERT
  5
2F16
330
2DDD
100
AcDbEntity
  8
0
  6
Continuous
 62
     3
 48
10.0
370
    -2
100
AcDbBlockReference
  2
_OPEN
 10
762.576548
 20
1085.405918964602
 30
0.0
 41
4.0
 42
4.0
 43
4.0
 50
180.0
  0
INSERT
  5
2F17
330
2DDD
100
AcDbEntity
  8
0
  6
Continuous
 62
     3
 48
10.0
370
    -2
100
AcDbBlockReference
  2
_OPEN
 10
1052.576548
 20
1085.405918964602
 30
0.0
 41
4.0
 42
4.0
 43
4.0
  0
MTEXT
  5
2F18
330
2DDD
100
AcDbEntity
  8
0
  6
Continuous
 62
     0
 48
10.0
100
AcDbMText
 10
907.606548
 20
1089.905918964602
 30
0.0
 40
6.0
 41
0.0
 71
     5
 72
     1
  1
\A1;290
 73
     1
 44
1.0
  0
POINT
  5
2F19
330
2DDD
100
AcDbEntity
  8
DEFPOINTS
  6
Continuous
 62
     0
 48
10.0
100
AcDbPoint
 10
762.576548
 20
1136.938356964602
 30
0.0
  0
POINT
  5
2F1A
330
2DDD
100
AcDbEntity
  8
DEFPOINTS
  6
Continuous
 62
     0
 48
10.0
100
AcDbPoint
 10
1052.576548
 20
1135.938356964601
 30
0.0
  0
POINT
  5
2F1B
330
2DDD
100
AcDbEntity
  8
DEFPOINTS
  6
Continuous
 62
     0
 48
10.0
100
AcDbPoint
 10
1052.576548
 20
1085.405918964602
 30
0.0
  0
ENDBLK
  5
2DE8
330
2DDD
100
AcDbEntity
  8
0
 48
10.0
100
AcDbBlockEnd
  0
BLOCK
  5
2DF3
330
2DE9
100
AcDbEntity
  8
0
 48
10.0
100
AcDbBlockBegin
  2
*D35
 70
     1
 10
0.0
 20
0.0
 30
0.0
  3
*D35
  1

  0
LINE
  5
2F1C
330
2DE9
100
AcDbEntity
  8
0
  6
Continuous
 62
     3
 48
10.0
370
    -2
100
AcDbLine
 10
978.576548
 20
1165.938356964602
 30
0.0
 11
925.6666119999998
 21
1165.938356964602
 31
0.0
  0
LINE
  5
2F1D
330
2DE9
100
AcDbEntity
  8
0
  6
Continuous
 62
     3
 48
10.0
370
    -2
100
AcDbLine
 10
987.576548
 20
1140.938356964602
 30
0.0
 11
925.6666119999998
 21
1140.938356964602
 31
0.0
  0
LINE
  5
2F1E
330
2DE9
100
AcDbEntity
  8
0
  6
Continuous
 62
     3
 48
10.0
370
    -2
100
AcDbLine
 10
926.6666119999998
 20
1161.938356964602
 30
0.0
 11
926.6666119999998
 21
1144.938356964602
 31
0.0
  0
INSERT
  5
2F1F
330
2DE9
100
AcDbEntity
  8
0
  6
Continuous
 62
     3
 48
10.0
370
    -2
100
AcDbBlockReference
  2
_OPEN
 10
926.6666119999998
 20
1165.938356964602
 30
0.0
 41
4.0
 42
4.0
 43
4.0
 50
90.0
  0
INSERT
  5
2F20
330
2DE9
100
AcDbEntity
  8
0
  6
Continuous
 62
     3
 48
10.0
370
    -2
100
AcDbBlockReference
  2
_OPEN
 10
926.6666119999998
 20
1140.938356964602
 30
0.0
 41
4.0
 42
4.0
 43
4.0
 50
270.0
  0
MTEXT
  5
2F21
330
2DE9
100
AcDbEntity
  8
0
  6
Continuous
 62
     0
 48
10.0
100
AcDbMText
 10
922.1666119999996
 20
1153.458356964602
 30
0.0
 40
6.0
 41
0.0
 71
     5
 72
     1
  1
\A1;25
 11
0.0000000000000001
 21
1.0
 31
0.0
 73
     1
 44
1.0
  0
POINT
  5
2F22
330
2DE9
100
AcDbEntity
  8
DEFPOINTS
  6
Continuous
 62
     0
 48
10.0
100
AcDbPoint
 10
979.576548
 20
1165.938356964602
 30
0.0
  0
POINT
  5
2F23
330
2DE9
100
AcDbEntity
  8
DEFPOINTS
  6
Continuous
 62
     0
 48
10.0
100
AcDbPoint
 10
988.5765479999999
 20
1140.938356964602
 30
0.0
  0
POINT
  5
2F24
330
2DE9
100
AcDbEntity
  8
DEFPOINTS
  6
Continuous
 62
     0
 48
10.0
100
AcDbPoint
 10
926.6666119999998
 20
1140.938356964602
 30
0.0
  0
ENDBLK
  5
2DF4
330
2DE9
100
AcDbEntity
  8
0
 48
10.0
100
AcDbBlockEnd
  0
BLOCK
  5
2DFF
330
2DF5
100
AcDbEntity
  8
0
 48
10.0
100
AcDbBlockBegin
  2
*D36
 70
     1
 10
0.0
 20
0.0
 30
0.0
  3
*D36
  1

  0
LINE
  5
2F25
330
2DF5
100
AcDbEntity
  8
0
  6
Continuous
 62
     3
 48
10.0
370
    -2
100
AcDbLine
 10
992.576548
 20
1166.938356964602
 30
0.0
 11
992.576548
 21
1178.063210964602
 31
0.0
  0
LINE
  5
2F26
330
2DF5
100
AcDbEntity
  8
0
  6
Continuous
 62
     3
 48
10.0
370
    -2
100
AcDbLine
 10
968.576548
 20
1166.938356964602
 30
0.0
 11
968.576548
 21
1178.063210964602
 31
0.0
  0
LINE
  5
2F27
330
2DF5
100
AcDbEntity
  8
0
  6
Continuous
 62
     3
 48
10.0
370
    -2
100
AcDbLine
 10
988.5765479999999
 20
1177.063210964602
 30
0.0
 11
972.5765479999999
 21
1177.063210964602
 31
0.0
  0
INSERT
  5
2F28
330
2DF5
100
AcDbEntity
  8
0
  6
Continuous
 62
     3
 48
10.0
370
    -2
100
AcDbBlockReference
  2
_OPEN
 10
992.576548
 20
1177.063210964602
 30
0.0
 41
4.0
 42
4.0
 43
4.0
  0
INSERT
  5
2F29
330
2DF5
100
AcDbEntity
  8
0
  6
Continuous
 62
     3
 48
10.0
370
    -2
100
AcDbBlockReference
  2
_OPEN
 10
968.576548
 20
1177.063210964602
 30
0.0
 41
4.0
 42
4.0
 43
4.0
 50
180.0
  0
MTEXT
  5
2F2A
330
2DF5
100
AcDbEntity
  8
0
  6
Continuous
 62
     0
 48
10.0
100
AcDbMText
 10
980.5965479999999
 20
1181.563210964602
 30
0.0
 40
6.0
 41
0.0
 71
     5
 72
     1
  1
\A1;24
 73
     1
 44
1.0
  0
POINT
  5
2F2B
330
2DF5
100
AcDbEntity
  8
DEFPOINTS
  6
Continuous
 62
     0
 48
10.0
100
AcDbPoint
 10
992.576548
 20
1165.938356964602
 30
0.0
  0
POINT
  5
2F2C
330
2DF5
100
AcDbEntity
  8
DEFPOINTS
  6
Continuous
 62
     0
 48
10.0
100
AcDbPoint
 10
968.576548
 20
1165.938356964602
 30
0.0
  0
POINT
  5
2F2D
330
2DF5
100
AcDbEntity
  8
DEFPOINTS
  6
Continuous
 62
     0
 48
10.0
100
AcDbPoint
 10
968.576548
 20
1177.063210964602
 30
0.0
  0
ENDBLK
  5
2E00
330
2DF5
100
AcDbEntity
  8
0
 48
10.0
100
AcDbBlockEnd
  0
BLOCK
  5
2E0B
330
2E01
100
AcDbEntity
  8
0
 48
10.0
100
AcDbBlockBegin
  2
*D37
 70
     1
 10
0.0
 20
0.0
 30
0.0
  3
*D37
  1

  0
LINE
  5
2F2E
330
2E01
100
AcDbEntity
  8
0
  6
Continuous
 62
     3
 48
10.0
370
    -2
100
AcDbLine
 10
1052.576548
 20
1166.938356964602
 30
0.0
 11
1052.576548
 21
1178.063210964602
 31
0.0
  0
LINE
  5
2F2F
330
2E01
100
AcDbEntity
  8
0
  6
Continuous
 62
     3
 48
10.0
370
    -2
100
AcDbLine
 10
992.576548
 20
1166.938356964602
 30
0.0
 11
992.576548
 21
1178.063210964602
 31
0.0
  0
LINE
  5
2F30
330
2E01
100
AcDbEntity
  8
0
  6
Continuous
 62
     3
 48
10.0
370
    -2
100
AcDbLine
 10
1048.576547999998
 20
1177.063210964602
 30
0.0
 11
996.5765479999999
 21
1177.063210964602
 31
0.0
  0
INSERT
  5
2F31
330
2E01
100
AcDbEntity
  8
0
  6
Continuous
 62
     3
 48
10.0
370
    -2
100
AcDbBlockReference
  2
_OPEN
 10
1052.576548
 20
1177.063210964602
 30
0.0
 41
4.0
 42
4.0
 43
4.0
  0
INSERT
  5
2F32
330
2E01
100
AcDbEntity
  8
0
  6
Continuous
 62
     3
 48
10.0
370
    -2
100
AcDbBlockReference
  2
_OPEN
 10
992.576548
 20
1177.063210964602
 30
0.0
 41
4.0
 42
4.0
 43
4.0
 50
180.0
  0
MTEXT
  5
2F33
330
2E01
100
AcDbEntity
  8
0
  6
Continuous
 62
     0
 48
10.0
100
AcDbMText
 10
1022.596548
 20
1181.563210964602
 30
0.0
 40
6.0
 41
0.0
 71
     5
 72
     1
  1
\A1;60
 73
     1
 44
1.0
  0
POINT
  5
2F34
330
2E01
100
AcDbEntity
  8
DEFPOINTS
  6
Continuous
 62
     0
 48
10.0
100
AcDbPoint
 10
1052.576548
 20
1165.938356964602
 30
0.0
  0
POINT
  5
2F35
330
2E01
100
AcDbEntity
  8
DEFPOINTS
  6
Continuous
 62
     0
 48
10.0
100
AcDbPoint
 10
992.576548
 20
1165.938356964602
 30
0.0
  0
POINT
  5
2F36
330
2E01
100
AcDbEntity
  8
DEFPOINTS
  6
Continuous
 62
     0
 48
10.0
100
AcDbPoint
 10
992.576548
 20
1177.063210964602
 30
0.0
  0
ENDBLK
  5
2E0C
330
2E01
100
AcDbEntity
  8
0
 48
10.0
100
AcDbBlockEnd
  0
BLOCK
  5
2E17
330
2E0D
100
AcDbEntity
  8
0
 48
10.0
100
AcDbBlockBegin
  2
*D38
 70
     1
 10
0.0
 20
0.0
 30
0.0
  3
*D38
  1

  0
LINE
  5
2F37
330
2E0D
100
AcDbEntity
  8
0
  6
Continuous
 62
     3
 48
10.0
370
    -2
100
AcDbLine
 10
1032.576547999998
 20
1119.938356964601
 30
0.0
 11
1032.576547999998
 21
1102.406161964601
 31
0.0
  0
LINE
  5
2F38
330
2E0D
100
AcDbEntity
  8
0
  6
Continuous
 62
     3
 48
10.0
370
    -2
100
AcDbLine
 10
1052.576548
 20
1134.938356964602
 30
0.0
 11
1052.576548
 21
1102.406161964601
 31
0.0
  0
LINE
  5
2F39
330
2E0D
100
AcDbEntity
  8
0
  6
Continuous
 62
     3
 48
10.0
370
    -2
100
AcDbLine
 10
1036.576547999999
 20
1103.406161964602
 30
0.0
 11
1048.576547999998
 21
1103.406161964602
 31
0.0
  0
INSERT
  5
2F3A
330
2E0D
100
AcDbEntity
  8
0
  6
Continuous
 62
     3
 48
10.0
370
    -2
100
AcDbBlockReference
  2
_OPEN
 10
1032.576547999998
 20
1103.406161964602
 30
0.0
 41
4.0
 42
4.0
 43
4.0
 50
180.0
  0
INSERT
  5
2F3B
330
2E0D
100
AcDbEntity
  8
0
  6
Continuous
 62
     3
 48
10.0
370
    -2
100
AcDbBlockReference
  2
_OPEN
 10
1052.576548
 20
1103.406161964602
 30
0.0
 41
4.0
 42
4.0
 43
4.0
  0
MTEXT
  5
2F3C
330
2E0D
100
AcDbEntity
  8
0
  6
Continuous
 62
     0
 48
10.0
100
AcDbMText
 10
1042.596548
 20
1107.906161964602
 30
0.0
 40
6.0
 41
0.0
 71
     5
 72
     1
  1
\A1;20
 73
     1
 44
1.0
  0
POINT
  5
2F3D
330
2E0D
100
AcDbEntity
  8
DEFPOINTS
  6
Continuous
 62
     0
 48
10.0
100
AcDbPoint
 10
1032.576547999998
 20
1120.938356964602
 30
0.0
  0
POINT
  5
2F3E
330
2E0D
100
AcDbEntity
  8
DEFPOINTS
  6
Continuous
 62
     0
 48
10.0
100
AcDbPoint
 10
1052.576548
 20
1135.938356964601
 30
0.0
  0
POINT
  5
2F3F
330
2E0D
100
AcDbEntity
  8
DEFPOINTS
  6
Continuous
 62
     0
 48
10.0
100
AcDbPoint
 10
1052.576548
 20
1103.406161964602
 30
0.0
  0
ENDBLK
  5
2E18
330
2E0D
100
AcDbEntity
  8
0
 48
10.0
100
AcDbBlockEnd
  0
BLOCK
  5
2E23
330
2E19
100
AcDbEntity
  8
0
 48
10.0
100
AcDbBlockBegin
  2
*D39
 70
     1
 10
0.0
 20
0.0
 30
0.0
  3
*D39
  1

  0
LINE
  5
2F40
330
2E19
100
AcDbEntity
  8
0
  6
Continuous
 62
     3
 48
10.0
370
    -2
100
AcDbLine
 10
822.5765479999999
 20
1119.938356964601
 30
0.0
 11
822.5765479999999
 21
1102.406161964601
 31
0.0
  0
LINE
  5
2F41
330
2E19
100
AcDbEntity
  8
0
  6
Continuous
 62
     3
 48
10.0
370
    -2
100
AcDbLine
 10
1032.576547999998
 20
1119.938356964601
 30
0.0
 11
1032.576547999998
 21
1102.406161964601
 31
0.0
  0
LINE
  5
2F42
330
2E19
100
AcDbEntity
  8
0
  6
Continuous
 62
     3
 48
10.0
370
    -2
100
AcDbLine
 10
826.576548
 20
1103.406161964602
 30
0.0
 11
1028.576547999999
 21
1103.406161964602
 31
0.0
  0
INSERT
  5
2F43
330
2E19
100
AcDbEntity
  8
0
  6
Continuous
 62
     3
 48
10.0
370
    -2
100
AcDbBlockReference
  2
_OPEN
 10
822.5765479999999
 20
1103.406161964602
 30
0.0
 41
4.0
 42
4.0
 43
4.0
 50
180.0
  0
INSERT
  5
2F44
330
2E19
100
AcDbEntity
  8
0
  6
Continuous
 62
     3
 48
10.0
370
    -2
100
AcDbBlockReference
  2
_OPEN
 10
1032.576547999998
 20
1103.406161964602
 30
0.0
 41
4.0
 42
4.0
 43
4.0
  0
MTEXT
  5
2F45
330
2E19
100
AcDbEntity
  8
0
  6
Continuous
 62
     0
 48
10.0
100
AcDbMText
 10
907.65034270023
 20
1107.906161964602
 30
0.0
 40
6.0
 41
0.0
 71
     5
 72
     1
  1
\A1;210
 73
     1
 44
1.0
  0
POINT
  5
2F46
330
2E19
100
AcDbEntity
  8
DEFPOINTS
  6
Continuous
 62
     0
 48
10.0
100
AcDbPoint
 10
822.5765479999999
 20
1120.938356964602
 30
0.0
  0
POINT
  5
2F47
330
2E19
100
AcDbEntity
  8
DEFPOINTS
  6
Continuous
 62
     0
 48
10.0
100
AcDbPoint
 10
1032.576547999998
 20
1120.938356964602
 30
0.0
  0
POINT
  5
2F48
330
2E19
100
AcDbEntity
  8
DEFPOINTS
  6
Continuous
 62
     0
 48
10.0
100
AcDbPoint
 10
1032.576547999998
 20
1103.406161964602
 30
0.0
  0
ENDBLK
  5
2E24
330
2E19
100
AcDbEntity
  8
0
 48
10.0
100
AcDbBlockEnd
  0
BLOCK
  5
2E2F
330
2E25
100
AcDbEntity
  8
0
 48
10.0
100
AcDbBlockBegin
  2
*D40
 70
     1
 10
0.0
 20
0.0
 30
0.0
  3
*D40
  1

  0
LINE
  5
2F49
330
2E25
100
AcDbEntity
  8
0
  6
Continuous
 62
     3
 48
10.0
370
    -2
100
AcDbLine
 10
802.576548
 20
1134.938356964602
 30
0.0
 11
802.576548
 21
1102.406161964601
 31
0.0
  0
LINE
  5
2F4A
330
2E25
100
AcDbEntity
  8
0
  6
Continuous
 62
     3
 48
10.0
370
    -2
100
AcDbLine
 10
822.5765479999999
 20
1119.938356964601
 30
0.0
 11
822.5765479999999
 21
1102.406161964601
 31
0.0
  0
LINE
  5
2F4B
330
2E25
100
AcDbEntity
  8
0
  6
Continuous
 62
     3
 48
10.0
370
    -2
100
AcDbLine
 10
806.5765479999999
 20
1103.406161964602
 30
0.0
 11
818.576548
 21
1103.406161964602
 31
0.0
  0
INSERT
  5
2F4C
330
2E25
100
AcDbEntity
  8
0
  6
Continuous
 62
     3
 48
10.0
370
    -2
100
AcDbBlockReference
  2
_OPEN
 10
802.576548
 20
1103.406161964602
 30
0.0
 41
4.0
 42
4.0
 43
4.0
 50
180.0
  0
INSERT
  5
2F4D
330
2E25
100
AcDbEntity
  8
0
  6
Continuous
 62
     3
 48
10.0
370
    -2
100
AcDbBlockReference
  2
_OPEN
 10
822.5765479999999
 20
1103.406161964602
 30
0.0
 41
4.0
 42
4.0
 43
4.0
  0
MTEXT
  5
2F4E
330
2E25
100
AcDbEntity
  8
0
  6
Continuous
 62
     0
 48
10.0
100
AcDbMText
 10
812.5965480000001
 20
1107.906161964602
 30
0.0
 40
6.0
 41
0.0
 71
     5
 72
     1
  1
\A1;20
 73
     1
 44
1.0
  0
POINT
  5
2F4F
330
2E25
100
AcDbEntity
  8
DEFPOINTS
  6
Continuous
 62
     0
 48
10.0
100
AcDbPoint
 10
802.576548
 20
1135.938356964601
 30
0.0
  0
POINT
  5
2F50
330
2E25
100
AcDbEntity
  8
DEFPOINTS
  6
Continuous
 62
     0
 48
10.0
100
AcDbPoint
 10
822.5765479999999
 20
1120.938356964602
 30
0.0
  0
POINT
  5
2F51
330
2E25
100
AcDbEntity
  8
DEFPOINTS
  6
Continuous
 62
     0
 48
10.0
100
AcDbPoint
 10
822.5765479999999
 20
1103.406161964602
 30
0.0
  0
ENDBLK
  5
2E30
330
2E25
100
AcDbEntity
  8
0
 48
10.0
100
AcDbBlockEnd
  0
BLOCK
  5
2E3B
330
2E31
100
AcDbEntity
  8
0
 48
10.0
100
AcDbBlockBegin
  2
*D41
 70
     1
 10
0.0
 20
0.0
 30
0.0
  3
*D41
  1

  0
LINE
  5
2F52
330
2E31
100
AcDbEntity
  8
0
  6
Continuous
 62
     3
 48
10.0
370
    -2
100
AcDbLine
 10
762.576548
 20
1135.938356964601
 30
0.0
 11
762.576548
 21
1102.406161964601
 31
0.0
  0
LINE
  5
2F53
330
2E31
100
AcDbEntity
  8
0
  6
Continuous
 62
     3
 48
10.0
370
    -2
100
AcDbLine
 10
802.576548
 20
1134.938356964602
 30
0.0
 11
802.576548
 21
1102.406161964601
 31
0.0
  0
LINE
  5
2F54
330
2E31
100
AcDbEntity
  8
0
  6
Continuous
 62
     3
 48
10.0
370
    -2
100
AcDbLine
 10
766.576548
 20
1103.406161964602
 30
0.0
 11
798.576548
 21
1103.406161964602
 31
0.0
  0
INSERT
  5
2F55
330
2E31
100
AcDbEntity
  8
0
  6
Continuous
 62
     3
 48
10.0
370
    -2
100
AcDbBlockReference
  2
_OPEN
 10
762.576548
 20
1103.406161964602
 30
0.0
 41
4.0
 42
4.0
 43
4.0
 50
180.0
  0
INSERT
  5
2F56
330
2E31
100
AcDbEntity
  8
0
  6
Continuous
 62
     3
 48
10.0
370
    -2
100
AcDbBlockReference
  2
_OPEN
 10
802.576548
 20
1103.406161964602
 30
0.0
 41
4.0
 42
4.0
 43
4.0
  0
MTEXT
  5
2F57
330
2E31
100
AcDbEntity
  8
0
  6
Continuous
 62
     0
 48
10.0
100
AcDbMText
 10
782.5965480000001
 20
1107.906161964602
 30
0.0
 40
6.0
 41
0.0
 71
     5
 72
     1
  1
\A1;40
 73
     1
 44
1.0
  0
POINT
  5
2F58
330
2E31
100
AcDbEntity
  8
DEFPOINTS
  6
Continuous
 62
     0
 48
10.0
100
AcDbPoint
 10
762.576548
 20
1136.938356964602
 30
0.0
  0
POINT
  5
2F59
330
2E31
100
AcDbEntity
  8
DEFPOINTS
  6
Continuous
 62
     0
 48
10.0
100
AcDbPoint
 10
802.576548
 20
1135.938356964601
 30
0.0
  0
POINT
  5
2F5A
330
2E31
100
AcDbEntity
  8
DEFPOINTS
  6
Continuous
 62
     0
 48
10.0
100
AcDbPoint
 10
802.576548
 20
1103.406161964602
 30
0.0
  0
ENDBLK
  5
2E3C
330
2E31
100
AcDbEntity
  8
0
 48
10.0
100
AcDbBlockEnd
  0
BLOCK
  5
2E47
330
2E3D
100
AcDbEntity
  8
0
 48
10.0
100
AcDbBlockBegin
  2
*D42
 70
     1
 10
0.0
 20
0.0
 30
0.0
  3
*D42
  1

  0
LINE
  5
2F5B
330
2E3D
100
AcDbEntity
  8
0
  6
Continuous
 62
     3
 48
10.0
370
    -2
100
AcDbLine
 10
758.576548
 20
1418.938356964602
 30
0.0
 11
758.576548
 21
1444.889959964602
 31
0.0
  0
LINE
  5
2F5C
330
2E3D
100
AcDbEntity
  8
0
  6
Continuous
 62
     3
 48
10.0
370
    -2
100
AcDbLine
 10
802.576548
 20
1426.938356964602
 30
0.0
 11
802.576548
 21
1444.889959964602
 31
0.0
  0
LINE
  5
2F5D
330
2E3D
100
AcDbEntity
  8
0
  6
Continuous
 62
     3
 48
10.0
370
    -2
100
AcDbLine
 10
762.576548
 20
1443.889959964602
 30
0.0
 11
798.576548
 21
1443.889959964602
 31
0.0
  0
INSERT
  5
2F5E
330
2E3D
100
AcDbEntity
  8
0
  6
Continuous
 62
     3
 48
10.0
370
    -2
100
AcDbBlockReference
  2
_OPEN
 10
758.576548
 20
1443.889959964602
 30
0.0
 41
4.0
 42
4.0
 43
4.0
 50
180.0
  0
INSERT
  5
2F5F
330
2E3D
100
AcDbEntity
  8
0
  6
Continuous
 62
     3
 48
10.0
370
    -2
100
AcDbBlockReference
  2
_OPEN
 10
802.576548
 20
1443.889959964602
 30
0.0
 41
4.0
 42
4.0
 43
4.0
  0
MTEXT
  5
2F60
330
2E3D
100
AcDbEntity
  8
0
  6
Continuous
 62
     0
 48
10.0
100
AcDbMText
 10
780.5965480000001
 20
1448.389959964602
 30
0.0
 40
6.0
 41
0.0
 71
     5
 72
     1
  1
\A1;44
 73
     1
 44
1.0
  0
POINT
  5
2F61
330
2E3D
100
AcDbEntity
  8
DEFPOINTS
  6
Continuous
 62
     0
 48
10.0
100
AcDbPoint
 10
758.576548
 20
1417.938356964602
 30
0.0
  0
POINT
  5
2F62
330
2E3D
100
AcDbEntity
  8
DEFPOINTS
  6
Continuous
 62
     0
 48
10.0
100
AcDbPoint
 10
802.576548
 20
1425.938356964602
 30
0.0
  0
POINT
  5
2F63
330
2E3D
100
AcDbEntity
  8
DEFPOINTS
  6
Continuous
 62
     0
 48
10.0
100
AcDbPoint
 10
802.576548
 20
1443.889959964602
 30
0.0
  0
ENDBLK
  5
2E48
330
2E3D
100
AcDbEntity
  8
0
 48
10.0
100
AcDbBlockEnd
  0
BLOCK
  5
2E53
330
2E49
100
AcDbEntity
  8
0
 48
10.0
100
AcDbBlockBegin
  2
*D43
 70
     1
 10
0.0
 20
0.0
 30
0.0
  3
*D43
  1

  0
LINE
  5
2F64
330
2E49
100
AcDbEntity
  8
0
  6
Continuous
 62
     3
 48
10.0
370
    -2
100
AcDbLine
 10
533.576548
 20
1345.938356964602
 30
0.0
 11
519.8325470000002
 21
1345.938356964602
 31
0.0
  0
LINE
  5
2F65
330
2E49
100
AcDbEntity
  8
0
  6
Continuous
 62
     3
 48
10.0
370
    -2
100
AcDbLine
 10
533.576548
 20
1205.938356964602
 30
0.0
 11
519.8325470000002
 21
1205.938356964602
 31
0.0
  0
LINE
  5
2F66
330
2E49
100
AcDbEntity
  8
0
  6
Continuous
 62
     3
 48
10.0
370
    -2
100
AcDbLine
 10
520.8325470000001
 20
1341.938356964602
 30
0.0
 11
520.8325470000001
 21
1209.938356964602
 31
0.0
  0
INSERT
  5
2F67
330
2E49
100
AcDbEntity
  8
0
  6
Continuous
 62
     3
 48
10.0
370
    -2
100
AcDbBlockReference
  2
_OPEN
 10
520.8325470000001
 20
1345.938356964602
 30
0.0
 41
4.0
 42
4.0
 43
4.0
 50
90.0
  0
INSERT
  5
2F68
330
2E49
100
AcDbEntity
  8
0
  6
Continuous
 62
     3
 48
10.0
370
    -2
100
AcDbBlockReference
  2
_OPEN
 10
520.8325470000001
 20
1205.938356964602
 30
0.0
 41
4.0
 42
4.0
 43
4.0
 50
270.0
  0
MTEXT
  5
2F69
330
2E49
100
AcDbEntity
  8
0
  6
Continuous
 62
     0
 48
10.0
100
AcDbMText
 10
516.332547
 20
1275.968356964602
 30
0.0
 40
6.0
 41
0.0
 71
     5
 72
     1
  1
\A1;140
 11
0.0000000000000001
 21
1.0
 31
0.0
 73
     1
 44
1.0
  0
POINT
  5
2F6A
330
2E49
100
AcDbEntity
  8
DEFPOINTS
  6
Continuous
 62
     0
 48
10.0
100
AcDbPoint
 10
534.5765479999998
 20
1345.938356964602
 30
0.0
  0
POINT
  5
2F6B
330
2E49
100
AcDbEntity
  8
DEFPOINTS
  6
Continuous
 62
     0
 48
10.0
100
AcDbPoint
 10
534.5765479999998
 20
1205.938356964602
 30
0.0
  0
POINT
  5
2F6C
330
2E49
100
AcDbEntity
  8
DEFPOINTS
  6
Continuous
 62
     0
 48
10.0
100
AcDbPoint
 10
520.8325470000001
 20
1205.938356964602
 30
0.0
  0
ENDBLK
  5
2E54
330
2E49
100
AcDbEntity
  8
0
 48
10.0
100
AcDbBlockEnd
  0
BLOCK
  5
2E5F
330
2E55
100
AcDbEntity
  8
0
 48
10.0
100
AcDbBlockBegin
  2
*D44
 70
     1
 10
0.0
 20
0.0
 30
0.0
  3
*D44
  1

  0
LINE
  5
2F6D
330
2E55
100
AcDbEntity
  8
0
  6
Continuous
 62
     3
 48
10.0
370
    -2
100
AcDbLine
 10
202.576548
 20
1224.938356964602
 30
0.0
 11
202.576548
 21
1231.407871964601
 31
0.0
  0
LINE
  5
2F6E
330
2E55
100
AcDbEntity
  8
0
  6
Continuous
 62
     3
 48
10.0
370
    -2
100
AcDbLine
 10
552.576548
 20
1224.938356964602
 30
0.0
 11
552.576548
 21
1231.407871964601
 31
0.0
  0
LINE
  5
2F6F
330
2E55
100
AcDbEntity
  8
0
  6
Continuous
 62
     3
 48
10.0
370
    -2
100
AcDbLine
 10
206.576548
 20
1230.407871964602
 30
0.0
 11
548.576548
 21
1230.407871964602
 31
0.0
  0
INSERT
  5
2F70
330
2E55
100
AcDbEntity
  8
0
  6
Continuous
 62
     3
 48
10.0
370
    -2
100
AcDbBlockReference
  2
_OPEN
 10
202.576548
 20
1230.407871964602
 30
0.0
 41
4.0
 42
4.0
 43
4.0
 50
180.0
  0
INSERT
  5
2F71
330
2E55
100
AcDbEntity
  8
0
  6
Continuous
 62
     3
 48
10.0
370
    -2
100
AcDbBlockReference
  2
_OPEN
 10
552.576548
 20
1230.407871964602
 30
0.0
 41
4.0
 42
4.0
 43
4.0
  0
MTEXT
  5
2F72
330
2E55
100
AcDbEntity
  8
0
  6
Continuous
 62
     0
 48
10.0
100
AcDbMText
 10
377.6065479999998
 20
1234.907871964602
 30
0.0
 40
6.0
 41
0.0
 71
     5
 72
     1
  1
\A1;350
 73
     1
 44
1.0
  0
POINT
  5
2F73
330
2E55
100
AcDbEntity
  8
DEFPOINTS
  6
Continuous
 62
     0
 48
10.0
100
AcDbPoint
 10
202.576548
 20
1223.938356964602
 30
0.0
  0
POINT
  5
2F74
330
2E55
100
AcDbEntity
  8
DEFPOINTS
  6
Continuous
 62
     0
 48
10.0
100
AcDbPoint
 10
552.576548
 20
1223.938356964602
 30
0.0
  0
POINT
  5
2F75
330
2E55
100
AcDbEntity
  8
DEFPOINTS
  6
Continuous
 62
     0
 48
10.0
100
AcDbPoint
 10
552.576548
 20
1230.407871964602
 30
0.0
  0
ENDBLK
  5
2E60
330
2E55
100
AcDbEntity
  8
0
 48
10.0
100
AcDbBlockEnd
  0
BLOCK
  5
2E6B
330
2E61
100
AcDbEntity
  8
0
 48
10.0
100
AcDbBlockBegin
  2
*D45
 70
     1
 10
0.0
 20
0.0
 30
0.0
  3
*D45
  1

  0
LINE
  5
2F76
330
2E61
100
AcDbEntity
  8
0
  6
Continuous
 62
     3
 48
10.0
370
    -2
100
AcDbLine
 10
152.576548
 20
1134.938356964602
 30
0.0
 11
152.576548
 21
1102.406161964601
 31
0.0
  0
LINE
  5
2F77
330
2E61
100
AcDbEntity
  8
0
  6
Continuous
 62
     3
 48
10.0
370
    -2
100
AcDbLine
 10
172.5765479999999
 20
1119.938356964601
 30
0.0
 11
172.5765479999999
 21
1102.406161964601
 31
0.0
  0
LINE
  5
2F78
330
2E61
100
AcDbEntity
  8
0
  6
Continuous
 62
     3
 48
10.0
370
    -2
100
AcDbLine
 10
156.576548
 20
1103.406161964602
 30
0.0
 11
168.576548
 21
1103.406161964602
 31
0.0
  0
INSERT
  5
2F79
330
2E61
100
AcDbEntity
  8
0
  6
Continuous
 62
     3
 48
10.0
370
    -2
100
AcDbBlockReference
  2
_OPEN
 10
152.576548
 20
1103.406161964602
 30
0.0
 41
4.0
 42
4.0
 43
4.0
 50
180.0
  0
INSERT
  5
2F7A
330
2E61
100
AcDbEntity
  8
0
  6
Continuous
 62
     3
 48
10.0
370
    -2
100
AcDbBlockReference
  2
_OPEN
 10
172.5765479999999
 20
1103.406161964602
 30
0.0
 41
4.0
 42
4.0
 43
4.0
  0
MTEXT
  5
2F7B
330
2E61
100
AcDbEntity
  8
0
  6
Continuous
 62
     0
 48
10.0
100
AcDbMText
 10
162.5965479999998
 20
1107.906161964602
 30
0.0
 40
6.0
 41
0.0
 71
     5
 72
     1
  1
\A1;20
 73
     1
 44
1.0
  0
POINT
  5
2F7C
330
2E61
100
AcDbEntity
  8
DEFPOINTS
  6
Continuous
 62
     0
 48
10.0
100
AcDbPoint
 10
152.576548
 20
1135.938356964601
 30
0.0
  0
POINT
  5
2F7D
330
2E61
100
AcDbEntity
  8
DEFPOINTS
  6
Continuous
 62
     0
 48
10.0
100
AcDbPoint
 10
172.5765479999999
 20
1120.938356964602
 30
0.0
  0
POINT
  5
2F7E
330
2E61
100
AcDbEntity
  8
DEFPOINTS
  6
Continuous
 62
     0
 48
10.0
100
AcDbPoint
 10
172.5765479999999
 20
1103.406161964602
 30
0.0
  0
ENDBLK
  5
2E6C
330
2E61
100
AcDbEntity
  8
0
 48
10.0
100
AcDbBlockEnd
  0
BLOCK
  5
2E77
330
2E6D
100
AcDbEntity
  8
0
 48
10.0
100
AcDbBlockBegin
  2
*D46
 70
     1
 10
0.0
 20
0.0
 30
0.0
  3
*D46
  1

  0
LINE
  5
2F7F
330
2E6D
100
AcDbEntity
  8
0
  6
Continuous
 62
     3
 48
10.0
370
    -2
100
AcDbLine
 10
172.5765479999999
 20
1119.938356964601
 30
0.0
 11
172.5765479999999
 21
1102.406161964601
 31
0.0
  0
LINE
  5
2F80
330
2E6D
100
AcDbEntity
  8
0
  6
Continuous
 62
     3
 48
10.0
370
    -2
100
AcDbLine
 10
582.576548
 20
1119.938356964601
 30
0.0
 11
582.576548
 21
1102.406161964601
 31
0.0
  0
LINE
  5
2F81
330
2E6D
100
AcDbEntity
  8
0
  6
Continuous
 62
     3
 48
10.0
370
    -2
100
AcDbLine
 10
176.5765479999999
 20
1103.406161964602
 30
0.0
 11
578.576548
 21
1103.406161964602
 31
0.0
  0
INSERT
  5
2F82
330
2E6D
100
AcDbEntity
  8
0
  6
Continuous
 62
     3
 48
10.0
370
    -2
100
AcDbBlockReference
  2
_OPEN
 10
172.5765479999999
 20
1103.406161964602
 30
0.0
 41
4.0
 42
4.0
 43
4.0
 50
180.0
  0
INSERT
  5
2F83
330
2E6D
100
AcDbEntity
  8
0
  6
Continuous
 62
     3
 48
10.0
370
    -2
100
AcDbBlockReference
  2
_OPEN
 10
582.576548
 20
1103.406161964602
 30
0.0
 41
4.0
 42
4.0
 43
4.0
  0
MTEXT
  5
2F84
330
2E6D
100
AcDbEntity
  8
0
  6
Continuous
 62
     0
 48
10.0
100
AcDbMText
 10
377.6065479999998
 20
1107.906161964602
 30
0.0
 40
6.0
 41
0.0
 71
     5
 72
     1
  1
\A1;410
 73
     1
 44
1.0
  0
POINT
  5
2F85
330
2E6D
100
AcDbEntity
  8
DEFPOINTS
  6
Continuous
 62
     0
 48
10.0
100
AcDbPoint
 10
172.5765479999999
 20
1120.938356964602
 30
0.0
  0
POINT
  5
2F86
330
2E6D
100
AcDbEntity
  8
DEFPOINTS
  6
Continuous
 62
     0
 48
10.0
100
AcDbPoint
 10
582.576548
 20
1120.938356964602
 30
0.0
  0
POINT
  5
2F87
330
2E6D
100
AcDbEntity
  8
DEFPOINTS
  6
Continuous
 62
     0
 48
10.0
100
AcDbPoint
 10
582.576548
 20
1103.406161964602
 30
0.0
  0
ENDBLK
  5
2E78
330
2E6D
100
AcDbEntity
  8
0
 48
10.0
100
AcDbBlockEnd
  0
BLOCK
  5
2E83
330
2E79
100
AcDbEntity
  8
0
 48
10.0
100
AcDbBlockBegin
  2
*D47
 70
     1
 10
0.0
 20
0.0
 30
0.0
  3
*D47
  1

  0
LINE
  5
2F88
330
2E79
100
AcDbEntity
  8
0
  6
Continuous
 62
     3
 48
10.0
370
    -2
100
AcDbLine
 10
582.576548
 20
1119.938356964601
 30
0.0
 11
582.576548
 21
1102.406161964601
 31
0.0
  0
LINE
  5
2F89
330
2E79
100
AcDbEntity
  8
0
  6
Continuous
 62
     3
 48
10.0
370
    -2
100
AcDbLine
 10
602.576548
 20
1134.938356964602
 30
0.0
 11
602.576548
 21
1102.406161964601
 31
0.0
  0
LINE
  5
2F8A
330
2E79
100
AcDbEntity
  8
0
  6
Continuous
 62
     3
 48
10.0
370
    -2
100
AcDbLine
 10
586.576548
 20
1103.406161964602
 30
0.0
 11
598.576548
 21
1103.406161964602
 31
0.0
  0
INSERT
  5
2F8B
330
2E79
100
AcDbEntity
  8
0
  6
Continuous
 62
     3
 48
10.0
370
    -2
100
AcDbBlockReference
  2
_OPEN
 10
582.576548
 20
1103.406161964602
 30
0.0
 41
4.0
 42
4.0
 43
4.0
 50
180.0
  0
INSERT
  5
2F8C
330
2E79
100
AcDbEntity
  8
0
  6
Continuous
 62
     3
 48
10.0
370
    -2
100
AcDbBlockReference
  2
_OPEN
 10
602.576548
 20
1103.406161964602
 30
0.0
 41
4.0
 42
4.0
 43
4.0
  0
MTEXT
  5
2F8D
330
2E79
100
AcDbEntity
  8
0
  6
Continuous
 62
     0
 48
10.0
100
AcDbMText
 10
592.5965480000001
 20
1107.906161964602
 30
0.0
 40
6.0
 41
0.0
 71
     5
 72
     1
  1
\A1;20
 73
     1
 44
1.0
  0
POINT
  5
2F8E
330
2E79
100
AcDbEntity
  8
DEFPOINTS
  6
Continuous
 62
     0
 48
10.0
100
AcDbPoint
 10
582.576548
 20
1120.938356964602
 30
0.0
  0
POINT
  5
2F8F
330
2E79
100
AcDbEntity
  8
DEFPOINTS
  6
Continuous
 62
     0
 48
10.0
100
AcDbPoint
 10
602.576548
 20
1135.938356964601
 30
0.0
  0
POINT
  5
2F90
330
2E79
100
AcDbEntity
  8
DEFPOINTS
  6
Continuous
 62
     0
 48
10.0
100
AcDbPoint
 10
602.576548
 20
1103.406161964602
 30
0.0
  0
ENDBLK
  5
2E84
330
2E79
100
AcDbEntity
  8
0
 48
10.0
100
AcDbBlockEnd
  0
BLOCK
  5
2E8F
330
2E85
100
AcDbEntity
  8
0
 48
10.0
100
AcDbBlockBegin
  2
*D48
 70
     1
 10
0.0
 20
0.0
 30
0.0
  3
*D48
  1

  0
LINE
  5
2F91
330
2E85
100
AcDbEntity
  8
0
  6
Continuous
 62
     3
 48
10.0
370
    -2
100
AcDbLine
 10
603.576548
 20
1425.938356964602
 30
0.0
 11
641.0280990000002
 21
1425.938356964602
 31
0.0
  0
LINE
  5
2F92
330
2E85
100
AcDbEntity
  8
0
  6
Continuous
 62
     3
 48
10.0
370
    -2
100
AcDbLine
 10
596.5765479999999
 20
1120.938356964602
 30
0.0
 11
641.0280990000001
 21
1120.938356964602
 31
0.0
  0
LINE
  5
2F93
330
2E85
100
AcDbEntity
  8
0
  6
Continuous
 62
     3
 48
10.0
370
    -2
100
AcDbLine
 10
640.0280990000002
 20
1421.938356964601
 30
0.0
 11
640.0280990000001
 21
1124.938356964602
 31
0.0
  0
INSERT
  5
2F94
330
2E85
100
AcDbEntity
  8
0
  6
Continuous
 62
     3
 48
10.0
370
    -2
100
AcDbBlockReference
  2
_OPEN
 10
640.0280990000002
 20
1425.938356964602
 30
0.0
 41
4.0
 42
4.0
 43
4.0
 50
90.0
  0
INSERT
  5
2F95
330
2E85
100
AcDbEntity
  8
0
  6
Continuous
 62
     3
 48
10.0
370
    -2
100
AcDbBlockReference
  2
_OPEN
 10
640.0280990000001
 20
1120.938356964602
 30
0.0
 41
4.0
 42
4.0
 43
4.0
 50
270.0
  0
MTEXT
  5
2F96
330
2E85
100
AcDbEntity
  8
0
  6
Continuous
 62
     0
 48
10.0
100
AcDbMText
 10
635.5280989999998
 20
1273.468356964602
 30
0.0
 40
6.0
 41
0.0
 71
     5
 72
     1
  1
\A1;305
 11
0.0000000000000001
 21
1.0
 31
0.0
 73
     1
 44
1.0
  0
POINT
  5
2F97
330
2E85
100
AcDbEntity
  8
DEFPOINTS
  6
Continuous
 62
     0
 48
10.0
100
AcDbPoint
 10
602.576548
 20
1425.938356964602
 30
0.0
  0
POINT
  5
2F98
330
2E85
100
AcDbEntity
  8
DEFPOINTS
  6
Continuous
 62
     0
 48
10.0
100
AcDbPoint
 10
595.576548
 20
1120.938356964602
 30
0.0
  0
POINT
  5
2F99
330
2E85
100
AcDbEntity
  8
DEFPOINTS
  6
Continuous
 62
     0
 48
10.0
100
AcDbPoint
 10
640.0280990000001
 20
1120.938356964602
 30
0.0
  0
ENDBLK
  5
2E90
330
2E85
100
AcDbEntity
  8
0
 48
10.0
100
AcDbBlockEnd
  0
BLOCK
  5
2E9D
330
2E91
100
AcDbEntity
  8
0
 48
10.0
100
AcDbBlockBegin
  2
*D49
 70
     1
 10
0.0
 20
0.0
 30
0.0
  3
*D49
  1

  0
LINE
  5
2F9A
330
2E91
100
AcDbEntity
  8
0
  6
Continuous
 62
     3
 48
10.0
370
    -2
100
AcDbLine
 10
603.576548
 20
1135.938356964601
 30
0.0
 11
622.0353960000001
 21
1135.938356964601
 31
0.0
  0
LINE
  5
2F9B
330
2E91
100
AcDbEntity
  8
0
  6
Continuous
 62
     3
 48
10.0
370
    -2
100
AcDbLine
 10
596.5765479999999
 20
1120.938356964602
 30
0.0
 11
622.0353960000001
 21
1120.938356964602
 31
0.0
  0
LINE
  5
2F9C
330
2E91
100
AcDbEntity
  8
0
  6
Continuous
 62
     3
 48
10.0
370
    -2
100
AcDbLine
 10
621.0353959999999
 20
1139.938356964601
 30
0.0
 11
621.0353959999999
 21
1143.938356964601
 31
0.0
  0
LINE
  5
2F9D
330
2E91
100
AcDbEntity
  8
0
  6
Continuous
 62
     3
 48
10.0
370
    -2
100
AcDbLine
 10
621.0353959999999
 20
1116.938356964602
 30
0.0
 11
621.0353959999999
 21
1112.938356964602
 31
0.0
  0
LINE
  5
2F9E
330
2E91
100
AcDbEntity
  8
0
  6
Continuous
 62
     3
 48
10.0
370
    -2
100
AcDbLine
 10
621.0353959999999
 20
1135.938356964601
 30
0.0
 11
621.0353959999999
 21
1120.938356964602
 31
0.0
  0
INSERT
  5
2F9F
330
2E91
100
AcDbEntity
  8
0
  6
Continuous
 62
     3
 48
10.0
370
    -2
100
AcDbBlockReference
  2
_OPEN
 10
621.0353959999999
 20
1135.938356964601
 30
0.0
 41
4.0
 42
4.0
 43
4.0
 50
270.0
  0
INSERT
  5
2FA0
330
2E91
100
AcDbEntity
  8
0
  6
Continuous
 62
     3
 48
10.0
370
    -2
100
AcDbBlockReference
  2
_OPEN
 10
621.0353959999999
 20
1120.938356964602
 30
0.0
 41
4.0
 42
4.0
 43
4.0
 50
90.0
  0
MTEXT
  5
2FA1
330
2E91
100
AcDbEntity
  8
0
  6
Continuous
 62
     0
 48
10.0
100
AcDbMText
 10
616.535396
 20
1128.458356964602
 30
0.0
 40
6.0
 41
0.0
 71
     5
 72
     1
  1
\A1;15
 11
0.0000000000000001
 21
1.0
 31
0.0
 73
     1
 44
1.0
  0
POINT
  5
2FA2
330
2E91
100
AcDbEntity
  8
DEFPOINTS
  6
Continuous
 62
     0
 48
10.0
100
AcDbPoint
 10
602.576548
 20
1135.938356964601
 30
0.0
  0
POINT
  5
2FA3
330
2E91
100
AcDbEntity
  8
DEFPOINTS
  6
Continuous
 62
     0
 48
10.0
100
AcDbPoint
 10
595.576548
 20
1120.938356964602
 30
0.0
  0
POINT
  5
2FA4
330
2E91
100
AcDbEntity
  8
DEFPOINTS
  6
Continuous
 62
     0
 48
10.0
100
AcDbPoint
 10
621.0353959999999
 20
1120.938356964602
 30
0.0
  0
ENDBLK
  5
2E9E
330
2E91
100
AcDbEntity
  8
0
 48
10.0
100
AcDbBlockEnd
  0
BLOCK
  5
2EA9
330
2E9F
100
AcDbEntity
  8
0
 48
10.0
100
AcDbBlockBegin
  2
*D50
 70
     1
 10
0.0
 20
0.0
 30
0.0
  3
*D50
  1

  0
LINE
  5
2FA5
330
2E9F
100
AcDbEntity
  8
0
  6
Continuous
 62
     3
 48
10.0
370
    -2
100
AcDbLine
 10
602.576548
 20
1134.938356964602
 30
0.0
 11
602.576548
 21
1084.405918964602
 31
0.0
  0
LINE
  5
2FA6
330
2E9F
100
AcDbEntity
  8
0
  6
Continuous
 62
     3
 48
10.0
370
    -2
100
AcDbLine
 10
152.576548
 20
1134.938356964602
 30
0.0
 11
152.576548
 21
1084.405918964602
 31
0.0
  0
LINE
  5
2FA7
330
2E9F
100
AcDbEntity
  8
0
  6
Continuous
 62
     3
 48
10.0
370
    -2
100
AcDbLine
 10
598.576548
 20
1085.405918964602
 30
0.0
 11
156.576548
 21
1085.405918964602
 31
0.0
  0
INSERT
  5
2FA8
330
2E9F
100
AcDbEntity
  8
0
  6
Continuous
 62
     3
 48
10.0
370
    -2
100
AcDbBlockReference
  2
_OPEN
 10
602.576548
 20
1085.405918964602
 30
0.0
 41
4.0
 42
4.0
 43
4.0
  0
INSERT
  5
2FA9
330
2E9F
100
AcDbEntity
  8
0
  6
Continuous
 62
     3
 48
10.0
370
    -2
100
AcDbBlockReference
  2
_OPEN
 10
152.576548
 20
1085.405918964602
 30
0.0
 41
4.0
 42
4.0
 43
4.0
 50
180.0
  0
MTEXT
  5
2FAA
330
2E9F
100
AcDbEntity
  8
0
  6
Continuous
 62
     0
 48
10.0
100
AcDbMText
 10
377.6065479999998
 20
1089.905918964602
 30
0.0
 40
6.0
 41
0.0
 71
     5
 72
     1
  1
\A1;450
 73
     1
 44
1.0
  0
POINT
  5
2FAB
330
2E9F
100
AcDbEntity
  8
DEFPOINTS
  6
Continuous
 62
     0
 48
10.0
100
AcDbPoint
 10
602.576548
 20
1135.938356964601
 30
0.0
  0
POINT
  5
2FAC
330
2E9F
100
AcDbEntity
  8
DEFPOINTS
  6
Continuous
 62
     0
 48
10.0
100
AcDbPoint
 10
152.576548
 20
1135.938356964601
 30
0.0
  0
POINT
  5
2FAD
330
2E9F
100
AcDbEntity
  8
DEFPOINTS
  6
Continuous
 62
     0
 48
10.0
100
AcDbPoint
 10
152.576548
 20
1085.405918964602
 30
0.0
  0
ENDBLK
  5
2EAA
330
2E9F
100
AcDbEntity
  8
0
 48
10.0
100
AcDbBlockEnd
  0
BLOCK
  5
2EB5
330
2EAB
100
AcDbEntity
  8
0
 48
10.0
100
AcDbBlockBegin
  2
*D51
 70
     1
 10
0.0
 20
0.0
 30
0.0
  3
*D51
  1

  0
LINE
  5
2FAE
330
2EAB
100
AcDbEntity
  8
0
  6
Continuous
 62
     3
 48
10.0
370
    -2
100
AcDbLine
 10
603.576548
 20
1135.938356964601
 30
0.0
 11
622.0353960000001
 21
1135.938356964601
 31
0.0
  0
LINE
  5
2FAF
330
2EAB
100
AcDbEntity
  8
0
  6
Continuous
 62
     3
 48
10.0
370
    -2
100
AcDbLine
 10
603.576548
 20
1425.938356964602
 30
0.0
 11
622.0353960000002
 21
1425.938356964602
 31
0.0
  0
LINE
  5
2FB0
330
2EAB
100
AcDbEntity
  8
0
  6
Continuous
 62
     3
 48
10.0
370
    -2
100
AcDbLine
 10
621.0353959999999
 20
1139.938356964601
 30
0.0
 11
621.0353960000002
 21
1421.938356964601
 31
0.0
  0
INSERT
  5
2FB1
330
2EAB
100
AcDbEntity
  8
0
  6
Continuous
 62
     3
 48
10.0
370
    -2
100
AcDbBlockReference
  2
_OPEN
 10
621.0353959999999
 20
1135.938356964601
 30
0.0
 41
4.0
 42
4.0
 43
4.0
 50
270.0
  0
INSERT
  5
2FB2
330
2EAB
100
AcDbEntity
  8
0
  6
Continuous
 62
     3
 48
10.0
370
    -2
100
AcDbBlockReference
  2
_OPEN
 10
621.0353960000002
 20
1425.938356964602
 30
0.0
 41
4.0
 42
4.0
 43
4.0
 50
90.0
  0
MTEXT
  5
2FB3
330
2EAB
100
AcDbEntity
  8
0
  6
Continuous
 62
     0
 48
10.0
100
AcDbMText
 10
616.535396
 20
1280.968356964602
 30
0.0
 40
6.0
 41
0.0
 71
     5
 72
     1
  1
\A1;290
 11
0.0000000000000001
 21
1.0
 31
0.0
 73
     1
 44
1.0
  0
POINT
  5
2FB4
330
2EAB
100
AcDbEntity
  8
DEFPOINTS
  6
Continuous
 62
     0
 48
10.0
100
AcDbPoint
 10
602.576548
 20
1135.938356964601
 30
0.0
  0
POINT
  5
2FB5
330
2EAB
100
AcDbEntity
  8
DEFPOINTS
  6
Continuous
 62
     0
 48
10.0
100
AcDbPoint
 10
602.576548
 20
1425.938356964602
 30
0.0
  0
POINT
  5
2FB6
330
2EAB
100
AcDbEntity
  8
DEFPOINTS
  6
Continuous
 62
     0
 48
10.0
100
AcDbPoint
 10
621.0353960000002
 20
1425.938356964602
 30
0.0
  0
ENDBLK
  5
2EB6
330
2EAB
100
AcDbEntity
  8
0
 48
10.0
100
AcDbBlockEnd
  0
BLOCK
  5
2EC1
330
2EB7
100
AcDbEntity
  8
0
 48
10.0
100
AcDbBlockBegin
  2
*D52
 70
     1
 10
0.0
 20
0.0
 30
0.0
  3
*D52
  1

  0
LINE
  5
2FB7
330
2EB7
100
AcDbEntity
  8
0
  6
Continuous
 62
     3
 48
10.0
370
    -2
100
AcDbLine
 10
802.576548
 20
1426.938356964602
 30
0.0
 11
802.576548
 21
1444.889959964602
 31
0.0
  0
LINE
  5
2FB8
330
2EB7
100
AcDbEntity
  8
0
  6
Continuous
 62
     3
 48
10.0
370
    -2
100
AcDbLine
 10
1052.576548
 20
1426.938356964602
 30
0.0
 11
1052.576548
 21
1444.889959964602
 31
0.0
  0
LINE
  5
2FB9
330
2EB7
100
AcDbEntity
  8
0
  6
Continuous
 62
     3
 48
10.0
370
    -2
100
AcDbLine
 10
806.5765479999999
 20
1443.889959964602
 30
0.0
 11
1048.576547999998
 21
1443.889959964602
 31
0.0
  0
INSERT
  5
2FBA
330
2EB7
100
AcDbEntity
  8
0
  6
Continuous
 62
     3
 48
10.0
370
    -2
100
AcDbBlockReference
  2
_OPEN
 10
802.576548
 20
1443.889959964602
 30
0.0
 41
4.0
 42
4.0
 43
4.0
 50
180.0
  0
INSERT
  5
2FBB
330
2EB7
100
AcDbEntity
  8
0
  6
Continuous
 62
     3
 48
10.0
370
    -2
100
AcDbBlockReference
  2
_OPEN
 10
1052.576548
 20
1443.889959964602
 30
0.0
 41
4.0
 42
4.0
 43
4.0
  0
MTEXT
  5
2FBC
330
2EB7
100
AcDbEntity
  8
0
  6
Continuous
 62
     0
 48
10.0
100
AcDbMText
 10
927.6065479999999
 20
1448.389959964602
 30
0.0
 40
6.0
 41
0.0
 71
     5
 72
     1
  1
\A1;250
 73
     1
 44
1.0
  0
POINT
  5
2FBD
330
2EB7
100
AcDbEntity
  8
DEFPOINTS
  6
Continuous
 62
     0
 48
10.0
100
AcDbPoint
 10
802.576548
 20
1425.938356964602
 30
0.0
  0
POINT
  5
2FBE
330
2EB7
100
AcDbEntity
  8
DEFPOINTS
  6
Continuous
 62
     0
 48
10.0
100
AcDbPoint
 10
1052.576548
 20
1425.938356964602
 30
0.0
  0
POINT
  5
2FBF
330
2EB7
100
AcDbEntity
  8
DEFPOINTS
  6
Continuous
 62
     0
 48
10.0
100
AcDbPoint
 10
1052.576548
 20
1443.889959964602
 30
0.0
  0
ENDBLK
  5
2EC2
330
2EB7
100
AcDbEntity
  8
0
 48
10.0
100
AcDbBlockEnd
  0
BLOCK
  5
2ECD
330
2EC3
100
AcDbEntity
  8
0
 48
10.0
100
AcDbBlockBegin
  2
*D53
 70
     1
 10
0.0
 20
0.0
 30
0.0
  3
*D53
  1

  0
LINE
  5
2FC0
330
2EC3
100
AcDbEntity
  8
0
  6
Continuous
 62
     3
 48
10.0
370
    -2
100
AcDbLine
 10
735.576548
 20
1348.438356964602
 30
0.0
 11
735.576548
 21
1066.405676964601
 31
0.0
  0
LINE
  5
2FC1
330
2EC3
100
AcDbEntity
  8
0
  6
Continuous
 62
     3
 48
10.0
370
    -2
100
AcDbLine
 10
1056.053578602545
 20
1150.493829429467
 30
0.0
 11
1056.053578602545
 21
1066.405676964601
 31
0.0
  0
LINE
  5
2FC2
330
2EC3
100
AcDbEntity
  8
0
  6
Continuous
 62
     3
 48
10.0
370
    -2
100
AcDbLine
 10
739.576548
 20
1067.405676964602
 30
0.0
 11
1052.053578602545
 21
1067.405676964602
 31
0.0
  0
INSERT
  5
2FC3
330
2EC3
100
AcDbEntity
  8
0
  6
Continuous
 62
     3
 48
10.0
370
    -2
100
AcDbBlockReference
  2
_OPEN
 10
735.576548
 20
1067.405676964602
 30
0.0
 41
4.0
 42
4.0
 43
4.0
 50
180.0
  0
INSERT
  5
2FC4
330
2EC3
100
AcDbEntity
  8
0
  6
Continuous
 62
     3
 48
10.0
370
    -2
100
AcDbBlockReference
  2
_OPEN
 10
1056.053578602545
 20
1067.405676964602
 30
0.0
 41
4.0
 42
4.0
 43
4.0
  0
MTEXT
  5
2FC5
330
2EC3
100
AcDbEntity
  8
0
  6
Continuous
 62
     0
 48
10.0
100
AcDbMText
 10
907.606548
 20
1071.905676964602
 30
0.0
 40
6.0
 41
0.0
 71
     5
 72
     1
  1
\A1;320.5
 73
     1
 44
1.0
  0
POINT
  5
2FC6
330
2EC3
100
AcDbEntity
  8
DEFPOINTS
  6
Continuous
 62
     0
 48
10.0
100
AcDbPoint
 10
735.576548
 20
1349.438356964602
 30
0.0
  0
POINT
  5
2FC7
330
2EC3
100
AcDbEntity
  8
DEFPOINTS
  6
Continuous
 62
     0
 48
10.0
100
AcDbPoint
 10
1056.053578602545
 20
1151.493829429467
 30
0.0
  0
POINT
  5
2FC8
330
2EC3
100
AcDbEntity
  8
DEFPOINTS
  6
Continuous
 62
     0
 48
10.0
100
AcDbPoint
 10
1056.053578602545
 20
1067.405676964602
 30
0.0
  0
ENDBLK
  5
2ECE
330
2EC3
100
AcDbEntity
  8
0
 48
10.0
100
AcDbBlockEnd
  0
BLOCK
  5
2ED9
330
2ECF
100
AcDbEntity
  8
0
 48
10.0
100
AcDbBlockBegin
  2
*D54
 70
     1
 10
0.0
 20
0.0
 30
0.0
  3
*D54
  1

  0
LINE
  5
2FC9
330
2ECF
100
AcDbEntity
  8
0
  6
Continuous
 62
     3
 48
10.0
370
    -2
100
AcDbLine
 10
735.576548
 20
1348.438356964602
 30
0.0
 11
735.576548
 21
1066.405676964601
 31
0.0
  0
LINE
  5
2FCA
330
2ECF
100
AcDbEntity
  8
0
  6
Continuous
 62
     3
 48
10.0
370
    -2
100
AcDbLine
 10
1056.053578602545
 20
1150.493829429467
 30
0.0
 11
1056.053578602545
 21
1066.405676964601
 31
0.0
  0
LINE
  5
2FCB
330
2ECF
100
AcDbEntity
  8
0
  6
Continuous
 62
     3
 48
10.0
370
    -2
100
AcDbLine
 10
739.576548
 20
1067.405676964602
 30
0.0
 11
1052.053578602545
 21
1067.405676964602
 31
0.0
  0
INSERT
  5
2FCC
330
2ECF
100
AcDbEntity
  8
0
  6
Continuous
 62
     3
 48
10.0
370
    -2
100
AcDbBlockReference
  2
_OPEN
 10
735.576548
 20
1067.405676964602
 30
0.0
 41
4.0
 42
4.0
 43
4.0
 50
180.0
  0
INSERT
  5
2FCD
330
2ECF
100
AcDbEntity
  8
0
  6
Continuous
 62
     3
 48
10.0
370
    -2
100
AcDbBlockReference
  2
_OPEN
 10
1056.053578602545
 20
1067.405676964602
 30
0.0
 41
4.0
 42
4.0
 43
4.0
  0
MTEXT
  5
2FCE
330
2ECF
100
AcDbEntity
  8
0
  6
Continuous
 62
     0
 48
10.0
100
AcDbMText
 10
907.606548
 20
1071.905676964602
 30
0.0
 40
6.0
 41
0.0
 71
     5
 72
     1
  1
\A1;320.5
 73
     1
 44
1.0
  0
POINT
  5
2FCF
330
2ECF
100
AcDbEntity
  8
DEFPOINTS
  6
Continuous
 62
     0
 48
10.0
100
AcDbPoint
 10
735.576548
 20
1349.438356964602
 30
0.0
  0
POINT
  5
2FD0
330
2ECF
100
AcDbEntity
  8
DEFPOINTS
  6
Continuous
 62
     0
 48
10.0
100
AcDbPoint
 10
1056.053578602545
 20
1151.493829429467
 30
0.0
  0
POINT
  5
2FD1
330
2ECF
100
AcDbEntity
  8
DEFPOINTS
  6
Continuous
 62
     0
 48
10.0
100
AcDbPoint
 10
1056.053578602545
 20
1067.405676964602
 30
0.0
  0
ENDBLK
  5
2EDA
330
2ECF
100
AcDbEntity
  8
0
 48
10.0
100
AcDbBlockEnd
  0
BLOCK
  5
2EE5
330
2EDB
100
AcDbEntity
  8
0
 48
10.0
100
AcDbBlockBegin
  2
*D55
 70
     1
 10
0.0
 20
0.0
 30
0.0
  3
*D55
  1

  0
LINE
  5
2FD2
330
2EDB
100
AcDbEntity
  8
0
  6
Continuous
 62
     3
 48
10.0
370
    -2
100
AcDbLine
 10
609.5765479999998
 20
1168.438356964601
 30
0.0
 11
609.5765479999998
 21
1066.405676964601
 31
0.0
  0
LINE
  5
2FD3
330
2EDB
100
AcDbEntity
  8
0
  6
Continuous
 62
     3
 48
10.0
370
    -2
100
AcDbLine
 10
145.5765479999999
 20
1168.438356964601
 30
0.0
 11
145.5765479999999
 21
1066.405676964601
 31
0.0
  0
LINE
  5
2FD4
330
2EDB
100
AcDbEntity
  8
0
  6
Continuous
 62
     3
 48
10.0
370
    -2
100
AcDbLine
 10
605.5765479999998
 20
1067.405676964602
 30
0.0
 11
149.576548
 21
1067.405676964602
 31
0.0
  0
INSERT
  5
2FD5
330
2EDB
100
AcDbEntity
  8
0
  6
Continuous
 62
     3
 48
10.0
370
    -2
100
AcDbBlockReference
  2
_OPEN
 10
609.5765479999998
 20
1067.405676964602
 30
0.0
 41
4.0
 42
4.0
 43
4.0
  0
INSERT
  5
2FD6
330
2EDB
100
AcDbEntity
  8
0
  6
Continuous
 62
     3
 48
10.0
370
    -2
100
AcDbBlockReference
  2
_OPEN
 10
145.5765479999999
 20
1067.405676964602
 30
0.0
 41
4.0
 42
4.0
 43
4.0
 50
180.0
  0
MTEXT
  5
2FD7
330
2EDB
100
AcDbEntity
  8
0
  6
Continuous
 62
     0
 48
10.0
100
AcDbMText
 10
377.6065479999998
 20
1071.905676964602
 30
0.0
 40
6.0
 41
0.0
 71
     5
 72
     1
  1
\A1;464
 73
     1
 44
1.0
  0
POINT
  5
2FD8
330
2EDB
100
AcDbEntity
  8
DEFPOINTS
  6
Continuous
 62
     0
 48
10.0
100
AcDbPoint
 10
609.5765479999998
 20
1169.438356964602
 30
0.0
  0
POINT
  5
2FD9
330
2EDB
100
AcDbEntity
  8
DEFPOINTS
  6
Continuous
 62
     0
 48
10.0
100
AcDbPoint
 10
145.5765479999999
 20
1169.438356964602
 30
0.0
  0
POINT
  5
2FDA
330
2EDB
100
AcDbEntity
  8
DEFPOINTS
  6
Continuous
 62
     0
 48
10.0
100
AcDbPoint
 10
145.5765479999999
 20
1067.405676964602
 30
0.0
  0
ENDBLK
  5
2EE6
330
2EDB
100
AcDbEntity
  8
0
 48
10.0
100
AcDbBlockEnd
  0
BLOCK
  5
2EF1
330
2EE7
100
AcDbEntity
  8
0
 48
10.0
100
AcDbBlockBegin
  2
*D56
 70
     1
 10
0.0
 20
0.0
 30
0.0
  3
*D56
  1

  0
LINE
  5
2FDB
330
2EE7
100
AcDbEntity
  8
0
  6
Continuous
 62
     3
 48
10.0
370
    -2
100
AcDbLine
 10
609.5765479999998
 20
1168.438356964601
 30
0.0
 11
609.5765479999998
 21
1066.405676964601
 31
0.0
  0
LINE
  5
2FDC
330
2EE7
100
AcDbEntity
  8
0
  6
Continuous
 62
     3
 48
10.0
370
    -2
100
AcDbLine
 10
145.5765479999999
 20
1168.438356964601
 30
0.0
 11
145.5765479999999
 21
1066.405676964601
 31
0.0
  0
LINE
  5
2FDD
330
2EE7
100
AcDbEntity
  8
0
  6
Continuous
 62
     3
 48
10.0
370
    -2
100
AcDbLine
 10
605.5765479999998
 20
1067.405676964602
 30
0.0
 11
149.576548
 21
1067.405676964602
 31
0.0
  0
INSERT
  5
2FDE
330
2EE7
100
AcDbEntity
  8
0
  6
Continuous
 62
     3
 48
10.0
370
    -2
100
AcDbBlockReference
  2
_OPEN
 10
609.5765479999998
 20
1067.405676964602
 30
0.0
 41
4.0
 42
4.0
 43
4.0
  0
INSERT
  5
2FDF
330
2EE7
100
AcDbEntity
  8
0
  6
Continuous
 62
     3
 48
10.0
370
    -2
100
AcDbBlockReference
  2
_OPEN
 10
145.5765479999999
 20
1067.405676964602
 30
0.0
 41
4.0
 42
4.0
 43
4.0
 50
180.0
  0
MTEXT
  5
2FE0
330
2EE7
100
AcDbEntity
  8
0
  6
Continuous
 62
     0
 48
10.0
100
AcDbMText
 10
377.6065479999998
 20
1071.905676964602
 30
0.0
 40
6.0
 41
0.0
 71
     5
 72
     1
  1
\A1;464
 73
     1
 44
1.0
  0
POINT
  5
2FE1
330
2EE7
100
AcDbEntity
  8
DEFPOINTS
  6
Continuous
 62
     0
 48
10.0
100
AcDbPoint
 10
609.5765479999998
 20
1169.438356964602
 30
0.0
  0
POINT
  5
2FE2
330
2EE7
100
AcDbEntity
  8
DEFPOINTS
  6
Continuous
 62
     0
 48
10.0
100
AcDbPoint
 10
145.5765479999999
 20
1169.438356964602
 30
0.0
  0
POINT
  5
2FE3
330
2EE7
100
AcDbEntity
  8
DEFPOINTS
  6
Continuous
 62
     0
 48
10.0
100
AcDbPoint
 10
145.5765479999999
 20
1067.405676964602
 30
0.0
  0
ENDBLK
  5
2EF2
330
2EE7
100
AcDbEntity
  8
0
 48
10.0
100
AcDbBlockEnd
  0
BLOCK
  5
2EFF
330
2EF3
100
AcDbEntity
  8
0
 48
10.0
100
AcDbBlockBegin
  2
*D57
 70
     1
 10
0.0
 20
0.0
 30
0.0
  3
*D57
  1

  0
LINE
  5
2FE4
330
2EF3
100
AcDbEntity
  8
0
  6
Continuous
 62
     3
 48
10.0
370
    -2
100
AcDbLine
 10
1052.576548
 20
1424.938356964602
 30
0.0
 11
1052.576548
 21
1444.889959964602
 31
0.0
  0
LINE
  5
2FE5
330
2EF3
100
AcDbEntity
  8
0
  6
Continuous
 62
     3
 48
10.0
370
    -2
100
AcDbLine
 10
1056.076548
 20
1410.938356964602
 30
0.0
 11
1056.076548
 21
1444.889959964602
 31
0.0
  0
LINE
  5
2FE6
330
2EF3
100
AcDbEntity
  8
0
  6
Continuous
 62
     3
 48
10.0
370
    -2
100
AcDbLine
 10
1048.576547999998
 20
1443.889959964602
 30
0.0
 11
1044.576547999999
 21
1443.889959964602
 31
0.0
  0
LINE
  5
2FE7
330
2EF3
100
AcDbEntity
  8
0
  6
Continuous
 62
     3
 48
10.0
370
    -2
100
AcDbLine
 10
1060.076548
 20
1443.889959964602
 30
0.0
 11
1077.133690857142
 21
1443.889959964602
 31
0.0
  0
LINE
  5
2FE8
330
2EF3
100
AcDbEntity
  8
0
  6
Continuous
 62
     3
 48
10.0
370
    -2
100
AcDbLine
 10
1052.576548
 20
1443.889959964602
 30
0.0
 11
1056.076548
 21
1443.889959964602
 31
0.0
  0
INSERT
  5
2FE9
330
2EF3
100
AcDbEntity
  8
0
  6
Continuous
 62
     3
 48
10.0
370
    -2
100
AcDbBlockReference
  2
_OPEN
 10
1052.576548
 20
1443.889959964602
 30
0.0
 41
4.0
 42
4.0
 43
4.0
  0
INSERT
  5
2FEA
330
2EF3
100
AcDbEntity
  8
0
  6
Continuous
 62
     3
 48
10.0
370
    -2
100
AcDbBlockReference
  2
_OPEN
 10
1056.076548
 20
1443.889959964602
 30
0.0
 41
4.0
 42
4.0
 43
4.0
 50
180.0
  0
MTEXT
  5
2FEB
330
2EF3
100
AcDbEntity
  8
0
  6
Continuous
 62
     0
 48
10.0
100
AcDbMText
 10
1070.605119428571
 20
1448.389959964602
 30
0.0
 40
6.0
 41
0.0
 71
     5
 72
     1
  1
\A1;3.5
 73
     1
 44
1.0
  0
POINT
  5
2FEC
330
2EF3
100
AcDbEntity
  8
DEFPOINTS
  6
Continuous
 62
     0
 48
10.0
100
AcDbPoint
 10
1052.576548
 20
1423.938356964602
 30
0.0
  0
POINT
  5
2FED
330
2EF3
100
AcDbEntity
  8
DEFPOINTS
  6
Continuous
 62
     0
 48
10.0
100
AcDbPoint
 10
1056.076548
 20
1409.938356964602
 30
0.0
  0
POINT
  5
2FEE
330
2EF3
100
AcDbEntity
  8
DEFPOINTS
  6
Continuous
 62
     0
 48
10.0
100
AcDbPoint
 10
1056.076548
 20
1443.889959964602
 30
0.0
  0
ENDBLK
  5
2F00
330
2EF3
100
AcDbEntity
  8
0
 48
10.0
100
AcDbBlockEnd
  0
ENDSEC
  0
SECTION
  2
ENTITIES
  0
LEADER
  5
208
330
19
100
AcDbEntity
  8
0
  6
Continuous
 62
     3
100
AcDbLeader
  3
DIM1
 76
     3
 10
966.5765480000001
 20
473.94368
 30
0.0
 10
1001.010706
 20
499.462059
 30
0.0
 10
1019.795040932909
 20
499.462059
 30
0.0
1001
ACAD
1000
DSTYLE
1002
{
1070
     6
1000
_OPEN
1070
    41
1040
3.0
1002
}
  0
LEADER
  5
209
330
19
100
AcDbEntity
  8
0
  6
Continuous
 62
     3
100
AcDbLeader
  3
DIM1
 76
     3
 10
854.766547
 20
437.0797078435006
 30
0.0
 10
876.299115838764
 20
513.6735805334193
 30
0.0
 10
912.3005176769902
 20
513.6735805334193
 30
0.0
1001
ACAD
1000
DSTYLE
1002
{
1070
     6
1000
_OPEN
1070
    41
1040
3.0
1002
}
  0
TEXT
  5
20A
330
19
100
AcDbEntity
  8
0
  6
HIDDEN
 62
     0
 48
10.0
100
AcDbText
 10
1002.175759808264
 20
500.4295379695338
 30
0.0
 40
7.0
  1
殺菌灯
 41
0.714286
100
AcDbText
  0
TEXT
  5
20B
330
19
100
AcDbEntity
  8
0
  6
HIDDEN
 62
     0
 48
10.0
100
AcDbText
 10
877.8377422225203
 20
514.7494695655664
 30
0.0
 40
7.0
  1
連動スイッチ
 41
0.714286
100
AcDbText
  0
LINE
  5
20C
330
19
100
AcDbEntity
  8
0
  6
HIDDEN
 62
     0
 48
10.0
100
AcDbLine
 10
849.9502039999999
 20
432.706473
 30
0.0
 11
859.9502039999999
 21
432.706473
 31
0.0
  0
LINE
  5
20D
330
19
100
AcDbEntity
  8
0
  6
HIDDEN
 62
     0
 48
10.0
100
AcDbLine
 10
849.9502039999999
 20
434.706473
 30
0.0
 11
849.9502039999999
 21
432.706473
 31
0.0
  0
POINT
  5
20E
330
19
100
AcDbEntity
  8
0
  6
Continuous
 62
     0
100
AcDbPoint
 10
859.9502039999999
 20
432.706473
 30
0.0
  0
POINT
  5
20F
330
19
100
AcDbEntity
  8
0
  6
Continuous
 62
     0
100
AcDbPoint
 10
849.9502039999999
 20
432.706473
 30
0.0
  0
LINE
  5
210
330
19
100
AcDbEntity
  8
0
  6
HIDDEN
 62
     0
 48
10.0
100
AcDbLine
 10
859.9502039999999
 20
436.37314
 30
0.0
 11
861.9502039999996
 21
436.37314
 31
0.0
  0
LINE
  5
211
330
19
100
AcDbEntity
  8
0
  6
HIDDEN
 62
     0
 48
10.0
100
AcDbLine
 10
859.9502039999999
 20
438.0398059999998
 30
0.0
 11
861.9502039999996
 21
438.0398059999998
 31
0.0
  0
POINT
  5
212
330
19
100
AcDbEntity
  8
0
  6
Continuous
 62
     0
100
AcDbPoint
 10
861.9502039999996
 20
436.37314
 30
0.0
  0
POINT
  5
213
330
19
100
AcDbEntity
  8
0
  6
Continuous
 62
     0
100
AcDbPoint
 10
861.9502039999996
 20
438.0398059999998
 30
0.0
  0
LINE
  5
214
330
19
100
AcDbEntity
  8
0
  6
HIDDEN
 62
     0
 48
10.0
100
AcDbLine
 10
839.4333819999998
 20
444.146076
 30
0.0
 11
840.4333820000001
 21
442.146076
 31
0.0
  0
POINT
  5
215
330
19
100
AcDbEntity
  8
0
  6
Continuous
 62
     0
100
AcDbPoint
 10
839.4333819999998
 20
444.146076
 30
0.0
  0
LINE
  5
216
330
19
100
AcDbEntity
  8
0
  6
HIDDEN
 62
     0
 48
10.0
100
AcDbLine
 10
840.4333820000001
 20
442.146076
 30
0.0
 11
859.9502039999999
 21
439.706473
 31
0.0
  0
ARC
  5
217
330
19
100
AcDbEntity
  8
0
  6
HIDDEN
 62
     0
 48
10.0
100
AcDbCircle
 10
843.9502039999997
 20
439.706473
 30
0.0
 40
2.0
100
AcDbArc
 50
0.0
 51
180.0
  0
POINT
  5
218
330
19
100
AcDbEntity
  8
0
  6
Continuous
 62
     0
100
AcDbPoint
 10
843.9502039999997
 20
441.7064729999998
 30
0.0
  0
POINT
  5
219
330
19
100
AcDbEntity
  8
0
  6
Continuous
 62
     0
100
AcDbPoint
 10
845.9502039999996
 20
439.706473
 30
0.0
  0
POINT
  5
21A
330
19
100
AcDbEntity
  8
0
  6
Continuous
 62
     0
100
AcDbPoint
 10
843.9502039999997
 20
439.706473
 30
0.0
  0
POINT
  5
21B
330
19
100
AcDbEntity
  8
0
  6
Continuous
 62
     0
100
AcDbPoint
 10
841.9502039999999
 20
439.706473
 30
0.0
  0
LINE
  5
21C
330
19
100
AcDbEntity
  8
0
  6
HIDDEN
 62
     0
 48
10.0
100
AcDbLine
 10
859.9502039999999
 20
434.706473
 30
0.0
 11
839.9502039999996
 21
434.706473
 31
0.0
  0
LINE
  5
21D
330
19
100
AcDbEntity
  8
0
  6
HIDDEN
 62
     0
 48
10.0
100
AcDbLine
 10
859.9502039999999
 20
439.706473
 30
0.0
 11
859.9502039999999
 21
434.706473
 31
0.0
  0
LINE
  5
21E
330
19
100
AcDbEntity
  8
0
  6
HIDDEN
 62
     0
 48
10.0
100
AcDbLine
 10
839.9502039999996
 20
439.706473
 30
0.0
 11
859.9502039999999
 21
439.706473
 31
0.0
  0
LINE
  5
21F
330
19
100
AcDbEntity
  8
0
  6
HIDDEN
 62
     0
 48
10.0
100
AcDbLine
 10
839.9502039999996
 20
434.706473
 30
0.0
 11
839.9502039999996
 21
439.706473
 31
0.0
  0
POINT
  5
220
330
19
100
AcDbEntity
  8
0
  6
Continuous
 62
     0
100
AcDbPoint
 10
859.9502039999999
 20
439.706473
 30
0.0
  0
POINT
  5
221
330
19
100
AcDbEntity
  8
0
  6
Continuous
 62
     0
100
AcDbPoint
 10
859.9502039999999
 20
434.706473
 30
0.0
  0
POINT
  5
222
330
19
100
AcDbEntity
  8
0
  6
Continuous
 62
     0
100
AcDbPoint
 10
839.9502039999996
 20
439.706473
 30
0.0
  0
POINT
  5
223
330
19
100
AcDbEntity
  8
0
  6
Continuous
 62
     0
100
AcDbPoint
 10
966.5765480000001
 20
473.94368
 30
0.0
  0
POINT
  5
224
330
19
100
AcDbEntity
  8
0
  6
Continuous
 62
     0
100
AcDbPoint
 10
961.576548
 20
473.94368
 30
0.0
  0
POINT
  5
225
330
19
100
AcDbEntity
  8
0
  6
Continuous
 62
     0
100
AcDbPoint
 10
971.5765479999999
 20
473.94368
 30
0.0
  0
POINT
  5
228
330
19
100
AcDbEntity
  8
0
  6
Continuous
 62
     0
100
AcDbPoint
 10
959.576548
 20
468.94368
 30
0.0
  0
POINT
  5
229
330
19
100
AcDbEntity
  8
0
  6
Continuous
 62
     0
100
AcDbPoint
 10
959.576548
 20
478.9436799999998
 30
0.0
  0
CIRCLE
  5
22A
330
19
100
AcDbEntity
  8
0
  6
HIDDEN
 62
     0
 48
10.0
100
AcDbCircle
 10
966.5765480000001
 20
473.94368
 30
0.0
 40
10.0
  0
ARC
  5
22B
330
19
100
AcDbEntity
  8
0
  6
HIDDEN
 62
     0
 48
10.0
100
AcDbCircle
 10
966.5765480000001
 20
477.6936799999998
 30
0.0
 40
6.25
100
AcDbArc
 50
216.869898
 51
323.130102
  0
ARC
  5
22C
330
19
100
AcDbEntity
  8
0
  6
HIDDEN
 62
     0
 48
10.0
100
AcDbCircle
 10
966.5765480000001
 20
470.1936799999998
 30
0.0
 40
6.25
100
AcDbArc
 50
36.869898
 51
143.130102
  0
LINE
  5
22D
330
19
100
AcDbEntity
  8
0
  6
HIDDEN
 62
     0
 48
10.0
100
AcDbLine
 10
959.576548
 20
478.9436799999998
 30
0.0
 11
961.576548
 21
473.94368
 31
0.0
  0
LINE
  5
22E
330
19
100
AcDbEntity
  8
0
  6
HIDDEN
 62
     0
 48
10.0
100
AcDbLine
 10
961.576548
 20
473.94368
 30
0.0
 11
959.576548
 21
468.94368
 31
0.0
  0
LINE
  5
22F
330
19
100
AcDbEntity
  8
0
  6
HIDDEN
 62
     0
 48
10.0
100
AcDbLine
 10
377.576548
 20
478.9436799999998
 30
0.0
 11
372.576548
 21
480.9436799999998
 31
0.0
  0
LINE
  5
230
330
19
100
AcDbEntity
  8
0
  6
HIDDEN
 62
     0
 48
10.0
100
AcDbLine
 10
382.576548
 20
480.9436799999998
 30
0.0
 11
377.576548
 21
478.9436799999998
 31
0.0
  0
POINT
  5
231
330
19
100
AcDbEntity
  8
0
  6
Continuous
 62
     0
100
AcDbPoint
 10
372.576548
 20
480.9436799999998
 30
0.0
  0
POINT
  5
232
330
19
100
AcDbEntity
  8
0
  6
Continuous
 62
     0
100
AcDbPoint
 10
382.576548
 20
480.9436799999998
 30
0.0
  0
ARC
  5
233
330
19
100
AcDbEntity
  8
0
  6
HIDDEN
 62
     0
 48
10.0
100
AcDbCircle
 10
373.8265479999998
 20
473.94368
 30
0.0
 40
6.25
100
AcDbArc
 50
306.8698979999998
 51
53.130102
  0
ARC
  5
234
330
19
100
AcDbEntity
  8
0
  6
HIDDEN
 62
     0
 48
10.0
100
AcDbCircle
 10
381.326548
 20
473.94368
 30
0.0
 40
6.25
100
AcDbArc
 50
126.869898
 51
233.130102
  0
POINT
  5
235
330
19
100
AcDbEntity
  8
0
  6
Continuous
 62
     0
100
AcDbPoint
 10
375.076548
 20
473.94368
 30
0.0
  0
POINT
  5
236
330
19
100
AcDbEntity
  8
0
  6
Continuous
 62
     0
100
AcDbPoint
 10
380.0765479999998
 20
473.94368
 30
0.0
  0
POINT
  5
237
330
19
100
AcDbEntity
  8
0
  6
Continuous
 62
     0
100
AcDbPoint
 10
377.576548
 20
468.94368
 30
0.0
  0
POINT
  5
238
330
19
100
AcDbEntity
  8
0
  6
Continuous
 62
     0
100
AcDbPoint
 10
377.576548
 20
478.9436799999998
 30
0.0
  0
CIRCLE
  5
239
330
19
100
AcDbEntity
  8
0
  6
HIDDEN
 62
     0
 48
10.0
100
AcDbCircle
 10
377.576548
 20
473.94368
 30
0.0
 40
10.0
  0
POINT
  5
23A
330
19
100
AcDbEntity
  8
0
  6
Continuous
 62
     0
100
AcDbPoint
 10
147.5765479999999
 20
314.1936799999998
 30
0.0
  0
POINT
  5
23B
330
19
100
AcDbEntity
  8
0
  6
Continuous
 62
     0
100
AcDbPoint
 10
145.5765479999999
 20
314.1936799999998
 30
0.0
  0
POINT
  5
23C
330
19
100
AcDbEntity
  8
0
  6
Continuous
 62
     0
100
AcDbPoint
 10
149.576548
 20
310.1936799999998
 30
0.0
  0
POINT
  5
23D
330
19
100
AcDbEntity
  8
0
  6
Continuous
 62
     0
100
AcDbPoint
 10
149.576548
 20
318.1936799999998
 30
0.0
  0
POINT
  5
23E
330
19
100
AcDbEntity
  8
0
  6
Continuous
 62
     0
100
AcDbPoint
 10
149.576548
 20
314.1936799999998
 30
0.0
  0
POINT
  5
23F
330
19
100
AcDbEntity
  8
0
  6
Continuous
 62
     0
100
AcDbPoint
 10
149.576548
 20
306.1936799999998
 30
0.0
  0
POINT
  5
240
330
19
100
AcDbEntity
  8
0
  6
Continuous
 62
     0
100
AcDbPoint
 10
149.576548
 20
322.1936799999998
 30
0.0
  0
POINT
  5
241
330
19
100
AcDbEntity
  8
0
  6
Continuous
 62
     0
100
AcDbPoint
 10
152.576548
 20
306.1936799999998
 30
0.0
  0
POINT
  5
242
330
19
100
AcDbEntity
  8
0
  6
Continuous
 62
     0
100
AcDbPoint
 10
152.576548
 20
322.1936799999998
 30
0.0
  0
POINT
  5
243
330
19
100
AcDbEntity
  8
0
  6
Continuous
 62
     0
100
AcDbPoint
 10
152.576548
 20
314.1936799999998
 30
0.0
  0
POINT
  5
244
330
19
100
AcDbEntity
  8
0
  6
Continuous
 62
     0
100
AcDbPoint
 10
607.576548
 20
314.1936799999998
 30
0.0
  0
POINT
  5
245
330
19
100
AcDbEntity
  8
0
  6
Continuous
 62
     0
100
AcDbPoint
 10
609.5765479999998
 20
314.1936799999998
 30
0.0
  0
POINT
  5
246
330
19
100
AcDbEntity
  8
0
  6
Continuous
 62
     0
100
AcDbPoint
 10
605.5765479999998
 20
310.1936799999998
 30
0.0
  0
POINT
  5
247
330
19
100
AcDbEntity
  8
0
  6
Continuous
 62
     0
100
AcDbPoint
 10
605.5765479999998
 20
318.1936799999998
 30
0.0
  0
POINT
  5
248
330
19
100
AcDbEntity
  8
0
  6
Continuous
 62
     0
100
AcDbPoint
 10
605.5765479999998
 20
314.1936799999998
 30
0.0
  0
POINT
  5
249
330
19
100
AcDbEntity
  8
0
  6
Continuous
 62
     0
100
AcDbPoint
 10
152.576548
 20
314.1936799999998
 30
0.0
  0
POINT
  5
24A
330
19
100
AcDbEntity
  8
0
  6
Continuous
 62
     0
100
AcDbPoint
 10
605.5765479999998
 20
306.1936799999998
 30
0.0
  0
POINT
  5
24B
330
19
100
AcDbEntity
  8
0
  6
Continuous
 62
     0
100
AcDbPoint
 10
605.5765479999998
 20
322.1936799999998
 30
0.0
  0
POINT
  5
24C
330
19
100
AcDbEntity
  8
0
  6
Continuous
 62
     0
100
AcDbPoint
 10
602.576548
 20
306.1936799999998
 30
0.0
  0
POINT
  5
24D
330
19
100
AcDbEntity
  8
0
  6
Continuous
 62
     0
100
AcDbPoint
 10
602.576548
 20
322.1936799999998
 30
0.0
  0
POINT
  5
24E
330
19
100
AcDbEntity
  8
0
  6
Continuous
 62
     0
100
AcDbPoint
 10
812.576548
 20
312.1936799999998
 30
0.0
  0
POINT
  5
24F
330
19
100
AcDbEntity
  8
0
  6
Continuous
 62
     0
100
AcDbPoint
 10
842.576548
 20
312.1936799999998
 30
0.0
  0
POINT
  5
250
330
19
100
AcDbEntity
  8
0
  6
Continuous
 62
     0
100
AcDbPoint
 10
812.576548
 20
316.1936799999998
 30
0.0
  0
POINT
  5
251
330
19
100
AcDbEntity
  8
0
  6
Continuous
 62
     0
100
AcDbPoint
 10
842.576548
 20
316.1936799999998
 30
0.0
  0
POINT
  5
252
330
19
100
AcDbEntity
  8
0
  6
Continuous
 62
     0
100
AcDbPoint
 10
810.576548
 20
314.1936799999998
 30
0.0
  0
POINT
  5
253
330
19
100
AcDbEntity
  8
0
  6
Continuous
 62
     0
100
AcDbPoint
 10
840.5765479999999
 20
314.1936799999998
 30
0.0
  0
POINT
  5
254
330
19
100
AcDbEntity
  8
0
  6
Continuous
 62
     0
100
AcDbPoint
 10
814.5765479999999
 20
314.1936799999998
 30
0.0
  0
POINT
  5
255
330
19
100
AcDbEntity
  8
0
  6
Continuous
 62
     0
100
AcDbPoint
 10
844.576548
 20
314.1936799999998
 30
0.0
  0
POINT
  5
256
330
19
100
AcDbEntity
  8
0
  6
Continuous
 62
     0
100
AcDbPoint
 10
772.576548
 20
306.1936799999998
 30
0.0
  0
POINT
  5
257
330
19
100
AcDbEntity
  8
0
  6
Continuous
 62
     0
100
AcDbPoint
 10
842.576548
 20
306.1936799999998
 30
0.0
  0
POINT
  5
258
330
19
100
AcDbEntity
  8
0
  6
Continuous
 62
     0
100
AcDbPoint
 10
772.576548
 20
322.1936799999998
 30
0.0
  0
POINT
  5
259
330
19
100
AcDbEntity
  8
0
  6
Continuous
 62
     0
100
AcDbPoint
 10
842.576548
 20
322.1936799999998
 30
0.0
  0
POINT
  5
25A
330
19
100
AcDbEntity
  8
0
  6
Continuous
 62
     0
100
AcDbPoint
 10
764.576548
 20
314.1936799999998
 30
0.0
  0
POINT
  5
25B
330
19
100
AcDbEntity
  8
0
  6
Continuous
 62
     0
100
AcDbPoint
 10
850.576548
 20
314.1936799999998
 30
0.0
  0
POINT
  5
25C
330
19
100
AcDbEntity
  8
0
  6
Continuous
 62
     0
100
AcDbPoint
 10
842.576548
 20
314.1936799999998
 30
0.0
  0
POINT
  5
25D
330
19
100
AcDbEntity
  8
0
  6
Continuous
 62
     0
100
AcDbPoint
 10
812.576548
 20
314.1936799999998
 30
0.0
  0
POINT
  5
263
330
19
100
AcDbEntity
  8
0
  6
Continuous
 62
     0
100
AcDbPoint
 10
411.576548
 20
418.6936799999998
 30
0.0
  0
POINT
  5
264
330
19
100
AcDbEntity
  8
0
  6
Continuous
 62
     0
100
AcDbPoint
 10
391.576548
 20
418.6936799999998
 30
0.0
  0
POINT
  5
265
330
19
100
AcDbEntity
  8
0
  6
Continuous
 62
     0
100
AcDbPoint
 10
411.576548
 20
422.6936799999998
 30
0.0
  0
POINT
  5
266
330
19
100
AcDbEntity
  8
0
  6
Continuous
 62
     0
100
AcDbPoint
 10
391.576548
 20
422.6936799999998
 30
0.0
  0
POINT
  5
267
330
19
100
AcDbEntity
  8
0
  6
Continuous
 62
     0
100
AcDbPoint
 10
413.5765479999998
 20
420.6936799999998
 30
0.0
  0
POINT
  5
268
330
19
100
AcDbEntity
  8
0
  6
Continuous
 62
     0
100
AcDbPoint
 10
393.576548
 20
420.6936799999998
 30
0.0
  0
POINT
  5
269
330
19
100
AcDbEntity
  8
0
  6
Continuous
 62
     0
100
AcDbPoint
 10
409.5765479999998
 20
420.6936799999998
 30
0.0
  0
POINT
  5
26A
330
19
100
AcDbEntity
  8
0
  6
Continuous
 62
     0
100
AcDbPoint
 10
389.576548
 20
420.6936799999998
 30
0.0
  0
POINT
  5
26B
330
19
100
AcDbEntity
  8
0
  6
Continuous
 62
     0
100
AcDbPoint
 10
413.5765479999998
 20
440.6936799999998
 30
0.0
  0
POINT
  5
26C
330
19
100
AcDbEntity
  8
0
  6
Continuous
 62
     0
100
AcDbPoint
 10
409.5765479999998
 20
440.6936799999998
 30
0.0
  0
POINT
  5
26D
330
19
100
AcDbEntity
  8
0
  6
Continuous
 62
     0
100
AcDbPoint
 10
393.576548
 20
440.6936799999998
 30
0.0
  0
POINT
  5
26E
330
19
100
AcDbEntity
  8
0
  6
Continuous
 62
     0
100
AcDbPoint
 10
389.576548
 20
440.6936799999998
 30
0.0
  0
POINT
  5
26F
330
19
100
AcDbEntity
  8
0
  6
Continuous
 62
     0
100
AcDbPoint
 10
413.5765479999998
 20
435.6936799999998
 30
0.0
  0
POINT
  5
270
330
19
100
AcDbEntity
  8
0
  6
Continuous
 62
     0
100
AcDbPoint
 10
393.576548
 20
435.6936799999998
 30
0.0
  0
POINT
  5
271
330
19
100
AcDbEntity
  8
0
  6
Continuous
 62
     0
100
AcDbPoint
 10
409.5765479999998
 20
435.6936799999998
 30
0.0
  0
POINT
  5
272
330
19
100
AcDbEntity
  8
0
  6
Continuous
 62
     0
100
AcDbPoint
 10
389.576548
 20
435.6936799999998
 30
0.0
  0
POINT
  5
273
330
19
100
AcDbEntity
  8
0
  6
Continuous
 62
     0
100
AcDbPoint
 10
396.076548
 20
389.1936799999998
 30
0.0
  0
POINT
  5
274
330
19
100
AcDbEntity
  8
0
  6
Continuous
 62
     0
100
AcDbPoint
 10
396.076548
 20
393.1936799999998
 30
0.0
  0
POINT
  5
275
330
19
100
AcDbEntity
  8
0
  6
Continuous
 62
     0
100
AcDbPoint
 10
407.076548
 20
389.1936799999998
 30
0.0
  0
POINT
  5
276
330
19
100
AcDbEntity
  8
0
  6
Continuous
 62
     0
100
AcDbPoint
 10
407.076548
 20
393.1936799999998
 30
0.0
  0
POINT
  5
277
330
19
100
AcDbEntity
  8
0
  6
Continuous
 62
     0
100
AcDbPoint
 10
401.5765479999997
 20
389.1936799999998
 30
0.0
  0
POINT
  5
278
330
19
100
AcDbEntity
  8
0
  6
Continuous
 62
     0
100
AcDbPoint
 10
401.5765479999997
 20
393.1936799999998
 30
0.0
  0
POINT
  5
27C
330
19
100
AcDbEntity
  8
0
  6
Continuous
 62
     0
100
AcDbPoint
 10
412.076548
 20
400.69368
 30
0.0
  0
POINT
  5
27D
330
19
100
AcDbEntity
  8
0
  6
Continuous
 62
     0
100
AcDbPoint
 10
392.076548
 20
400.69368
 30
0.0
  0
POINT
  5
27E
330
19
100
AcDbEntity
  8
0
  6
Continuous
 62
     0
100
AcDbPoint
 10
411.076548
 20
400.69368
 30
0.0
  0
POINT
  5
27F
330
19
100
AcDbEntity
  8
0
  6
Continuous
 62
     0
100
AcDbPoint
 10
391.076548
 20
400.69368
 30
0.0
  0
POINT
  5
280
330
19
100
AcDbEntity
  8
0
  6
Continuous
 62
     0
100
AcDbPoint
 10
413.5765479999998
 20
400.69368
 30
0.0
  0
POINT
  5
281
330
19
100
AcDbEntity
  8
0
  6
Continuous
 62
     0
100
AcDbPoint
 10
409.5765479999998
 20
400.69368
 30
0.0
  0
POINT
  5
282
330
19
100
AcDbEntity
  8
0
  6
Continuous
 62
     0
100
AcDbPoint
 10
393.576548
 20
400.69368
 30
0.0
  0
POINT
  5
283
330
19
100
AcDbEntity
  8
0
  6
Continuous
 62
     0
100
AcDbPoint
 10
389.576548
 20
400.69368
 30
0.0
  0
POINT
  5
284
330
19
100
AcDbEntity
  8
0
  6
Continuous
 62
     0
100
AcDbPoint
 10
393.576548
 20
405.6936799999999
 30
0.0
  0
POINT
  5
285
330
19
100
AcDbEntity
  8
0
  6
Continuous
 62
     0
100
AcDbPoint
 10
413.5765479999998
 20
405.6936799999999
 30
0.0
  0
POINT
  5
286
330
19
100
AcDbEntity
  8
0
  6
Continuous
 62
     0
100
AcDbPoint
 10
389.576548
 20
405.6936799999999
 30
0.0
  0
POINT
  5
287
330
19
100
AcDbEntity
  8
0
  6
Continuous
 62
     0
100
AcDbPoint
 10
409.5765479999998
 20
405.6936799999999
 30
0.0
  0
POINT
  5
288
330
19
100
AcDbEntity
  8
0
  6
Continuous
 62
     0
100
AcDbPoint
 10
415.8265479999998
 20
409.9436799999998
 30
0.0
  0
POINT
  5
289
330
19
100
AcDbEntity
  8
0
  6
Continuous
 62
     0
100
AcDbPoint
 10
407.3265479999998
 20
409.9436799999998
 30
0.0
  0
POINT
  5
28A
330
19
100
AcDbEntity
  8
0
  6
Continuous
 62
     0
100
AcDbPoint
 10
395.826548
 20
409.9436799999998
 30
0.0
  0
POINT
  5
28B
330
19
100
AcDbEntity
  8
0
  6
Continuous
 62
     0
100
AcDbPoint
 10
387.326548
 20
409.9436799999998
 30
0.0
  0
POINT
  5
295
330
19
100
AcDbEntity
  8
0
  6
Continuous
 62
     0
100
AcDbPoint
 10
391.576548
 20
420.6936799999998
 30
0.0
  0
POINT
  5
296
330
19
100
AcDbEntity
  8
0
  6
Continuous
 62
     0
100
AcDbPoint
 10
418.5765479999998
 20
415.1936799999998
 30
0.0
  0
POINT
  5
297
330
19
100
AcDbEntity
  8
0
  6
Continuous
 62
     0
100
AcDbPoint
 10
384.576548
 20
415.1936799999998
 30
0.0
  0
POINT
  5
298
330
19
100
AcDbEntity
  8
0
  6
Continuous
 62
     0
100
AcDbPoint
 10
418.5765479999998
 20
426.1936799999999
 30
0.0
  0
POINT
  5
299
330
19
100
AcDbEntity
  8
0
  6
Continuous
 62
     0
100
AcDbPoint
 10
384.576548
 20
426.1936799999999
 30
0.0
  0
POINT
  5
29A
330
19
100
AcDbEntity
  8
0
  6
Continuous
 62
     0
100
AcDbPoint
 10
418.5765479999998
 20
420.6936799999998
 30
0.0
  0
POINT
  5
29B
330
19
100
AcDbEntity
  8
0
  6
Continuous
 62
     0
100
AcDbPoint
 10
384.576548
 20
420.6936799999998
 30
0.0
  0
POINT
  5
29C
330
19
100
AcDbEntity
  8
0
  6
Continuous
 62
     0
100
AcDbPoint
 10
378.4765479999998
 20
416.69368
 30
0.0
  0
POINT
  5
29D
330
19
100
AcDbEntity
  8
0
  6
Continuous
 62
     0
100
AcDbPoint
 10
346.676548
 20
416.69368
 30
0.0
  0
POINT
  5
29E
330
19
100
AcDbEntity
  8
0
  6
Continuous
 62
     0
100
AcDbPoint
 10
378.4765479999998
 20
424.6936799999998
 30
0.0
  0
POINT
  5
29F
330
19
100
AcDbEntity
  8
0
  6
Continuous
 62
     0
100
AcDbPoint
 10
346.676548
 20
424.6936799999998
 30
0.0
  0
POINT
  5
2A5
330
19
100
AcDbEntity
  8
0
  6
Continuous
 62
     0
100
AcDbPoint
 10
362.576548
 20
420.6936799999998
 30
0.0
  0
POINT
  5
2A6
330
19
100
AcDbEntity
  8
0
  6
Continuous
 62
     0
100
AcDbPoint
 10
430.076548
 20
395.6936799999998
 30
0.0
  0
POINT
  5
2A7
330
19
100
AcDbEntity
  8
0
  6
Continuous
 62
     0
100
AcDbPoint
 10
325.076548
 20
395.6936799999998
 30
0.0
  0
POINT
  5
2A8
330
19
100
AcDbEntity
  8
0
  6
Continuous
 62
     0
100
AcDbPoint
 10
430.076548
 20
445.69368
 30
0.0
  0
POINT
  5
2A9
330
19
100
AcDbEntity
  8
0
  6
Continuous
 62
     0
100
AcDbPoint
 10
325.076548
 20
445.69368
 30
0.0
  0
POINT
  5
2AE
330
19
100
AcDbEntity
  8
0
  6
Continuous
 62
     0
100
AcDbPoint
 10
992.576548
 20
410.6936799999998
 30
0.0
  0
POINT
  5
2AF
330
19
100
AcDbEntity
  8
0
  6
Continuous
 62
     0
100
AcDbPoint
 10
992.576548
 20
430.6936799999999
 30
0.0
  0
POINT
  5
2B0
330
19
100
AcDbEntity
  8
0
  6
Continuous
 62
     0
100
AcDbPoint
 10
990.5765479999999
 20
410.6936799999998
 30
0.0
  0
POINT
  5
2B1
330
19
100
AcDbEntity
  8
0
  6
Continuous
 62
     0
100
AcDbPoint
 10
990.5765479999999
 20
430.6936799999999
 30
0.0
  0
POINT
  5
2B2
330
19
100
AcDbEntity
  8
0
  6
Continuous
 62
     0
100
AcDbPoint
 10
990.5765479999999
 20
415.6936799999998
 30
0.0
  0
POINT
  5
2B3
330
19
100
AcDbEntity
  8
0
  6
Continuous
 62
     0
100
AcDbPoint
 10
980.5765479999999
 20
415.6936799999998
 30
0.0
  0
POINT
  5
2B4
330
19
100
AcDbEntity
  8
0
  6
Continuous
 62
     0
100
AcDbPoint
 10
990.5765479999999
 20
425.69368
 30
0.0
  0
POINT
  5
2B5
330
19
100
AcDbEntity
  8
0
  6
Continuous
 62
     0
100
AcDbPoint
 10
980.5765479999999
 20
425.69368
 30
0.0
  0
POINT
  5
2B6
330
19
100
AcDbEntity
  8
0
  6
Continuous
 62
     0
100
AcDbPoint
 10
990.5765479999999
 20
420.6936799999998
 30
0.0
  0
POINT
  5
2B9
330
19
100
AcDbEntity
  8
0
  6
Continuous
 62
     0
100
AcDbPoint
 10
1010.576548
 20
445.69368
 30
0.0
  0
POINT
  5
2BA
330
19
100
AcDbEntity
  8
0
  6
Continuous
 62
     0
100
AcDbPoint
 10
818.485639
 20
350.6936799999998
 30
0.0
  0
POINT
  5
2BB
330
19
100
AcDbEntity
  8
0
  6
Continuous
 62
     0
100
AcDbPoint
 10
818.485639
 20
490.6936799999998
 30
0.0
  0
POINT
  5
2BC
330
19
100
AcDbEntity
  8
0
  6
Continuous
 62
     0
100
AcDbPoint
 10
818.485639
 20
491.69368
 30
0.0
  0
POINT
  5
2BD
330
19
100
AcDbEntity
  8
0
  6
Continuous
 62
     0
100
AcDbPoint
 10
819.4856389999998
 20
350.6936799999998
 30
0.0
  0
POINT
  5
2BE
330
19
100
AcDbEntity
  8
0
  6
Continuous
 62
     0
100
AcDbPoint
 10
818.485639
 20
349.6936799999998
 30
0.0
  0
POINT
  5
2BF
330
19
100
AcDbEntity
  8
0
  6
Continuous
 62
     0
100
AcDbPoint
 10
817.485639
 20
350.6936799999998
 30
0.0
  0
POINT
  5
2C0
330
19
100
AcDbEntity
  8
0
  6
Continuous
 62
     0
100
AcDbPoint
 10
817.485639
 20
490.6936799999998
 30
0.0
  0
POINT
  5
2C1
330
19
100
AcDbEntity
  8
0
  6
Continuous
 62
     0
100
AcDbPoint
 10
819.4856389999998
 20
490.6936799999998
 30
0.0
  0
POINT
  5
2C2
330
19
100
AcDbEntity
  8
0
  6
Continuous
 62
     0
100
AcDbPoint
 10
834.3947299999998
 20
350.6936799999998
 30
0.0
  0
POINT
  5
2C3
330
19
100
AcDbEntity
  8
0
  6
Continuous
 62
     0
100
AcDbPoint
 10
834.3947299999998
 20
490.6936799999998
 30
0.0
  0
POINT
  5
2C4
330
19
100
AcDbEntity
  8
0
  6
Continuous
 62
     0
100
AcDbPoint
 10
834.3947299999998
 20
491.69368
 30
0.0
  0
POINT
  5
2C5
330
19
100
AcDbEntity
  8
0
  6
Continuous
 62
     0
100
AcDbPoint
 10
835.3947299999997
 20
350.6936799999998
 30
0.0
  0
POINT
  5
2C6
330
19
100
AcDbEntity
  8
0
  6
Continuous
 62
     0
100
AcDbPoint
 10
834.3947299999998
 20
349.6936799999998
 30
0.0
  0
POINT
  5
2C7
330
19
100
AcDbEntity
  8
0
  6
Continuous
 62
     0
100
AcDbPoint
 10
833.39473
 20
350.6936799999998
 30
0.0
  0
POINT
  5
2C8
330
19
100
AcDbEntity
  8
0
  6
Continuous
 62
     0
100
AcDbPoint
 10
833.39473
 20
490.6936799999998
 30
0.0
  0
POINT
  5
2C9
330
19
100
AcDbEntity
  8
0
  6
Continuous
 62
     0
100
AcDbPoint
 10
835.3947299999997
 20
490.6936799999998
 30
0.0
  0
POINT
  5
2CC
330
19
100
AcDbEntity
  8
0
  6
Continuous
 62
     0
100
AcDbPoint
 10
850.3038210000001
 20
491.69368
 30
0.0
  0
POINT
  5
2CD
330
19
100
AcDbEntity
  8
0
  6
Continuous
 62
     0
100
AcDbPoint
 10
851.3038210000001
 20
350.6936799999998
 30
0.0
  0
POINT
  5
2CE
330
19
100
AcDbEntity
  8
0
  6
Continuous
 62
     0
100
AcDbPoint
 10
850.3038210000001
 20
349.6936799999998
 30
0.0
  0
POINT
  5
2CF
330
19
100
AcDbEntity
  8
0
  6
Continuous
 62
     0
100
AcDbPoint
 10
849.3038210000001
 20
350.6936799999998
 30
0.0
  0
POINT
  5
2D0
330
19
100
AcDbEntity
  8
0
  6
Continuous
 62
     0
100
AcDbPoint
 10
849.3038210000001
 20
490.6936799999998
 30
0.0
  0
POINT
  5
2D1
330
19
100
AcDbEntity
  8
0
  6
Continuous
 62
     0
100
AcDbPoint
 10
851.3038210000001
 20
490.6936799999998
 30
0.0
  0
POINT
  5
2D2
330
19
100
AcDbEntity
  8
0
  6
Continuous
 62
     0
100
AcDbPoint
 10
866.2129119999999
 20
350.6936799999998
 30
0.0
  0
POINT
  5
2D3
330
19
100
AcDbEntity
  8
0
  6
Continuous
 62
     0
100
AcDbPoint
 10
866.2129119999999
 20
490.6936799999998
 30
0.0
  0
POINT
  5
2D4
330
19
100
AcDbEntity
  8
0
  6
Continuous
 62
     0
100
AcDbPoint
 10
866.2129119999999
 20
491.69368
 30
0.0
  0
POINT
  5
2D5
330
19
100
AcDbEntity
  8
0
  6
Continuous
 62
     0
100
AcDbPoint
 10
867.2129119999999
 20
350.6936799999998
 30
0.0
  0
POINT
  5
2D6
330
19
100
AcDbEntity
  8
0
  6
Continuous
 62
     0
100
AcDbPoint
 10
866.2129119999999
 20
349.6936799999998
 30
0.0
  0
POINT
  5
2D7
330
19
100
AcDbEntity
  8
0
  6
Continuous
 62
     0
100
AcDbPoint
 10
865.2129119999997
 20
350.6936799999998
 30
0.0
  0
POINT
  5
2D8
330
19
100
AcDbEntity
  8
0
  6
Continuous
 62
     0
100
AcDbPoint
 10
865.2129119999997
 20
490.6936799999998
 30
0.0
  0
POINT
  5
2D9
330
19
100
AcDbEntity
  8
0
  6
Continuous
 62
     0
100
AcDbPoint
 10
867.2129119999999
 20
490.6936799999998
 30
0.0
  0
POINT
  5
2DA
330
19
100
AcDbEntity
  8
0
  6
Continuous
 62
     0
100
AcDbPoint
 10
882.122002
 20
350.6936799999998
 30
0.0
  0
POINT
  5
2DB
330
19
100
AcDbEntity
  8
0
  6
Continuous
 62
     0
100
AcDbPoint
 10
882.122002
 20
490.6936799999998
 30
0.0
  0
POINT
  5
2DC
330
19
100
AcDbEntity
  8
0
  6
Continuous
 62
     0
100
AcDbPoint
 10
882.122002
 20
491.69368
 30
0.0
  0
POINT
  5
2DD
330
19
100
AcDbEntity
  8
0
  6
Continuous
 62
     0
100
AcDbPoint
 10
883.1220019999998
 20
350.6936799999998
 30
0.0
  0
POINT
  5
2DE
330
19
100
AcDbEntity
  8
0
  6
Continuous
 62
     0
100
AcDbPoint
 10
882.122002
 20
349.6936799999998
 30
0.0
  0
POINT
  5
2DF
330
19
100
AcDbEntity
  8
0
  6
Continuous
 62
     0
100
AcDbPoint
 10
881.122002
 20
350.6936799999998
 30
0.0
  0
POINT
  5
2E0
330
19
100
AcDbEntity
  8
0
  6
Continuous
 62
     0
100
AcDbPoint
 10
881.122002
 20
490.6936799999998
 30
0.0
  0
POINT
  5
2E1
330
19
100
AcDbEntity
  8
0
  6
Continuous
 62
     0
100
AcDbPoint
 10
883.1220019999998
 20
490.6936799999998
 30
0.0
  0
POINT
  5
2E2
330
19
100
AcDbEntity
  8
0
  6
Continuous
 62
     0
100
AcDbPoint
 10
898.0310929999998
 20
350.6936799999998
 30
0.0
  0
POINT
  5
2E3
330
19
100
AcDbEntity
  8
0
  6
Continuous
 62
     0
100
AcDbPoint
 10
898.0310929999998
 20
490.6936799999998
 30
0.0
  0
POINT
  5
2E4
330
19
100
AcDbEntity
  8
0
  6
Continuous
 62
     0
100
AcDbPoint
 10
898.0310929999998
 20
491.69368
 30
0.0
  0
POINT
  5
2E5
330
19
100
AcDbEntity
  8
0
  6
Continuous
 62
     0
100
AcDbPoint
 10
899.0310929999997
 20
350.6936799999998
 30
0.0
  0
POINT
  5
2E6
330
19
100
AcDbEntity
  8
0
  6
Continuous
 62
     0
100
AcDbPoint
 10
898.0310929999998
 20
349.6936799999998
 30
0.0
  0
POINT
  5
2E7
330
19
100
AcDbEntity
  8
0
  6
Continuous
 62
     0
100
AcDbPoint
 10
897.031093
 20
350.6936799999998
 30
0.0
  0
POINT
  5
2E8
330
19
100
AcDbEntity
  8
0
  6
Continuous
 62
     0
100
AcDbPoint
 10
897.031093
 20
490.6936799999998
 30
0.0
  0
POINT
  5
2E9
330
19
100
AcDbEntity
  8
0
  6
Continuous
 62
     0
100
AcDbPoint
 10
899.0310929999997
 20
490.6936799999998
 30
0.0
  0
POINT
  5
2EC
330
19
100
AcDbEntity
  8
0
  6
Continuous
 62
     0
100
AcDbPoint
 10
913.9401840000001
 20
491.69368
 30
0.0
  0
POINT
  5
2ED
330
19
100
AcDbEntity
  8
0
  6
Continuous
 62
     0
100
AcDbPoint
 10
914.9401840000001
 20
350.6936799999998
 30
0.0
  0
POINT
  5
2EE
330
19
100
AcDbEntity
  8
0
  6
Continuous
 62
     0
100
AcDbPoint
 10
913.9401840000001
 20
349.6936799999998
 30
0.0
  0
POINT
  5
2EF
330
19
100
AcDbEntity
  8
0
  6
Continuous
 62
     0
100
AcDbPoint
 10
912.9401839999999
 20
350.6936799999998
 30
0.0
  0
POINT
  5
2F0
330
19
100
AcDbEntity
  8
0
  6
Continuous
 62
     0
100
AcDbPoint
 10
912.9401839999999
 20
490.6936799999998
 30
0.0
  0
POINT
  5
2F1
330
19
100
AcDbEntity
  8
0
  6
Continuous
 62
     0
100
AcDbPoint
 10
914.9401840000001
 20
490.6936799999998
 30
0.0
  0
POINT
  5
2F2
330
19
100
AcDbEntity
  8
0
  6
Continuous
 62
     0
100
AcDbPoint
 10
929.8492750000001
 20
350.6936799999998
 30
0.0
  0
POINT
  5
2F3
330
19
100
AcDbEntity
  8
0
  6
Continuous
 62
     0
100
AcDbPoint
 10
929.8492750000001
 20
490.6936799999998
 30
0.0
  0
POINT
  5
2F4
330
19
100
AcDbEntity
  8
0
  6
Continuous
 62
     0
100
AcDbPoint
 10
929.8492750000001
 20
491.69368
 30
0.0
  0
POINT
  5
2F5
330
19
100
AcDbEntity
  8
0
  6
Continuous
 62
     0
100
AcDbPoint
 10
930.849275
 20
350.6936799999998
 30
0.0
  0
POINT
  5
2F6
330
19
100
AcDbEntity
  8
0
  6
Continuous
 62
     0
100
AcDbPoint
 10
929.8492750000001
 20
349.6936799999998
 30
0.0
  0
POINT
  5
2F7
330
19
100
AcDbEntity
  8
0
  6
Continuous
 62
     0
100
AcDbPoint
 10
928.8492750000001
 20
350.6936799999998
 30
0.0
  0
POINT
  5
2F8
330
19
100
AcDbEntity
  8
0
  6
Continuous
 62
     0
100
AcDbPoint
 10
928.8492750000001
 20
490.6936799999998
 30
0.0
  0
POINT
  5
2F9
330
19
100
AcDbEntity
  8
0
  6
Continuous
 62
     0
100
AcDbPoint
 10
930.849275
 20
490.6936799999998
 30
0.0
  0
POINT
  5
2FA
330
19
100
AcDbEntity
  8
0
  6
Continuous
 62
     0
100
AcDbPoint
 10
945.758366
 20
350.6936799999998
 30
0.0
  0
POINT
  5
2FB
330
19
100
AcDbEntity
  8
0
  6
Continuous
 62
     0
100
AcDbPoint
 10
945.758366
 20
490.6936799999998
 30
0.0
  0
POINT
  5
2FC
330
19
100
AcDbEntity
  8
0
  6
Continuous
 62
     0
100
AcDbPoint
 10
945.758366
 20
491.69368
 30
0.0
  0
POINT
  5
2FD
330
19
100
AcDbEntity
  8
0
  6
Continuous
 62
     0
100
AcDbPoint
 10
946.758366
 20
350.6936799999998
 30
0.0
  0
POINT
  5
2FE
330
19
100
AcDbEntity
  8
0
  6
Continuous
 62
     0
100
AcDbPoint
 10
945.758366
 20
349.6936799999998
 30
0.0
  0
POINT
  5
2FF
330
19
100
AcDbEntity
  8
0
  6
Continuous
 62
     0
100
AcDbPoint
 10
944.7583660000001
 20
350.6936799999998
 30
0.0
  0
POINT
  5
300
330
19
100
AcDbEntity
  8
0
  6
Continuous
 62
     0
100
AcDbPoint
 10
944.7583660000001
 20
490.6936799999998
 30
0.0
  0
POINT
  5
301
330
19
100
AcDbEntity
  8
0
  6
Continuous
 62
     0
100
AcDbPoint
 10
946.758366
 20
490.6936799999998
 30
0.0
  0
POINT
  5
302
330
19
100
AcDbEntity
  8
0
  6
Continuous
 62
     0
100
AcDbPoint
 10
961.667457
 20
349.6936799999998
 30
0.0
  0
POINT
  5
303
330
19
100
AcDbEntity
  8
0
  6
Continuous
 62
     0
100
AcDbPoint
 10
960.667457
 20
350.6936799999998
 30
0.0
  0
POINT
  5
304
330
19
100
AcDbEntity
  8
0
  6
Continuous
 62
     0
100
AcDbPoint
 10
962.667457
 20
350.6936799999998
 30
0.0
  0
POINT
  5
305
330
19
100
AcDbEntity
  8
0
  6
Continuous
 62
     0
100
AcDbPoint
 10
961.667457
 20
491.69368
 30
0.0
  0
POINT
  5
306
330
19
100
AcDbEntity
  8
0
  6
Continuous
 62
     0
100
AcDbPoint
 10
960.667457
 20
490.6936799999998
 30
0.0
  0
POINT
  5
307
330
19
100
AcDbEntity
  8
0
  6
Continuous
 62
     0
100
AcDbPoint
 10
962.667457
 20
490.6936799999998
 30
0.0
  0
POINT
  5
308
330
19
100
AcDbEntity
  8
0
  6
Continuous
 62
     0
100
AcDbPoint
 10
980.5765479999999
 20
395.6936799999998
 30
0.0
  0
POINT
  5
309
330
19
100
AcDbEntity
  8
0
  6
Continuous
 62
     0
100
AcDbPoint
 10
980.5765479999999
 20
445.69368
 30
0.0
  0
POINT
  5
30A
330
19
100
AcDbEntity
  8
0
  6
Continuous
 62
     0
100
AcDbPoint
 10
979.0765480000001
 20
395.6936799999998
 30
0.0
  0
POINT
  5
30B
330
19
100
AcDbEntity
  8
0
  6
Continuous
 62
     0
100
AcDbPoint
 10
979.0765480000001
 20
445.69368
 30
0.0
  0
POINT
  5
30C
330
19
100
AcDbEntity
  8
0
  6
Continuous
 62
     0
100
AcDbPoint
 10
977.576548
 20
395.6936799999998
 30
0.0
  0
POINT
  5
30D
330
19
100
AcDbEntity
  8
0
  6
Continuous
 62
     0
100
AcDbPoint
 10
977.576548
 20
445.69368
 30
0.0
  0
POINT
  5
30E
330
19
100
AcDbEntity
  8
0
  6
Continuous
 62
     0
100
AcDbPoint
 10
977.576548
 20
350.6936799999998
 30
0.0
  0
POINT
  5
310
330
19
100
AcDbEntity
  8
0
  6
Continuous
 62
     0
100
AcDbPoint
 10
802.576548
 20
350.6936799999998
 30
0.0
  0
POINT
  5
311
330
19
100
AcDbEntity
  8
0
  6
Continuous
 62
     0
100
AcDbPoint
 10
802.576548
 20
490.6936799999998
 30
0.0
  0
POINT
  5
312
330
19
100
AcDbEntity
  8
0
  6
Continuous
 62
     0
100
AcDbPoint
 10
945.8565589999999
 20
303.2087589999998
 30
0.0
  0
POINT
  5
313
330
19
100
AcDbEntity
  8
0
  6
Continuous
 62
     0
100
AcDbPoint
 10
941.4974210000002
 20
306.8413729999998
 30
0.0
  0
POINT
  5
314
330
19
100
AcDbEntity
  8
0
  6
Continuous
 62
     0
100
AcDbPoint
 10
944.2017009999997
 20
309.505291
 30
0.0
  0
POINT
  5
315
330
19
100
AcDbEntity
  8
0
  6
Continuous
 62
     0
100
AcDbPoint
 10
944.322788
 20
311.200511
 30
0.0
  0
POINT
  5
316
330
19
100
AcDbEntity
  8
0
  6
Continuous
 62
     0
100
AcDbPoint
 10
942.3450309999999
 20
313.3800799999999
 30
0.0
  0
POINT
  5
317
330
19
100
AcDbEntity
  8
0
  6
Continuous
 62
     0
100
AcDbPoint
 10
944.605325
 20
315.963272
 30
0.0
  0
POINT
  5
318
330
19
100
AcDbEntity
  8
0
  6
Continuous
 62
     0
100
AcDbPoint
 10
972.5765479999999
 20
310.6936799999998
 30
0.0
  0
POINT
  5
319
330
19
100
AcDbEntity
  8
0
  6
Continuous
 62
     0
100
AcDbPoint
 10
968.576548
 20
308.6936799999998
 30
0.0
  0
POINT
  5
31A
330
19
100
AcDbEntity
  8
0
  6
Continuous
 62
     0
100
AcDbPoint
 10
972.5765479999999
 20
308.6936799999998
 30
0.0
  0
POINT
  5
31B
330
19
100
AcDbEntity
  8
0
  6
Continuous
 62
     0
100
AcDbPoint
 10
968.576548
 20
305.99368
 30
0.0
  0
POINT
  5
31C
330
19
100
AcDbEntity
  8
0
  6
Continuous
 62
     0
100
AcDbPoint
 10
964.5765479999999
 20
308.6936799999998
 30
0.0
  0
POINT
  5
31D
330
19
100
AcDbEntity
  8
0
  6
Continuous
 62
     0
100
AcDbPoint
 10
968.576548
 20
308.6936799999998
 30
0.0
  0
POINT
  5
31E
330
19
100
AcDbEntity
  8
0
  6
Continuous
 62
     0
100
AcDbPoint
 10
968.576548
 20
307.4936799999998
 30
0.0
  0
POINT
  5
31F
330
19
100
AcDbEntity
  8
0
  6
Continuous
 62
     0
100
AcDbPoint
 10
968.576548
 20
308.6936799999998
 30
0.0
  0
POINT
  5
320
330
19
100
AcDbEntity
  8
0
  6
Continuous
 62
     0
100
AcDbPoint
 10
968.576548
 20
310.6936799999998
 30
0.0
  0
POINT
  5
321
330
19
100
AcDbEntity
  8
0
  6
Continuous
 62
     0
100
AcDbPoint
 10
992.576548
 20
310.6936799999998
 30
0.0
  0
POINT
  5
322
330
19
100
AcDbEntity
  8
0
  6
Continuous
 62
     0
100
AcDbPoint
 10
1033.810557999998
 20
283.5206539999998
 30
0.0
  0
POINT
  5
323
330
19
100
AcDbEntity
  8
0
  6
Continuous
 62
     0
100
AcDbPoint
 10
1035.717651
 20
285.941195
 30
0.0
  0
POINT
  5
324
330
19
100
AcDbEntity
  8
0
  6
Continuous
 62
     0
100
AcDbPoint
 10
1033.957257999998
 20
287.848287
 30
0.0
  0
POINT
  5
325
330
19
100
AcDbEntity
  8
0
  6
Continuous
 62
     0
100
AcDbPoint
 10
1032.710313
 20
289.902079
 30
0.0
  0
POINT
  5
326
330
19
100
AcDbEntity
  8
0
  6
Continuous
 62
     0
100
AcDbPoint
 10
1034.764103999999
 20
292.4693189999998
 30
0.0
  0
POINT
  5
327
330
19
100
AcDbEntity
  8
0
  6
Continuous
 62
     0
100
AcDbPoint
 10
1034.103957
 20
294.8165089999998
 30
0.0
  0
POINT
  5
328
330
19
100
AcDbEntity
  8
0
  6
Continuous
 62
     0
100
AcDbPoint
 10
1036.084399
 20
296.503552
 30
0.0
  0
POINT
  5
329
330
19
100
AcDbEntity
  8
0
  6
Continuous
 62
     0
100
AcDbPoint
 10
1013.576548
 20
286.6936799999998
 30
0.0
  0
POINT
  5
32A
330
19
100
AcDbEntity
  8
0
  6
Continuous
 62
     0
100
AcDbPoint
 10
1013.576548
 20
292.6936799999998
 30
0.0
  0
POINT
  5
32B
330
19
100
AcDbEntity
  8
0
  6
Continuous
 62
     0
100
AcDbPoint
 10
1013.576548
 20
293.6936799999998
 30
0.0
  0
POINT
  5
32C
330
19
100
AcDbEntity
  8
0
  6
Continuous
 62
     0
100
AcDbPoint
 10
1013.576548
 20
285.6936799999998
 30
0.0
  0
POINT
  5
32F
330
19
100
AcDbEntity
  8
0
  6
Continuous
 62
     0
100
AcDbPoint
 10
979.576548
 20
310.6936799999998
 30
0.0
  0
POINT
  5
330
330
19
100
AcDbEntity
  8
0
  6
Continuous
 62
     0
100
AcDbPoint
 10
1000.576548
 20
310.6936799999998
 30
0.0
  0
POINT
  5
331
330
19
100
AcDbEntity
  8
0
  6
Continuous
 62
     0
100
AcDbPoint
 10
802.576548
 20
310.6936799999998
 30
0.0
  0
POINT
  5
332
330
19
100
AcDbEntity
  8
0
  6
Continuous
 62
     0
100
AcDbPoint
 10
1052.576548
 20
310.6936799999998
 30
0.0
  0
POINT
  5
333
330
19
100
AcDbEntity
  8
0
  6
Continuous
 62
     0
100
AcDbPoint
 10
988.5765479999999
 20
285.6936799999998
 30
0.0
  0
POINT
  5
334
330
19
100
AcDbEntity
  8
0
  6
Continuous
 62
     0
100
AcDbPoint
 10
996.5765479999999
 20
307.1936799999998
 30
0.0
  0
POINT
  5
335
330
19
100
AcDbEntity
  8
0
  6
Continuous
 62
     0
100
AcDbPoint
 10
992.576548
 20
307.1936799999998
 30
0.0
  0
POINT
  5
336
330
19
100
AcDbEntity
  8
0
  6
Continuous
 62
     0
100
AcDbPoint
 10
988.5765479999999
 20
307.1936799999998
 30
0.0
  0
POINT
  5
337
330
19
100
AcDbEntity
  8
0
  6
Continuous
 62
     0
100
AcDbPoint
 10
1053.376547999999
 20
296.6936799999998
 30
0.0
  0
POINT
  5
338
330
19
100
AcDbEntity
  8
0
  6
Continuous
 62
     0
100
AcDbPoint
 10
1053.376547999999
 20
292.6936799999998
 30
0.0
  0
POINT
  5
339
330
19
100
AcDbEntity
  8
0
  6
Continuous
 62
     0
100
AcDbPoint
 10
1054.576548
 20
296.6936799999998
 30
0.0
  0
POINT
  5
33A
330
19
100
AcDbEntity
  8
0
  6
Continuous
 62
     0
100
AcDbPoint
 10
1056.076548
 20
296.6936799999998
 30
0.0
  0
POINT
  5
33B
330
19
100
AcDbEntity
  8
0
  6
Continuous
 62
     0
100
AcDbPoint
 10
1053.376547999999
 20
300.6936799999998
 30
0.0
  0
POINT
  5
33C
330
19
100
AcDbEntity
  8
0
  6
Continuous
 62
     0
100
AcDbPoint
 10
1053.376547999999
 20
425.69368
 30
0.0
  0
POINT
  5
33D
330
19
100
AcDbEntity
  8
0
  6
Continuous
 62
     0
100
AcDbPoint
 10
1053.376547999999
 20
421.69368
 30
0.0
  0
POINT
  5
33E
330
19
100
AcDbEntity
  8
0
  6
Continuous
 62
     0
100
AcDbPoint
 10
1054.576548
 20
425.69368
 30
0.0
  0
POINT
  5
33F
330
19
100
AcDbEntity
  8
0
  6
Continuous
 62
     0
100
AcDbPoint
 10
1056.076548
 20
425.69368
 30
0.0
  0
POINT
  5
340
330
19
100
AcDbEntity
  8
0
  6
Continuous
 62
     0
100
AcDbPoint
 10
1053.376547999999
 20
429.69368
 30
0.0
  0
POINT
  5
341
330
19
100
AcDbEntity
  8
0
  6
Continuous
 62
     0
100
AcDbPoint
 10
1054.576548
 20
554.69368
 30
0.0
  0
POINT
  5
342
330
19
100
AcDbEntity
  8
0
  6
Continuous
 62
     0
100
AcDbPoint
 10
1056.076548
 20
554.69368
 30
0.0
  0
POINT
  5
343
330
19
100
AcDbEntity
  8
0
  6
Continuous
 62
     0
100
AcDbPoint
 10
1053.376547999999
 20
550.69368
 30
0.0
  0
POINT
  5
344
330
19
100
AcDbEntity
  8
0
  6
Continuous
 62
     0
100
AcDbPoint
 10
1053.376547999999
 20
558.69368
 30
0.0
  0
POINT
  5
345
330
19
100
AcDbEntity
  8
0
  6
Continuous
 62
     0
100
AcDbPoint
 10
1053.376547999999
 20
296.6936799999998
 30
0.0
  0
POINT
  5
346
330
19
100
AcDbEntity
  8
0
  6
Continuous
 62
     0
100
AcDbPoint
 10
1053.376547999999
 20
554.69368
 30
0.0
  0
POINT
  5
347
330
19
100
AcDbEntity
  8
0
  6
Continuous
 62
     0
100
AcDbPoint
 10
752.576548
 20
492.19368
 30
0.0
  0
POINT
  5
348
330
19
100
AcDbEntity
  8
0
  6
Continuous
 62
     0
100
AcDbPoint
 10
752.576548
 20
512.1936799999998
 30
0.0
  0
POINT
  5
349
330
19
100
AcDbEntity
  8
0
  6
Continuous
 62
     0
100
AcDbPoint
 10
735.576548
 20
492.19368
 30
0.0
  0
POINT
  5
34B
330
19
100
AcDbEntity
  8
0
  6
Continuous
 62
     0
100
AcDbPoint
 10
762.576548
 20
492.19368
 30
0.0
  0
POINT
  5
34C
330
19
100
AcDbEntity
  8
0
  6
Continuous
 62
     0
100
AcDbPoint
 10
762.576548
 20
512.1936799999998
 30
0.0
  0
POINT
  5
34D
330
19
100
AcDbEntity
  8
0
  6
Continuous
 62
     0
100
AcDbPoint
 10
762.576548
 20
502.1936799999998
 30
0.0
  0
POINT
  5
34E
330
19
100
AcDbEntity
  8
0
  6
Continuous
 62
     0
100
AcDbPoint
 10
802.576548
 20
299.6936799999998
 30
0.0
  0
POINT
  5
34F
330
19
100
AcDbEntity
  8
0
  6
Continuous
 62
     0
100
AcDbPoint
 10
762.576548
 20
299.6936799999998
 30
0.0
  0
POINT
  5
350
330
19
100
AcDbEntity
  8
0
  6
Continuous
 62
     0
100
AcDbPoint
 10
762.576548
 20
281.6936799999998
 30
0.0
  0
POINT
  5
351
330
19
100
AcDbEntity
  8
0
  6
Continuous
 62
     0
100
AcDbPoint
 10
802.576548
 20
281.6936799999998
 30
0.0
  0
POINT
  5
352
330
19
100
AcDbEntity
  8
0
  6
Continuous
 62
     0
100
AcDbPoint
 10
1032.576547999998
 20
280.6936799999999
 30
0.0
  0
POINT
  5
353
330
19
100
AcDbEntity
  8
0
  6
Continuous
 62
     0
100
AcDbPoint
 10
1032.576547999998
 20
265.6936799999999
 30
0.0
  0
POINT
  5
355
330
19
100
AcDbEntity
  8
0
  6
Continuous
 62
     0
100
AcDbPoint
 10
1032.576547999998
 20
265.6936799999999
 30
0.0
  0
POINT
  5
356
330
19
100
AcDbEntity
  8
0
  6
Continuous
 62
     0
100
AcDbPoint
 10
1046.576547999998
 20
280.6936799999999
 30
0.0
  0
POINT
  5
357
330
19
100
AcDbEntity
  8
0
  6
Continuous
 62
     0
100
AcDbPoint
 10
1032.576547999998
 20
280.6936799999999
 30
0.0
  0
POINT
  5
358
330
19
100
AcDbEntity
  8
0
  6
Continuous
 62
     0
100
AcDbPoint
 10
1018.576548
 20
280.6936799999999
 30
0.0
  0
POINT
  5
35A
330
19
100
AcDbEntity
  8
0
  6
Continuous
 62
     0
100
AcDbPoint
 10
1032.576547999998
 20
280.6936799999999
 30
0.0
  0
POINT
  5
35B
330
19
100
AcDbEntity
  8
0
  6
Continuous
 62
     0
100
AcDbPoint
 10
822.5765479999999
 20
265.6936799999999
 30
0.0
  0
POINT
  5
35D
330
19
100
AcDbEntity
  8
0
  6
Continuous
 62
     0
100
AcDbPoint
 10
822.5765479999999
 20
265.6936799999999
 30
0.0
  0
POINT
  5
35E
330
19
100
AcDbEntity
  8
0
  6
Continuous
 62
     0
100
AcDbPoint
 10
836.576548
 20
280.6936799999999
 30
0.0
  0
POINT
  5
35F
330
19
100
AcDbEntity
  8
0
  6
Continuous
 62
     0
100
AcDbPoint
 10
822.5765479999999
 20
280.6936799999999
 30
0.0
  0
POINT
  5
360
330
19
100
AcDbEntity
  8
0
  6
Continuous
 62
     0
100
AcDbPoint
 10
808.576548
 20
280.6936799999999
 30
0.0
  0
POINT
  5
362
330
19
100
AcDbEntity
  8
0
  6
Continuous
 62
     0
100
AcDbPoint
 10
822.5765479999999
 20
280.6936799999999
 30
0.0
  0
POINT
  5
365
330
19
100
AcDbEntity
  8
0
  6
Continuous
 62
     0
100
AcDbPoint
 10
794.576548
 20
350.6936799999998
 30
0.0
  0
POINT
  5
366
330
19
100
AcDbEntity
  8
0
  6
Continuous
 62
     0
100
AcDbPoint
 10
802.576548
 20
330.6936799999998
 30
0.0
  0
POINT
  5
367
330
19
100
AcDbEntity
  8
0
  6
Continuous
 62
     0
100
AcDbPoint
 10
802.576548
 20
510.6936799999998
 30
0.0
  0
POINT
  5
368
330
19
100
AcDbEntity
  8
0
  6
Continuous
 62
     0
100
AcDbPoint
 10
795.076548
 20
529.69368
 30
0.0
  0
POINT
  5
369
330
19
100
AcDbEntity
  8
0
  6
Continuous
 62
     0
100
AcDbPoint
 10
793.0765479999998
 20
529.69368
 30
0.0
  0
POINT
  5
36A
330
19
100
AcDbEntity
  8
0
  6
Continuous
 62
     0
100
AcDbPoint
 10
792.5765479999999
 20
310.6936799999998
 30
0.0
  0
POINT
  5
36B
330
19
100
AcDbEntity
  8
0
  6
Continuous
 62
     0
100
AcDbPoint
 10
792.5765479999999
 20
530.6936799999999
 30
0.0
  0
POINT
  5
36C
330
19
100
AcDbEntity
  8
0
  6
Continuous
 62
     0
100
AcDbPoint
 10
793.0765479999998
 20
311.6936799999998
 30
0.0
  0
POINT
  5
36D
330
19
100
AcDbEntity
  8
0
  6
Continuous
 62
     0
100
AcDbPoint
 10
795.076548
 20
311.6936799999998
 30
0.0
  0
POINT
  5
36E
330
19
100
AcDbEntity
  8
0
  6
Continuous
 62
     0
100
AcDbPoint
 10
795.576548
 20
310.6936799999998
 30
0.0
  0
POINT
  5
36F
330
19
100
AcDbEntity
  8
0
  6
Continuous
 62
     0
100
AcDbPoint
 10
795.576548
 20
530.6936799999999
 30
0.0
  0
POINT
  5
370
330
19
100
AcDbEntity
  8
0
  6
Continuous
 62
     0
100
AcDbPoint
 10
802.576548
 20
310.6936799999998
 30
0.0
  0
POINT
  5
371
330
19
100
AcDbEntity
  8
0
  6
Continuous
 62
     0
100
AcDbPoint
 10
782.576548
 20
310.6936799999998
 30
0.0
  0
POINT
  5
372
330
19
100
AcDbEntity
  8
0
  6
Continuous
 62
     0
100
AcDbPoint
 10
802.576548
 20
530.6936799999999
 30
0.0
  0
POINT
  5
373
330
19
100
AcDbEntity
  8
0
  6
Continuous
 62
     0
100
AcDbPoint
 10
782.576548
 20
530.6936799999999
 30
0.0
  0
POINT
  5
374
330
19
100
AcDbEntity
  8
0
  6
Continuous
 62
     0
100
AcDbPoint
 10
802.576548
 20
420.6936799999998
 30
0.0
  0
POINT
  5
377
330
19
100
AcDbEntity
  8
0
  6
Continuous
 62
     0
100
AcDbPoint
 10
782.576548
 20
304.1936799999998
 30
0.0
  0
POINT
  5
378
330
19
100
AcDbEntity
  8
0
  6
Continuous
 62
     0
100
AcDbPoint
 10
782.576548
 20
537.1936799999998
 30
0.0
  0
POINT
  5
37A
330
19
100
AcDbEntity
  8
0
  6
Continuous
 62
     0
100
AcDbPoint
 10
758.576548
 20
562.69368
 30
0.0
  0
POINT
  5
37B
330
19
100
AcDbEntity
  8
0
  6
Continuous
 62
     0
100
AcDbPoint
 10
762.576548
 20
549.6936799999998
 30
0.0
  0
POINT
  5
37C
330
19
100
AcDbEntity
  8
0
  6
Continuous
 62
     0
100
AcDbPoint
 10
762.576548
 20
562.69368
 30
0.0
  0
POINT
  5
37F
330
19
100
AcDbEntity
  8
0
  6
Continuous
 62
     0
100
AcDbPoint
 10
802.576548
 20
541.69368
 30
0.0
  0
POINT
  5
380
330
19
100
AcDbEntity
  8
0
  6
Continuous
 62
     0
100
AcDbPoint
 10
1052.576548
 20
280.6936799999999
 30
0.0
  0
POINT
  5
381
330
19
100
AcDbEntity
  8
0
  6
Continuous
 62
     0
100
AcDbPoint
 10
1052.576548
 20
570.69368
 30
0.0
  0
POINT
  5
382
330
19
100
AcDbEntity
  8
0
  6
Continuous
 62
     0
100
AcDbPoint
 10
802.576548
 20
280.6936799999999
 30
0.0
  0
POINT
  5
383
330
19
100
AcDbEntity
  8
0
  6
Continuous
 62
     0
100
AcDbPoint
 10
802.576548
 20
570.69368
 30
0.0
  0
POINT
  5
384
330
19
100
AcDbEntity
  8
0
  6
Continuous
 62
     0
100
AcDbPoint
 10
153.576548
 20
299.6936799999998
 30
0.0
  0
POINT
  5
385
330
19
100
AcDbEntity
  8
0
  6
Continuous
 62
     0
100
AcDbPoint
 10
601.5765479999998
 20
299.6936799999998
 30
0.0
  0
POINT
  5
386
330
19
100
AcDbEntity
  8
0
  6
Continuous
 62
     0
100
AcDbPoint
 10
601.5765479999998
 20
281.6936799999998
 30
0.0
  0
POINT
  5
387
330
19
100
AcDbEntity
  8
0
  6
Continuous
 62
     0
100
AcDbPoint
 10
337.576548
 20
497.1936799999999
 30
0.0
  0
POINT
  5
388
330
19
100
AcDbEntity
  8
0
  6
Continuous
 62
     0
100
AcDbPoint
 10
417.5765479999998
 20
497.1936799999999
 30
0.0
  0
POINT
  5
389
330
19
100
AcDbEntity
  8
0
  6
Continuous
 62
     0
100
AcDbPoint
 10
337.576548
 20
507.1936799999998
 30
0.0
  0
POINT
  5
38A
330
19
100
AcDbEntity
  8
0
  6
Continuous
 62
     0
100
AcDbPoint
 10
417.5765479999998
 20
507.1936799999998
 30
0.0
  0
POINT
  5
38B
330
19
100
AcDbEntity
  8
0
  6
Continuous
 62
     0
100
AcDbPoint
 10
337.576548
 20
502.1936799999998
 30
0.0
  0
POINT
  5
38C
330
19
100
AcDbEntity
  8
0
  6
Continuous
 62
     0
100
AcDbPoint
 10
417.5765479999998
 20
502.1936799999998
 30
0.0
  0
POINT
  5
391
330
19
100
AcDbEntity
  8
0
  6
Continuous
 62
     0
100
AcDbPoint
 10
300.076548
 20
502.1936799999998
 30
0.0
  0
POINT
  5
392
330
19
100
AcDbEntity
  8
0
  6
Continuous
 62
     0
100
AcDbPoint
 10
455.076548
 20
502.1936799999998
 30
0.0
  0
POINT
  5
394
330
19
100
AcDbEntity
  8
0
  6
Continuous
 62
     0
100
AcDbPoint
 10
457.576548
 20
352.6936799999998
 30
0.0
  0
POINT
  5
395
330
19
100
AcDbEntity
  8
0
  6
Continuous
 62
     0
100
AcDbPoint
 10
437.576548
 20
352.6936799999998
 30
0.0
  0
POINT
  5
396
330
19
100
AcDbEntity
  8
0
  6
Continuous
 62
     0
100
AcDbPoint
 10
317.5765479999999
 20
352.6936799999998
 30
0.0
  0
POINT
  5
397
330
19
100
AcDbEntity
  8
0
  6
Continuous
 62
     0
100
AcDbPoint
 10
297.576548
 20
352.6936799999998
 30
0.0
  0
POINT
  5
398
330
19
100
AcDbEntity
  8
0
  6
Continuous
 62
     0
100
AcDbPoint
 10
437.576548
 20
350.6936799999998
 30
0.0
  0
POINT
  5
399
330
19
100
AcDbEntity
  8
0
  6
Continuous
 62
     0
100
AcDbPoint
 10
297.576548
 20
350.6936799999998
 30
0.0
  0
POINT
  5
39A
330
19
100
AcDbEntity
  8
0
  6
Continuous
 62
     0
100
AcDbPoint
 10
457.576548
 20
350.6936799999998
 30
0.0
  0
POINT
  5
39B
330
19
100
AcDbEntity
  8
0
  6
Continuous
 62
     0
100
AcDbPoint
 10
317.5765479999999
 20
350.6936799999998
 30
0.0
  0
POINT
  5
39C
330
19
100
AcDbEntity
  8
0
  6
Continuous
 62
     0
100
AcDbPoint
 10
307.576548
 20
350.6936799999998
 30
0.0
  0
POINT
  5
39D
330
19
100
AcDbEntity
  8
0
  6
Continuous
 62
     0
100
AcDbPoint
 10
447.576548
 20
350.6936799999998
 30
0.0
  0
POINT
  5
3A2
330
19
100
AcDbEntity
  8
0
  6
Continuous
 62
     0
100
AcDbPoint
 10
182.576548
 20
420.6936799999998
 30
0.0
  0
POINT
  5
3A3
330
19
100
AcDbEntity
  8
0
  6
Continuous
 62
     0
100
AcDbPoint
 10
572.5765479999998
 20
420.6936799999998
 30
0.0
  0
POINT
  5
3A7
330
19
100
AcDbEntity
  8
0
  6
Continuous
 62
     0
100
AcDbPoint
 10
601.5765479999998
 20
537.1936799999998
 30
0.0
  0
POINT
  5
3A8
330
19
100
AcDbEntity
  8
0
  6
Continuous
 62
     0
100
AcDbPoint
 10
153.576548
 20
420.6936799999998
 30
0.0
  0
POINT
  5
3A9
330
19
100
AcDbEntity
  8
0
  6
Continuous
 62
     0
100
AcDbPoint
 10
601.5765479999998
 20
420.6936799999998
 30
0.0
  0
POINT
  5
3AC
330
19
100
AcDbEntity
  8
0
  6
Continuous
 62
     0
100
AcDbPoint
 10
547.5765479999998
 20
556.1936799999998
 30
0.0
  0
POINT
  5
3B1
330
19
100
AcDbEntity
  8
0
  6
Continuous
 62
     0
100
AcDbPoint
 10
249.576548
 20
557.1936799999998
 30
0.0
  0
POINT
  5
3BA
330
19
100
AcDbEntity
  8
0
  6
Continuous
 62
     0
100
AcDbPoint
 10
249.576548
 20
552.1936799999998
 30
0.0
  0
POINT
  5
3BD
330
19
100
AcDbEntity
  8
0
  6
Continuous
 62
     0
100
AcDbPoint
 10
424.076548
 20
556.1936799999998
 30
0.0
  0
POINT
  5
3BE
330
19
100
AcDbEntity
  8
0
  6
Continuous
 62
     0
100
AcDbPoint
 10
496.576548
 20
556.1936799999998
 30
0.0
  0
POINT
  5
3BF
330
19
100
AcDbEntity
  8
0
  6
Continuous
 62
     0
100
AcDbPoint
 10
506.076548
 20
549.6936799999998
 30
0.0
  0
POINT
  5
3C0
330
19
100
AcDbEntity
  8
0
  6
Continuous
 62
     0
100
AcDbPoint
 10
487.0765480000001
 20
549.6936799999998
 30
0.0
  0
POINT
  5
3C1
330
19
100
AcDbEntity
  8
0
  6
Continuous
 62
     0
100
AcDbPoint
 10
506.076548
 20
562.69368
 30
0.0
  0
POINT
  5
3C2
330
19
100
AcDbEntity
  8
0
  6
Continuous
 62
     0
100
AcDbPoint
 10
487.0765480000001
 20
562.69368
 30
0.0
  0
POINT
  5
3C3
330
19
100
AcDbEntity
  8
0
  6
Continuous
 62
     0
100
AcDbPoint
 10
487.0765480000001
 20
556.1936799999998
 30
0.0
  0
POINT
  5
3C4
330
19
100
AcDbEntity
  8
0
  6
Continuous
 62
     0
100
AcDbPoint
 10
506.076548
 20
556.1936799999998
 30
0.0
  0
POINT
  5
3C5
330
19
100
AcDbEntity
  8
0
  6
Continuous
 62
     0
100
AcDbPoint
 10
496.576548
 20
556.1936799999998
 30
0.0
  0
POINT
  5
3C6
330
19
100
AcDbEntity
  8
0
  6
Continuous
 62
     0
100
AcDbPoint
 10
377.576548
 20
541.69368
 30
0.0
  0
POINT
  5
3C7
330
19
100
AcDbEntity
  8
0
  6
Continuous
 62
     0
100
AcDbPoint
 10
152.576548
 20
541.69368
 30
0.0
  0
POINT
  5
3C8
330
19
100
AcDbEntity
  8
0
  6
Continuous
 62
     0
100
AcDbPoint
 10
602.576548
 20
541.69368
 30
0.0
  0
POINT
  5
3C9
330
19
100
AcDbEntity
  8
0
  6
Continuous
 62
     0
100
AcDbPoint
 10
172.5765479999999
 20
265.6936799999999
 30
0.0
  0
POINT
  5
3CA
330
19
100
AcDbEntity
  8
0
  6
Continuous
 62
     0
100
AcDbPoint
 10
582.576548
 20
265.6936799999999
 30
0.0
  0
POINT
  5
3CD
330
19
100
AcDbEntity
  8
0
  6
Continuous
 62
     0
100
AcDbPoint
 10
172.5765479999999
 20
265.6936799999999
 30
0.0
  0
POINT
  5
3CF
330
19
100
AcDbEntity
  8
0
  6
Continuous
 62
     0
100
AcDbPoint
 10
595.576548
 20
265.6936799999999
 30
0.0
  0
POINT
  5
3D0
330
19
100
AcDbEntity
  8
0
  6
Continuous
 62
     0
100
AcDbPoint
 10
582.576548
 20
265.6936799999999
 30
0.0
  0
POINT
  5
3D1
330
19
100
AcDbEntity
  8
0
  6
Continuous
 62
     0
100
AcDbPoint
 10
152.576548
 20
570.69368
 30
0.0
  0
POINT
  5
3D2
330
19
100
AcDbEntity
  8
0
  6
Continuous
 62
     0
100
AcDbPoint
 10
602.576548
 20
570.69368
 30
0.0
  0
POINT
  5
3D3
330
19
100
AcDbEntity
  8
0
  6
Continuous
 62
     0
100
AcDbPoint
 10
602.576548
 20
280.6936799999999
 30
0.0
  0
POINT
  5
3D4
330
19
100
AcDbEntity
  8
0
  6
Continuous
 62
     0
100
AcDbPoint
 10
152.576548
 20
280.6936799999999
 30
0.0
  0
POINT
  5
3D5
330
19
100
AcDbEntity
  8
0
  6
Continuous
 62
     0
100
AcDbPoint
 10
377.576548
 20
570.69368
 30
0.0
  0
POINT
  5
3D7
330
19
100
AcDbEntity
  8
0
  6
Continuous
 62
     0
100
AcDbPoint
 10
158.576548
 20
563.19368
 30
0.0
  0
POINT
  5
3D8
330
19
100
AcDbEntity
  8
0
  6
Continuous
 62
     0
100
AcDbPoint
 10
158.576548
 20
549.1936799999998
 30
0.0
  0
POINT
  5
3D9
330
19
100
AcDbEntity
  8
0
  6
Continuous
 62
     0
100
AcDbPoint
 10
158.576548
 20
556.1936799999998
 30
0.0
  0
POINT
  5
3DA
330
19
100
AcDbEntity
  8
0
  6
Continuous
 62
     0
100
AcDbPoint
 10
596.5765479999999
 20
563.19368
 30
0.0
  0
POINT
  5
3DB
330
19
100
AcDbEntity
  8
0
  6
Continuous
 62
     0
100
AcDbPoint
 10
596.5765479999999
 20
549.1936799999998
 30
0.0
  0
POINT
  5
3DC
330
19
100
AcDbEntity
  8
0
  6
Continuous
 62
     0
100
AcDbPoint
 10
596.5765479999999
 20
556.1936799999998
 30
0.0
  0
POINT
  5
3DE
330
19
100
AcDbEntity
  8
0
  6
Continuous
 62
     0
100
AcDbPoint
 10
592.5765479999999
 20
545.1936799999998
 30
0.0
  0
POINT
  5
3DF
330
19
100
AcDbEntity
  8
0
  6
Continuous
 62
     0
100
AcDbPoint
 10
596.5765479999999
 20
549.1936799999998
 30
0.0
  0
POINT
  5
3E1
330
19
100
AcDbEntity
  8
0
  6
Continuous
 62
     0
100
AcDbPoint
 10
534.5765479999998
 20
350.6936799999998
 30
0.0
  0
POINT
  5
3E2
330
19
100
AcDbEntity
  8
0
  6
Continuous
 62
     0
100
AcDbPoint
 10
220.576548
 20
350.6936799999998
 30
0.0
  0
POINT
  5
3E3
330
19
100
AcDbEntity
  8
0
  6
Continuous
 62
     0
100
AcDbPoint
 10
377.576548
 20
350.6936799999998
 30
0.0
  0
POINT
  5
3E4
330
19
100
AcDbEntity
  8
0
  6
Continuous
 62
     0
100
AcDbPoint
 10
377.576548
 20
537.1936799999998
 30
0.0
  0
POINT
  5
3E6
330
19
100
AcDbEntity
  8
0
  6
Continuous
 62
     0
100
AcDbPoint
 10
762.576548
 20
556.1936799999998
 30
0.0
  0
POINT
  5
3E7
330
19
100
AcDbEntity
  8
0
  6
Continuous
 62
     0
100
AcDbPoint
 10
782.576548
 20
420.6936799999998
 30
0.0
  0
POINT
  5
3E8
330
19
100
AcDbEntity
  8
0
  6
Continuous
 62
     0
100
AcDbPoint
 10
794.076548
 20
530.6936799999999
 30
0.0
  0
POINT
  5
3E9
330
19
100
AcDbEntity
  8
0
  6
Continuous
 62
     0
100
AcDbPoint
 10
794.076548
 20
310.6936799999998
 30
0.0
  0
POINT
  5
3EA
330
19
100
AcDbEntity
  8
0
  6
Continuous
 62
     0
100
AcDbPoint
 10
596.5765479999999
 20
280.6936799999999
 30
0.0
  0
POINT
  5
3EB
330
19
100
AcDbEntity
  8
0
  6
Continuous
 62
     0
100
AcDbPoint
 10
568.5765479999998
 20
280.6936799999999
 30
0.0
  0
POINT
  5
3EC
330
19
100
AcDbEntity
  8
0
  6
Continuous
 62
     0
100
AcDbPoint
 10
582.576548
 20
280.6936799999999
 30
0.0
  0
POINT
  5
3ED
330
19
100
AcDbEntity
  8
0
  6
Continuous
 62
     0
100
AcDbPoint
 10
1052.576548
 20
568.6936799999998
 30
0.0
  0
POINT
  5
3EE
330
19
100
AcDbEntity
  8
0
  6
Continuous
 62
     0
100
AcDbPoint
 10
1053.376547999999
 20
568.6936799999998
 30
0.0
  0
POINT
  5
3EF
330
19
100
AcDbEntity
  8
0
  6
Continuous
 62
     0
100
AcDbPoint
 10
1053.376547999999
 20
282.69368
 30
0.0
  0
POINT
  5
3F0
330
19
100
AcDbEntity
  8
0
  6
Continuous
 62
     0
100
AcDbPoint
 10
1052.576548
 20
282.69368
 30
0.0
  0
POINT
  5
3F1
330
19
100
AcDbEntity
  8
0
  6
Continuous
 62
     0
100
AcDbPoint
 10
1053.376547999999
 20
425.69368
 30
0.0
  0
POINT
  5
3F2
330
19
100
AcDbEntity
  8
0
  6
Continuous
 62
     0
100
AcDbPoint
 10
534.5765479999998
 20
490.6936799999998
 30
0.0
  0
POINT
  5
3F3
330
19
100
AcDbEntity
  8
0
  6
Continuous
 62
     0
100
AcDbPoint
 10
977.576548
 20
420.6936799999998
 30
0.0
  0
POINT
  5
3F4
330
19
100
AcDbEntity
  8
0
  6
Continuous
 62
     0
100
AcDbPoint
 10
802.576548
 20
490.6936799999998
 30
0.0
  0
POINT
  5
3F6
330
19
100
AcDbEntity
  8
0
  6
Continuous
 62
     0
100
AcDbPoint
 10
961.667457
 20
490.6936799999998
 30
0.0
  0
POINT
  5
3F7
330
19
100
AcDbEntity
  8
0
  6
Continuous
 62
     0
100
AcDbPoint
 10
945.758366
 20
490.6936799999998
 30
0.0
  0
POINT
  5
3F8
330
19
100
AcDbEntity
  8
0
  6
Continuous
 62
     0
100
AcDbPoint
 10
929.8492750000001
 20
490.6936799999998
 30
0.0
  0
POINT
  5
3FA
330
19
100
AcDbEntity
  8
0
  6
Continuous
 62
     0
100
AcDbPoint
 10
898.0310929999998
 20
490.6936799999998
 30
0.0
  0
POINT
  5
3FB
330
19
100
AcDbEntity
  8
0
  6
Continuous
 62
     0
100
AcDbPoint
 10
882.122002
 20
490.6936799999998
 30
0.0
  0
POINT
  5
3FC
330
19
100
AcDbEntity
  8
0
  6
Continuous
 62
     0
100
AcDbPoint
 10
866.2129119999999
 20
490.6936799999998
 30
0.0
  0
POINT
  5
3FE
330
19
100
AcDbEntity
  8
0
  6
Continuous
 62
     0
100
AcDbPoint
 10
834.3947299999998
 20
490.6936799999998
 30
0.0
  0
POINT
  5
3FF
330
19
100
AcDbEntity
  8
0
  6
Continuous
 62
     0
100
AcDbPoint
 10
818.485639
 20
490.6936799999998
 30
0.0
  0
POINT
  5
400
330
19
100
AcDbEntity
  8
0
  6
Continuous
 62
     0
100
AcDbPoint
 10
961.667457
 20
350.6936799999998
 30
0.0
  0
POINT
  5
401
330
19
100
AcDbEntity
  8
0
  6
Continuous
 62
     0
100
AcDbPoint
 10
945.758366
 20
350.6936799999998
 30
0.0
  0
POINT
  5
402
330
19
100
AcDbEntity
  8
0
  6
Continuous
 62
     0
100
AcDbPoint
 10
929.8492750000001
 20
350.6936799999998
 30
0.0
  0
POINT
  5
404
330
19
100
AcDbEntity
  8
0
  6
Continuous
 62
     0
100
AcDbPoint
 10
898.0310929999998
 20
350.6936799999998
 30
0.0
  0
POINT
  5
405
330
19
100
AcDbEntity
  8
0
  6
Continuous
 62
     0
100
AcDbPoint
 10
882.122002
 20
350.6936799999998
 30
0.0
  0
POINT
  5
406
330
19
100
AcDbEntity
  8
0
  6
Continuous
 62
     0
100
AcDbPoint
 10
866.2129119999999
 20
350.6936799999998
 30
0.0
  0
POINT
  5
408
330
19
100
AcDbEntity
  8
0
  6
Continuous
 62
     0
100
AcDbPoint
 10
834.3947299999998
 20
350.6936799999998
 30
0.0
  0
POINT
  5
409
330
19
100
AcDbEntity
  8
0
  6
Continuous
 62
     0
100
AcDbPoint
 10
818.485639
 20
350.6936799999998
 30
0.0
  0
POINT
  5
410
330
19
100
AcDbEntity
  8
0
  6
Continuous
 62
     0
100
AcDbPoint
 10
394.576548
 20
391.6936799999998
 30
0.0
  0
POINT
  5
411
330
19
100
AcDbEntity
  8
0
  6
Continuous
 62
     0
100
AcDbPoint
 10
394.576548
 20
390.69368
 30
0.0
  0
POINT
  5
412
330
19
100
AcDbEntity
  8
0
  6
Continuous
 62
     0
100
AcDbPoint
 10
408.576548
 20
390.69368
 30
0.0
  0
POINT
  5
413
330
19
100
AcDbEntity
  8
0
  6
Continuous
 62
     0
100
AcDbPoint
 10
408.576548
 20
391.6936799999998
 30
0.0
  0
POINT
  5
418
330
19
100
AcDbEntity
  8
0
  6
Continuous
 62
     0
100
AcDbPoint
 10
602.576548
 20
314.1936799999998
 30
0.0
  0
POINT
  5
419
330
19
100
AcDbEntity
  8
0
  6
Continuous
 62
     0
100
AcDbPoint
 10
270.862441
 20
559.007926
 30
0.0
  0
POINT
  5
41A
330
19
100
AcDbEntity
  8
0
  6
Continuous
 62
     0
100
AcDbPoint
 10
377.576548
 20
445.69368
 30
0.0
  0
POINT
  5
41B
330
19
100
AcDbEntity
  8
0
  6
Continuous
 62
     0
100
AcDbPoint
 10
377.576548
 20
395.6936799999998
 30
0.0
  0
POINT
  5
41C
330
19
100
AcDbEntity
  8
0
  6
Continuous
 62
     0
100
AcDbPoint
 10
192.897837
 20
388.153633
 30
0.0
  0
POINT
  5
41D
330
19
100
AcDbEntity
  8
0
  6
Continuous
 62
     0
100
AcDbPoint
 10
799.7775579999998
 20
499.532591
 30
0.0
  0
POINT
  5
41E
330
19
100
AcDbEntity
  8
0
  6
Continuous
 62
     0
100
AcDbPoint
 10
787.1929209999998
 20
516.7536730000001
 30
0.0
  0
POINT
  5
420
330
19
100
AcDbEntity
  8
0
  6
Continuous
 62
     0
100
AcDbPoint
 10
898.0056019999999
 20
477.9694469999998
 30
0.0
  0
POINT
  5
421
330
19
100
AcDbEntity
  8
0
  6
Continuous
 62
     0
100
AcDbPoint
 10
986.4701199999997
 20
445.857771
 30
0.0
  0
POINT
  5
423
330
19
100
AcDbEntity
  8
0
  6
Continuous
 62
     0
100
AcDbPoint
 10
1006.081889
 20
289.154418
 30
0.0
  0
POINT
  5
424
330
19
100
AcDbEntity
  8
0
  6
Continuous
 62
     0
100
AcDbPoint
 10
955.312581
 20
309.4066559999999
 30
0.0
  0
POINT
  5
425
330
19
100
AcDbEntity
  8
0
  6
Continuous
 62
     0
100
AcDbPoint
 10
831.5797230000001
 20
276.115308
 30
0.0
  0
POINT
  5
426
330
19
100
AcDbEntity
  8
0
  6
Continuous
 62
     0
100
AcDbPoint
 10
771.100432
 20
291.6512729999999
 30
0.0
  0
POINT
  5
427
330
19
100
AcDbEntity
  8
0
  6
Continuous
 62
     0
100
AcDbPoint
 10
1053.56317
 20
532.4844349999998
 30
0.0
  0
POINT
  5
428
330
19
100
AcDbEntity
  8
0
  6
Continuous
 62
     0
100
AcDbPoint
 10
1147.649898
 20
38.355556
 30
0.0
  0
POINT
  5
429
330
19
100
AcDbEntity
  8
0
  6
Continuous
 62
     0
100
AcDbPoint
 10
1147.649898
 20
38.355556
 30
0.0
  0
POINT
  5
42A
330
19
100
AcDbEntity
  8
0
  6
Continuous
 62
     0
100
AcDbPoint
 10
1046.149898
 20
66.355556
 30
0.0
  0
POINT
  5
42B
330
19
100
AcDbEntity
  8
0
  6
Continuous
 62
     0
100
AcDbPoint
 10
983.149898
 20
86.35555600000001
 30
0.0
  0
POINT
  5
42C
330
19
100
AcDbEntity
  8
0
  6
Continuous
 62
     0
100
AcDbPoint
 10
1014.649898
 20
66.355556
 30
0.0
  0
POINT
  5
42D
330
19
100
AcDbEntity
  8
0
  6
Continuous
 62
     0
100
AcDbPoint
 10
983.149898
 20
66.355556
 30
0.0
  0
POINT
  5
42E
330
19
100
AcDbEntity
  8
0
  6
Continuous
 62
     0
100
AcDbPoint
 10
920.149898
 20
86.35555600000001
 30
0.0
  0
POINT
  5
42F
330
19
100
AcDbEntity
  8
0
  6
Continuous
 62
     0
100
AcDbPoint
 10
920.149898
 20
74.355556
 30
0.0
  0
POINT
  5
430
330
19
100
AcDbEntity
  8
0
  6
Continuous
 62
     0
100
AcDbPoint
 10
920.149898
 20
62.35555600000001
 30
0.0
  0
POINT
  5
431
330
19
100
AcDbEntity
  8
0
  6
Continuous
 62
     0
100
AcDbPoint
 10
920.149898
 20
50.355556
 30
0.0
  0
POINT
  5
432
330
19
100
AcDbEntity
  8
0
  6
Continuous
 62
     0
100
AcDbPoint
 10
920.149898
 20
86.35555600000001
 30
0.0
  0
POINT
  5
433
330
19
100
AcDbEntity
  8
0
  6
Continuous
 62
     0
100
AcDbPoint
 10
872.1498979999999
 20
86.35555600000001
 30
0.0
  0
POINT
  5
434
330
19
100
AcDbEntity
  8
0
  6
Continuous
 62
     0
370
    40
100
AcDbPoint
 10
762.149898
 20
86.35555600000001
 30
0.0
  0
POINT
  5
435
330
19
100
AcDbEntity
  8
0
  6
Continuous
 62
     0
100
AcDbPoint
 10
792.1498979999999
 20
86.35555600000001
 30
0.0
  0
POINT
  5
436
330
19
100
AcDbEntity
  8
0
  6
Continuous
 62
     0
100
AcDbPoint
 10
44.649898
 20
74.355556
 30
0.0
  0
POINT
  5
437
330
19
100
AcDbEntity
  8
0
  6
Continuous
 62
     0
100
AcDbPoint
 10
44.649898
 20
62.35555600000001
 30
0.0
  0
POINT
  5
438
330
19
100
AcDbEntity
  8
0
  6
Continuous
 62
     0
100
AcDbPoint
 10
44.649898
 20
86.35555600000001
 30
0.0
  0
POINT
  5
439
330
19
100
AcDbEntity
  8
0
  6
Continuous
 62
     0
100
AcDbPoint
 10
1147.649898
 20
798.3555249999998
 30
0.0
  0
POINT
  5
43A
330
19
100
AcDbEntity
  8
0
  6
Continuous
 62
     0
100
AcDbPoint
 10
794.576548
 20
490.6936799999998
 30
0.0
  0
POINT
  5
43C
330
19
100
AcDbEntity
  8
0
  6
Continuous
 62
     0
100
AcDbPoint
 10
44.649898
 20
38.355556
 30
0.0
  0
LINE
  5
43D
330
19
100
AcDbEntity
  8
0
  6
Continuous
 62
     0
100
AcDbLine
 10
193.8919379999999
 20
100.242491
 30
0.0
 11
227.55608
 21
100.242491
 31
0.0
  0
LINE
  5
43E
330
19
100
AcDbEntity
  8
0
  6
Continuous
 62
     0
100
AcDbLine
 10
522.9438449999999
 20
100.1338689999998
 30
0.0
 11
550.9369659999999
 21
100.1338689999998
 31
0.0
  0
LINE
  5
43F
330
19
100
AcDbEntity
  8
0
  6
Continuous
 62
     0
370
    40
100
AcDbLine
 10
762.149898
 20
86.35555600000001
 30
0.0
 11
762.149898
 21
38.355556
 31
0.0
  0
LINE
  5
440
330
19
100
AcDbEntity
  8
0
  6
Continuous
 62
     0
370
    40
100
AcDbLine
 10
704.6498979999999
 20
110.3555559999999
 30
0.0
 11
704.6498979999999
 21
38.355556
 31
0.0
  0
LINE
  5
441
330
19
100
AcDbEntity
  8
0
  6
Continuous
 62
     0
100
AcDbLine
 10
594.649898
 20
98.35555600000001
 30
0.0
 11
594.649898
 21
38.355556
 31
0.0
  0
LINE
  5
442
330
19
100
AcDbEntity
  8
0
  6
Continuous
 62
     0
100
AcDbLine
 10
920.149898
 20
86.35555600000001
 30
0.0
 11
920.149898
 21
38.355556
 31
0.0
  0
LINE
  5
443
330
19
100
AcDbEntity
  8
0
  6
Continuous
 62
     0
100
AcDbLine
 10
920.149898
 20
50.355556
 30
0.0
 11
983.149898
 21
50.355556
 31
0.0
  0
LINE
  5
444
330
19
100
AcDbEntity
  8
0
  6
Continuous
 62
     0
100
AcDbLine
 10
993.655219
 20
68.06349899999999
 30
0.0
 11
1003.669067999998
 21
78.077348
 31
0.0
  0
LINE
  5
445
330
19
100
AcDbEntity
  8
0
  6
Continuous
 62
     0
100
AcDbLine
 10
983.149898
 20
66.355556
 30
0.0
 11
983.149898
 21
86.35555600000001
 31
0.0
  0
LINE
  5
446
330
19
100
AcDbEntity
  8
0
  6
Continuous
 62
     0
100
AcDbLine
 10
484.649898
 20
98.35555600000001
 30
0.0
 11
484.649898
 21
38.355556
 31
0.0
  0
LINE
  5
447
330
19
100
AcDbEntity
  8
0
  6
Continuous
 62
     0
100
AcDbLine
 10
374.649898
 20
110.3555559999999
 30
0.0
 11
374.649898
 21
38.355556
 31
0.0
  0
LINE
  5
448
330
19
100
AcDbEntity
  8
0
  6
Continuous
 62
     0
100
AcDbLine
 10
264.649898
 20
98.35555600000001
 30
0.0
 11
264.649898
 21
38.355556
 31
0.0
  0
LINE
  5
449
330
19
100
AcDbEntity
  8
0
  6
Continuous
 62
     0
100
AcDbLine
 10
1046.149898
 20
38.355556
 30
0.0
 11
1046.149898
 21
86.35555600000001
 31
0.0
  0
LINE
  5
44A
330
19
100
AcDbEntity
  8
0
  6
Continuous
 62
     0
100
AcDbLine
 10
1025.155218999999
 20
68.06349899999999
 30
0.0
 11
1035.169067999998
 21
78.077348
 31
0.0
  0
LINE
  5
44B
330
19
100
AcDbEntity
  8
0
  6
Continuous
 62
     0
100
AcDbLine
 10
900.2419749999997
 20
38.355556
 30
0.0
 11
900.2419749999997
 21
80.355556
 31
0.0
  0
LINE
  5
44C
330
19
100
AcDbEntity
  8
0
  6
Continuous
 62
     0
100
AcDbLine
 10
872.1498979999999
 20
80.355556
 30
0.0
 11
920.149898
 21
80.355556
 31
0.0
  0
LINE
  5
44D
330
19
100
AcDbEntity
  8
0
  6
Continuous
 62
     0
100
AcDbLine
 10
872.1498979999999
 20
74.355556
 30
0.0
 11
920.149898
 21
74.355556
 31
0.0
  0
LINE
  5
44E
330
19
100
AcDbEntity
  8
0
  6
Continuous
 62
     0
100
AcDbLine
 10
872.1498979999999
 20
68.35555600000001
 30
0.0
 11
920.149898
 21
68.35555600000001
 31
0.0
  0
LINE
  5
44F
330
19
100
AcDbEntity
  8
0
  6
Continuous
 62
     0
100
AcDbLine
 10
872.1498979999999
 20
62.35555600000001
 30
0.0
 11
920.149898
 21
62.35555600000001
 31
0.0
  0
LINE
  5
450
330
19
100
AcDbEntity
  8
0
  6
Continuous
 62
     0
100
AcDbLine
 10
872.1498979999999
 20
56.355556
 30
0.0
 11
920.149898
 21
56.355556
 31
0.0
  0
LINE
  5
451
330
19
100
AcDbEntity
  8
0
  6
Continuous
 62
     0
100
AcDbLine
 10
872.1498979999999
 20
50.355556
 30
0.0
 11
920.149898
 21
50.355556
 31
0.0
  0
LINE
  5
452
330
19
100
AcDbEntity
  8
0
  6
Continuous
 62
     0
100
AcDbLine
 10
872.1498979999999
 20
44.35555599999999
 30
0.0
 11
920.149898
 21
44.35555599999999
 31
0.0
  0
LINE
  5
453
330
19
100
AcDbEntity
  8
0
  6
Continuous
 62
     0
100
AcDbLine
 10
872.1498979999999
 20
50.355556
 30
0.0
 11
762.149898
 21
50.355556
 31
0.0
  0
LINE
  5
454
330
19
100
AcDbEntity
  8
0
  6
Continuous
 62
     0
100
AcDbLine
 10
872.1498979999999
 20
62.35555600000001
 30
0.0
 11
762.149898
 21
62.35555600000001
 31
0.0
  0
LINE
  5
455
330
19
100
AcDbEntity
  8
0
  6
Continuous
 62
     0
100
AcDbLine
 10
872.1498979999999
 20
74.355556
 30
0.0
 11
762.149898
 21
74.355556
 31
0.0
  0
LINE
  5
456
330
19
100
AcDbEntity
  8
0
  6
Continuous
 62
     0
100
AcDbLine
 10
792.1498979999999
 20
86.35555600000001
 30
0.0
 11
792.1498979999999
 21
38.355556
 31
0.0
  0
LINE
  5
457
330
19
100
AcDbEntity
  8
0
  6
Continuous
 62
     0
100
AcDbLine
 10
983.149898
 20
66.355556
 30
0.0
 11
1147.649898
 21
66.355556
 31
0.0
  0
LINE
  5
458
330
19
100
AcDbEntity
  8
0
  6
Continuous
 62
     0
100
AcDbLine
 10
1014.649898
 20
66.355556
 30
0.0
 11
1014.649898
 21
86.35555600000001
 31
0.0
  0
LINE
  5
459
330
19
100
AcDbEntity
  8
0
  6
Continuous
 62
     0
100
AcDbLine
 10
872.1498979999999
 20
86.35555600000001
 30
0.0
 11
872.1498979999999
 21
38.355556
 31
0.0
  0
LINE
  5
45A
330
19
100
AcDbEntity
  8
0
  6
Continuous
 62
     0
100
AcDbLine
 10
920.149898
 20
86.35555600000001
 30
0.0
 11
920.149898
 21
38.355556
 31
0.0
  0
LINE
  5
45C
330
19
100
AcDbEntity
  8
0
  6
Continuous
 62
     0
370
    40
100
AcDbLine
 10
762.149898
 20
86.35555600000001
 30
0.0
 11
1147.649898
 21
86.35555600000001
 31
0.0
  0
CIRCLE
  5
45E
330
19
100
AcDbEntity
  8
0
  6
Continuous
 62
     0
100
AcDbCircle
 10
424.076548
 20
556.1936799999998
 30
0.0
 40
5.5
  0
LINE
  5
45F
330
19
100
AcDbEntity
  8
0
  6
Continuous
 62
     0
100
AcDbLine
 10
145.5765479999999
 20
314.1936799999998
 30
0.0
 11
147.5765479999999
 21
314.1936799999998
 31
0.0
  0
ARC
  5
460
330
19
100
AcDbEntity
  8
0
  6
Continuous
 62
     0
100
AcDbCircle
 10
149.576548
 20
314.1936799999998
 30
0.0
 40
4.0
100
AcDbArc
 50
90.0
 51
270.0
  0
LINE
  5
461
330
19
100
AcDbEntity
  8
0
  6
Continuous
 62
     0
100
AcDbLine
 10
149.576548
 20
306.1936799999998
 30
0.0
 11
152.576548
 21
306.1936799999998
 31
0.0
  0
LINE
  5
462
330
19
100
AcDbEntity
  8
0
  6
Continuous
 62
     0
100
AcDbLine
 10
149.576548
 20
322.1936799999998
 30
0.0
 11
149.576548
 21
306.1936799999998
 31
0.0
  0
LINE
  5
463
330
19
100
AcDbEntity
  8
0
  6
Continuous
 62
     0
100
AcDbLine
 10
152.576548
 20
322.1936799999998
 30
0.0
 11
149.576548
 21
322.1936799999998
 31
0.0
  0
LINE
  5
464
330
19
100
AcDbEntity
  8
0
  6
Continuous
 62
     0
100
AcDbLine
 10
609.5765479999998
 20
314.1936799999998
 30
0.0
 11
607.576548
 21
314.1936799999998
 31
0.0
  0
ARC
  5
465
330
19
100
AcDbEntity
  8
0
  6
Continuous
 62
     0
100
AcDbCircle
 10
605.5765479999998
 20
314.1936799999998
 30
0.0
 40
4.0
100
AcDbArc
 50
270.0
 51
90.0
  0
LINE
  5
466
330
19
100
AcDbEntity
  8
0
  6
Continuous
 62
     0
100
AcDbLine
 10
605.5765479999998
 20
306.1936799999998
 30
0.0
 11
602.576548
 21
306.1936799999998
 31
0.0
  0
LINE
  5
467
330
19
100
AcDbEntity
  8
0
  6
Continuous
 62
     0
100
AcDbLine
 10
605.5765479999998
 20
322.1936799999998
 30
0.0
 11
605.5765479999998
 21
306.1936799999998
 31
0.0
  0
LINE
  5
468
330
19
100
AcDbEntity
  8
0
  6
Continuous
 62
     0
100
AcDbLine
 10
602.576548
 20
322.1936799999998
 30
0.0
 11
605.5765479999998
 21
322.1936799999998
 31
0.0
  0
LINE
  5
469
330
19
100
AcDbEntity
  8
0
  6
Continuous
 62
     0
100
AcDbLine
 10
810.576548
 20
314.1936799999998
 30
0.0
 11
814.5765479999999
 21
314.1936799999998
 31
0.0
  0
LINE
  5
46A
330
19
100
AcDbEntity
  8
0
  6
Continuous
 62
     0
100
AcDbLine
 10
812.576548
 20
312.1936799999998
 30
0.0
 11
812.576548
 21
316.1936799999998
 31
0.0
  0
LINE
  5
46B
330
19
100
AcDbEntity
  8
0
  6
Continuous
 62
     0
100
AcDbLine
 10
842.576548
 20
316.1936799999998
 30
0.0
 11
842.576548
 21
312.1936799999998
 31
0.0
  0
LINE
  5
46C
330
19
100
AcDbEntity
  8
0
  6
Continuous
 62
     0
100
AcDbLine
 10
840.5765479999999
 20
314.1936799999998
 30
0.0
 11
844.576548
 21
314.1936799999998
 31
0.0
  0
CIRCLE
  5
46D
330
19
100
AcDbEntity
  8
0
  6
Continuous
 62
     0
100
AcDbCircle
 10
812.576548
 20
314.1936799999998
 30
0.0
 40
4.0
  0
CIRCLE
  5
46E
330
19
100
AcDbEntity
  8
0
  6
Continuous
 62
     0
100
AcDbCircle
 10
842.576548
 20
314.1936799999998
 30
0.0
 40
4.0
  0
LINE
  5
46F
330
19
100
AcDbEntity
  8
0
  6
Continuous
 62
     0
100
AcDbLine
 10
842.576548
 20
306.1936799999998
 30
0.0
 11
772.576548
 21
306.1936799999998
 31
0.0
  0
LINE
  5
470
330
19
100
AcDbEntity
  8
0
  6
Continuous
 62
     0
100
AcDbLine
 10
772.576548
 20
322.1936799999998
 30
0.0
 11
842.576548
 21
322.1936799999998
 31
0.0
  0
ARC
  5
471
330
19
100
AcDbEntity
  8
0
  6
Continuous
 62
     0
100
AcDbCircle
 10
772.576548
 20
314.1936799999998
 30
0.0
 40
8.0
100
AcDbArc
 50
90.0
 51
270.0
  0
ARC
  5
472
330
19
100
AcDbEntity
  8
0
  6
Continuous
 62
     0
100
AcDbCircle
 10
842.576548
 20
314.1936799999998
 30
0.0
 40
8.0
100
AcDbArc
 50
270.0
 51
90.0
  0
CIRCLE
  5
473
330
19
100
AcDbEntity
  8
0
  6
Continuous
 62
     0
100
AcDbCircle
 10
772.576548
 20
314.1936799999998
 30
0.0
 40
4.0
  0
CIRCLE
  5
474
330
19
100
AcDbEntity
  8
0
  6
HIDDEN
 62
     0
 48
10.0
100
AcDbCircle
 10
411.576548
 20
431.6936799999998
 30
0.0
 40
1.199999999999999
  0
CIRCLE
  5
475
330
19
100
AcDbEntity
  8
0
  6
HIDDEN
 62
     0
 48
10.0
100
AcDbCircle
 10
391.576548
 20
431.6936799999998
 30
0.0
 40
1.199999999999999
  0
CIRCLE
  5
476
330
19
100
AcDbEntity
  8
0
  6
HIDDEN
 62
     0
 48
10.0
100
AcDbCircle
 10
411.576548
 20
409.6936799999999
 30
0.0
 40
1.199999999999999
  0
CIRCLE
  5
477
330
19
100
AcDbEntity
  8
0
  6
HIDDEN
 62
     0
 48
10.0
100
AcDbCircle
 10
391.576548
 20
409.6936799999999
 30
0.0
 40
1.199999999999999
  0
LINE
  5
478
330
19
100
AcDbEntity
  8
0
  6
HIDDEN
 62
     0
 48
10.0
100
AcDbLine
 10
391.576548
 20
422.6936799999998
 30
0.0
 11
391.576548
 21
418.6936799999998
 31
0.0
  0
LINE
  5
479
330
19
100
AcDbEntity
  8
0
  6
HIDDEN
 62
     0
 48
10.0
100
AcDbLine
 10
393.576548
 20
420.6936799999998
 30
0.0
 11
389.576548
 21
420.6936799999998
 31
0.0
  0
LINE
  5
47A
330
19
100
AcDbEntity
  8
0
  6
HIDDEN
 62
     0
 48
10.0
100
AcDbLine
 10
411.576548
 20
422.6936799999998
 30
0.0
 11
411.576548
 21
418.6936799999998
 31
0.0
  0
LINE
  5
47B
330
19
100
AcDbEntity
  8
0
  6
HIDDEN
 62
     0
 48
10.0
100
AcDbLine
 10
413.5765479999998
 20
420.6936799999998
 30
0.0
 11
409.5765479999998
 21
420.6936799999998
 31
0.0
  0
CIRCLE
  5
47C
330
19
100
AcDbEntity
  8
0
  6
HIDDEN
 62
     0
 48
10.0
100
AcDbCircle
 10
411.576548
 20
440.6936799999998
 30
0.0
 40
1.0
  0
CIRCLE
  5
47D
330
19
100
AcDbEntity
  8
0
  6
HIDDEN
 62
     0
 48
10.0
100
AcDbCircle
 10
391.576548
 20
440.6936799999998
 30
0.0
 40
1.0
  0
LINE
  5
47E
330
19
100
AcDbEntity
  8
0
  6
HIDDEN
 62
     0
 48
10.0
100
AcDbLine
 10
413.5765479999998
 20
435.6936799999998
 30
0.0
 11
413.5765479999998
 21
440.6936799999998
 31
0.0
  0
LINE
  5
47F
330
19
100
AcDbEntity
  8
0
  6
HIDDEN
 62
     0
 48
10.0
100
AcDbLine
 10
409.5765479999998
 20
440.6936799999998
 30
0.0
 11
409.5765479999998
 21
435.6936799999998
 31
0.0
  0
LINE
  5
480
330
19
100
AcDbEntity
  8
0
  6
HIDDEN
 62
     0
 48
10.0
100
AcDbLine
 10
393.576548
 20
435.6936799999998
 30
0.0
 11
393.576548
 21
440.6936799999998
 31
0.0
  0
LINE
  5
481
330
19
100
AcDbEntity
  8
0
  6
HIDDEN
 62
     0
 48
10.0
100
AcDbLine
 10
389.576548
 20
440.6936799999998
 30
0.0
 11
389.576548
 21
435.6936799999998
 31
0.0
  0
ARC
  5
482
330
19
100
AcDbEntity
  8
0
  6
HIDDEN
 62
     0
 48
10.0
100
AcDbCircle
 10
411.576548
 20
440.6936799999998
 30
0.0
 40
2.0
100
AcDbArc
 50
0.0
 51
180.0
  0
ARC
  5
483
330
19
100
AcDbEntity
  8
0
  6
HIDDEN
 62
     0
 48
10.0
100
AcDbCircle
 10
391.576548
 20
440.6936799999998
 30
0.0
 40
2.0
100
AcDbArc
 50
0.0
 51
180.0
  0
LINE
  5
484
330
19
100
AcDbEntity
  8
0
  6
HIDDEN
 62
     0
 48
10.0
100
AcDbLine
 10
408.576548
 20
391.6936799999998
 30
0.0
 11
407.076548
 21
393.1936799999998
 31
0.0
  0
LINE
  5
485
330
19
100
AcDbEntity
  8
0
  6
HIDDEN
 62
     0
 48
10.0
100
AcDbLine
 10
407.076548
 20
389.1936799999998
 30
0.0
 11
408.576548
 21
390.69368
 31
0.0
  0
LINE
  5
486
330
19
100
AcDbEntity
  8
0
  6
HIDDEN
 62
     0
 48
10.0
100
AcDbLine
 10
394.576548
 20
390.69368
 30
0.0
 11
396.076548
 21
389.1936799999998
 31
0.0
  0
LINE
  5
487
330
19
100
AcDbEntity
  8
0
  6
HIDDEN
 62
     0
 48
10.0
100
AcDbLine
 10
396.076548
 20
393.1936799999998
 30
0.0
 11
394.576548
 21
391.6936799999998
 31
0.0
  0
LINE
  5
488
330
19
100
AcDbEntity
  8
0
  6
HIDDEN
 62
     0
 48
10.0
100
AcDbLine
 10
408.576548
 20
390.69368
 30
0.0
 11
408.576548
 21
391.6936799999998
 31
0.0
  0
LINE
  5
489
330
19
100
AcDbEntity
  8
0
  6
HIDDEN
 62
     0
 48
10.0
100
AcDbLine
 10
407.076548
 20
389.1936799999998
 30
0.0
 11
396.076548
 21
389.1936799999998
 31
0.0
  0
LINE
  5
48A
330
19
100
AcDbEntity
  8
0
  6
HIDDEN
 62
     0
 48
10.0
100
AcDbLine
 10
394.576548
 20
390.69368
 30
0.0
 11
394.576548
 21
391.6936799999998
 31
0.0
  0
LINE
  5
48B
330
19
100
AcDbEntity
  8
0
  6
HIDDEN
 62
     0
 48
10.0
100
AcDbLine
 10
407.076548
 20
393.1936799999998
 30
0.0
 11
396.076548
 21
393.1936799999998
 31
0.0
  0
LINE
  5
48C
330
19
100
AcDbEntity
  8
0
  6
HIDDEN
 62
     0
 48
10.0
100
AcDbLine
 10
411.076548
 20
392.69368
 30
0.0
 11
411.076548
 21
400.69368
 31
0.0
  0
ARC
  5
48D
330
19
100
AcDbEntity
  8
0
  6
HIDDEN
 62
     0
 48
10.0
100
AcDbCircle
 10
410.0765479999997
 20
392.69368
 30
0.0
 40
1.0
100
AcDbArc
 50
270.0
 51
0.0
  0
LINE
  5
48E
330
19
100
AcDbEntity
  8
0
  6
HIDDEN
 62
     0
 48
10.0
100
AcDbLine
 10
392.076548
 20
392.69368
 30
0.0
 11
392.076548
 21
400.69368
 31
0.0
  0
ARC
  5
48F
330
19
100
AcDbEntity
  8
0
  6
HIDDEN
 62
     0
 48
10.0
100
AcDbCircle
 10
393.076548
 20
392.69368
 30
0.0
 40
1.0
100
AcDbArc
 50
180.0
 51
270.0
  0
LINE
  5
490
330
19
100
AcDbEntity
  8
0
  6
HIDDEN
 62
     0
 48
10.0
100
AcDbLine
 10
394.576548
 20
391.6936799999998
 30
0.0
 11
393.076548
 21
391.6936799999998
 31
0.0
  0
LINE
  5
491
330
19
100
AcDbEntity
  8
0
  6
HIDDEN
 62
     0
 48
10.0
100
AcDbLine
 10
408.576548
 20
391.6936799999998
 30
0.0
 11
410.0765479999997
 21
391.6936799999998
 31
0.0
  0
LINE
  5
492
330
19
100
AcDbEntity
  8
0
  6
HIDDEN
 62
     0
 48
10.0
100
AcDbLine
 10
412.076548
 20
392.1936799999998
 30
0.0
 11
412.076548
 21
400.69368
 31
0.0
  0
ARC
  5
493
330
19
100
AcDbEntity
  8
0
  6
HIDDEN
 62
     0
 48
10.0
100
AcDbCircle
 10
410.576548
 20
392.1936799999998
 30
0.0
 40
1.5
100
AcDbArc
 50
270.0
 51
0.0
  0
LINE
  5
494
330
19
100
AcDbEntity
  8
0
  6
HIDDEN
 62
     0
 48
10.0
100
AcDbLine
 10
394.576548
 20
390.69368
 30
0.0
 11
392.5765479999998
 21
390.69368
 31
0.0
  0
LINE
  5
495
330
19
100
AcDbEntity
  8
0
  6
HIDDEN
 62
     0
 48
10.0
100
AcDbLine
 10
408.576548
 20
390.69368
 30
0.0
 11
410.576548
 21
390.69368
 31
0.0
  0
LINE
  5
496
330
19
100
AcDbEntity
  8
0
  6
HIDDEN
 62
     0
 48
10.0
100
AcDbLine
 10
391.076548
 20
392.1936799999998
 30
0.0
 11
391.076548
 21
400.69368
 31
0.0
  0
ARC
  5
497
330
19
100
AcDbEntity
  8
0
  6
HIDDEN
 62
     0
 48
10.0
100
AcDbCircle
 10
392.5765479999998
 20
392.1936799999998
 30
0.0
 40
1.5
100
AcDbArc
 50
180.0
 51
270.0
  0
LINE
  5
498
330
19
100
AcDbEntity
  8
0
  6
HIDDEN
 62
     0
 48
10.0
100
AcDbLine
 10
413.5765479999998
 20
400.69368
 30
0.0
 11
413.5765479999998
 21
405.6936799999999
 31
0.0
  0
LINE
  5
499
330
19
100
AcDbEntity
  8
0
  6
HIDDEN
 62
     0
 48
10.0
100
AcDbLine
 10
409.5765479999998
 20
400.69368
 30
0.0
 11
413.5765479999998
 21
400.69368
 31
0.0
  0
LINE
  5
49A
330
19
100
AcDbEntity
  8
0
  6
HIDDEN
 62
     0
 48
10.0
100
AcDbLine
 10
409.5765479999998
 20
405.6936799999999
 30
0.0
 11
409.5765479999998
 21
400.69368
 31
0.0
  0
LINE
  5
49B
330
19
100
AcDbEntity
  8
0
  6
HIDDEN
 62
     0
 48
10.0
100
AcDbLine
 10
393.576548
 20
400.69368
 30
0.0
 11
393.576548
 21
405.6936799999999
 31
0.0
  0
LINE
  5
49C
330
19
100
AcDbEntity
  8
0
  6
HIDDEN
 62
     0
 48
10.0
100
AcDbLine
 10
389.576548
 20
400.69368
 30
0.0
 11
393.576548
 21
400.69368
 31
0.0
  0
LINE
  5
49D
330
19
100
AcDbEntity
  8
0
  6
HIDDEN
 62
     0
 48
10.0
100
AcDbLine
 10
389.576548
 20
405.6936799999999
 30
0.0
 11
389.576548
 21
400.69368
 31
0.0
  0
ARC
  5
49E
330
19
100
AcDbEntity
  8
0
  6
HIDDEN
 62
     0
 48
10.0
100
AcDbCircle
 10
411.576548
 20
409.9436799999998
 30
0.0
 40
4.25
100
AcDbArc
 50
180.0
 51
0.0
  0
ARC
  5
49F
330
19
100
AcDbEntity
  8
0
  6
HIDDEN
 62
     0
 48
10.0
100
AcDbCircle
 10
391.576548
 20
409.9436799999998
 30
0.0
 40
4.25
100
AcDbArc
 50
180.0
 51
0.0
  0
LINE
  5
4A0
330
19
100
AcDbEntity
  8
0
  6
HIDDEN
 62
     0
 48
10.0
100
AcDbLine
 10
414.326548
 20
435.6936799999998
 30
0.0
 11
408.826548
 21
435.6936799999998
 31
0.0
  0
ARC
  5
4A1
330
19
100
AcDbEntity
  8
0
  6
HIDDEN
 62
     0
 48
10.0
100
AcDbCircle
 10
414.326548
 20
434.19368
 30
0.0
 40
1.5
100
AcDbArc
 50
0.0
 51
90.0
  0
ARC
  5
4A2
330
19
100
AcDbEntity
  8
0
  6
HIDDEN
 62
     0
 48
10.0
100
AcDbCircle
 10
408.826548
 20
434.19368
 30
0.0
 40
1.5
100
AcDbArc
 50
90.0
 51
180.0
  0
LINE
  5
4A3
330
19
100
AcDbEntity
  8
0
  6
HIDDEN
 62
     0
 48
10.0
100
AcDbLine
 10
415.8265479999998
 20
434.19368
 30
0.0
 11
415.8265479999998
 21
426.1936799999999
 31
0.0
  0
LINE
  5
4A4
330
19
100
AcDbEntity
  8
0
  6
HIDDEN
 62
     0
 48
10.0
100
AcDbLine
 10
415.8265479999998
 20
409.9436799999998
 30
0.0
 11
415.8265479999998
 21
415.1936799999998
 31
0.0
  0
LINE
  5
4A5
330
19
100
AcDbEntity
  8
0
  6
HIDDEN
 62
     0
 48
10.0
100
AcDbLine
 10
407.3265479999998
 20
409.9436799999998
 30
0.0
 11
407.3265479999998
 21
415.1936799999998
 31
0.0
  0
LINE
  5
4A6
330
19
100
AcDbEntity
  8
0
  6
HIDDEN
 62
     0
 48
10.0
100
AcDbLine
 10
407.3265479999998
 20
434.19368
 30
0.0
 11
407.3265479999998
 21
426.1936799999999
 31
0.0
  0
LINE
  5
4A7
330
19
100
AcDbEntity
  8
0
  6
HIDDEN
 62
     0
 48
10.0
100
AcDbLine
 10
395.826548
 20
434.19368
 30
0.0
 11
395.826548
 21
426.1936799999999
 31
0.0
  0
LINE
  5
4A8
330
19
100
AcDbEntity
  8
0
  6
HIDDEN
 62
     0
 48
10.0
100
AcDbLine
 10
395.826548
 20
409.9436799999998
 30
0.0
 11
395.826548
 21
415.1936799999998
 31
0.0
  0
LINE
  5
4A9
330
19
100
AcDbEntity
  8
0
  6
HIDDEN
 62
     0
 48
10.0
100
AcDbLine
 10
387.326548
 20
409.9436799999998
 30
0.0
 11
387.326548
 21
415.1936799999998
 31
0.0
  0
LINE
  5
4AA
330
19
100
AcDbEntity
  8
0
  6
HIDDEN
 62
     0
 48
10.0
100
AcDbLine
 10
387.326548
 20
434.19368
 30
0.0
 11
387.326548
 21
426.1936799999999
 31
0.0
  0
LINE
  5
4AB
330
19
100
AcDbEntity
  8
0
  6
HIDDEN
 62
     0
 48
10.0
100
AcDbLine
 10
394.3265479999998
 20
435.6936799999998
 30
0.0
 11
388.826548
 21
435.6936799999998
 31
0.0
  0
ARC
  5
4AC
330
19
100
AcDbEntity
  8
0
  6
HIDDEN
 62
     0
 48
10.0
100
AcDbCircle
 10
394.3265479999998
 20
434.19368
 30
0.0
 40
1.5
100
AcDbArc
 50
0.0
 51
90.0
  0
ARC
  5
4AD
330
19
100
AcDbEntity
  8
0
  6
HIDDEN
 62
     0
 48
10.0
100
AcDbCircle
 10
388.826548
 20
434.19368
 30
0.0
 40
1.5
100
AcDbArc
 50
90.0
 51
180.0
  0
CIRCLE
  5
4AE
330
19
100
AcDbEntity
  8
0
  6
HIDDEN
 62
     0
 48
10.0
100
AcDbCircle
 10
411.576548
 20
420.6936799999998
 30
0.0
 40
3.7
  0
CIRCLE
  5
4AF
330
19
100
AcDbEntity
  8
0
  6
HIDDEN
 62
     0
 48
10.0
100
AcDbCircle
 10
391.576548
 20
420.6936799999998
 30
0.0
 40
3.7
  0
LINE
  5
4B0
330
19
100
AcDbEntity
  8
0
  6
HIDDEN
 62
     0
 48
10.0
100
AcDbLine
 10
406.576548
 20
426.1936799999999
 30
0.0
 11
406.576548
 21
415.1936799999998
 31
0.0
  0
LINE
  5
4B1
330
19
100
AcDbEntity
  8
0
  6
HIDDEN
 62
     0
 48
10.0
100
AcDbLine
 10
396.5765479999998
 20
426.1936799999999
 30
0.0
 11
396.5765479999998
 21
415.1936799999998
 31
0.0
  0
CIRCLE
  5
4B2
330
19
100
AcDbEntity
  8
0
  6
HIDDEN
 62
     0
 48
10.0
100
AcDbCircle
 10
401.5765479999997
 20
420.6936799999998
 30
0.0
 40
2.35
  0
LINE
  5
4B3
330
19
100
AcDbEntity
  8
0
  6
HIDDEN
 62
     0
 48
10.0
100
AcDbLine
 10
418.5765479999998
 20
426.1936799999999
 30
0.0
 11
418.5765479999998
 21
415.1936799999998
 31
0.0
  0
LINE
  5
4B4
330
19
100
AcDbEntity
  8
0
  6
HIDDEN
 62
     0
 48
10.0
100
AcDbLine
 10
384.576548
 20
415.1936799999998
 30
0.0
 11
418.5765479999998
 21
415.1936799999998
 31
0.0
  0
LINE
  5
4B5
330
19
100
AcDbEntity
  8
0
  6
HIDDEN
 62
     0
 48
10.0
100
AcDbLine
 10
384.576548
 20
426.1936799999999
 30
0.0
 11
384.576548
 21
415.1936799999998
 31
0.0
  0
LINE
  5
4B6
330
19
100
AcDbEntity
  8
0
  6
HIDDEN
 62
     0
 48
10.0
100
AcDbLine
 10
418.5765479999998
 20
426.1936799999999
 30
0.0
 11
384.576548
 21
426.1936799999999
 31
0.0
  0
LINE
  5
4B7
330
19
100
AcDbEntity
  8
0
  6
HIDDEN
 62
     0
 48
10.0
100
AcDbLine
 10
356.1185889999998
 20
413.1900289999999
 30
0.0
 11
346.676548
 21
416.69368
 31
0.0
  0
LINE
  5
4B8
330
19
100
AcDbEntity
  8
0
  6
HIDDEN
 62
     0
 48
10.0
100
AcDbLine
 10
369.034506
 20
413.1900289999999
 30
0.0
 11
378.4765479999998
 21
416.69368
 31
0.0
  0
LINE
  5
4B9
330
19
100
AcDbEntity
  8
0
  6
HIDDEN
 62
     0
 48
10.0
100
AcDbLine
 10
369.034506
 20
428.1973309999998
 30
0.0
 11
378.4765479999998
 21
424.6936799999998
 31
0.0
  0
LINE
  5
4BA
330
19
100
AcDbEntity
  8
0
  6
HIDDEN
 62
     0
 48
10.0
100
AcDbLine
 10
356.1185889999998
 20
428.1973309999998
 30
0.0
 11
346.676548
 21
424.6936799999998
 31
0.0
  0
ARC
  5
4BB
330
19
100
AcDbEntity
  8
0
  6
HIDDEN
 62
     0
 48
10.0
100
AcDbCircle
 10
378.4765479999998
 20
420.6936799999998
 30
0.0
 40
4.0
100
AcDbArc
 50
270.0
 51
90.0
  0
ARC
  5
4BC
330
19
100
AcDbEntity
  8
0
  6
HIDDEN
 62
     0
 48
10.0
100
AcDbCircle
 10
346.676548
 20
420.6936799999998
 30
0.0
 40
4.0
100
AcDbArc
 50
90.0
 51
180.0
  0
ARC
  5
4BD
330
19
100
AcDbEntity
  8
0
  6
HIDDEN
 62
     0
 48
10.0
100
AcDbCircle
 10
346.676548
 20
420.6936799999998
 30
0.0
 40
4.0
100
AcDbArc
 50
179.99996
 51
270.0
  0
ARC
  5
4BE
330
19
100
AcDbEntity
  8
0
  6
HIDDEN
 62
     0
 48
10.0
100
AcDbCircle
 10
362.576548
 20
420.6936799999998
 30
0.0
 40
9.9
100
AcDbArc
 50
49.283324
 51
130.716676
  0
ARC
  5
4BF
330
19
100
AcDbEntity
  8
0
  6
HIDDEN
 62
     0
 48
10.0
100
AcDbCircle
 10
362.576548
 20
420.6936799999998
 30
0.0
 40
9.9
100
AcDbArc
 50
229.2833239999999
 51
310.7166759999998
  0
CIRCLE
  5
4C0
330
19
100
AcDbEntity
  8
0
  6
HIDDEN
 62
     0
 48
10.0
100
AcDbCircle
 10
362.576548
 20
420.6936799999998
 30
0.0
 40
8.5
  0
LINE
  5
4C1
330
19
100
AcDbEntity
  8
0
  6
HIDDEN
 62
     0
 48
10.0
100
AcDbLine
 10
420.5765480000001
 20
395.6936799999998
 30
0.0
 11
420.5765480000001
 21
445.69368
 31
0.0
  0
LINE
  5
4C2
330
19
100
AcDbEntity
  8
0
  6
HIDDEN
 62
     0
 48
10.0
100
AcDbLine
 10
334.576548
 20
445.69368
 30
0.0
 11
334.576548
 21
395.6936799999998
 31
0.0
  0
LINE
  5
4C3
330
19
100
AcDbEntity
  8
0
  6
HIDDEN
 62
     0
 48
10.0
100
AcDbLine
 10
430.076548
 20
395.6936799999998
 30
0.0
 11
430.076548
 21
445.69368
 31
0.0
  0
LINE
  5
4C4
330
19
100
AcDbEntity
  8
0
  6
HIDDEN
 62
     0
 48
10.0
100
AcDbLine
 10
325.076548
 20
395.6936799999998
 30
0.0
 11
430.076548
 21
395.6936799999998
 31
0.0
  0
LINE
  5
4C5
330
19
100
AcDbEntity
  8
0
  6
HIDDEN
 62
     0
 48
10.0
100
AcDbLine
 10
325.076548
 20
445.69368
 30
0.0
 11
325.076548
 21
395.6936799999998
 31
0.0
  0
LINE
  5
4C6
330
19
100
AcDbEntity
  8
0
  6
HIDDEN
 62
     0
 48
10.0
100
AcDbLine
 10
430.076548
 20
445.69368
 30
0.0
 11
325.076548
 21
445.69368
 31
0.0
  0
CIRCLE
  5
4C7
330
19
100
AcDbEntity
  8
0
  6
HIDDEN
 62
     0
 48
10.0
100
AcDbCircle
 10
993.576548
 20
404.69368
 30
0.0
 40
2.0
  0
ARC
  5
4C8
330
19
100
AcDbEntity
  8
0
  6
HIDDEN
 62
     0
 48
10.0
100
AcDbCircle
 10
998.5765479999999
 20
410.9936799999998
 30
0.0
 40
8.005622999999998
100
AcDbArc
 50
182.147585
 51
217.247411
  0
ARC
  5
4C9
330
19
100
AcDbEntity
  8
0
  6
HIDDEN
 62
     0
 48
10.0
100
AcDbCircle
 10
1000.576548
 20
410.9936799999998
 30
0.0
 40
8.005622999999998
100
AcDbArc
 50
182.147585
 51
212.629737
  0
LINE
  5
4CA
330
19
100
AcDbEntity
  8
0
  6
HIDDEN
 62
     0
 48
10.0
100
AcDbLine
 10
990.5765479999999
 20
410.6936799999998
 30
0.0
 11
990.5765479999999
 21
415.6936799999998
 31
0.0
  0
LINE
  5
4CB
330
19
100
AcDbEntity
  8
0
  6
HIDDEN
 62
     0
 48
10.0
100
AcDbLine
 10
992.576548
 20
410.6936799999998
 30
0.0
 11
990.5765479999999
 21
410.6936799999998
 31
0.0
  0
LINE
  5
4CC
330
19
100
AcDbEntity
  8
0
  6
HIDDEN
 62
     0
 48
10.0
100
AcDbLine
 10
992.576548
 20
430.6936799999999
 30
0.0
 11
992.576548
 21
410.6936799999998
 31
0.0
  0
LINE
  5
4CD
330
19
100
AcDbEntity
  8
0
  6
HIDDEN
 62
     0
 48
10.0
100
AcDbLine
 10
990.5765479999999
 20
430.6936799999999
 30
0.0
 11
992.576548
 21
430.6936799999999
 31
0.0
  0
LINE
  5
4CE
330
19
100
AcDbEntity
  8
0
  6
HIDDEN
 62
     0
 48
10.0
100
AcDbLine
 10
990.5765479999999
 20
425.69368
 30
0.0
 11
990.5765479999999
 21
430.6936799999999
 31
0.0
  0
LINE
  5
4CF
330
19
100
AcDbEntity
  8
0
  6
HIDDEN
 62
     0
 48
10.0
100
AcDbLine
 10
990.5765479999999
 20
415.6936799999998
 30
0.0
 11
980.5765479999999
 21
415.6936799999998
 31
0.0
  0
LINE
  5
4D0
330
19
100
AcDbEntity
  8
0
  6
HIDDEN
 62
     0
 48
10.0
100
AcDbLine
 10
990.5765479999999
 20
425.69368
 30
0.0
 11
990.5765479999999
 21
415.6936799999998
 31
0.0
  0
LINE
  5
4D1
330
19
100
AcDbEntity
  8
0
  6
HIDDEN
 62
     0
 48
10.0
100
AcDbLine
 10
980.5765479999999
 20
425.69368
 30
0.0
 11
990.5765479999999
 21
425.69368
 31
0.0
  0
LINE
  5
4D2
330
19
100
AcDbEntity
  8
0
  6
HIDDEN
 62
     0
 48
10.0
100
AcDbLine
 10
1010.576548
 20
445.69368
 30
0.0
 11
1010.576548
 21
395.6936810000001
 31
0.0
  0
LINE
  5
4D3
330
19
100
AcDbEntity
  8
0
  6
HIDDEN
 62
     0
 48
10.0
100
AcDbLine
 10
980.5765479999999
 20
445.69368
 30
0.0
 11
1010.576548
 21
445.69368
 31
0.0
  0
ARC
  5
4D4
330
19
100
AcDbEntity
  8
0
  6
HIDDEN
 62
     0
 48
10.0
100
AcDbCircle
 10
818.485639
 20
350.6936799999998
 30
0.0
 40
1.0
100
AcDbArc
 50
180.0
 51
0.0
  0
LINE
  5
4D5
330
19
100
AcDbEntity
  8
0
  6
HIDDEN
 62
     0
 48
10.0
100
AcDbLine
 10
819.4856389999998
 20
490.6936799999998
 30
0.0
 11
819.4856389999998
 21
350.6936799999998
 31
0.0
  0
LINE
  5
4D6
330
19
100
AcDbEntity
  8
0
  6
HIDDEN
 62
     0
 48
10.0
100
AcDbLine
 10
817.485639
 20
350.6936799999998
 30
0.0
 11
817.485639
 21
490.6936799999998
 31
0.0
  0
ARC
  5
4D7
330
19
100
AcDbEntity
  8
0
  6
HIDDEN
 62
     0
 48
10.0
100
AcDbCircle
 10
818.485639
 20
490.6936799999998
 30
0.0
 40
1.0
100
AcDbArc
 50
0.0
 51
180.0
  0
ARC
  5
4D8
330
19
100
AcDbEntity
  8
0
  6
HIDDEN
 62
     0
 48
10.0
100
AcDbCircle
 10
834.3947299999998
 20
350.6936799999998
 30
0.0
 40
1.0
100
AcDbArc
 50
180.0
 51
0.0
  0
LINE
  5
4D9
330
19
100
AcDbEntity
  8
0
  6
HIDDEN
 62
     0
 48
10.0
100
AcDbLine
 10
835.3947299999997
 20
490.6936799999998
 30
0.0
 11
835.3947299999997
 21
350.6936799999998
 31
0.0
  0
LINE
  5
4DA
330
19
100
AcDbEntity
  8
0
  6
HIDDEN
 62
     0
 48
10.0
100
AcDbLine
 10
833.39473
 20
350.6936799999998
 30
0.0
 11
833.39473
 21
490.6936799999998
 31
0.0
  0
ARC
  5
4DB
330
19
100
AcDbEntity
  8
0
  6
HIDDEN
 62
     0
 48
10.0
100
AcDbCircle
 10
834.3947299999998
 20
490.6936799999998
 30
0.0
 40
1.0
100
AcDbArc
 50
0.0
 51
180.0
  0
ARC
  5
4DC
330
19
100
AcDbEntity
  8
0
  6
HIDDEN
 62
     0
 48
10.0
100
AcDbCircle
 10
850.3038210000001
 20
350.6936799999998
 30
0.0
 40
1.0
100
AcDbArc
 50
180.0
 51
0.0
  0
LINE
  5
4DD
330
19
100
AcDbEntity
  8
0
  6
HIDDEN
 62
     0
 48
10.0
100
AcDbLine
 10
851.3038210000001
 20
490.6936799999998
 30
0.0
 11
851.3038210000001
 21
350.6936799999998
 31
0.0
  0
LINE
  5
4DE
330
19
100
AcDbEntity
  8
0
  6
HIDDEN
 62
     0
 48
10.0
100
AcDbLine
 10
849.3038210000001
 20
350.6936799999998
 30
0.0
 11
849.3038210000001
 21
490.6936799999998
 31
0.0
  0
ARC
  5
4DF
330
19
100
AcDbEntity
  8
0
  6
HIDDEN
 62
     0
 48
10.0
100
AcDbCircle
 10
850.3038210000001
 20
490.6936799999998
 30
0.0
 40
1.0
100
AcDbArc
 50
0.0
 51
180.0
  0
ARC
  5
4E0
330
19
100
AcDbEntity
  8
0
  6
HIDDEN
 62
     0
 48
10.0
100
AcDbCircle
 10
866.2129119999999
 20
350.6936799999998
 30
0.0
 40
1.0
100
AcDbArc
 50
180.0
 51
0.0
  0
LINE
  5
4E1
330
19
100
AcDbEntity
  8
0
  6
HIDDEN
 62
     0
 48
10.0
100
AcDbLine
 10
867.2129119999999
 20
490.6936799999998
 30
0.0
 11
867.2129119999999
 21
350.6936799999998
 31
0.0
  0
LINE
  5
4E2
330
19
100
AcDbEntity
  8
0
  6
HIDDEN
 62
     0
 48
10.0
100
AcDbLine
 10
865.2129119999997
 20
350.6936799999998
 30
0.0
 11
865.2129119999997
 21
490.6936799999998
 31
0.0
  0
ARC
  5
4E3
330
19
100
AcDbEntity
  8
0
  6
HIDDEN
 62
     0
 48
10.0
100
AcDbCircle
 10
866.2129119999999
 20
490.6936799999998
 30
0.0
 40
1.0
100
AcDbArc
 50
0.0
 51
180.0
  0
ARC
  5
4E4
330
19
100
AcDbEntity
  8
0
  6
HIDDEN
 62
     0
 48
10.0
100
AcDbCircle
 10
882.122002
 20
350.6936799999998
 30
0.0
 40
1.0
100
AcDbArc
 50
180.0
 51
0.0
  0
LINE
  5
4E5
330
19
100
AcDbEntity
  8
0
  6
HIDDEN
 62
     0
 48
10.0
100
AcDbLine
 10
883.1220019999998
 20
490.6936799999998
 30
0.0
 11
883.1220019999998
 21
350.6936799999998
 31
0.0
  0
LINE
  5
4E6
330
19
100
AcDbEntity
  8
0
  6
HIDDEN
 62
     0
 48
10.0
100
AcDbLine
 10
881.122002
 20
350.6936799999998
 30
0.0
 11
881.122002
 21
490.6936799999998
 31
0.0
  0
ARC
  5
4E7
330
19
100
AcDbEntity
  8
0
  6
HIDDEN
 62
     0
 48
10.0
100
AcDbCircle
 10
882.122002
 20
490.6936799999998
 30
0.0
 40
1.0
100
AcDbArc
 50
0.0
 51
180.0
  0
ARC
  5
4E8
330
19
100
AcDbEntity
  8
0
  6
HIDDEN
 62
     0
 48
10.0
100
AcDbCircle
 10
898.0310929999998
 20
350.6936799999998
 30
0.0
 40
1.0
100
AcDbArc
 50
180.0
 51
0.0
  0
LINE
  5
4E9
330
19
100
AcDbEntity
  8
0
  6
HIDDEN
 62
     0
 48
10.0
100
AcDbLine
 10
899.0310929999997
 20
490.6936799999998
 30
0.0
 11
899.0310929999997
 21
350.6936799999998
 31
0.0
  0
LINE
  5
4EA
330
19
100
AcDbEntity
  8
0
  6
HIDDEN
 62
     0
 48
10.0
100
AcDbLine
 10
897.031093
 20
350.6936799999998
 30
0.0
 11
897.031093
 21
490.6936799999998
 31
0.0
  0
ARC
  5
4EB
330
19
100
AcDbEntity
  8
0
  6
HIDDEN
 62
     0
 48
10.0
100
AcDbCircle
 10
898.0310929999998
 20
490.6936799999998
 30
0.0
 40
1.0
100
AcDbArc
 50
0.0
 51
180.0
  0
ARC
  5
4EC
330
19
100
AcDbEntity
  8
0
  6
HIDDEN
 62
     0
 48
10.0
100
AcDbCircle
 10
913.9401840000001
 20
350.6936799999998
 30
0.0
 40
1.0
100
AcDbArc
 50
180.0
 51
0.0
  0
LINE
  5
4ED
330
19
100
AcDbEntity
  8
0
  6
HIDDEN
 62
     0
 48
10.0
100
AcDbLine
 10
914.9401840000001
 20
490.6936799999998
 30
0.0
 11
914.9401840000001
 21
350.6936799999998
 31
0.0
  0
LINE
  5
4EE
330
19
100
AcDbEntity
  8
0
  6
HIDDEN
 62
     0
 48
10.0
100
AcDbLine
 10
912.9401839999999
 20
350.6936799999998
 30
0.0
 11
912.9401839999999
 21
490.6936799999998
 31
0.0
  0
ARC
  5
4EF
330
19
100
AcDbEntity
  8
0
  6
HIDDEN
 62
     0
 48
10.0
100
AcDbCircle
 10
913.9401840000001
 20
490.6936799999998
 30
0.0
 40
1.0
100
AcDbArc
 50
0.0
 51
180.0
  0
ARC
  5
4F0
330
19
100
AcDbEntity
  8
0
  6
HIDDEN
 62
     0
 48
10.0
100
AcDbCircle
 10
929.8492750000001
 20
350.6936799999998
 30
0.0
 40
1.0
100
AcDbArc
 50
180.0
 51
0.0
  0
LINE
  5
4F1
330
19
100
AcDbEntity
  8
0
  6
HIDDEN
 62
     0
 48
10.0
100
AcDbLine
 10
930.849275
 20
490.6936799999998
 30
0.0
 11
930.849275
 21
350.6936799999998
 31
0.0
  0
LINE
  5
4F2
330
19
100
AcDbEntity
  8
0
  6
HIDDEN
 62
     0
 48
10.0
100
AcDbLine
 10
928.8492750000001
 20
350.6936799999998
 30
0.0
 11
928.8492750000001
 21
490.6936799999998
 31
0.0
  0
ARC
  5
4F3
330
19
100
AcDbEntity
  8
0
  6
HIDDEN
 62
     0
 48
10.0
100
AcDbCircle
 10
929.8492750000001
 20
490.6936799999998
 30
0.0
 40
1.0
100
AcDbArc
 50
0.0
 51
180.0
  0
ARC
  5
4F4
330
19
100
AcDbEntity
  8
0
  6
HIDDEN
 62
     0
 48
10.0
100
AcDbCircle
 10
945.758366
 20
350.6936799999998
 30
0.0
 40
1.0
100
AcDbArc
 50
180.0
 51
0.0
  0
LINE
  5
4F5
330
19
100
AcDbEntity
  8
0
  6
HIDDEN
 62
     0
 48
10.0
100
AcDbLine
 10
946.758366
 20
490.6936799999998
 30
0.0
 11
946.758366
 21
350.6936799999998
 31
0.0
  0
LINE
  5
4F6
330
19
100
AcDbEntity
  8
0
  6
HIDDEN
 62
     0
 48
10.0
100
AcDbLine
 10
944.7583660000001
 20
350.6936799999998
 30
0.0
 11
944.7583660000001
 21
490.6936799999998
 31
0.0
  0
ARC
  5
4F7
330
19
100
AcDbEntity
  8
0
  6
HIDDEN
 62
     0
 48
10.0
100
AcDbCircle
 10
945.758366
 20
490.6936799999998
 30
0.0
 40
1.0
100
AcDbArc
 50
0.0
 51
180.0
  0
LINE
  5
4F8
330
19
100
AcDbEntity
  8
0
  6
HIDDEN
 62
     0
 48
10.0
100
AcDbLine
 10
960.667457
 20
350.6936799999998
 30
0.0
 11
960.667457
 21
490.6936799999998
 31
0.0
  0
LINE
  5
4F9
330
19
100
AcDbEntity
  8
0
  6
HIDDEN
 62
     0
 48
10.0
100
AcDbLine
 10
962.667457
 20
490.6936799999998
 30
0.0
 11
962.667457
 21
350.6936799999998
 31
0.0
  0
ARC
  5
4FA
330
19
100
AcDbEntity
  8
0
  6
HIDDEN
 62
     0
 48
10.0
100
AcDbCircle
 10
961.667457
 20
350.6936799999998
 30
0.0
 40
1.0
100
AcDbArc
 50
180.0
 51
0.0
  0
ARC
  5
4FB
330
19
100
AcDbEntity
  8
0
  6
HIDDEN
 62
     0
 48
10.0
100
AcDbCircle
 10
961.667457
 20
490.6936799999998
 30
0.0
 40
1.0
100
AcDbArc
 50
0.0
 51
180.0
  0
LINE
  5
4FC
330
19
100
AcDbEntity
  8
0
  6
HIDDEN
 62
     0
 48
10.0
100
AcDbLine
 10
979.0765480000001
 20
395.6936799999998
 30
0.0
 11
979.0765480000001
 21
445.69368
 31
0.0
  0
LINE
  5
4FD
330
19
100
AcDbEntity
  8
0
  6
HIDDEN
 62
     0
 48
10.0
100
AcDbLine
 10
980.5765479999999
 20
395.6936799999998
 30
0.0
 11
977.576548
 21
395.6936799999998
 31
0.0
  0
LINE
  5
4FE
330
19
100
AcDbEntity
  8
0
  6
HIDDEN
 62
     0
 48
10.0
100
AcDbLine
 10
980.5765479999999
 20
445.69368
 30
0.0
 11
980.5765479999999
 21
395.6936799999998
 31
0.0
  0
LINE
  5
4FF
330
19
100
AcDbEntity
  8
0
  6
HIDDEN
 62
     0
 48
10.0
100
AcDbLine
 10
977.576548
 20
445.69368
 30
0.0
 11
980.5765479999999
 21
445.69368
 31
0.0
  0
LINE
  5
500
330
19
100
AcDbEntity
  8
0
  6
HIDDEN
 62
     0
 48
10.0
100
AcDbLine
 10
972.5765479999999
 20
350.6936799999998
 30
0.0
 11
802.576548
 21
350.6936799999998
 31
0.0
  0
LINE
  5
501
330
19
100
AcDbEntity
  8
0
  6
HIDDEN
 62
     0
 48
10.0
100
AcDbLine
 10
977.576548
 20
355.6936799999998
 30
0.0
 11
977.576548
 21
485.6936799999998
 31
0.0
  0
ARC
  5
502
330
19
100
AcDbEntity
  8
0
  6
HIDDEN
 62
     0
 48
10.0
100
AcDbCircle
 10
972.5765479999999
 20
355.6936799999998
 30
0.0
 40
5.0
100
AcDbArc
 50
270.0
 51
0.0
  0
LINE
  5
503
330
19
100
AcDbEntity
  8
0
  6
HIDDEN
 62
     0
 48
10.0
100
AcDbLine
 10
972.5765479999999
 20
490.6936799999998
 30
0.0
 11
802.576548
 21
490.6936799999998
 31
0.0
  0
ARC
  5
504
330
19
100
AcDbEntity
  8
0
  6
HIDDEN
 62
     0
 48
10.0
100
AcDbCircle
 10
972.5765479999999
 20
485.6936799999998
 30
0.0
 40
5.0
100
AcDbArc
 50
0.0
 51
90.0
  0
LINE
  5
505
330
19
100
AcDbEntity
  8
0
  6
HIDDEN
 62
     0
 48
10.0
100
AcDbLine
 10
943.5952059999999
 20
308.6936799999998
 30
0.0
 11
972.5765479999999
 21
308.6936799999998
 31
0.0
  0
LINE
  5
506
330
19
100
AcDbEntity
  8
0
  6
HIDDEN
 62
     0
 48
10.0
100
AcDbLine
 10
972.5765479999999
 20
310.6936799999998
 30
0.0
 11
972.5765479999999
 21
308.6936799999998
 31
0.0
  0
LINE
  5
507
330
19
100
AcDbEntity
  8
0
  6
HIDDEN
 62
     0
 48
10.0
100
AcDbLine
 10
968.576548
 20
307.4936799999998
 30
0.0
 11
968.576548
 21
305.99368
 31
0.0
  0
ARC
  5
508
330
19
100
AcDbEntity
  8
0
  6
HIDDEN
 62
     0
 48
10.0
100
AcDbCircle
 10
968.576548
 20
310.306643
 30
0.0
 40
4.312962999999998
100
AcDbArc
 50
201.9613
 51
338.0387
  0
LINE
  5
509
330
19
100
AcDbEntity
  8
0
  6
HIDDEN
 62
     0
 48
10.0
100
AcDbLine
 10
1035.270515
 20
286.6936799999998
 30
0.0
 11
1013.576548
 21
286.6936799999998
 31
0.0
  0
LINE
  5
50A
330
19
100
AcDbEntity
  8
0
  6
HIDDEN
 62
     0
 48
10.0
100
AcDbLine
 10
1034.752909999999
 20
292.6936799999998
 30
0.0
 11
1013.576548
 21
292.6936799999998
 31
0.0
  0
LINE
  5
50B
330
19
100
AcDbEntity
  8
0
  6
HIDDEN
 62
     0
 48
10.0
100
AcDbLine
 10
1000.576548
 20
293.6936799999998
 30
0.0
 11
1013.576548
 21
293.6936799999998
 31
0.0
  0
LINE
  5
50C
330
19
100
AcDbEntity
  8
0
  6
HIDDEN
 62
     0
 48
10.0
100
AcDbLine
 10
996.5765479999999
 20
297.6936799999998
 30
0.0
 11
996.5765479999999
 21
307.1936799999998
 31
0.0
  0
ARC
  5
50D
330
19
100
AcDbEntity
  8
0
  6
HIDDEN
 62
     0
 48
10.0
100
AcDbCircle
 10
1000.576548
 20
297.6936799999998
 30
0.0
 40
4.0
100
AcDbArc
 50
180.0
 51
270.0
  0
LINE
  5
50E
330
19
100
AcDbEntity
  8
0
  6
HIDDEN
 62
     0
 48
10.0
100
AcDbLine
 10
1013.576548
 20
285.6936799999998
 30
0.0
 11
1013.576548
 21
293.6936799999998
 31
0.0
  0
LINE
  5
50F
330
19
100
AcDbEntity
  8
0
  6
HIDDEN
 62
     0
 48
10.0
100
AcDbLine
 10
996.5765479999999
 20
285.6936799999998
 30
0.0
 11
1013.576548
 21
285.6936799999998
 31
0.0
  0
LINE
  5
510
330
19
100
AcDbEntity
  8
0
  6
HIDDEN
 62
     0
 48
10.0
100
AcDbLine
 10
988.5765479999999
 20
293.6936799999998
 30
0.0
 11
988.5765479999999
 21
307.1936799999998
 31
0.0
  0
ARC
  5
511
330
19
100
AcDbEntity
  8
0
  6
HIDDEN
 62
     0
 48
10.0
100
AcDbCircle
 10
996.5765479999999
 20
293.6936799999998
 30
0.0
 40
8.0
100
AcDbArc
 50
180.0
 51
270.0
  0
LINE
  5
512
330
19
100
AcDbEntity
  8
0
  6
HIDDEN
 62
     0
 48
10.0
100
AcDbLine
 10
979.576548
 20
309.088723
 30
0.0
 11
979.576548
 21
310.6936799999998
 31
0.0
  0
ARC
  5
513
330
19
100
AcDbEntity
  8
0
  6
HIDDEN
 62
     0
 48
10.0
100
AcDbCircle
 10
980.5765479999999
 20
309.088723
 30
0.0
 40
1.0
100
AcDbArc
 50
180.0
 51
263.659808
  0
LINE
  5
514
330
19
100
AcDbEntity
  8
0
  6
HIDDEN
 62
     0
 48
10.0
100
AcDbLine
 10
980.466116
 20
308.094839
 30
0.0
 11
988.5765479999999
 21
307.1936799999998
 31
0.0
  0
LINE
  5
515
330
19
100
AcDbEntity
  8
0
  6
HIDDEN
 62
     0
 48
10.0
100
AcDbLine
 10
996.5765479999999
 20
307.1936799999998
 30
0.0
 11
988.5765479999999
 21
307.1936799999998
 31
0.0
  0
LINE
  5
516
330
19
100
AcDbEntity
  8
0
  6
HIDDEN
 62
     0
 48
10.0
100
AcDbLine
 10
999.8190839999999
 20
308.004314
 30
0.0
 11
996.5765479999999
 21
307.1936799999998
 31
0.0
  0
LINE
  5
517
330
19
100
AcDbEntity
  8
0
  6
HIDDEN
 62
     0
 48
10.0
100
AcDbLine
 10
1000.576548
 20
308.974456
 30
0.0
 11
1000.576548
 21
310.6936799999998
 31
0.0
  0
ARC
  5
518
330
19
100
AcDbEntity
  8
0
  6
HIDDEN
 62
     0
 48
10.0
100
AcDbCircle
 10
999.5765480000001
 20
308.974456
 30
0.0
 40
1.0
100
AcDbArc
 50
284.036243
 51
0.0
  0
LINE
  5
519
330
19
100
AcDbEntity
  8
0
  6
HIDDEN
 62
     0
 48
10.0
100
AcDbLine
 10
1052.576548
 20
310.6936799999998
 30
0.0
 11
802.576548
 21
310.6936799999998
 31
0.0
  0
ARC
  5
51A
330
19
100
AcDbEntity
  8
0
  6
Continuous
 62
     0
100
AcDbCircle
 10
1051.763585
 20
296.6936799999998
 30
0.0
 40
4.312962999999998
100
AcDbArc
 50
291.9613
 51
68.0387
  0
LINE
  5
51B
330
19
100
AcDbEntity
  8
0
  6
Continuous
 62
     0
100
AcDbLine
 10
1054.576548
 20
296.6936799999998
 30
0.0
 11
1056.076548
 21
296.6936799999998
 31
0.0
  0
ARC
  5
51C
330
19
100
AcDbEntity
  8
0
  6
Continuous
 62
     0
100
AcDbCircle
 10
1051.763585
 20
425.69368
 30
0.0
 40
4.312962999999998
100
AcDbArc
 50
291.9613
 51
68.0387
  0
LINE
  5
51D
330
19
100
AcDbEntity
  8
0
  6
Continuous
 62
     0
100
AcDbLine
 10
1054.576548
 20
425.69368
 30
0.0
 11
1056.076548
 21
425.69368
 31
0.0
  0
LINE
  5
51E
330
19
100
AcDbEntity
  8
0
  6
Continuous
 62
     0
100
AcDbLine
 10
1054.576548
 20
554.69368
 30
0.0
 11
1056.076548
 21
554.69368
 31
0.0
  0
ARC
  5
51F
330
19
100
AcDbEntity
  8
0
  6
Continuous
 62
     0
100
AcDbCircle
 10
1051.763585
 20
554.69368
 30
0.0
 40
4.312962999999998
100
AcDbArc
 50
291.9613
 51
68.0387
  0
LINE
  5
520
330
19
100
AcDbEntity
  8
0
  6
Continuous
 62
     0
100
AcDbLine
 10
1052.576548
 20
282.69368
 30
0.0
 11
1053.376547999999
 21
282.69368
 31
0.0
  0
LINE
  5
521
330
19
100
AcDbEntity
  8
0
  6
Continuous
 62
     0
100
AcDbLine
 10
1052.576548
 20
568.6936799999998
 30
0.0
 11
1053.376547999999
 21
568.6936799999998
 31
0.0
  0
LINE
  5
522
330
19
100
AcDbEntity
  8
0
  6
Continuous
 62
     0
100
AcDbLine
 10
1053.376547999999
 20
282.69368
 30
0.0
 11
1053.376547999999
 21
568.6936799999998
 31
0.0
  0
LINE
  5
523
330
19
100
AcDbEntity
  8
0
  6
Continuous
 62
     0
100
AcDbLine
 10
752.576548
 20
512.1936799999998
 30
0.0
 11
752.576548
 21
492.19368
 31
0.0
  0
LINE
  5
524
330
19
100
AcDbEntity
  8
0
  6
Continuous
 62
     0
100
AcDbLine
 10
737.576548
 20
492.19368
 30
0.0
 11
762.576548
 21
492.19368
 31
0.0
  0
LINE
  5
525
330
19
100
AcDbEntity
  8
0
  6
Continuous
 62
     0
100
AcDbLine
 10
735.576548
 20
494.1936799999998
 30
0.0
 11
735.576548
 21
510.1936799999998
 31
0.0
  0
ARC
  5
526
330
19
100
AcDbEntity
  8
0
  6
Continuous
 62
     0
100
AcDbCircle
 10
737.576548
 20
494.1936799999998
 30
0.0
 40
2.0
100
AcDbArc
 50
180.0
 51
270.0
  0
LINE
  5
527
330
19
100
AcDbEntity
  8
0
  6
Continuous
 62
     0
100
AcDbLine
 10
737.576548
 20
512.1936799999998
 30
0.0
 11
762.576548
 21
512.1936799999998
 31
0.0
  0
ARC
  5
528
330
19
100
AcDbEntity
  8
0
  6
Continuous
 62
     0
100
AcDbCircle
 10
737.576548
 20
510.1936799999998
 30
0.0
 40
2.0
100
AcDbArc
 50
90.0
 51
180.0
  0
LINE
  5
529
330
19
100
AcDbEntity
  8
0
  6
Continuous
 62
     0
100
AcDbLine
 10
766.576548
 20
281.6936799999998
 30
0.0
 11
802.576548
 21
281.6936799999998
 31
0.0
  0
LINE
  5
52A
330
19
100
AcDbEntity
  8
0
  6
Continuous
 62
     0
100
AcDbLine
 10
762.576548
 20
285.6936799999998
 30
0.0
 11
762.576548
 21
299.6936799999998
 31
0.0
  0
ARC
  5
52B
330
19
100
AcDbEntity
  8
0
  6
Continuous
 62
     0
100
AcDbCircle
 10
766.576548
 20
285.6936799999998
 30
0.0
 40
4.0
100
AcDbArc
 50
180.0
 51
270.0
  0
LINE
  5
52C
330
19
100
AcDbEntity
  8
0
  6
Continuous
 62
     0
100
AcDbLine
 10
802.576548
 20
299.6936799999998
 30
0.0
 11
762.576548
 21
299.6936799999998
 31
0.0
  0
ARC
  5
52D
330
19
100
AcDbEntity
  8
0
  6
Continuous
 62
     0
100
AcDbCircle
 10
1044.640994999998
 20
266.6936799999999
 30
0.0
 40
1.0
100
AcDbArc
 50
270.0
 51
356.1859249999998
  0
ARC
  5
52E
330
19
100
AcDbEntity
  8
0
  6
Continuous
 62
     0
100
AcDbCircle
 10
1020.512101
 20
266.6936799999999
 30
0.0
 40
1.0
100
AcDbArc
 50
183.8140749999999
 51
270.0
  0
LINE
  5
52F
330
19
100
AcDbEntity
  8
0
  6
Continuous
 62
     0
100
AcDbLine
 10
1018.576548
 20
280.6936799999999
 30
0.0
 11
1019.514316
 21
266.6271609999999
 31
0.0
  0
LINE
  5
530
330
19
100
AcDbEntity
  8
0
  6
Continuous
 62
     0
100
AcDbLine
 10
1046.576547999998
 20
280.6936799999999
 30
0.0
 11
1045.638779999998
 21
266.6271609999999
 31
0.0
  0
LINE
  5
531
330
19
100
AcDbEntity
  8
0
  6
Continuous
 62
     0
100
AcDbLine
 10
1020.512101
 20
265.6936799999999
 30
0.0
 11
1044.640994999998
 21
265.6936799999999
 31
0.0
  0
ARC
  5
532
330
19
100
AcDbEntity
  8
0
  6
Continuous
 62
     0
100
AcDbCircle
 10
834.6409949999998
 20
266.6936799999999
 30
0.0
 40
1.0
100
AcDbArc
 50
270.0
 51
356.1859249999998
  0
LINE
  5
533
330
19
100
AcDbEntity
  8
0
  6
Continuous
 62
     0
100
AcDbLine
 10
810.5121010000001
 20
265.6936799999999
 30
0.0
 11
834.6409949999998
 21
265.6936799999999
 31
0.0
  0
ARC
  5
534
330
19
100
AcDbEntity
  8
0
  6
Continuous
 62
     0
100
AcDbCircle
 10
810.5121010000001
 20
266.6936799999999
 30
0.0
 40
1.0
100
AcDbArc
 50
183.8140749999999
 51
270.0
  0
LINE
  5
535
330
19
100
AcDbEntity
  8
0
  6
Continuous
 62
     0
100
AcDbLine
 10
808.576548
 20
280.6936799999999
 30
0.0
 11
809.5143160000001
 21
266.6271609999999
 31
0.0
  0
LINE
  5
536
330
19
100
AcDbEntity
  8
0
  6
Continuous
 62
     0
100
AcDbLine
 10
836.576548
 20
280.6936799999999
 30
0.0
 11
835.63878
 21
266.6271609999999
 31
0.0
  0
ARC
  5
537
330
19
100
AcDbEntity
  8
0
  6
HIDDEN
 62
     0
 48
10.0
100
AcDbCircle
 10
815.243215
 20
347.360347
 30
0.0
 40
20.933758
100
AcDbArc
 50
170.8376529999999
 51
232.765166
  0
ARC
  5
538
330
19
100
AcDbEntity
  8
0
  6
HIDDEN
 62
     0
 48
10.0
100
AcDbCircle
 10
815.243215
 20
494.027013
 30
0.0
 40
20.933758
100
AcDbArc
 50
127.234834
 51
189.162347
  0
LINE
  5
539
330
19
100
AcDbEntity
  8
0
  6
HIDDEN
 62
     0
 48
10.0
100
AcDbLine
 10
794.576548
 20
490.6936799999998
 30
0.0
 11
794.576548
 21
350.6936799999998
 31
0.0
  0
ARC
  5
53A
330
19
100
AcDbEntity
  8
0
  6
HIDDEN
 62
     0
 48
10.0
100
AcDbCircle
 10
794.076548
 20
311.6936799999998
 30
0.0
 40
1.0
100
AcDbArc
 50
180.0
 51
0.0
  0
ARC
  5
53B
330
19
100
AcDbEntity
  8
0
  6
Continuous
 62
     0
100
AcDbCircle
 10
794.076548
 20
529.69368
 30
0.0
 40
1.0
100
AcDbArc
 50
0.0
 51
180.0
  0
LINE
  5
53C
330
19
100
AcDbEntity
  8
0
  6
Continuous
 62
     0
100
AcDbLine
 10
793.0765479999998
 20
322.1936799999998
 30
0.0
 11
793.0765479999998
 21
529.69368
 31
0.0
  0
LINE
  5
53D
330
19
100
AcDbEntity
  8
0
  6
HIDDEN
 62
     0
 48
10.0
100
AcDbLine
 10
793.0765479999998
 20
322.1936799999998
 30
0.0
 11
793.0765479999998
 21
311.6936799999998
 31
0.0
  0
LINE
  5
53E
330
19
100
AcDbEntity
  8
0
  6
Continuous
 62
     0
100
AcDbLine
 10
795.076548
 20
322.1936799999998
 30
0.0
 11
795.076548
 21
529.69368
 31
0.0
  0
LINE
  5
53F
330
19
100
AcDbEntity
  8
0
  6
HIDDEN
 62
     0
 48
10.0
100
AcDbLine
 10
795.076548
 20
322.1936799999998
 30
0.0
 11
795.076548
 21
311.6936799999998
 31
0.0
  0
LINE
  5
540
330
19
100
AcDbEntity
  8
0
  6
HIDDEN
 62
     0
 48
10.0
100
AcDbLine
 10
792.5765479999999
 20
310.6936799999998
 30
0.0
 11
782.576548
 21
310.6936799999998
 31
0.0
  0
LINE
  5
541
330
19
100
AcDbEntity
  8
0
  6
HIDDEN
 62
     0
 48
10.0
100
AcDbLine
 10
792.5765479999999
 20
322.1936799999998
 30
0.0
 11
792.5765479999999
 21
310.6936799999998
 31
0.0
  0
LINE
  5
542
330
19
100
AcDbEntity
  8
0
  6
Continuous
 62
     0
100
AcDbLine
 10
792.5765479999999
 20
322.1936799999998
 30
0.0
 11
792.5765479999999
 21
530.6936799999999
 31
0.0
  0
LINE
  5
543
330
19
100
AcDbEntity
  8
0
  6
Continuous
 62
     0
100
AcDbLine
 10
782.576548
 20
530.6936799999999
 30
0.0
 11
792.5765479999999
 21
530.6936799999999
 31
0.0
  0
LINE
  5
544
330
19
100
AcDbEntity
  8
0
  6
HIDDEN
 62
     0
 48
10.0
100
AcDbLine
 10
795.576548
 20
310.6936799999998
 30
0.0
 11
802.576548
 21
310.6936799999998
 31
0.0
  0
LINE
  5
545
330
19
100
AcDbEntity
  8
0
  6
HIDDEN
 62
     0
 48
10.0
100
AcDbLine
 10
795.576548
 20
322.1936799999998
 30
0.0
 11
795.576548
 21
310.6936799999998
 31
0.0
  0
LINE
  5
546
330
19
100
AcDbEntity
  8
0
  6
Continuous
 62
     0
100
AcDbLine
 10
795.576548
 20
322.1936799999998
 30
0.0
 11
795.576548
 21
530.6936799999999
 31
0.0
  0
LINE
  5
547
330
19
100
AcDbEntity
  8
0
  6
Continuous
 62
     0
100
AcDbLine
 10
802.576548
 20
530.6936799999999
 30
0.0
 11
795.576548
 21
530.6936799999999
 31
0.0
  0
LINE
  5
548
330
19
100
AcDbEntity
  8
0
  6
Continuous
 62
     0
100
AcDbLine
 10
762.576548
 20
306.1936799999998
 30
0.0
 11
762.576548
 21
535.1936799999998
 31
0.0
  0
ARC
  5
549
330
19
100
AcDbEntity
  8
0
  6
Continuous
 62
     0
100
AcDbCircle
 10
764.576548
 20
306.1936799999998
 30
0.0
 40
2.0
100
AcDbArc
 50
180.0
 51
270.0
  0
LINE
  5
54A
330
19
100
AcDbEntity
  8
0
  6
Continuous
 62
     0
100
AcDbLine
 10
764.576548
 20
304.1936799999998
 30
0.0
 11
782.576548
 21
304.1936799999998
 31
0.0
  0
LINE
  5
54B
330
19
100
AcDbEntity
  8
0
  6
Continuous
 62
     0
100
AcDbLine
 10
782.576548
 20
306.1936799999998
 30
0.0
 11
782.576548
 21
304.1936799999998
 31
0.0
  0
LINE
  5
54C
330
19
100
AcDbEntity
  8
0
  6
HIDDEN
 62
     0
 48
10.0
100
AcDbLine
 10
782.576548
 20
306.1936799999998
 30
0.0
 11
782.576548
 21
322.1936799999998
 31
0.0
  0
LINE
  5
54D
330
19
100
AcDbEntity
  8
0
  6
Continuous
 62
     0
100
AcDbLine
 10
764.576548
 20
537.1936799999998
 30
0.0
 11
782.576548
 21
537.1936799999998
 31
0.0
  0
ARC
  5
54E
330
19
100
AcDbEntity
  8
0
  6
Continuous
 62
     0
100
AcDbCircle
 10
764.576548
 20
535.1936799999998
 30
0.0
 40
2.0
100
AcDbArc
 50
90.0
 51
180.0
  0
LINE
  5
54F
330
19
100
AcDbEntity
  8
0
  6
Continuous
 62
     0
100
AcDbLine
 10
760.0765479999998
 20
549.6936799999998
 30
0.0
 11
762.576548
 21
549.6936799999998
 31
0.0
  0
LINE
  5
550
330
19
100
AcDbEntity
  8
0
  6
Continuous
 62
     0
100
AcDbLine
 10
758.576548
 20
551.1936799999999
 30
0.0
 11
758.576548
 21
561.1936799999998
 31
0.0
  0
ARC
  5
551
330
19
100
AcDbEntity
  8
0
  6
Continuous
 62
     0
100
AcDbCircle
 10
760.0765479999998
 20
551.1936799999999
 30
0.0
 40
1.5
100
AcDbArc
 50
180.0
 51
270.0
  0
LINE
  5
552
330
19
100
AcDbEntity
  8
0
  6
Continuous
 62
     0
100
AcDbLine
 10
760.0765479999998
 20
562.69368
 30
0.0
 11
762.576548
 21
562.69368
 31
0.0
  0
ARC
  5
553
330
19
100
AcDbEntity
  8
0
  6
Continuous
 62
     0
100
AcDbCircle
 10
760.0765479999998
 20
561.1936799999998
 30
0.0
 40
1.5
100
AcDbArc
 50
90.0
 51
180.0
  0
LINE
  5
554
330
19
100
AcDbEntity
  8
0
  6
Continuous
 62
     0
100
AcDbLine
 10
764.020337
 20
543.139538
 30
0.0
 11
802.576548
 21
541.69368
 31
0.0
  0
LINE
  5
555
330
19
100
AcDbEntity
  8
0
  6
Continuous
 62
     0
100
AcDbLine
 10
762.576548
 20
544.6384839999998
 30
0.0
 11
762.576548
 21
567.748876
 31
0.0
  0
ARC
  5
556
330
19
100
AcDbEntity
  8
0
  6
Continuous
 62
     0
100
AcDbCircle
 10
764.0765479999998
 20
544.6384839999998
 30
0.0
 40
1.5
100
AcDbArc
 50
180.0
 51
267.852415
  0
LINE
  5
557
330
19
100
AcDbEntity
  8
0
  6
Continuous
 62
     0
100
AcDbLine
 10
764.020337
 20
569.2478219999998
 30
0.0
 11
802.576548
 21
570.69368
 31
0.0
  0
ARC
  5
558
330
19
100
AcDbEntity
  8
0
  6
Continuous
 62
     0
100
AcDbCircle
 10
764.0765479999998
 20
567.748876
 30
0.0
 40
1.5
100
AcDbArc
 50
92.147585
 51
180.0
  0
LINE
  5
559
330
19
100
AcDbEntity
  8
0
  6
Continuous
 62
     0
100
AcDbLine
 10
802.576548
 20
322.1936799999998
 30
0.0
 11
802.576548
 21
570.69368
 31
0.0
  0
LINE
  5
55A
330
19
100
AcDbEntity
  8
0
  6
HIDDEN
 62
     0
 48
10.0
100
AcDbLine
 10
802.576548
 20
306.1936799999998
 30
0.0
 11
802.576548
 21
322.1936799999998
 31
0.0
  0
LINE
  5
55B
330
19
100
AcDbEntity
  8
0
  6
Continuous
 62
     0
100
AcDbLine
 10
802.576548
 20
306.1936799999998
 30
0.0
 11
802.576548
 21
282.69368
 31
0.0
  0
ARC
  5
55C
330
19
100
AcDbEntity
  8
0
  6
Continuous
 62
     0
100
AcDbCircle
 10
804.576548
 20
282.69368
 30
0.0
 40
2.0
100
AcDbArc
 50
180.0
 51
270.0
  0
LINE
  5
55D
330
19
100
AcDbEntity
  8
0
  6
Continuous
 62
     0
100
AcDbLine
 10
804.576548
 20
280.6936799999999
 30
0.0
 11
1050.576548
 21
280.6936799999999
 31
0.0
  0
LINE
  5
55E
330
19
100
AcDbEntity
  8
0
  6
Continuous
 62
     0
100
AcDbLine
 10
1052.576548
 20
282.69368
 30
0.0
 11
1052.576548
 21
568.6936799999998
 31
0.0
  0
ARC
  5
55F
330
19
100
AcDbEntity
  8
0
  6
Continuous
 62
     0
100
AcDbCircle
 10
1050.576548
 20
282.69368
 30
0.0
 40
2.0
100
AcDbArc
 50
270.0
 51
0.0
  0
ARC
  5
560
330
19
100
AcDbEntity
  8
0
  6
Continuous
 62
     0
100
AcDbCircle
 10
1050.576548
 20
568.6936799999998
 30
0.0
 40
2.0
100
AcDbArc
 50
0.0
 51
90.0
  0
LINE
  5
561
330
19
100
AcDbEntity
  8
0
  6
Continuous
 62
     0
100
AcDbLine
 10
153.576548
 20
285.6936799999998
 30
0.0
 11
153.576548
 21
299.6936799999998
 31
0.0
  0
ARC
  5
562
330
19
100
AcDbEntity
  8
0
  6
Continuous
 62
     0
100
AcDbCircle
 10
157.576548
 20
285.6936799999998
 30
0.0
 40
4.0
100
AcDbArc
 50
180.0
 51
270.0
  0
LINE
  5
563
330
19
100
AcDbEntity
  8
0
  6
Continuous
 62
     0
100
AcDbLine
 10
157.576548
 20
281.6936799999998
 30
0.0
 11
597.5765479999998
 21
281.6936799999998
 31
0.0
  0
LINE
  5
564
330
19
100
AcDbEntity
  8
0
  6
Continuous
 62
     0
100
AcDbLine
 10
601.5765479999998
 20
285.6936799999998
 30
0.0
 11
601.5765479999998
 21
299.6936799999998
 31
0.0
  0
ARC
  5
565
330
19
100
AcDbEntity
  8
0
  6
Continuous
 62
     0
100
AcDbCircle
 10
597.5765479999998
 20
285.6936799999998
 30
0.0
 40
4.0
100
AcDbArc
 50
270.0
 51
0.0
  0
LINE
  5
566
330
19
100
AcDbEntity
  8
0
  6
Continuous
 62
     0
100
AcDbLine
 10
337.576548
 20
507.1936799999998
 30
0.0
 11
337.576548
 21
497.1936799999999
 31
0.0
  0
LINE
  5
567
330
19
100
AcDbEntity
  8
0
  6
Continuous
 62
     0
100
AcDbLine
 10
417.5765479999998
 20
507.1936799999998
 30
0.0
 11
417.5765479999998
 21
497.1936799999999
 31
0.0
  0
LINE
  5
568
330
19
100
AcDbEntity
  8
0
  6
Continuous
 62
     0
100
AcDbLine
 10
300.076548
 20
510.6936799999998
 30
0.0
 11
300.076548
 21
493.6936799999998
 31
0.0
  0
ARC
  5
569
330
19
100
AcDbEntity
  8
0
  6
Continuous
 62
     0
100
AcDbCircle
 10
301.576548
 20
493.6936799999998
 30
0.0
 40
1.5
100
AcDbArc
 50
180.0
 51
270.0
  0
LINE
  5
56A
330
19
100
AcDbEntity
  8
0
  6
Continuous
 62
     0
100
AcDbLine
 10
301.576548
 20
492.19368
 30
0.0
 11
453.5765480000002
 21
492.19368
 31
0.0
  0
LINE
  5
56B
330
19
100
AcDbEntity
  8
0
  6
Continuous
 62
     0
100
AcDbLine
 10
455.076548
 20
493.6936799999998
 30
0.0
 11
455.076548
 21
510.6936799999998
 31
0.0
  0
ARC
  5
56C
330
19
100
AcDbEntity
  8
0
  6
Continuous
 62
     0
100
AcDbCircle
 10
453.5765480000002
 20
493.6936799999998
 30
0.0
 40
1.5
100
AcDbArc
 50
270.0
 51
0.0
  0
LINE
  5
56D
330
19
100
AcDbEntity
  8
0
  6
Continuous
 62
     0
100
AcDbLine
 10
301.576548
 20
512.1936799999998
 30
0.0
 11
453.5765480000002
 21
512.1936799999998
 31
0.0
  0
ARC
  5
56E
330
19
100
AcDbEntity
  8
0
  6
Continuous
 62
     0
100
AcDbCircle
 10
301.576548
 20
510.6936799999998
 30
0.0
 40
1.5
100
AcDbArc
 50
90.0
 51
180.0
  0
ARC
  5
56F
330
19
100
AcDbEntity
  8
0
  6
Continuous
 62
     0
100
AcDbCircle
 10
453.5765480000002
 20
510.6936799999998
 30
0.0
 40
1.5
100
AcDbArc
 50
0.0
 51
90.0
  0
LINE
  5
570
330
19
100
AcDbEntity
  8
0
  6
HIDDEN
 62
     0
 48
10.0
100
AcDbLine
 10
457.576548
 20
352.6936799999998
 30
0.0
 11
457.576548
 21
350.6936799999998
 31
0.0
  0
LINE
  5
571
330
19
100
AcDbEntity
  8
0
  6
HIDDEN
 62
     0
 48
10.0
100
AcDbLine
 10
437.576548
 20
352.6936799999998
 30
0.0
 11
457.576548
 21
352.6936799999998
 31
0.0
  0
LINE
  5
572
330
19
100
AcDbEntity
  8
0
  6
HIDDEN
 62
     0
 48
10.0
100
AcDbLine
 10
437.576548
 20
350.6936799999998
 30
0.0
 11
437.576548
 21
352.6936799999998
 31
0.0
  0
LINE
  5
573
330
19
100
AcDbEntity
  8
0
  6
HIDDEN
 62
     0
 48
10.0
100
AcDbLine
 10
317.5765479999999
 20
352.6936799999998
 30
0.0
 11
317.5765479999999
 21
350.6936799999998
 31
0.0
  0
LINE
  5
574
330
19
100
AcDbEntity
  8
0
  6
HIDDEN
 62
     0
 48
10.0
100
AcDbLine
 10
297.576548
 20
352.6936799999998
 30
0.0
 11
317.5765479999999
 21
352.6936799999998
 31
0.0
  0
LINE
  5
575
330
19
100
AcDbEntity
  8
0
  6
HIDDEN
 62
     0
 48
10.0
100
AcDbLine
 10
297.576548
 20
350.6936799999998
 30
0.0
 11
297.576548
 21
352.6936799999998
 31
0.0
  0
LINE
  5
576
330
19
100
AcDbEntity
  8
0
  6
HIDDEN
 62
     0
 48
10.0
100
AcDbLine
 10
220.576548
 20
350.6936799999998
 30
0.0
 11
534.5765479999998
 21
350.6936799999998
 31
0.0
  0
LINE
  5
577
330
19
100
AcDbEntity
  8
0
  6
HIDDEN
 62
     0
 48
10.0
100
AcDbLine
 10
202.576548
 20
472.6936799999998
 30
0.0
 11
202.576548
 21
368.6936799999998
 31
0.0
  0
ARC
  5
578
330
19
100
AcDbEntity
  8
0
  6
HIDDEN
 62
     0
 48
10.0
100
AcDbCircle
 10
220.576548
 20
368.6936799999998
 30
0.0
 40
18.0
100
AcDbArc
 50
180.0
 51
270.0
  0
LINE
  5
579
330
19
100
AcDbEntity
  8
0
  6
HIDDEN
 62
     0
 48
10.0
100
AcDbLine
 10
220.576548
 20
490.6936799999998
 30
0.0
 11
534.5765479999998
 21
490.6936799999998
 31
0.0
  0
ARC
  5
57A
330
19
100
AcDbEntity
  8
0
  6
HIDDEN
 62
     0
 48
10.0
100
AcDbCircle
 10
220.576548
 20
472.6936799999998
 30
0.0
 40
18.0
100
AcDbArc
 50
90.0
 51
180.0
  0
ARC
  5
57B
330
19
100
AcDbEntity
  8
0
  6
HIDDEN
 62
     0
 48
10.0
100
AcDbCircle
 10
534.5765479999998
 20
472.6936799999998
 30
0.0
 40
18.0
100
AcDbArc
 50
0.0
 51
90.0
  0
LINE
  5
57C
330
19
100
AcDbEntity
  8
0
  6
HIDDEN
 62
     0
 48
10.0
100
AcDbLine
 10
182.576548
 20
506.6936799999998
 30
0.0
 11
182.576548
 21
334.6936799999998
 31
0.0
  0
ARC
  5
57D
330
19
100
AcDbEntity
  8
0
  6
HIDDEN
 62
     0
 48
10.0
100
AcDbCircle
 10
186.576548
 20
334.6936799999998
 30
0.0
 40
4.0
100
AcDbArc
 50
180.0
 51
270.0
  0
ARC
  5
57E
330
19
100
AcDbEntity
  8
0
  6
HIDDEN
 62
     0
 48
10.0
100
AcDbCircle
 10
568.5765479999998
 20
334.6936799999998
 30
0.0
 40
4.0
100
AcDbArc
 50
270.0
 51
0.0
  0
LINE
  5
57F
330
19
100
AcDbEntity
  8
0
  6
HIDDEN
 62
     0
 48
10.0
100
AcDbLine
 10
186.576548
 20
510.6936799999998
 30
0.0
 11
568.5765479999998
 21
510.6936799999998
 31
0.0
  0
ARC
  5
580
330
19
100
AcDbEntity
  8
0
  6
HIDDEN
 62
     0
 48
10.0
100
AcDbCircle
 10
186.576548
 20
506.6936799999998
 30
0.0
 40
4.0
100
AcDbArc
 50
90.0
 51
180.0
  0
ARC
  5
581
330
19
100
AcDbEntity
  8
0
  6
HIDDEN
 62
     0
 48
10.0
100
AcDbCircle
 10
568.5765479999998
 20
506.6936799999998
 30
0.0
 40
4.0
100
AcDbArc
 50
0.0
 51
90.0
  0
LINE
  5
582
330
19
100
AcDbEntity
  8
0
  6
Continuous
 62
     0
100
AcDbLine
 10
155.5765479999999
 20
537.1936799999998
 30
0.0
 11
599.576548
 21
537.1936799999998
 31
0.0
  0
ARC
  5
583
330
19
100
AcDbEntity
  8
0
  6
Continuous
 62
     0
100
AcDbCircle
 10
155.5765479999999
 20
535.1936799999998
 30
0.0
 40
2.0
100
AcDbArc
 50
90.0
 51
180.0
  0
ARC
  5
584
330
19
100
AcDbEntity
  8
0
  6
Continuous
 62
     0
100
AcDbCircle
 10
599.576548
 20
535.1936799999998
 30
0.0
 40
2.0
100
AcDbArc
 50
0.0
 51
90.0
  0
LINE
  5
585
330
19
100
AcDbEntity
  8
0
  6
Continuous
 62
     0
100
AcDbLine
 10
153.576548
 20
535.1936799999998
 30
0.0
 11
153.576548
 21
306.1936799999998
 31
0.0
  0
ARC
  5
586
330
19
100
AcDbEntity
  8
0
  6
Continuous
 62
     0
100
AcDbCircle
 10
155.5765479999999
 20
306.1936799999998
 30
0.0
 40
2.0
100
AcDbArc
 50
180.0
 51
270.0
  0
ARC
  5
587
330
19
100
AcDbEntity
  8
0
  6
Continuous
 62
     0
100
AcDbCircle
 10
599.576548
 20
306.1936799999998
 30
0.0
 40
2.0
100
AcDbArc
 50
270.0
 51
0.0
  0
LINE
  5
588
330
19
100
AcDbEntity
  8
0
  6
Continuous
 62
     0
100
AcDbLine
 10
494.076548
 20
562.69368
 30
0.0
 11
494.076548
 21
549.6936799999998
 31
0.0
  0
LINE
  5
589
330
19
100
AcDbEntity
  8
0
  6
Continuous
 62
     0
100
AcDbLine
 10
487.0765480000001
 20
547.6936799999998
 30
0.0
 11
506.076548
 21
547.6936799999998
 31
0.0
  0
LINE
  5
58A
330
19
100
AcDbEntity
  8
0
  6
Continuous
 62
     0
100
AcDbLine
 10
485.076548
 20
549.6936799999998
 30
0.0
 11
485.076548
 21
562.69368
 31
0.0
  0
ARC
  5
58B
330
19
100
AcDbEntity
  8
0
  6
Continuous
 62
     0
100
AcDbCircle
 10
487.0765480000001
 20
549.6936799999998
 30
0.0
 40
2.0
100
AcDbArc
 50
180.0
 51
270.0
  0
LINE
  5
58C
330
19
100
AcDbEntity
  8
0
  6
Continuous
 62
     0
100
AcDbLine
 10
487.0765480000001
 20
564.6936799999998
 30
0.0
 11
506.076548
 21
564.6936799999998
 31
0.0
  0
ARC
  5
58D
330
19
100
AcDbEntity
  8
0
  6
Continuous
 62
     0
100
AcDbCircle
 10
487.0765480000001
 20
562.69368
 30
0.0
 40
2.0
100
AcDbArc
 50
90.0
 51
180.0
  0
ARC
  5
58E
330
19
100
AcDbEntity
  8
0
  6
Continuous
 62
     0
100
AcDbCircle
 10
506.076548
 20
562.69368
 30
0.0
 40
2.0
100
AcDbArc
 50
0.0
 51
90.0
  0
LINE
  5
58F
330
19
100
AcDbEntity
  8
0
  6
Continuous
 62
     0
100
AcDbLine
 10
508.0765480000001
 20
562.69368
 30
0.0
 11
508.0765480000001
 21
549.6936799999998
 31
0.0
  0
ARC
  5
590
330
19
100
AcDbEntity
  8
0
  6
Continuous
 62
     0
100
AcDbCircle
 10
506.076548
 20
549.6936799999998
 30
0.0
 40
2.0
100
AcDbArc
 50
270.0
 51
0.0
  0
CIRCLE
  5
591
330
19
100
AcDbEntity
  8
0
  6
Continuous
 62
     0
100
AcDbCircle
 10
424.076548
 20
556.1936799999998
 30
0.0
 40
4.549999999999998
  0
LINE
  5
592
330
19
100
AcDbEntity
  8
0
  6
Continuous
 62
     0
100
AcDbLine
 10
487.0765480000001
 20
549.6936799999998
 30
0.0
 11
487.0765480000001
 21
562.69368
 31
0.0
  0
LINE
  5
593
330
19
100
AcDbEntity
  8
0
  6
Continuous
 62
     0
100
AcDbLine
 10
506.076548
 20
549.6936799999998
 30
0.0
 11
487.0765480000001
 21
549.6936799999998
 31
0.0
  0
LINE
  5
594
330
19
100
AcDbEntity
  8
0
  6
Continuous
 62
     0
100
AcDbLine
 10
506.076548
 20
562.69368
 30
0.0
 11
506.076548
 21
549.6936799999998
 31
0.0
  0
LINE
  5
595
330
19
100
AcDbEntity
  8
0
  6
Continuous
 62
     0
100
AcDbLine
 10
487.0765480000001
 20
562.69368
 30
0.0
 11
506.076548
 21
562.69368
 31
0.0
  0
LINE
  5
596
330
19
100
AcDbEntity
  8
0
  6
Continuous
 62
     0
100
AcDbLine
 10
158.576548
 20
563.19368
 30
0.0
 11
158.576548
 21
549.1936799999998
 31
0.0
  0
ARC
  5
597
330
19
100
AcDbEntity
  8
0
  6
Continuous
 62
     0
100
AcDbCircle
 10
162.576548
 20
549.1936799999998
 30
0.0
 40
4.0
100
AcDbArc
 50
180.0
 51
270.0
  0
LINE
  5
598
330
19
100
AcDbEntity
  8
0
  6
Continuous
 62
     0
100
AcDbLine
 10
596.5765479999999
 20
549.1936799999998
 30
0.0
 11
596.5765479999999
 21
563.19368
 31
0.0
  0
ARC
  5
599
330
19
100
AcDbEntity
  8
0
  6
Continuous
 62
     0
100
AcDbCircle
 10
592.5765479999999
 20
549.1936799999998
 30
0.0
 40
4.0
100
AcDbArc
 50
270.0
 51
0.0
  0
LINE
  5
59A
330
19
100
AcDbEntity
  8
0
  6
Continuous
 62
     0
100
AcDbLine
 10
162.576548
 20
545.1936799999998
 30
0.0
 11
592.5765479999999
 21
545.1936799999998
 31
0.0
  0
LINE
  5
59B
330
19
100
AcDbEntity
  8
0
  6
Continuous
 62
     0
100
AcDbLine
 10
162.576548
 20
567.19368
 30
0.0
 11
592.5765479999999
 21
567.19368
 31
0.0
  0
ARC
  5
59C
330
19
100
AcDbEntity
  8
0
  6
Continuous
 62
     0
100
AcDbCircle
 10
162.576548
 20
563.19368
 30
0.0
 40
4.0
100
AcDbArc
 50
90.0
 51
180.0
  0
ARC
  5
59D
330
19
100
AcDbEntity
  8
0
  6
Continuous
 62
     0
100
AcDbCircle
 10
592.5765479999999
 20
563.19368
 30
0.0
 40
4.0
100
AcDbArc
 50
0.0
 51
90.0
  0
LINE
  5
59E
330
19
100
AcDbEntity
  8
0
  6
Continuous
 62
     0
100
AcDbLine
 10
155.5765479999999
 20
569.1936799999998
 30
0.0
 11
599.576548
 21
569.1936799999998
 31
0.0
  0
ARC
  5
59F
330
19
100
AcDbEntity
  8
0
  6
Continuous
 62
     0
100
AcDbCircle
 10
155.5765479999999
 20
568.1936799999999
 30
0.0
 40
1.0
100
AcDbArc
 50
90.0
 51
180.0
  0
ARC
  5
5A0
330
19
100
AcDbEntity
  8
0
  6
Continuous
 62
     0
100
AcDbCircle
 10
599.576548
 20
568.1936799999999
 30
0.0
 40
1.0
100
AcDbArc
 50
0.0
 51
90.0
  0
LINE
  5
5A1
330
19
100
AcDbEntity
  8
0
  6
Continuous
 62
     0
100
AcDbLine
 10
155.5765479999999
 20
543.1936799999999
 30
0.0
 11
599.576548
 21
543.1936799999999
 31
0.0
  0
LINE
  5
5A2
330
19
100
AcDbEntity
  8
0
  6
Continuous
 62
     0
100
AcDbLine
 10
154.576548
 20
568.1936799999999
 30
0.0
 11
154.576548
 21
544.1936799999998
 31
0.0
  0
ARC
  5
5A3
330
19
100
AcDbEntity
  8
0
  6
Continuous
 62
     0
100
AcDbCircle
 10
155.5765479999999
 20
544.1936799999998
 30
0.0
 40
1.0
100
AcDbArc
 50
180.0
 51
270.0
  0
LINE
  5
5A4
330
19
100
AcDbEntity
  8
0
  6
Continuous
 62
     0
100
AcDbLine
 10
600.5765479999999
 20
544.1936799999998
 30
0.0
 11
600.5765479999999
 21
568.1936799999999
 31
0.0
  0
ARC
  5
5A5
330
19
100
AcDbEntity
  8
0
  6
Continuous
 62
     0
100
AcDbCircle
 10
599.576548
 20
544.1936799999998
 30
0.0
 40
1.0
100
AcDbArc
 50
270.0
 51
0.0
  0
LINE
  5
5A6
330
19
100
AcDbEntity
  8
0
  6
Continuous
 62
     0
100
AcDbLine
 10
152.576548
 20
541.69368
 30
0.0
 11
602.576548
 21
541.69368
 31
0.0
  0
LINE
  5
5A7
330
19
100
AcDbEntity
  8
0
  6
Continuous
 62
     0
100
AcDbLine
 10
158.576548
 20
280.6936799999999
 30
0.0
 11
159.5143159999999
 21
266.6271609999999
 31
0.0
  0
ARC
  5
5A8
330
19
100
AcDbEntity
  8
0
  6
Continuous
 62
     0
100
AcDbCircle
 10
160.5121009999999
 20
266.6936799999999
 30
0.0
 40
1.0
100
AcDbArc
 50
183.8140749999999
 51
270.0
  0
LINE
  5
5A9
330
19
100
AcDbEntity
  8
0
  6
Continuous
 62
     0
100
AcDbLine
 10
160.5121009999999
 20
265.6936799999999
 30
0.0
 11
184.6409949999999
 21
265.6936799999999
 31
0.0
  0
ARC
  5
5AA
330
19
100
AcDbEntity
  8
0
  6
Continuous
 62
     0
100
AcDbCircle
 10
184.6409949999999
 20
266.6936799999999
 30
0.0
 40
1.0
100
AcDbArc
 50
270.0
 51
356.1859249999998
  0
LINE
  5
5AB
330
19
100
AcDbEntity
  8
0
  6
Continuous
 62
     0
100
AcDbLine
 10
186.576548
 20
280.6936799999999
 30
0.0
 11
185.63878
 21
266.6271609999999
 31
0.0
  0
LINE
  5
5AC
330
19
100
AcDbEntity
  8
0
  6
Continuous
 62
     0
100
AcDbLine
 10
568.5765479999998
 20
280.6936799999999
 30
0.0
 11
569.5143159999998
 21
266.6271609999999
 31
0.0
  0
ARC
  5
5AD
330
19
100
AcDbEntity
  8
0
  6
Continuous
 62
     0
100
AcDbCircle
 10
570.512101
 20
266.6936799999999
 30
0.0
 40
1.0
100
AcDbArc
 50
183.8140749999999
 51
270.0
  0
LINE
  5
5AE
330
19
100
AcDbEntity
  8
0
  6
Continuous
 62
     0
100
AcDbLine
 10
570.512101
 20
265.6936799999999
 30
0.0
 11
594.6409949999998
 21
265.6936799999999
 31
0.0
  0
LINE
  5
5AF
330
19
100
AcDbEntity
  8
0
  6
Continuous
 62
     0
100
AcDbLine
 10
596.5765479999999
 20
280.6936799999999
 30
0.0
 11
595.6387799999999
 21
266.6271609999999
 31
0.0
  0
ARC
  5
5B0
330
19
100
AcDbEntity
  8
0
  6
Continuous
 62
     0
100
AcDbCircle
 10
594.6409949999998
 20
266.6936799999999
 30
0.0
 40
1.0
100
AcDbArc
 50
270.0
 51
356.1859249999998
  0
LINE
  5
5B1
330
19
100
AcDbEntity
  8
0
  6
Continuous
 62
     0
100
AcDbLine
 10
602.576548
 20
282.69368
 30
0.0
 11
602.576548
 21
568.6936799999998
 31
0.0
  0
ARC
  5
5B2
330
19
100
AcDbEntity
  8
0
  6
Continuous
 62
     0
100
AcDbCircle
 10
600.5765479999999
 20
282.69368
 30
0.0
 40
2.0
100
AcDbArc
 50
270.0
 51
0.0
  0
LINE
  5
5B3
330
19
100
AcDbEntity
  8
0
  6
Continuous
 62
     0
100
AcDbLine
 10
154.576548
 20
570.69368
 30
0.0
 11
600.5765479999999
 21
570.69368
 31
0.0
  0
ARC
  5
5B4
330
19
100
AcDbEntity
  8
0
  6
Continuous
 62
     0
100
AcDbCircle
 10
154.576548
 20
568.6936799999998
 30
0.0
 40
2.0
100
AcDbArc
 50
90.0
 51
180.0
  0
ARC
  5
5B5
330
19
100
AcDbEntity
  8
0
  6
Continuous
 62
     0
100
AcDbCircle
 10
600.5765479999999
 20
568.6936799999998
 30
0.0
 40
2.0
100
AcDbArc
 50
0.0
 51
90.0
  0
LINE
  5
5B6
330
19
100
AcDbEntity
  8
0
  6
Continuous
 62
     0
100
AcDbLine
 10
152.576548
 20
282.69368
 30
0.0
 11
152.576548
 21
568.6936799999998
 31
0.0
  0
ARC
  5
5B7
330
19
100
AcDbEntity
  8
0
  6
Continuous
 62
     0
100
AcDbCircle
 10
154.576548
 20
282.69368
 30
0.0
 40
2.0
100
AcDbArc
 50
180.0
 51
270.0
  0
LINE
  5
5B8
330
19
100
AcDbEntity
  8
0
  6
Continuous
 62
     0
370
    60
100
AcDbLine
 10
44.649898
 20
798.355586
 30
0.0
 11
44.649898
 21
38.355556
 31
0.0
  0
LINE
  5
5BA
330
19
100
AcDbEntity
  8
0
  6
Continuous
 62
     0
370
    60
100
AcDbLine
 10
1147.649898
 20
38.355556
 30
0.0
 11
1147.649898
 21
798.3555249999998
 31
0.0
  0
LINE
  5
5BB
330
19
100
AcDbEntity
  8
0
  6
Continuous
 62
     0
100
AcDbLine
 10
154.649898
 20
98.35555600000001
 30
0.0
 11
154.649898
 21
38.355556
 31
0.0
  0
LINE
  5
5BC
330
19
100
AcDbEntity
  8
0
  6
Continuous
 62
     0
370
    60
100
AcDbLine
 10
1147.649898
 20
38.355556
 30
0.0
 11
44.649898
 21
38.355556
 31
0.0
  0
LINE
  5
5BD
330
19
100
AcDbEntity
  8
0
  6
Continuous
 62
     0
100
AcDbLine
 10
704.6498979999999
 20
50.355556
 30
0.0
 11
44.649898
 21
50.355556
 31
0.0
  0
LINE
  5
5BE
330
19
100
AcDbEntity
  8
0
  6
Continuous
 62
     0
100
AcDbLine
 10
704.6498979999999
 20
62.35555600000001
 30
0.0
 11
44.649898
 21
62.35555600000001
 31
0.0
  0
LINE
  5
5BF
330
19
100
AcDbEntity
  8
0
  6
Continuous
 62
     0
100
AcDbLine
 10
704.6498979999999
 20
74.355556
 30
0.0
 11
44.649898
 21
74.355556
 31
0.0
  0
LINE
  5
5C0
330
19
100
AcDbEntity
  8
0
  6
Continuous
 62
     0
100
AcDbLine
 10
704.6498979999999
 20
86.35555600000001
 30
0.0
 11
44.649898
 21
86.35555600000001
 31
0.0
  0
LINE
  5
5C1
330
19
100
AcDbEntity
  8
0
  6
Continuous
 62
     0
100
AcDbLine
 10
704.6498979999999
 20
98.35555600000001
 30
0.0
 11
44.649898
 21
98.35555600000001
 31
0.0
  0
LINE
  5
5C2
330
19
100
AcDbEntity
  8
0
  6
Continuous
 62
     0
370
    40
100
AcDbLine
 10
704.6498979999999
 20
110.3555559999999
 30
0.0
 11
44.649898
 21
110.3555559999999
 31
0.0
  0
LINE
  5
5C3
330
19
100
AcDbEntity
  8
0
  6
Continuous
 62
     0
100
AcDbLine
 10
154.576548
 20
280.6936799999999
 30
0.0
 11
600.5765479999999
 21
280.6936799999999
 31
0.0
  0
LINE
  5
5C4
330
19
100
AcDbEntity
  8
0
  6
Continuous
 62
     0
100
AcDbLine
 10
599.576548
 20
304.1936799999998
 30
0.0
 11
155.5765479999999
 21
304.1936799999998
 31
0.0
  0
LINE
  5
5C5
330
19
100
AcDbEntity
  8
0
  6
Continuous
 62
     0
100
AcDbLine
 10
153.576548
 20
299.6936799999998
 30
0.0
 11
601.5765479999998
 21
299.6936799999998
 31
0.0
  0
LINE
  5
5C6
330
19
100
AcDbEntity
  8
0
  6
HIDDEN
 62
     0
 48
10.0
100
AcDbLine
 10
186.576548
 20
330.6936799999998
 30
0.0
 11
568.5765479999998
 21
330.6936799999998
 31
0.0
  0
ARC
  5
5C7
330
19
100
AcDbEntity
  8
0
  6
HIDDEN
 62
     0
 48
10.0
100
AcDbCircle
 10
534.5765479999998
 20
368.6936799999998
 30
0.0
 40
18.0
100
AcDbArc
 50
270.0
 51
0.0
  0
LINE
  5
5C8
330
19
100
AcDbEntity
  8
0
  6
HIDDEN
 62
     0
 48
10.0
100
AcDbLine
 10
572.5765479999998
 20
334.6936799999998
 30
0.0
 11
572.5765479999998
 21
506.6936799999998
 31
0.0
  0
LINE
  5
5C9
330
19
100
AcDbEntity
  8
0
  6
Continuous
 62
     0
100
AcDbLine
 10
601.5765479999998
 20
535.1936799999998
 30
0.0
 11
601.5765479999998
 21
306.1936799999998
 31
0.0
  0
LINE
  5
5CA
330
19
100
AcDbEntity
  8
0
  6
Continuous
 62
     0
100
AcDbLine
 10
782.576548
 20
322.1936799999998
 30
0.0
 11
782.576548
 21
537.1936799999998
 31
0.0
  0
LINE
  5
5CB
330
19
100
AcDbEntity
  8
0
  6
Continuous
 62
     0
100
AcDbLine
 10
1050.576548
 20
570.69368
 30
0.0
 11
802.576548
 21
570.69368
 31
0.0
  0
LINE
  5
5CD
330
19
100
AcDbEntity
  8
0
  6
HIDDEN
 62
     0
 48
10.0
100
AcDbLine
 10
552.576548
 20
368.6936799999998
 30
0.0
 11
552.576548
 21
472.6936799999998
 31
0.0
  0
LINE
  5
5CE
330
19
100
AcDbEntity
  8
0
  6
Continuous
 62
     0
100
AcDbLine
 10
920.149898
 20
74.355556
 30
0.0
 11
983.149898
 21
74.355556
 31
0.0
  0
LINE
  5
5CF
330
19
100
AcDbEntity
  8
0
  6
Continuous
 62
     0
100
AcDbLine
 10
983.149898
 20
66.355556
 30
0.0
 11
983.149898
 21
38.355556
 31
0.0
  0
LINE
  5
5D0
330
19
100
AcDbEntity
  8
0
  6
Continuous
 62
     0
100
AcDbLine
 10
920.149898
 20
62.35555600000001
 30
0.0
 11
983.149898
 21
62.35555600000001
 31
0.0
  0
TEXT
  5
5D2
330
19
100
AcDbEntity
  8
0
  6
Continuous
 62
     0
100
AcDbText
 10
196.3038249999999
 20
100.8795849999999
 30
0.0
 40
7.0
  1
材質又は定格
 41
0.714286
100
AcDbText
  0
TEXT
  5
5D3
330
19
100
AcDbEntity
  8
0
  6
Continuous
 62
     0
100
AcDbText
 10
528.3038249999998
 20
100.8795849999999
 30
0.0
 40
7.0
  1
仕　　様
 41
0.714286
100
AcDbText
  0
TEXT
  5
5D4
330
19
100
AcDbEntity
  8
0
  6
Continuous
 62
     0
100
AcDbText
 10
350.46541
 20
81.510454
 30
0.0
 40
3.0
  1
2
 41
0.666667
100
AcDbText
  0
TEXT
  5
5D5
330
19
100
AcDbEntity
  8
0
  6
Continuous
 62
     0
100
AcDbText
 10
413.803825
 20
88.87958499999998
 30
0.0
 40
7.0
  1
固定サーモスタッド
 41
0.714286
100
AcDbText
  0
TEXT
  5
5D6
330
19
100
AcDbEntity
  8
0
  6
Continuous
 62
     0
100
AcDbText
 10
378.303825
 20
88.87958499999998
 30
0.0
 40
7.0
  1
温度調節
 41
0.714286
100
AcDbText
  0
TEXT
  5
5DA
330
19
100
AcDbEntity
  8
0
  6
Continuous
 62
     0
100
AcDbText
 10
158.3038249999999
 20
88.87958499999998
 30
0.0
 40
7.0
  1
スイッチパネル
 41
0.714286
100
AcDbText
  0
TEXT
  5
5DD
330
19
100
AcDbEntity
  8
0
  6
Continuous
 62
     0
100
AcDbText
 10
413.803825
 20
76.87958499999997
 30
0.0
 40
7.0
  1
65℃～75℃
 41
0.714286
100
AcDbText
  0
TEXT
  5
5DE
330
19
100
AcDbEntity
  8
0
  6
Continuous
 62
     0
100
AcDbText
 10
378.303825
 20
76.87958499999997
 30
0.0
 40
7.0
  1
庫内温度
 41
0.714286
100
AcDbText
  0
TEXT
  5
5DF
330
19
100
AcDbEntity
  8
0
  6
Continuous
 62
     0
100
AcDbText
 10
321.803825
 20
76.87958499999997
 30
0.0
 40
7.0
  1
1.25mm 2M
 41
0.714286
100
AcDbText
  0
TEXT
  5
5E0
330
19
100
AcDbEntity
  8
0
  6
Continuous
 62
     0
100
AcDbText
 10
268.303825
 20
76.87958499999997
 30
0.0
 40
7.0
  1
アース線
 41
0.714286
100
AcDbText
  0
TEXT
  5
5E2
330
19
100
AcDbEntity
  8
0
  6
Continuous
 62
     0
100
AcDbText
 10
158.3038249999999
 20
76.87958499999997
 30
0.0
 40
7.0
  1
水受皿
 41
0.714286
100
AcDbText
  0
TEXT
  5
5E5
330
19
100
AcDbEntity
  8
0
  6
Continuous
 62
     0
100
AcDbText
 10
413.803825
 20
40.879585
 30
0.0
 40
7.0
  1
350Wx175Dx140H
 41
0.714286
100
AcDbText
  0
TEXT
  5
5E6
330
19
100
AcDbEntity
  8
0
  6
Continuous
 62
     0
100
AcDbText
 10
378.303825
 20
40.879585
 30
0.0
 40
7.0
  1
中箱寸法
 41
0.714286
100
AcDbText
  0
TEXT
  5
5E7
330
19
100
AcDbEntity
  8
0
  6
Continuous
 62
     0
100
AcDbText
 10
378.303825
 20
52.879585
 30
0.0
 40
7.0
  1
内容積
 41
0.714286
100
AcDbText
  0
TEXT
  5
5E8
330
19
100
AcDbEntity
  8
0
  6
Continuous
 62
     0
100
AcDbText
 10
413.803825
 20
52.879585
 30
0.0
 40
7.0
  1
8L
 41
0.714286
100
AcDbText
  0
TEXT
  5
5E9
330
19
100
AcDbEntity
  8
0
  6
Continuous
 62
     0
100
AcDbText
 10
413.803825
 20
64.87958499999999
 30
0.0
 40
7.0
  1
温度ヒューズ
 41
0.714286
100
AcDbText
  0
TEXT
  5
5EA
330
19
100
AcDbEntity
  8
0
  6
Continuous
 62
     0
100
AcDbText
 10
378.303825
 20
64.87958499999999
 30
0.0
 40
7.0
  1
安全装置
 41
0.714286
100
AcDbText
  0
TEXT
  5
5EC
330
19
100
AcDbEntity
  8
0
  6
Continuous
 62
     0
100
AcDbText
 10
158.3038249999999
 20
40.879585
 30
0.0
 40
7.0
  1
固定サーモスタッド
 41
0.714286
100
AcDbText
  0
TEXT
  5
5F0
330
19
100
AcDbEntity
  8
0
  6
Continuous
 62
     0
100
AcDbText
 10
158.3038249999999
 20
64.87958499999999
 30
0.0
 40
7.0
  1
発熱体
 41
0.714286
100
AcDbText
  0
TEXT
  5
5F1
330
19
100
AcDbEntity
  8
0
  6
Continuous
 62
     0
100
AcDbText
 10
953.7701889999999
 20
40.743675
 30
0.0
 40
7.0
  1
柴田
 41
0.714286
100
AcDbText
  0
TEXT
  5
5F2
330
19
100
AcDbEntity
  8
0
  6
Continuous
 62
     0
100
AcDbText
 10
953.7701889999999
 20
52.743675
 30
0.0
 40
7.0
  1
勇元
 41
0.714286
100
AcDbText
  0
TEXT
  5
5F3
330
19
100
AcDbEntity
  8
0
  6
Continuous
 62
     0
100
AcDbText
 10
1001.889736999998
 20
68.211501
 30
0.0
 40
7.0
  1
3
 41
0.714286
100
AcDbText
  0
TEXT
  5
5F4
330
19
100
AcDbEntity
  8
0
  6
Continuous
 62
     0
100
AcDbText
 10
991.0379849999999
 20
71.96023700000002
 30
0.0
 40
7.0
  1
1
 41
0.714286
100
AcDbText
  0
TEXT
  5
604
330
19
100
AcDbEntity
  8
0
  6
Continuous
 62
     0
100
AcDbText
 10
1033.389737
 20
68.211501
 30
0.0
 40
7.0
  1
1
 41
0.714286
100
AcDbText
  0
TEXT
  5
605
330
19
100
AcDbEntity
  8
0
  6
Continuous
 62
     0
100
AcDbText
 10
1022.537985
 20
71.96023700000002
 30
0.0
 40
7.0
  1
1
 41
0.714286
100
AcDbText
  0
DIMENSION
  5
62A
330
19
100
AcDbEntity
  8
0
  6
Continuous
 62
     0
100
AcDbDimension
  2
*D5
 10
977.576548
 20
337.1806789999999
 30
0.0
 11
890.1065480000001
 21
337.1806789999999
 31
0.0
 70
   160
  1
175
 71
     5
 42
-1.0
  3
DIM1
100
AcDbAlignedDimension
 13
802.576548
 23
350.6936799999998
 33
0.0
 14
977.576548
 24
350.6936799999998
 34
0.0
100
AcDbRotatedDimension
1001
ACAD
1000
DSTYLE
1002
{
1070
   271
1070
     1
1002
}
  0
DIMENSION
  5
62B
330
19
100
AcDbEntity
  8
0
  6
Continuous
 62
     0
100
AcDbDimension
  2
*D6
 10
762.576548
 20
230.161242
 30
0.0
 11
749.096548
 21
230.161242
 31
0.0
 70
   160
  1
27
 71
     5
 42
-1.0
  3
DIM1
100
AcDbAlignedDimension
 13
735.576548
 23
492.19368
 33
0.0
 14
762.576548
 24
281.6936799999998
 34
0.0
100
AcDbRotatedDimension
1001
ACAD
1000
DSTYLE
1002
{
1070
   271
1070
     1
1002
}
  0
DIMENSION
  5
62C
330
19
100
AcDbEntity
  8
0
  6
Continuous
 62
     0
100
AcDbDimension
  2
*D7
 10
1052.576548
 20
230.161242
 30
0.0
 11
907.606548
 21
230.161242
 31
0.0
 70
   160
  1
290
 71
     5
 42
-1.0
  3
DIM1
100
AcDbAlignedDimension
 13
762.576548
 23
281.6936799999998
 33
0.0
 14
1052.576548
 24
280.6936799999999
 34
0.0
100
AcDbRotatedDimension
1001
ACAD
1000
DSTYLE
1002
{
1070
   271
1070
     1
1002
}
  0
DIMENSION
  5
62D
330
19
100
AcDbEntity
  8
0
  6
Continuous
 62
     0
100
AcDbDimension
  2
*D8
 10
926.6666119999996
 20
285.6936799999998
 30
0.0
 11
926.6666119999996
 21
298.2136799999998
 31
0.0
 70
   160
  1
25
 71
     5
 42
-1.0
  3
DIM1
100
AcDbAlignedDimension
 13
979.576548
 23
310.6936799999998
 33
0.0
 14
988.5765479999999
 24
285.6936799999998
 34
0.0
 50
90.0
100
AcDbRotatedDimension
1001
ACAD
1000
DSTYLE
1002
{
1070
   271
1070
     1
1002
}
  0
DIMENSION
  5
62E
330
19
100
AcDbEntity
  8
0
  6
Continuous
 62
     0
100
AcDbDimension
  2
*D9
 10
968.576548
 20
321.818534
 30
0.0
 11
980.5965479999999
 21
321.818534
 31
0.0
 70
   160
  1
24
 71
     5
 42
-1.0
  3
DIM1
100
AcDbAlignedDimension
 13
992.576548
 23
310.6936799999998
 33
0.0
 14
968.576548
 24
310.6936799999998
 34
0.0
100
AcDbRotatedDimension
1001
ACAD
1000
DSTYLE
1002
{
1070
   271
1070
     1
1002
}
  0
DIMENSION
  5
62F
330
19
100
AcDbEntity
  8
0
  6
Continuous
 62
     0
100
AcDbDimension
  2
*D10
 10
992.576548
 20
321.818534
 30
0.0
 11
1022.596548
 21
321.818534
 31
0.0
 70
   160
  1
60
 71
     5
 42
-1.0
  3
DIM1
100
AcDbAlignedDimension
 13
1052.576548
 23
310.6936799999998
 33
0.0
 14
992.576548
 24
310.6936799999998
 34
0.0
100
AcDbRotatedDimension
1001
ACAD
1000
DSTYLE
1002
{
1070
   271
1070
     1
1002
}
  0
DIMENSION
  5
630
330
19
100
AcDbEntity
  8
0
  6
Continuous
 62
     0
100
AcDbDimension
  2
*D11
 10
1052.576548
 20
248.161485
 30
0.0
 11
1042.596548
 21
248.161485
 31
0.0
 70
   160
  1
20
 71
     5
 42
-1.0
  3
DIM1
100
AcDbAlignedDimension
 13
1032.576547999998
 23
265.6936799999999
 33
0.0
 14
1052.576548
 24
280.6936799999999
 34
0.0
100
AcDbRotatedDimension
1001
ACAD
1000
DSTYLE
1002
{
1070
   271
1070
     1
1002
}
  0
DIMENSION
  5
631
330
19
100
AcDbEntity
  8
0
  6
Continuous
 62
     0
100
AcDbDimension
  2
*D12
 10
1032.576547999998
 20
248.161485
 30
0.0
 11
907.65034270023
 21
248.161485
 31
0.0
 70
   160
  1
210
 71
     5
 42
210.0
  3
DIM1
100
AcDbAlignedDimension
 13
822.5765479999999
 23
265.6936799999999
 33
0.0
 14
1032.576547999998
 24
265.6936799999999
 34
0.0
100
AcDbRotatedDimension
1001
ACAD
1000
DSTYLE
1002
{
1070
   271
1070
     1
1002
}
  0
DIMENSION
  5
632
330
19
100
AcDbEntity
  8
0
  6
Continuous
 62
     0
100
AcDbDimension
  2
*D13
 10
822.5765479999999
 20
248.161485
 30
0.0
 11
812.5965480000001
 21
248.161485
 31
0.0
 70
   160
  1
20
 71
     5
 42
-1.0
  3
DIM1
100
AcDbAlignedDimension
 13
802.576548
 23
280.6936799999999
 33
0.0
 14
822.5765479999999
 24
265.6936799999999
 34
0.0
100
AcDbRotatedDimension
1001
ACAD
1000
DSTYLE
1002
{
1070
   271
1070
     1
1002
}
  0
DIMENSION
  5
633
330
19
100
AcDbEntity
  8
0
  6
Continuous
 62
     0
100
AcDbDimension
  2
*D14
 10
802.576548
 20
248.161485
 30
0.0
 11
782.5965480000001
 21
248.161485
 31
0.0
 70
   160
  1
40
 71
     5
 42
-1.0
  3
DIM1
100
AcDbAlignedDimension
 13
762.576548
 23
281.6936799999998
 33
0.0
 14
802.576548
 24
280.6936799999999
 34
0.0
100
AcDbRotatedDimension
1001
ACAD
1000
DSTYLE
1002
{
1070
   271
1070
     1
1002
}
  0
DIMENSION
  5
635
330
19
100
AcDbEntity
  8
0
  6
Continuous
 62
     0
100
AcDbDimension
  2
*D15
 10
802.576548
 20
588.645283
 30
0.0
 11
780.5965480000001
 21
588.645283
 31
0.0
 70
   160
  1
44
 71
     5
 42
-1.0
  3
DIM1
100
AcDbAlignedDimension
 13
758.576548
 23
562.69368
 33
0.0
 14
802.576548
 24
570.69368
 34
0.0
100
AcDbRotatedDimension
1001
ACAD
1000
DSTYLE
1002
{
1070
   271
1070
     1
1002
}
  0
DIMENSION
  5
636
330
19
100
AcDbEntity
  8
0
  6
Continuous
 62
     0
100
AcDbDimension
  2
*D16
 10
520.832547
 20
350.6936799999998
 30
0.0
 11
520.832547
 21
420.72368
 31
0.0
 70
   160
  1
140
 71
     5
 42
-1.0
  3
DIM1
100
AcDbAlignedDimension
 13
534.5765479999998
 23
490.6936799999998
 33
0.0
 14
534.5765479999998
 24
350.6936799999998
 34
0.0
 50
90.0
100
AcDbRotatedDimension
1001
ACAD
1000
DSTYLE
1002
{
1070
   271
1070
     1
1002
}
  0
DIMENSION
  5
637
330
19
100
AcDbEntity
  8
0
  6
Continuous
 62
     0
100
AcDbDimension
  2
*D17
 10
552.576548
 20
375.163195
 30
0.0
 11
377.6065479999998
 21
375.163195
 31
0.0
 70
   160
  1
350
 71
     5
 42
-1.0
  3
DIM1
100
AcDbAlignedDimension
 13
202.576548
 23
368.6936799999998
 33
0.0
 14
552.576548
 24
368.6936799999998
 34
0.0
100
AcDbRotatedDimension
1001
ACAD
1000
DSTYLE
1002
{
1070
   271
1070
     1
1002
}
  0
DIMENSION
  5
639
330
19
100
AcDbEntity
  8
0
  6
Continuous
 62
     0
100
AcDbDimension
  2
*D18
 10
172.5765479999999
 20
248.161485
 30
0.0
 11
162.5965479999998
 21
248.161485
 31
0.0
 70
   160
  1
20
 71
     5
 42
-1.0
  3
DIM1
100
AcDbAlignedDimension
 13
152.576548
 23
280.6936799999999
 33
0.0
 14
172.5765479999999
 24
265.6936799999999
 34
0.0
100
AcDbRotatedDimension
1001
ACAD
1000
DSTYLE
1002
{
1070
   271
1070
     1
1002
}
  0
DIMENSION
  5
63A
330
19
100
AcDbEntity
  8
0
  6
Continuous
 62
     0
100
AcDbDimension
  2
*D19
 10
582.576548
 20
248.161485
 30
0.0
 11
377.6065479999998
 21
248.161485
 31
0.0
 70
   160
  1
410
 71
     5
 42
-1.0
  3
DIM1
100
AcDbAlignedDimension
 13
172.5765479999999
 23
265.6936799999999
 33
0.0
 14
582.576548
 24
265.6936799999999
 34
0.0
100
AcDbRotatedDimension
1001
ACAD
1000
DSTYLE
1002
{
1070
   271
1070
     1
1002
}
  0
DIMENSION
  5
63B
330
19
100
AcDbEntity
  8
0
  6
Continuous
 62
     0
100
AcDbDimension
  2
*D20
 10
602.576548
 20
248.161485
 30
0.0
 11
592.5965480000001
 21
248.161485
 31
0.0
 70
   160
  1
20
 71
     5
 42
-1.0
  3
DIM1
100
AcDbAlignedDimension
 13
582.576548
 23
265.6936799999999
 33
0.0
 14
602.576548
 24
280.6936799999999
 34
0.0
100
AcDbRotatedDimension
1001
ACAD
1000
DSTYLE
1002
{
1070
   271
1070
     1
1002
}
  0
DIMENSION
  5
63D
330
19
100
AcDbEntity
  8
0
  6
Continuous
 62
     0
100
AcDbDimension
  2
*D21
 10
640.0280989999998
 20
265.6936799999999
 30
0.0
 11
640.0280989999998
 21
418.22368
 31
0.0
 70
   160
  1
305
 71
     5
 42
-1.0
  3
DIM1
100
AcDbAlignedDimension
 13
602.576548
 23
570.69368
 33
0.0
 14
595.576548
 24
265.6936799999999
 34
0.0
 50
90.0
100
AcDbRotatedDimension
1001
ACAD
1000
DSTYLE
1002
{
1070
   271
1070
     1
1002
}
  0
DIMENSION
  5
63E
330
19
100
AcDbEntity
  8
0
  6
Continuous
 62
     0
100
AcDbDimension
  2
*D22
 10
621.0353959999999
 20
265.6936799999999
 30
0.0
 11
621.0353959999999
 21
273.2136799999998
 31
0.0
 70
   160
  1
15
 71
     5
 42
-1.0
  3
DIM1
100
AcDbAlignedDimension
 13
602.576548
 23
280.6936799999999
 33
0.0
 14
595.576548
 24
265.6936799999999
 34
0.0
 50
90.0
100
AcDbRotatedDimension
1001
ACAD
1000
DSTYLE
1002
{
1070
   271
1070
     1
1002
}
  0
TEXT
  5
63F
330
19
100
AcDbEntity
  8
0
  6
HIDDEN
 62
     0
 48
10.0
100
AcDbText
 10
547.589999
 20
552.799704
 30
0.0
 40
6.0
  1
N I S S E I
 41
0.571429
100
AcDbText
  0
LWPOLYLINE
  5
640
330
19
100
AcDbEntity
  8
0
  6
HIDDEN
 62
     0
 48
10.0
100
AcDbPolyline
 90
       41
 70
     0
 43
0.0
 10
944.605325
 20
315.963272
 10
944.135561
 20
315.6266759999998
 10
943.6836289999996
 20
315.291384
 10
943.267359
 20
314.9587009999998
 10
942.904582
 20
314.629932
 10
942.6131299999999
 20
314.306381
 10
942.4108330000001
 20
313.989352
 10
942.315523
 20
313.68015
 10
942.3450309999999
 20
313.3800799999999
 10
942.477376
 20
313.1301279999998
 10
942.6905789999999
 20
312.883149
 10
942.960622
 20
312.634443
 10
943.2634849999999
 20
312.3793089999998
 10
943.575152
 20
312.11305
 10
943.871604
 20
311.830963
 10
944.128822
 20
311.5283499999998
 10
944.322788
 20
311.200511
 10
944.3975489999999
 20
310.998418
 10
944.444348
 20
310.7887379999999
 10
944.464323
 20
310.573864
 10
944.4586130000001
 20
310.3561859999998
 10
944.4283569999999
 20
310.138098
 10
944.374694
 20
309.9219909999998
 10
944.2987630000001
 20
309.710258
 10
944.2017009999997
 20
309.505291
 10
943.916989
 20
309.078616
 10
943.5607129999999
 20
308.69132
 10
943.1610349999999
 20
308.337098
 10
942.746123
 20
308.009643
 10
942.344141
 20
307.70265
 10
941.9832529999997
 20
307.4098109999998
 10
941.6916249999999
 20
307.124821
 10
941.4974210000002
 20
306.8413729999998
 10
941.4284399999999
 20
306.410581
 10
941.6050079999999
 20
305.970475
 10
941.992047
 20
305.5223849999998
 10
942.554478
 20
305.067643
 10
943.257224
 20
304.6075789999998
 10
944.065205
 20
304.143523
 10
944.943342
 20
303.6768059999999
 10
945.8565589999999
 20
303.2087589999998
  0
LWPOLYLINE
  5
66B
330
19
100
AcDbEntity
  8
0
  6
HIDDEN
 62
     0
 48
10.0
100
AcDbPolyline
 90
       37
 70
     0
 43
0.0
 10
1036.084399
 20
296.503552
 10
1035.602785
 20
296.264384
 10
1035.147149
 20
296.0180139999998
 10
1034.743469999999
 20
295.757243
 10
1034.417725999998
 20
295.474869
 10
1034.195896
 20
295.163691
 10
1034.103957
 20
294.8165089999998
 10
1034.147355
 20
294.4548919999998
 10
1034.280410999999
 20
294.066518
 10
1034.455869
 20
293.6625799999998
 10
1034.626473999999
 20
293.254271
 10
1034.744971
 20
292.8527859999998
 10
1034.764103999999
 20
292.4693189999998
 10
1034.582831
 20
291.993568
 10
1034.22163
 20
291.556372
 10
1033.767138
 20
291.143178
 10
1033.305995999999
 20
290.739433
 10
1032.924841
 20
290.3305839999998
 10
1032.710313
 20
289.902079
 10
1032.699736
 20
289.570066
 10
1032.803895
 20
289.22585
 10
1033.002258
 20
288.8754959999999
 10
1033.274295
 20
288.525073
 10
1033.599472
 20
288.180648
 10
1033.957257999998
 20
287.848287
 10
1034.356958
 20
287.5076899999999
 10
1034.746487
 20
287.183083
 10
1035.101584
 20
286.869297
 10
1035.397985
 20
286.561165
 10
1035.611427999999
 20
286.25352
 10
1035.717651
 20
285.941195
 10
1035.682986
 20
285.5589819999999
 10
1035.493858
 20
285.1652
 10
1035.181158
 20
284.7621619999998
 10
1034.77578
 20
284.352183
 10
1034.308615
 20
283.9375749999998
 10
1033.810557999998
 20
283.5206539999998
  0
TEXT
  5
692
330
19
100
AcDbEntity
  8
0
  6
Continuous
 62
     0
100
AcDbText
 10
511.822349
 20
553.412134
 30
0.0
 40
7.0
  1
切
 41
0.714286
100
AcDbText
  0
TEXT
  5
693
330
19
100
AcDbEntity
  8
0
  6
Continuous
 62
     0
100
AcDbText
 10
476.1587169999998
 20
553.100661
 30
0.0
 40
7.0
  1
入
 41
0.714286
100
AcDbText
  0
TEXT
  5
694
330
19
100
AcDbEntity
  8
0
  6
Continuous
 62
     0
100
AcDbText
 10
233.815839
 20
552.084467
 30
0.0
 40
5.0
  1
TP-50S
 41
0.6
100
AcDbText
  0
TEXT
  5
695
330
19
100
AcDbEntity
  8
0
  6
Continuous
 62
     0
100
AcDbText
 10
170.3046009999999
 20
552.592557
 30
0.0
 40
8.0
  1
Towel Pot
 41
0.75
100
AcDbText
  0
TEXT
  5
696
330
19
100
AcDbEntity
  8
0
  6
Continuous
 62
     0
100
AcDbText
 10
905.6927980000001
 20
74.709552
 30
0.0
 40
5.0
  1
許容差
 41
0.6
100
AcDbText
  0
TEXT
  5
697
330
19
100
AcDbEntity
  8
0
  6
Continuous
 62
     0
100
AcDbText
 10
881.192798
 20
74.709552
 30
0.0
 40
5.0
  1
呼ビ寸法
 41
0.6
100
AcDbText
  0
TEXT
  5
698
330
19
100
AcDbEntity
  8
0
  6
Continuous
 62
     0
100
AcDbText
 10
877.192798
 20
80.709552
 30
0.0
 40
5.0
  1
指定以外ﾉ寸法ニ対スル許容差
 41
0.6
100
AcDbText
  0
TEXT
  5
699
330
19
100
AcDbEntity
  8
0
  6
Continuous
 62
     0
100
AcDbText
 10
902.192798
 20
38.909552
 30
0.0
 40
5.0
  1
%%p0.5
 41
0.6
100
AcDbText
  0
TEXT
  5
69A
330
19
100
AcDbEntity
  8
0
  6
Continuous
 62
     0
100
AcDbText
 10
902.192798
 20
45.00955199999999
 30
0.0
 40
5.0
  1
%%p0.3
 41
0.6
100
AcDbText
  0
TEXT
  5
69B
330
19
100
AcDbEntity
  8
0
  6
Continuous
 62
     0
100
AcDbText
 10
902.192798
 20
51.009552
 30
0.0
 40
5.0
  1
%%p0.2
 41
0.6
100
AcDbText
  0
TEXT
  5
69C
330
19
100
AcDbEntity
  8
0
  6
Continuous
 62
     0
100
AcDbText
 10
902.192798
 20
56.90955200000001
 30
0.0
 40
5.0
  1
%%p0.15
 41
0.6
100
AcDbText
  0
TEXT
  5
69D
330
19
100
AcDbEntity
  8
0
  6
Continuous
 62
     0
100
AcDbText
 10
902.192798
 20
62.959552
 30
0.0
 40
5.0
  1
%%p0.1
 41
0.6
100
AcDbText
  0
TEXT
  5
69E
330
19
100
AcDbEntity
  8
0
  6
Continuous
 62
     0
100
AcDbText
 10
875.1927980000001
 20
38.909552
 30
0.0
 40
5.0
  1
400～1000
 41
0.6
100
AcDbText
  0
TEXT
  5
69F
330
19
100
AcDbEntity
  8
0
  6
Continuous
 62
     0
100
AcDbText
 10
875.1927980000001
 20
45.00955199999999
 30
0.0
 40
5.0
  1
120～400
 41
0.6
100
AcDbText
  0
TEXT
  5
6A0
330
19
100
AcDbEntity
  8
0
  6
Continuous
 62
     0
100
AcDbText
 10
875.1927980000001
 20
51.009552
 30
0.0
 40
5.0
  1
 30～120
 41
0.6
100
AcDbText
  0
TEXT
  5
6A1
330
19
100
AcDbEntity
  8
0
  6
Continuous
 62
     0
100
AcDbText
 10
875.1927980000001
 20
56.90955200000001
 30
0.0
 40
5.0
  1
  6～30
 41
0.6
100
AcDbText
  0
TEXT
  5
6A2
330
19
100
AcDbEntity
  8
0
  6
Continuous
 62
     0
100
AcDbText
 10
875.1927980000001
 20
62.959552
 30
0.0
 40
5.0
  1
  3～6
 41
0.6
100
AcDbText
  0
TEXT
  5
6A3
330
19
100
AcDbEntity
  8
0
  6
Continuous
 62
     0
100
AcDbText
 10
902.192798
 20
68.959552
 30
0.0
 40
5.0
  1
%%p0.05
 41
0.6
100
AcDbText
  0
TEXT
  5
6A4
330
19
100
AcDbEntity
  8
0
  6
Continuous
 62
     0
100
AcDbText
 10
875.1927980000001
 20
68.959552
 30
0.0
 40
5.0
  1
  0～3
 41
0.6
100
AcDbText
  0
TEXT
  5
6A6
330
19
100
AcDbEntity
  8
0
  6
Continuous
 62
     0
100
AcDbText
 10
953.7701889999999
 20
64.74367499999999
 30
0.0
 40
7.0
  1
勇元
 41
0.714286
100
AcDbText
  0
TEXT
  5
6A7
330
19
100
AcDbEntity
  8
0
  6
Continuous
 62
     0
100
AcDbText
 10
936.6498980000001
 20
76.855556
 30
0.0
 40
7.0
  1
02'/01/01
 41
0.714286
100
AcDbText
  0
TEXT
  5
6A8
330
19
100
AcDbEntity
  8
0
  6
Continuous
 62
     0
100
AcDbText
 10
1027.391487999999
 20
79.699758
 30
0.0
 40
5.0
  1
Q'TY
 41
0.6
100
AcDbText
  0
TEXT
  5
6A9
330
19
100
AcDbEntity
  8
0
  6
Continuous
 62
     0
100
AcDbText
 10
1018.391488
 20
79.449758
 30
0.0
 40
5.0
  1
個数
 41
0.6
100
AcDbText
  0
TEXT
  5
6AA
330
19
100
AcDbEntity
  8
0
  6
Continuous
 62
     0
100
AcDbText
 10
1048.602384
 20
53.328939
 30
0.0
 40
5.0
  1
DRG.NO.
 41
0.6
100
AcDbText
  0
TEXT
  5
6AB
330
19
100
AcDbEntity
  8
0
  6
Continuous
 62
     0
100
AcDbText
 10
985.602384
 20
53.328939
 30
0.0
 40
5.0
  1
TYPE
 41
0.6
100
AcDbText
  0
TEXT
  5
6AC
330
19
100
AcDbEntity
  8
0
  6
Continuous
 62
     0
100
AcDbText
 10
921.98918
 20
75.24019799999997
 30
0.0
 40
5.0
  1
DATA
 41
0.6
100
AcDbText
  0
TEXT
  5
6AD
330
19
100
AcDbEntity
  8
0
  6
Continuous
 62
     0
100
AcDbText
 10
993.772783
 20
80.269572
 30
0.0
 40
5.0
  1
SCALE
 41
0.6
100
AcDbText
  0
TEXT
  5
6AE
330
19
100
AcDbEntity
  8
0
  6
Continuous
 62
     0
100
AcDbText
 10
922.102384
 20
62.828939
 30
0.0
 40
5.0
  1
APPRO.
 41
0.6
100
AcDbText
  0
TEXT
  5
6AF
330
19
100
AcDbEntity
  8
0
  6
Continuous
 62
     0
100
AcDbText
 10
922.1498979999999
 20
38.85555599999999
 30
0.0
 40
5.0
  1
DRAWN
 41
0.6
100
AcDbText
  0
TEXT
  5
6B0
330
19
100
AcDbEntity
  8
0
  6
Continuous
 62
     0
100
AcDbText
 10
922.202384
 20
50.828939
 30
0.0
 40
5.0
  1
DESI.
 41
0.6
100
AcDbText
  0
TEXT
  5
6B1
330
19
100
AcDbEntity
  8
0
  6
Continuous
 62
     0
100
AcDbText
 10
921.98918
 20
80.49019799999998
 30
0.0
 40
5.0
  1
作成
 41
0.6
100
AcDbText
  0
TEXT
  5
6B2
330
19
100
AcDbEntity
  8
0
  6
Continuous
 62
     0
100
AcDbText
 10
985.1023839999999
 20
80.57893900000001
 30
0.0
 40
5.0
  1
尺度
 41
0.6
100
AcDbText
  0
TEXT
  5
6B3
330
19
100
AcDbEntity
  8
0
  6
Continuous
 62
     0
100
AcDbText
 10
922.1498979999999
 20
44.105556
 30
0.0
 40
5.0
  1
製図
 41
0.6
100
AcDbText
  0
TEXT
  5
6B4
330
19
100
AcDbEntity
  8
0
  6
Continuous
 62
     0
100
AcDbText
 10
922.202384
 20
56.078939
 30
0.0
 40
5.0
  1
設計
 41
0.6
100
AcDbText
  0
TEXT
  5
6B5
330
19
100
AcDbEntity
  8
0
  6
Continuous
 62
     0
100
AcDbText
 10
922.102384
 20
68.078939
 30
0.0
 40
5.0
  1
承認
 41
0.6
100
AcDbText
  0
TEXT
  5
6B6
330
19
100
AcDbEntity
  8
0
  6
Continuous
 62
     0
100
AcDbText
 10
985.602384
 20
60.078939
 30
0.0
 40
5.0
  1
機名
 41
0.6
100
AcDbText
  0
TEXT
  5
6B7
330
19
100
AcDbEntity
  8
0
  6
Continuous
 62
     0
100
AcDbText
 10
1048.602384
 20
60.078939
 30
0.0
 40
5.0
  1
図番
 41
0.6
100
AcDbText
  0
DIMENSION
  5
6BA
330
19
100
AcDbEntity
  8
0
  6
Continuous
 62
     0
100
AcDbDimension
  2
*D23
 10
152.576548
 20
230.161242
 30
0.0
 11
377.6065479999998
 21
230.161242
 31
0.0
 70
   160
  1
450
 71
     5
 42
-1.0
  3
DIM1
100
AcDbAlignedDimension
 13
602.576548
 23
280.6936799999999
 33
0.0
 14
152.576548
 24
280.6936799999999
 34
0.0
100
AcDbRotatedDimension
1001
ACAD
1000
DSTYLE
1002
{
1070
   271
1070
     1
1002
}
  0
DIMENSION
  5
6BB
330
19
100
AcDbEntity
  8
0
  6
Continuous
 62
     0
100
AcDbDimension
  2
*D24
 10
621.0353959999999
 20
570.69368
 30
0.0
 11
621.0353959999999
 21
425.72368
 31
0.0
 70
   160
  1
290
 71
     5
 42
-1.0
  3
DIM1
100
AcDbAlignedDimension
 13
602.576548
 23
280.6936799999999
 33
0.0
 14
602.576548
 24
570.69368
 34
0.0
 50
90.0
100
AcDbRotatedDimension
1001
ACAD
1000
DSTYLE
1002
{
1070
   271
1070
     1
1002
}
  0
DIMENSION
  5
6BC
330
19
100
AcDbEntity
  8
0
  6
Continuous
 62
     0
100
AcDbDimension
  2
*D25
 10
1052.576548
 20
588.645283
 30
0.0
 11
927.6065479999999
 21
588.645283
 31
0.0
 70
   160
  1
250
 71
     5
 42
-1.0
  3
DIM1
100
AcDbAlignedDimension
 13
802.576548
 23
570.69368
 33
0.0
 14
1052.576548
 24
570.69368
 34
0.0
100
AcDbRotatedDimension
1001
ACAD
1000
DSTYLE
1002
{
1070
   271
1070
     1
1002
}
  0
TEXT
  5
6BD
330
19
100
AcDbEntity
  8
0
  6
Continuous
 62
     0
100
AcDbText
 10
998.7487555629643
 20
41.35555599999999
 30
0.0
 40
9.0
  1
TP-50S
 41
0.777778
100
AcDbText
  0
POINT
  5
6BF
330
19
100
AcDbEntity
  8
0
  6
Continuous
 62
     0
100
AcDbPoint
 10
377.576548
 20
473.94368
 30
0.0
  0
POINT
  5
6C0
330
19
100
AcDbEntity
  8
0
  6
Continuous
 62
     0
100
AcDbPoint
 10
839.9502039999996
 20
434.706473
 30
0.0
  0
POINT
  5
6C1
330
19
100
AcDbEntity
  8
0
  6
Continuous
 62
     0
100
AcDbPoint
 10
840.4333820000001
 20
442.146076
 30
0.0
  0
POINT
  5
6C2
330
19
100
AcDbEntity
  8
0
  6
Continuous
 62
     0
100
AcDbPoint
 10
849.9502039999999
 20
434.706473
 30
0.0
  0
POINT
  5
6C3
330
19
100
AcDbEntity
  8
0
  6
Continuous
 62
     0
100
AcDbPoint
 10
859.9502039999999
 20
436.37314
 30
0.0
  0
POINT
  5
6C4
330
19
100
AcDbEntity
  8
0
  6
Continuous
 62
     0
100
AcDbPoint
 10
859.9502039999999
 20
438.0398059999998
 30
0.0
  0
POINT
  5
6C5
330
19
100
AcDbEntity
  8
0
  6
Continuous
 62
     0
100
AcDbPoint
 10
854.766547
 20
437.188826
 30
0.0
  0
POINT
  5
6C6
330
19
100
AcDbEntity
  8
0
  6
Continuous
 62
     0
100
AcDbPoint
 10
374.649898
 20
98.35555600000001
 30
0.0
  0
TEXT
  5
2767
330
19
100
AcDbEntity
  8
0
 62
     0
100
AcDbText
 10
977.1981899348833
 20
774.6114556106403
 30
0.0
 40
6.0
  1
2020.03.03
 41
0.4476566944285466
  7
ED_VECTOR
 72
     5
 11
1003.162278211739
 21
774.6114556106403
 31
0.0
100
AcDbText
  0
TEXT
  5
2768
330
19
100
AcDbEntity
  8
0
  6
Continuous
 62
     0
370
    -3
100
AcDbText
 10
981.8998979999999
 20
789.7305249999998
 30
0.0
 40
6.0
  1
年月日
 41
0.8593750000000001
  7
ED_VECTOR
 72
     5
 11
998.399898
 21
789.7305249999998
 31
0.0
100
AcDbText
  0
TEXT
  5
2769
330
19
100
AcDbEntity
  8
0
  6
Continuous
 62
     0
370
    -3
100
AcDbText
 10
984.1475025000002
 20
784.3582704999996
 30
0.0
 40
3.244508999999999
  1
DATE
 41
1.009099962148584
  7
ED_VECTOR
 72
     5
 11
996.1522934999997
 21
784.3582704999996
 31
0.0
100
AcDbText
  0
LINE
  5
276A
330
19
100
AcDbEntity
  8
0
  6
Continuous
 62
     0
370
    -3
100
AcDbLine
 10
960.149898
 20
749.6055249999998
 30
0.0
 11
1147.649898
 21
749.6055249999998
 31
0.0
  0
LINE
  5
276B
330
19
100
AcDbEntity
  8
0
  6
Continuous
 62
     0
370
    -3
100
AcDbLine
 10
960.149898
 20
760.8555249999998
 30
0.0
 11
1147.649898
 21
760.8555249999998
 31
0.0
  0
LINE
  5
276C
330
19
100
AcDbEntity
  8
0
  6
Continuous
 62
     0
370
    -3
100
AcDbLine
 10
960.149898
 20
772.105525
 30
0.0
 11
1147.649898
 21
772.105525
 31
0.0
  0
LINE
  5
276D
330
19
100
AcDbEntity
  8
0
  6
Continuous
 62
     0
370
    -3
100
AcDbLine
 10
960.149898
 20
783.3555249999998
 30
0.0
 11
1147.649898
 21
783.3555249999998
 31
0.0
  0
LINE
  5
276E
330
19
100
AcDbEntity
  8
0
 62
     0
100
AcDbLine
 10
967.7229856259224
 20
782.4635389341112
 30
0.0
 11
962.2029856259226
 21
772.8635389341111
 31
0.0
  0
LINE
  5
276F
330
19
100
AcDbEntity
  8
0
 62
     0
100
AcDbLine
 10
973.2429856259216
 20
772.8635389341111
 30
0.0
 11
967.7229856259224
 21
782.4635389341112
 31
0.0
  0
LINE
  5
2770
330
19
100
AcDbEntity
  8
0
  6
Continuous
 62
     0
370
    -3
100
AcDbLine
 10
960.149898
 20
798.3555249999998
 30
0.0
 11
960.149898
 21
749.6055249999998
 31
0.0
  0
LINE
  5
2771
330
19
100
AcDbEntity
  8
0
  6
Continuous
 62
     0
370
    -3
100
AcDbLine
 10
975.149898
 20
798.3555249999998
 30
0.0
 11
975.149898
 21
749.6055249999998
 31
0.0
  0
LINE
  5
2772
330
19
100
AcDbEntity
  8
0
 62
     0
100
AcDbLine
 10
962.2029856259226
 20
772.8635389341111
 30
0.0
 11
973.2429856259216
 21
772.8635389341111
 31
0.0
  0
TEXT
  5
2773
330
19
100
AcDbEntity
  8
0
 62
     0
100
AcDbText
 10
966.8242425176552
 20
773.956112806268
 30
0.0
 40
4.799999999999999
  1
1
100
AcDbText
  0
TEXT
  5
2774
330
19
100
AcDbEntity
  8
0
  6
Continuous
 62
     0
370
    -3
100
AcDbText
 10
962.3998979999999
 20
789.7305249999998
 30
0.0
 40
6.0
  1
符号
 41
0.8203125
  7
ED_VECTOR
 72
     5
 11
972.899898
 21
789.7305249999998
 31
0.0
100
AcDbText
  0
TEXT
  5
2775
330
19
100
AcDbEntity
  8
0
  6
Continuous
 62
     0
370
    -3
100
AcDbText
 10
961.6475025000003
 20
784.3582704999996
 30
0.0
 40
3.244508999999999
  1
ITEM
 41
1.009099962148584
  7
ED_VECTOR
 72
     5
 11
973.6522934999996
 21
784.3582704999996
 31
0.0
100
AcDbText
  0
TEXT
  5
2777
330
19
100
AcDbEntity
  8
0
  6
Continuous
 62
     0
370
    -3
100
AcDbText
 10
1033.649898
 20
789.7305249999998
 30
0.0
 40
6.0
  1
訂　正　記　事
 41
0.8299180327868855
  7
ED_VECTOR
 72
     5
 11
1074.149898
 21
789.7305249999998
 31
0.0
100
AcDbText
  0
TEXT
  5
2778
330
19
100
AcDbEntity
  8
0
  6
Continuous
 62
     0
370
    -3
100
AcDbText
 10
1023.8879175
 20
784.3582704999996
 30
0.0
 40
3.244508999999999
  1
REVISED DESCRIPTION
 41
1.012782909963682
  7
ED_VECTOR
 72
     5
 11
1083.9118785
 21
784.3582704999996
 31
0.0
100
AcDbText
  0
LINE
  5
2779
330
19
100
AcDbEntity
  8
0
  6
Continuous
 62
     0
370
    -3
100
AcDbLine
 10
1005.149897999999
 20
798.3555249999998
 30
0.0
 11
1005.149897999999
 21
749.6055249999998
 31
0.0
  0
TEXT
  5
277A
330
19
100
AcDbEntity
  8
0
  6
Continuous
 62
     0
370
    -3
100
AcDbText
 10
1131.149898
 20
789.7305249999998
 30
0.0
 40
6.0
  1
承認
 41
0.8203125
  7
ED_VECTOR
 72
     5
 11
1141.649898
 21
789.7305249999998
 31
0.0
100
AcDbText
  0
TEXT
  5
277B
330
19
100
AcDbEntity
  8
0
  6
Continuous
 62
     0
370
    -3
100
AcDbText
 10
1131.149898
 20
774.7305249999998
 30
0.0
 40
6.0
  1
宮木
 41
0.8203125
  7
ED_VECTOR
 72
     5
 11
1141.649898
 21
774.7305249999998
 31
0.0
100
AcDbText
  0
TEXT
  5
277C
330
19
100
AcDbEntity
  8
0
  6
Continuous
 62
     0
370
    -3
100
AcDbText
 10
1126.500966
 20
784.6826949999998
 30
0.0
 40
2.595659999999999
  1
APPROVED
 41
0.9948645380968759
  7
ED_VECTOR
 72
     5
 11
1146.29883
 21
784.6826949999998
 31
0.0
100
AcDbText
  0
LINE
  5
277D
330
19
100
AcDbEntity
  8
0
  6
Continuous
 62
     0
370
    -3
100
AcDbLine
 10
1102.649898
 20
798.3555249999998
 30
0.0
 11
1102.649898
 21
749.6055249999998
 31
0.0
  0
LINE
  5
277E
330
19
100
AcDbEntity
  8
0
  6
Continuous
 62
     0
370
    -3
100
AcDbLine
 10
1125.149898
 20
798.3555249999998
 30
0.0
 11
1125.149898
 21
749.6055249999998
 31
0.0
  0
TEXT
  5
277F
330
19
100
AcDbEntity
  8
0
  6
Continuous
 62
     0
370
    -3
100
AcDbText
 10
1108.649898
 20
774.7305249999998
 30
0.0
 40
6.0
  1
福田
 41
0.8467741935483868
  7
ED_VECTOR
 72
     5
 11
1119.149898
 21
774.7305249999998
 31
0.0
100
AcDbText
  0
TEXT
  5
2780
330
19
100
AcDbEntity
  8
0
  6
Continuous
 62
     0
370
    -3
100
AcDbText
 10
1106.296863
 20
784.3582704999996
 30
0.0
 40
3.244508999999999
  1
CHAGE
 41
1.004294816697553
  7
ED_VECTOR
 72
     5
 11
1121.502933
 21
784.3582704999996
 31
0.0
100
AcDbText
  0
TEXT
  5
2781
330
19
100
AcDbEntity
  8
0
  6
Continuous
 62
     0
370
    -3
100
AcDbText
 10
1108.649898
 20
789.7305249999998
 30
0.0
 40
6.0
  1
担当
 41
0.8467741935483868
  7
ED_VECTOR
 72
     5
 11
1119.149898
 21
789.7305249999998
 31
0.0
100
AcDbText
  0
TEXT
  5
2783
330
19
100
AcDbEntity
  8
0
  6
Continuous
 62
     0
100
AcDbText
 10
317.1562367773205
 20
88.87958499999998
 30
0.0
 40
7.0
  1
113℃　15A
 41
0.714286
100
AcDbText
  0
TEXT
  5
2784
330
19
100
AcDbEntity
  8
0
  6
Continuous
 62
     0
100
AcDbText
 10
268.303825
 20
88.87958499999998
 30
0.0
 40
7.0
  1
温度ヒューズ
 41
0.714286
100
AcDbText
  0
TEXT
  5
2785
330
19
100
AcDbEntity
  8
0
  6
Continuous
 62
     0
100
AcDbText
 10
268.303825
 20
88.87958499999998
 30
0.0
 40
7.0
  1
温度ヒューズ
 41
0.714286
100
AcDbText
  0
TEXT
  5
2786
330
19
100
AcDbEntity
  8
0
  6
Continuous
 62
     2
100
AcDbText
 10
360.3000766601553
 20
88.87958499999994
 30
0.0
 40
7.0
  1
10A
 41
0.714286
100
AcDbText
  0
LINE
  5
2787
330
19
100
AcDbEntity
  8
0
  6
Continuous
 62
     2
 48
10.0
100
AcDbLine
 10
358.4197215189119
 20
90.48724311842219
 30
0.0
 11
373.4166959454863
 21
90.48724311842219
 31
0.0
  0
LINE
  5
2788
330
19
100
AcDbEntity
  8
0
  6
Continuous
 62
     2
 48
10.0
100
AcDbLine
 10
358.4197215189119
 20
93.64602083487357
 30
0.0
 11
373.4166959454863
 21
93.64602083487357
 31
0.0
  0
LINE
  5
2789
330
19
100
AcDbEntity
  8
0
 62
     2
100
AcDbLine
 10
365.8547378290073
 20
99.81389265851149
 30
0.0
 11
360.3347378290077
 21
109.4138926585115
 31
0.0
  0
LINE
  5
278A
330
19
100
AcDbEntity
  8
0
 62
     2
100
AcDbLine
 10
360.3347378290077
 20
109.4138926585115
 30
0.0
 11
354.8147378290078
 21
99.81389265851149
 31
0.0
  0
TEXT
  5
278B
330
19
100
AcDbEntity
  8
文字
 62
     2
100
AcDbText
 10
359.4359947207406
 20
100.9064665306679
 30
0.0
 40
4.799999999999999
  1
1
100
AcDbText
  0
LINE
  5
278C
330
19
100
AcDbEntity
  8
0
 62
     2
100
AcDbLine
 10
354.8147378290078
 20
99.81389265851149
 30
0.0
 11
365.8547378290073
 21
99.81389265851149
 31
0.0
  0
TEXT
  5
278F
330
19
100
AcDbEntity
  8
0
  6
Continuous
 62
     0
100
AcDbText
 10
48.30382499999996
 20
40.879585
 30
0.0
 40
7.0
  1
取手
 41
0.714286
100
AcDbText
  0
TEXT
  5
2790
330
19
100
AcDbEntity
  8
0
  6
Continuous
 62
     0
100
AcDbText
 10
48.30382499999996
 20
40.879585
 30
0.0
 40
7.0
  1
取手
 41
0.714286
100
AcDbText
  0
TEXT
  5
2791
330
19
100
AcDbEntity
  8
0
  6
Continuous
 62
     0
100
AcDbText
 10
108.100534091407
 20
40.879585
 30
0.0
 40
7.0
  1
ABS
 41
0.714286
100
AcDbText
  0
TEXT
  5
2792
330
19
100
AcDbEntity
  8
0
  6
Continuous
 62
     0
100
AcDbText
 10
108.100534091407
 20
88.87958499999998
 30
0.0
 40
7.0
  1
SPCC
 41
0.714286
100
AcDbText
  0
TEXT
  5
2793
330
19
100
AcDbEntity
  8
0
  6
Continuous
 62
     0
100
AcDbText
 10
48.30382499999996
 20
88.87958499999998
 30
0.0
 40
7.0
  1
本体
 41
0.714286
100
AcDbText
  0
TEXT
  5
2794
330
19
100
AcDbEntity
  8
0
  6
Continuous
 62
     0
100
AcDbText
 10
48.30382499999996
 20
88.87958499999998
 30
0.0
 40
7.0
  1
本体
 41
0.714286
100
AcDbText
  0
TEXT
  5
2795
330
19
100
AcDbEntity
  8
0
  6
Continuous
 62
     0
100
AcDbText
 10
48.30382499999996
 20
76.87958499999997
 30
0.0
 40
7.0
  1
中箱
 41
0.714286
100
AcDbText
  0
TEXT
  5
2796
330
19
100
AcDbEntity
  8
0
  6
Continuous
 62
     0
100
AcDbText
 10
48.30382499999996
 20
76.87958499999997
 30
0.0
 40
7.0
  1
中箱
 41
0.714286
100
AcDbText
  0
TEXT
  5
2797
330
19
100
AcDbEntity
  8
0
  6
Continuous
 62
     0
100
AcDbText
 10
48.30382499999996
 20
64.87958499999999
 30
0.0
 40
7.0
  1
マグネットパッキン
 41
0.714286
100
AcDbText
  0
TEXT
  5
2798
330
19
100
AcDbEntity
  8
0
  6
Continuous
 62
     0
100
AcDbText
 10
48.30382499999996
 20
52.879585
 30
0.0
 40
7.0
  1
エアタイトパッキン
 41
0.714286
100
AcDbText
  0
TEXT
  5
2799
330
19
100
AcDbEntity
  8
0
  6
Continuous
 62
     0
100
AcDbText
 10
48.30382499999996
 20
64.87958499999999
 30
0.0
 40
7.0
  1
マグネットパッキン
 41
0.714286
100
AcDbText
  0
TEXT
  5
279B
330
19
100
AcDbEntity
  8
0
  6
Continuous
 62
     0
100
AcDbText
 10
108.100534091407
 20
64.87958499999999
 30
0.0
 40
7.0
  1
EPT
 41
0.714286
100
AcDbText
  0
TEXT
  5
279C
330
19
100
AcDbEntity
  8
0
  6
Continuous
 62
     0
100
AcDbText
 10
108.100534091407
 20
76.87958499999997
 30
0.0
 40
7.0
  1
ALP
 41
0.714286
100
AcDbText
  0
TEXT
  5
279D
330
19
100
AcDbEntity
  8
0
  6
Continuous
 62
     0
100
AcDbText
 10
158.3038249999999
 20
52.879585
 30
0.0
 40
7.0
  1
電源コード
 41
0.714286
100
AcDbText
  0
TEXT
  5
279E
330
19
100
AcDbEntity
  8
0
  6
Continuous
 62
     0
100
AcDbText
 10
217.3522212066955
 20
52.879585
 30
0.0
 40
7.0
  1
2M
 41
0.714286
100
AcDbText
  0
TEXT
  5
279F
330
19
100
AcDbEntity
  8
0
  6
Continuous
 62
     0
100
AcDbText
 10
217.3522212066955
 20
52.879585
 30
0.0
 40
7.0
  1
2M
 41
0.714286
100
AcDbText
  0
TEXT
  5
27A0
330
19
100
AcDbEntity
  8
0
  6
Continuous
 62
     0
100
AcDbText
 10
217.3522212066955
 20
64.87958499999999
 30
0.0
 40
7.0
  1
Cu-Ni合金
 41
0.714286
100
AcDbText
  0
TEXT
  5
27A1
330
19
100
AcDbEntity
  8
0
  6
Continuous
 62
     0
100
AcDbText
 10
217.3522212066955
 20
64.87958499999999
 30
0.0
 40
7.0
  1
Cu-Ni合金
 41
0.714286
100
AcDbText
  0
TEXT
  5
27A2
330
19
100
AcDbEntity
  8
0
  6
Continuous
 62
     0
100
AcDbText
 10
217.3522212066955
 20
76.87958499999997
 30
0.0
 40
7.0
  1
PP
 41
0.714286
100
AcDbText
  0
TEXT
  5
27A3
330
19
100
AcDbEntity
  8
0
  6
Continuous
 62
     0
100
AcDbText
 10
217.3522212066955
 20
76.87958499999997
 30
0.0
 40
7.0
  1
PP
 41
0.714286
100
AcDbText
  0
TEXT
  5
27A4
330
19
100
AcDbEntity
  8
0
  6
Continuous
 62
     0
100
AcDbText
 10
217.3522212066955
 20
88.87958499999998
 30
0.0
 40
7.0
  1
ABS
 41
0.714286
100
AcDbText
  0
TEXT
  5
27A5
330
19
100
AcDbEntity
  8
0
  6
Continuous
 62
     0
100
AcDbText
 10
217.3522212066955
 20
88.87958499999998
 30
0.0
 40
7.0
  1
ABS
 41
0.714286
100
AcDbText
  0
TEXT
  5
27A6
330
19
100
AcDbEntity
  8
0
  6
Continuous
 62
     0
100
AcDbText
 10
217.3522212066955
 20
40.879585
 30
0.0
 40
7.0
  1
75℃　OFF
 41
0.714286
100
AcDbText
  0
TEXT
  5
27A7
330
19
100
AcDbEntity
  8
0
  6
Continuous
 62
     0
100
AcDbText
 10
217.3522212066955
 20
40.879585
 30
0.0
 40
7.0
  1
75℃　OFF
 41
0.714286
100
AcDbText
  0
TEXT
  5
27A8
330
19
100
AcDbEntity
  8
0
  6
Continuous
 62
     0
100
AcDbText
 10
794.6150896860348
 20
40.879585
 30
0.0
 40
7.0
  1
7kg
 41
0.714286
100
AcDbText
  0
TEXT
  5
27A9
330
19
100
AcDbEntity
  8
0
  6
Continuous
100
AcDbText
 10
794.6150896860348
 20
52.879585
 30
0.0
 40
7.0
  1
464Wx290Dx305H
 41
0.714286
100
AcDbText
  0
TEXT
  5
27AA
330
19
100
AcDbEntity
  8
0
  6
Continuous
 62
     0
100
AcDbText
 10
794.6150896860348
 20
64.87958499999999
 30
0.0
 40
7.0
  1
205W
 41
0.714286
100
AcDbText
  0
TEXT
  5
27AB
330
19
100
AcDbEntity
  8
0
  6
Continuous
 62
     0
100
AcDbText
 10
794.6150896860348
 20
76.87958499999997
 30
0.0
 40
7.0
  1
単層　100V 50/60Hz
 41
0.714286
100
AcDbText
  0
TEXT
  5
27AC
330
19
100
AcDbEntity
  8
0
  6
Continuous
 62
     0
100
AcDbText
 10
765.8993506967756
 20
76.87958499999997
 30
0.0
 40
7.0
  1
電　　源
 41
0.714286
100
AcDbText
  0
TEXT
  5
27AD
330
19
100
AcDbEntity
  8
0
  6
Continuous
 62
     0
100
AcDbText
 10
765.8993506967756
 20
64.87958499999999
 30
0.0
 40
7.0
  1
消費電力
 41
0.714286
100
AcDbText
  0
TEXT
  5
27AE
330
19
100
AcDbEntity
  8
0
  6
Continuous
 62
     0
100
AcDbText
 10
765.8993506967756
 20
52.879585
 30
0.0
 40
7.0
  1
外形寸法
 41
0.714286
100
AcDbText
  0
TEXT
  5
27AF
330
19
100
AcDbEntity
  8
0
  6
Continuous
 62
     0
100
AcDbText
 10
765.8993506967756
 20
40.879585
 30
0.0
 40
7.0
  1
質　　量
 41
0.714286
100
AcDbText
  0
TEXT
  5
27B0
330
19
100
AcDbEntity
  8
0
  6
Continuous
 62
     0
100
AcDbText
 10
1083.304931410604
 20
41.35555599999999
 30
0.0
 40
9.0
  1
TP-50S
 41
0.777778
100
AcDbText
  0
LINE
  5
27B1
330
19
100
AcDbEntity
  8
0
 62
     2
100
AcDbLine
 10
1138.990132671658
 20
65.34646364258563
 30
0.0
 11
1132.090132671659
 21
53.34646364258563
 31
0.0
  0
TEXT
  5
27B2
330
19
100
AcDbEntity
  8
文字
 62
     2
100
AcDbText
 10
1137.866703786323
 20
54.71218098278134
 30
0.0
 40
6.0
  1
1
100
AcDbText
  0
LINE
  5
27B3
330
19
100
AcDbEntity
  8
0
 62
     2
100
AcDbLine
 10
1145.890132671657
 20
53.34646364258563
 30
0.0
 11
1138.990132671658
 21
65.34646364258563
 31
0.0
  0
LINE
  5
27B4
330
19
100
AcDbEntity
  8
0
 62
     2
100
AcDbLine
 10
1132.090132671659
 20
53.34646364258563
 30
0.0
 11
1145.890132671657
 21
53.34646364258563
 31
0.0
  0
TEXT
  5
27B5
330
19
100
AcDbEntity
  8
0
  6
Continuous
 62
     0
100
AcDbText
 10
1061.646417735011
 20
71.37878367571969
 30
0.0
 40
9.0
  1
株式会社 アンナカ
 41
0.777778
100
AcDbText
  0
LEADER
  5
27B9
330
19
100
AcDbEntity
  8
0
  6
Continuous
 62
     3
100
AcDbLeader
  3
DIM1
 76
     3
 10
913.9146930000002
 20
476.7247795334195
 30
0.0
 10
944.4522670000003
 20
513.6735805334193
 30
0.0
 10
963.6881067508801
 20
513.6735805334193
 30
0.0
1001
ACAD
1000
DSTYLE
1002
{
1070
     6
1000
_OPEN
1070
    41
1040
3.0
1002
}
  0
LEADER
  5
27BA
330
19
100
AcDbEntity
  8
0
  6
Continuous
 62
     3
100
AcDbLeader
  3
DIM1
 76
     3
 10
913.9146930000002
 20
476.7247795334195
 30
0.0
 10
944.4522670000003
 20
513.6735805334193
 30
0.0
 10
963.6881067508801
 20
513.6735805334193
 30
0.0
1001
ACAD
1000
DSTYLE
1002
{
1070
     6
1000
_OPEN
1070
    41
1040
3.0
1002
}
  0
LEADER
  5
27BB
330
19
100
AcDbEntity
  8
0
  6
Continuous
 62
     3
100
AcDbLeader
  3
DIM1
 76
     3
 10
799.7775579999996
 20
499.5325909999998
 30
0.0
 10
842.8302610000001
 20
531.1253569999998
 30
0.0
 10
896.8881227450447
 20
531.1253569999998
 30
0.0
1001
ACAD
1000
DSTYLE
1002
{
1070
     6
1000
_OPEN
1070
    41
1040
3.0
1002
}
  0
LEADER
  5
27BC
330
19
100
AcDbEntity
  8
0
  6
Continuous
 62
     3
100
AcDbLeader
  3
DIM1
 76
     3
 10
787.1929220000001
 20
516.7536719999998
 30
0.0
 10
842.8302610000001
 20
551.1253569999999
 30
0.0
 10
896.5584630731582
 20
551.1253569999999
 30
0.0
1001
ACAD
1000
DSTYLE
1002
{
1070
     6
1000
_OPEN
1070
    41
1040
3.0
1002
}
  0
LEADER
  5
27BD
330
19
100
AcDbEntity
  8
0
  6
Continuous
 62
     3
100
AcDbLeader
  3
DIM1
 76
     3
 10
799.7775579999996
 20
499.5325909999998
 30
0.0
 10
842.8302610000001
 20
531.1253569999998
 30
0.0
 10
896.8881227450447
 20
531.1253569999998
 30
0.0
1001
ACAD
1000
DSTYLE
1002
{
1070
     6
1000
_OPEN
1070
    41
1040
3.0
1002
}
  0
LEADER
  5
27BE
330
19
100
AcDbEntity
  8
0
  6
Continuous
 62
     3
100
AcDbLeader
  3
DIM1
 76
     3
 10
787.1929220000001
 20
516.7536719999998
 30
0.0
 10
842.8302610000001
 20
551.1253569999999
 30
0.0
 10
896.5584630731582
 20
551.1253569999999
 30
0.0
1001
ACAD
1000
DSTYLE
1002
{
1070
     6
1000
_OPEN
1070
    41
1040
3.0
1002
}
  0
TEXT
  5
27BF
330
19
100
AcDbEntity
  8
0
  6
HIDDEN
 62
     0
 48
10.0
100
AcDbText
 10
843.4910335984687
 20
532.1842265624065
 30
0.0
 40
7.0
  1
エアタイトパッキン
 41
0.714286
100
AcDbText
  0
TEXT
  5
27C0
330
19
100
AcDbEntity
  8
0
  6
HIDDEN
 62
     0
 48
10.0
100
AcDbText
 10
945.8780183977063
 20
514.7805899614621
 30
0.0
 40
7.0
  1
発熱体
 41
0.714286
100
AcDbText
  0
TEXT
  5
27C1
330
19
100
AcDbEntity
  8
0
  6
HIDDEN
 62
     0
 48
10.0
100
AcDbText
 10
842.8302610000001
 20
552.2731161844887
 30
0.0
 40
7.0
  1
マグネットパッキン
 41
0.714286
100
AcDbText
  0
LEADER
  5
27C3
330
19
100
AcDbEntity
  8
0
  6
Continuous
 62
     3
100
AcDbLeader
  3
DIM1
 76
     3
 10
773.2779638163556
 20
521.3916091867145
 30
0.0
 10
717.6462469999997
 20
540.1170172669384
 30
0.0
 10
709.2291087968919
 20
540.1170172669384
 30
0.0
1001
ACAD
1000
DSTYLE
1002
{
1070
     6
1000
_OPEN
1070
    41
1040
3.0
1002
}
  0
TEXT
  5
27C4
330
19
100
AcDbEntity
  8
0
  6
HIDDEN
 62
     0
 48
10.0
100
AcDbText
 10
711.3014877538937
 20
541.6407197375879
 30
0.0
 40
7.0
  1
扉
 41
0.714286
100
AcDbText
  0
TEXT
  5
27C5
330
19
100
AcDbEntity
  8
0
  6
HIDDEN
 62
     0
 48
10.0
100
AcDbText
 10
1003.183785267303
 20
465.3340519898533
 30
0.0
 40
7.0
  1
保護カバー
 41
0.714286
100
AcDbText
  0
LEADER
  5
27C6
330
19
100
AcDbEntity
  8
0
  6
Continuous
 62
     3
100
AcDbLeader
  3
DIM1
 76
     3
 10
986.4701199999997
 20
445.8577699999998
 30
0.0
 10
1001.266676999999
 20
464.2321709999998
 30
0.0
 10
1032.575094555463
 20
464.2321709999998
 30
0.0
1001
ACAD
1000
DSTYLE
1002
{
1070
     6
1000
_OPEN
1070
    41
1040
3.0
1002
}
  0
LEADER
  5
27C7
330
19
100
AcDbEntity
  8
0
  6
Continuous
 62
     3
100
AcDbLeader
  3
DIM1
 76
     3
 10
986.4701199999997
 20
445.8577699999998
 30
0.0
 10
1001.266676999999
 20
464.2321709999998
 30
0.0
 10
1032.575094555463
 20
464.2321709999998
 30
0.0
1001
ACAD
1000
DSTYLE
1002
{
1070
     6
1000
_OPEN
1070
    41
1040
3.0
1002
}
  0
LEADER
  5
27C8
330
19
100
AcDbEntity
  8
0
  6
Continuous
 62
     3
100
AcDbLeader
  3
DIM1
 76
     3
 10
1053.563170999998
 20
532.4844339999998
 30
0.0
 10
1070.70719
 20
555.4650799999998
 30
0.0
 10
1096.007328345534
 20
555.4650799999998
 30
0.0
1001
ACAD
1000
DSTYLE
1002
{
1070
     6
1000
_OPEN
1070
    41
1040
3.0
1002
}
  0
LEADER
  5
27C9
330
19
100
AcDbEntity
  8
0
  6
Continuous
 62
     3
100
AcDbLeader
  3
DIM1
 76
     3
 10
1053.563170999998
 20
532.4844339999998
 30
0.0
 10
1070.70719
 20
555.4650799999998
 30
0.0
 10
1096.007328345534
 20
555.4650799999998
 30
0.0
1001
ACAD
1000
DSTYLE
1002
{
1070
     6
1000
_OPEN
1070
    41
1040
3.0
1002
}
  0
TEXT
  5
27CA
330
19
100
AcDbEntity
  8
0
  6
HIDDEN
 62
     0
 48
10.0
100
AcDbText
 10
1071.90582964841
 20
556.4560068493712
 30
0.0
 40
7.0
  1
外箱裏板
 41
0.714286
100
AcDbText
  0
TEXT
  5
27CB
330
19
100
AcDbEntity
  8
0
  6
HIDDEN
 62
     0
 48
10.0
100
AcDbText
 10
904.3533427107384
 20
323.071820017363
 30
0.0
 40
7.0
  1
アース線
 41
0.714286
100
AcDbText
  0
LEADER
  5
27CC
330
19
100
AcDbEntity
  8
0
  6
Continuous
 62
     3
100
AcDbLeader
  3
DIM1
 76
     3
 10
955.312581
 20
309.4066549999999
 30
0.0
 10
927.8724079999999
 20
322.2457669999998
 30
0.0
 10
903.6748221710139
 20
322.2457669999998
 30
0.0
1001
ACAD
1000
DSTYLE
1002
{
1070
     6
1000
_OPEN
1070
    41
1040
3.0
1002
}
  0
LEADER
  5
27CD
330
19
100
AcDbEntity
  8
0
  6
Continuous
 62
     3
100
AcDbLeader
  3
DIM1
 76
     3
 10
955.312581
 20
309.4066549999999
 30
0.0
 10
927.8724079999999
 20
322.2457669999998
 30
0.0
 10
903.6748221710139
 20
322.2457669999998
 30
0.0
1001
ACAD
1000
DSTYLE
1002
{
1070
     6
1000
_OPEN
1070
    41
1040
3.0
1002
}
  0
LEADER
  5
27CE
330
19
100
AcDbEntity
  8
0
  6
Continuous
 62
     3
100
AcDbLeader
  3
DIM1
 76
     3
 10
1006.081889
 20
289.1544179999998
 30
0.0
 10
982.2545769999997
 20
263.7084779999999
 30
0.0
 10
951.8461630836652
 20
263.7084779999999
 30
0.0
1001
ACAD
1000
DSTYLE
1002
{
1070
     6
1000
_OPEN
1070
    41
1040
3.0
1002
}
  0
LEADER
  5
27CF
330
19
100
AcDbEntity
  8
0
  6
Continuous
 62
     3
100
AcDbLeader
  3
DIM1
 76
     3
 10
1006.081889
 20
289.1544179999998
 30
0.0
 10
982.2545769999997
 20
263.7084779999999
 30
0.0
 10
951.8461630836652
 20
263.7084779999999
 30
0.0
1001
ACAD
1000
DSTYLE
1002
{
1070
     6
1000
_OPEN
1070
    41
1040
3.0
1002
}
  0
TEXT
  5
27D0
330
19
100
AcDbEntity
  8
0
  6
HIDDEN
 62
     0
 48
10.0
100
AcDbText
 10
952.8071834657126
 20
264.9168459994561
 30
0.0
 40
7.0
  1
電源コード
 41
0.714286
100
AcDbText
  0
LEADER
  5
27D1
330
19
100
AcDbEntity
  8
0
  6
Continuous
 62
     3
100
AcDbLeader
  3
DIM1
 76
     3
 10
831.5797229999997
 20
276.1153069999999
 30
0.0
 10
854.3288139999997
 20
260.9341989999999
 30
0.0
 10
872.563901435039
 20
260.9341989999999
 30
0.0
1001
ACAD
1000
DSTYLE
1002
{
1070
     6
1000
_OPEN
1070
    41
1040
3.0
1002
}
  0
LEADER
  5
27D2
330
19
100
AcDbEntity
  8
0
  6
Continuous
 62
     3
100
AcDbLeader
  3
DIM1
 76
     3
 10
831.5797229999997
 20
276.1153069999999
 30
0.0
 10
854.3288139999997
 20
260.9341989999999
 30
0.0
 10
872.563901435039
 20
260.9341989999999
 30
0.0
1001
ACAD
1000
DSTYLE
1002
{
1070
     6
1000
_OPEN
1070
    41
1040
3.0
1002
}
  0
TEXT
  5
27D3
330
19
100
AcDbEntity
  8
0
  6
HIDDEN
 62
     0
 48
10.0
100
AcDbText
 10
854.8684177194528
 20
261.8985181497508
 30
0.0
 40
7.0
  1
ゴム脚
 41
0.714286
100
AcDbText
  0
LEADER
  5
27D4
330
19
100
AcDbEntity
  8
0
  6
Continuous
 62
     3
100
AcDbLeader
  3
DIM1
 76
     3
 10
826.2250423316391
 20
314.9773652596611
 30
0.0
 10
840.7348540000002
 20
289.7999994518248
 30
0.0
 10
878.4279348822011
 20
289.7999994518248
 30
0.0
1001
ACAD
1000
DSTYLE
1002
{
1070
     6
1000
_OPEN
1070
    41
1040
3.0
1002
}
  0
LEADER
  5
27D5
330
19
100
AcDbEntity
  8
0
  6
Continuous
 62
     3
100
AcDbLeader
  3
DIM1
 76
     3
 10
826.2250423316391
 20
314.9773652596611
 30
0.0
 10
840.7348540000002
 20
289.7999994518248
 30
0.0
 10
878.4279348822011
 20
289.7999994518248
 30
0.0
1001
ACAD
1000
DSTYLE
1002
{
1070
     6
1000
_OPEN
1070
    41
1040
3.0
1002
}
  0
TEXT
  5
27D6
330
19
100
AcDbEntity
  8
0
  6
HIDDEN
 62
     0
 48
10.0
100
AcDbText
 10
843.0421684374776
 20
292.8448597758118
 30
0.0
 40
7.0
  1
ヒンジ(左右)
 41
0.714286
100
AcDbText
  0
LEADER
  5
27D7
330
19
100
AcDbEntity
  8
0
  6
Continuous
 62
     3
100
AcDbLeader
  3
DIM1
 76
     3
 10
771.1004319999998
 20
291.6512719999999
 30
0.0
 10
780.5329819999997
 20
268.1473249999999
 30
0.0
 10
798.815470852466
 20
268.1473249999999
 30
0.0
1001
ACAD
1000
DSTYLE
1002
{
1070
     6
1000
_OPEN
1070
    41
1040
3.0
1002
}
  0
LEADER
  5
27D8
330
19
100
AcDbEntity
  8
0
  6
Continuous
 62
     3
100
AcDbLeader
  3
DIM1
 76
     3
 10
771.1004319999998
 20
291.6512719999999
 30
0.0
 10
780.5329819999997
 20
268.1473249999999
 30
0.0
 10
798.815470852466
 20
268.1473249999999
 30
0.0
1001
ACAD
1000
DSTYLE
1002
{
1070
     6
1000
_OPEN
1070
    41
1040
3.0
1002
}
  0
TEXT
  5
27D9
330
19
100
AcDbEntity
  8
0
  6
HIDDEN
 62
     0
 48
10.0
100
AcDbText
 10
781.5865675335144
 20
269.0496069109936
 30
0.0
 40
7.0
  1
水受皿
 41
0.714286
100
AcDbText
  0
LINE
  5
27EE
330
19
100
AcDbEntity
  8
0
  6
HIDDEN
 62
     0
 48
10.0
100
AcDbLine
 10
980.5765479999999
 20
395.6936809999998
 30
0.0
 11
1010.576548
 21
395.6936810000001
 31
0.0
  0
LEADER
  5
27F6
330
19
100
AcDbEntity
  8
0
  6
Continuous
 62
     3
100
AcDbLeader
  3
DIM1
 76
     3
 10
391.5765479999997
 20
420.6936800000001
 30
0.0
 10
131.0360919999997
 20
511.914371
 30
0.0
 10
94.30366281637317
 20
511.914371
 30
0.0
1001
ACAD
1000
DSTYLE
1002
{
1070
     6
1000
_OPEN
1070
    41
1040
3.0
1002
}
  0
LEADER
  5
27F7
330
19
100
AcDbEntity
  8
0
  6
Continuous
 62
     3
100
AcDbLeader
  3
DIM1
 76
     3
 10
362.5765479999997
 20
420.6936800000001
 30
0.0
 10
146.0360919999998
 20
461.9143709999998
 30
0.0
 10
91.57141735749291
 20
461.9143709999998
 30
0.0
1001
ACAD
1000
DSTYLE
1002
{
1070
     6
1000
_OPEN
1070
    41
1040
3.0
1002
}
  0
LEADER
  5
27F8
330
19
100
AcDbEntity
  8
0
  6
Continuous
 62
     3
100
AcDbLeader
  3
DIM1
 76
     3
 10
391.5765479999997
 20
420.6936800000001
 30
0.0
 10
131.0360919999997
 20
511.914371
 30
0.0
 10
94.30366281637317
 20
511.914371
 30
0.0
1001
ACAD
1000
DSTYLE
1002
{
1070
     6
1000
_OPEN
1070
    41
1040
3.0
1002
}
  0
LEADER
  5
27F9
330
19
100
AcDbEntity
  8
0
  6
Continuous
 62
     3
100
AcDbLeader
  3
DIM1
 76
     3
 10
362.5765479999997
 20
420.6936800000001
 30
0.0
 10
146.0360919999998
 20
461.9143709999998
 30
0.0
 10
91.57141735749291
 20
461.9143709999998
 30
0.0
1001
ACAD
1000
DSTYLE
1002
{
1070
     6
1000
_OPEN
1070
    41
1040
3.0
1002
}
  0
LEADER
  5
27FA
330
19
100
AcDbEntity
  8
0
  6
Continuous
 62
     3
100
AcDbLeader
  3
DIM1
 76
     3
 10
192.8978379999998
 20
388.1536319999999
 30
0.0
 10
111.0360919999997
 20
411.914371
 30
0.0
 10
98.8221693490782
 20
411.914371
 30
0.0
1001
ACAD
1000
DSTYLE
1002
{
1070
     6
1000
_OPEN
1070
    41
1040
3.0
1002
}
  0
LEADER
  5
27FB
330
19
100
AcDbEntity
  8
0
  6
Continuous
 62
     3
100
AcDbLeader
  3
DIM1
 76
     3
 10
192.8978379999998
 20
388.1536319999999
 30
0.0
 10
111.0360919999997
 20
411.914371
 30
0.0
 10
98.8221693490782
 20
411.914371
 30
0.0
1001
ACAD
1000
DSTYLE
1002
{
1070
     6
1000
_OPEN
1070
    41
1040
3.0
1002
}
  0
TEXT
  5
27FC
330
19
100
AcDbEntity
  8
0
  6
HIDDEN
 62
     0
 48
10.0
100
AcDbText
 10
95.9449066357979
 20
513.1959027337045
 30
0.0
 40
7.0
  1
温度ヒューズ
 41
0.714286
100
AcDbText
  0
TEXT
  5
27FD
330
19
100
AcDbEntity
  8
0
  6
HIDDEN
 62
     0
 48
10.0
100
AcDbText
 10
95.9449066357979
 20
513.1959027337045
 30
0.0
 40
7.0
  1
温度ヒューズ
 41
0.714286
100
AcDbText
  0
TEXT
  5
27FE
330
19
100
AcDbEntity
  8
0
  6
HIDDEN
 62
     0
 48
10.0
100
AcDbText
 10
92.31582815708817
 20
462.7170633366348
 30
0.0
 40
7.0
  1
固定サーモスタッド
 41
0.714286
100
AcDbText
  0
TEXT
  5
27FF
330
19
100
AcDbEntity
  8
0
  6
HIDDEN
 62
     0
 48
10.0
100
AcDbText
 10
99.51572829455152
 20
412.8779990836113
 30
0.0
 40
7.0
  1
中箱
 41
0.714286
100
AcDbText
  0
TEXT
  5
2800
330
19
100
AcDbEntity
  8
0
  6
HIDDEN
 62
     0
 48
10.0
100
AcDbText
 10
99.51572829455152
 20
412.8779990836113
 30
0.0
 40
7.0
  1
中箱
 41
0.714286
100
AcDbText
  0
LEADER
  5
2801
330
19
100
AcDbEntity
  8
0
  6
Continuous
 62
     3
100
AcDbLeader
  3
DIM1
 76
     3
 10
270.862441
 20
559.007926
 30
0.0
 10
297.4688749999998
 20
589.8021769999998
 30
0.0
 10
340.0435081785457
 20
589.8021769999998
 30
0.0
1001
ACAD
1000
DSTYLE
1002
{
1070
     6
1000
_OPEN
1070
    41
1040
3.0
1002
}
  0
LEADER
  5
2802
330
19
100
AcDbEntity
  8
0
  6
Continuous
 62
     3
100
AcDbLeader
  3
DIM1
 76
     3
 10
270.862441
 20
559.007926
 30
0.0
 10
297.4688749999998
 20
589.8021769999998
 30
0.0
 10
340.0435081785457
 20
589.8021769999998
 30
0.0
1001
ACAD
1000
DSTYLE
1002
{
1070
     6
1000
_OPEN
1070
    41
1040
3.0
1002
}
  0
LEADER
  5
2803
330
19
100
AcDbEntity
  8
0
  6
Continuous
 62
     3
100
AcDbLeader
  3
DIM1
 76
     3
 10
354.0178703898366
 20
502.1936799999999
 30
0.0
 10
393.9101973898366
 20
589.8021769999998
 30
0.0
 10
406.4305713433022
 20
589.8021769999998
 30
0.0
1001
ACAD
1000
DSTYLE
1002
{
1070
     6
1000
_OPEN
1070
    41
1040
3.0
1002
}
  0
LEADER
  5
2804
330
19
100
AcDbEntity
  8
0
  6
Continuous
 62
     3
100
AcDbLeader
  3
DIM1
 76
     3
 10
354.0178703898366
 20
502.1936799999999
 30
0.0
 10
393.9101973898366
 20
589.8021769999998
 30
0.0
 10
406.4305713433022
 20
589.8021769999998
 30
0.0
1001
ACAD
1000
DSTYLE
1002
{
1070
     6
1000
_OPEN
1070
    41
1040
3.0
1002
}
  0
TEXT
  5
2805
330
19
100
AcDbEntity
  8
0
  6
HIDDEN
 62
     0
 48
10.0
100
AcDbText
 10
298.4066162349792
 20
590.39688818762
 30
0.0
 40
7.0
  1
スイッチパネル
 41
0.714286
100
AcDbText
  0
TEXT
  5
2806
330
19
100
AcDbEntity
  8
0
  6
HIDDEN
 62
     0
 48
10.0
100
AcDbText
 10
395.2907169889229
 20
590.712351613739
 30
0.0
 40
7.0
  1
取手
 41
0.714286
100
AcDbText
  0
LEADER
  5
2807
330
19
100
AcDbEntity
  8
0
  6
Continuous
 62
     3
100
AcDbLeader
  3
DIM1
 76
     3
 10
424.0765479999997
 20
556.1936799999998
 30
0.0
 10
457.4688749999999
 20
589.8021769999998
 30
0.0
 10
476.3736085076073
 20
589.8021769999998
 30
0.0
1001
ACAD
1000
DSTYLE
1002
{
1070
     6
1000
_OPEN
1070
    41
1040
3.0
1002
}
  0
LEADER
  5
2808
330
19
100
AcDbEntity
  8
0
  6
Continuous
 62
     3
100
AcDbLeader
  3
DIM1
 76
     3
 10
424.0765479999997
 20
556.1936799999998
 30
0.0
 10
457.4688749999999
 20
589.8021769999998
 30
0.0
 10
472.468875
 20
589.8021769999998
 30
0.0
1001
ACAD
1000
DSTYLE
1002
{
1070
     6
1000
_OPEN
1070
    41
1040
3.0
1002
}
  0
LEADER
  5
2809
330
19
100
AcDbEntity
  8
0
  6
Continuous
 62
     3
100
AcDbLeader
  3
DIM1
 76
     3
 10
496.5765479999998
 20
556.1936799999998
 30
0.0
 10
517.4688749999996
 20
589.8021769999998
 30
0.0
 10
553.8269400773365
 20
589.8021769999998
 30
0.0
1001
ACAD
1000
DSTYLE
1002
{
1070
     6
1000
_OPEN
1070
    41
1040
3.0
1002
}
  0
LEADER
  5
280A
330
19
100
AcDbEntity
  8
0
  6
Continuous
 62
     3
100
AcDbLeader
  3
DIM1
 76
     3
 10
496.5765479999998
 20
556.1936799999998
 30
0.0
 10
517.4688749999996
 20
589.8021769999998
 30
0.0
 10
553.8269400773365
 20
589.8021769999998
 30
0.0
1001
ACAD
1000
DSTYLE
1002
{
1070
     6
1000
_OPEN
1070
    41
1040
3.0
1002
}
  0
TEXT
  5
280B
330
19
100
AcDbEntity
  8
0
  6
HIDDEN
 62
     0
 48
10.0
100
AcDbText
 10
458.9352029572213
 20
590.5885251264667
 30
0.0
 40
7.0
  1
表示灯
 41
0.714286
100
AcDbText
  0
TEXT
  5
280C
330
19
100
AcDbEntity
  8
0
  6
HIDDEN
 62
     0
 48
10.0
100
AcDbText
 10
518.7984703837329
 20
590.5618281503595
 30
0.0
 40
7.0
  1
電源スイッチ
 41
0.714286
100
AcDbText
  0
DIMENSION
  5
280E
330
19
100
AcDbEntity
  8
0
  6
Continuous
 62
     0
100
AcDbDimension
  2
*D27
 10
1056.053578602545
 20
212.1609999999999
 30
0.0
 11
907.606548
 21
212.1609999999999
 31
0.0
 70
   160
 71
     5
 42
320.477030602545
  3
DIM1
100
AcDbAlignedDimension
 13
735.576548
 23
494.1936799999999
 33
0.0
 14
1056.053578602545
 24
296.2491524648646
 34
0.0
100
AcDbRotatedDimension
1001
ACAD
1000
DSTYLE
1002
{
1070
   271
1070
     1
1002
}
  0
DIMENSION
  5
280F
330
19
100
AcDbEntity
  8
0
  6
Continuous
 62
     0
100
AcDbDimension
  2
*D26
 10
1056.053578602545
 20
212.1609999999999
 30
0.0
 11
907.606548
 21
212.1609999999999
 31
0.0
 70
   160
 71
     5
 42
320.477030602545
  3
DIM1
100
AcDbAlignedDimension
 13
735.576548
 23
494.1936799999999
 33
0.0
 14
1056.053578602545
 24
296.2491524648646
 34
0.0
100
AcDbRotatedDimension
1001
ACAD
1000
DSTYLE
1002
{
1070
   271
1070
     1
1002
}
  0
DIMENSION
  5
283B
330
19
100
AcDbEntity
  8
0
  6
Continuous
 62
     0
100
AcDbDimension
  2
*D28
 10
145.5765479999999
 20
212.1609999999999
 30
0.0
 11
377.6065479999998
 21
212.1609999999999
 31
0.0
 70
   160
 71
     5
 42
463.9999999999997
  3
DIM1
100
AcDbAlignedDimension
 13
609.5765479999998
 23
314.1936799999998
 33
0.0
 14
145.5765479999999
 24
314.1936799999998
 34
0.0
100
AcDbRotatedDimension
1001
ACAD
1000
DSTYLE
1002
{
1070
   271
1070
     1
1002
}
  0
DIMENSION
  5
283C
330
19
100
AcDbEntity
  8
0
  6
Continuous
 62
     0
100
AcDbDimension
  2
*D29
 10
145.5765479999999
 20
212.1609999999999
 30
0.0
 11
377.6065479999998
 21
212.1609999999999
 31
0.0
 70
   160
 71
     5
 42
463.9999999999997
  3
DIM1
100
AcDbAlignedDimension
 13
609.5765479999998
 23
314.1936799999998
 33
0.0
 14
145.5765479999999
 24
314.1936799999998
 34
0.0
100
AcDbRotatedDimension
1001
ACAD
1000
DSTYLE
1002
{
1070
   271
1070
     1
1002
}
  0
LINE
  5
289B
330
19
100
AcDbEntity
  8
0
 62
     0
370
    60
100
AcDbLine
 10
1147.649897999998
 20
798.3555249999998
 30
0.0
 11
44.649898
 21
798.3555250000001
 31
0.0
  0
DIMENSION
  5
28B3
330
19
100
AcDbEntity
  8
0
  6
Continuous
 48
10.0
100
AcDbDimension
  2
*D31
 10
1056.076548
 20
588.645283
 30
0.0
 11
1070.605119428571
 21
588.645283
 31
0.0
 70
   160
 71
     5
 42
3.5
  3
DIM1
100
AcDbAlignedDimension
 13
1052.576548
 23
568.6936799999998
 33
0.0
 14
1056.076548
 24
554.69368
 34
0.0
100
AcDbRotatedDimension
1001
ACAD
1000
DSTYLE
1002
{
1070
    43
1040
3.0
1070
   143
1040
0.03937
1070
   145
1040
0.75
1002
}
  0
TEXT
  5
291B
330
19
100
AcDbEntity
  8
0
  6
Continuous
 62
     0
100
AcDbText
 10
107.2670369762386
 20
50.65837196560856
 30
0.0
 40
6.0
  1
シリコーンゴム
 41
0.714286
100
AcDbText
  0
LINE
  5
291C
330
19
100
AcDbEntity
  8
0
  6
Continuous
 62
     2
 48
10.0
370
    13
100
AcDbLine
 10
137.3031944320368
 20
60.58671017788133
 30
0.0
 11
154.2499871249801
 21
60.58671017788133
 31
0.0
  0
LINE
  5
291D
330
19
100
AcDbEntity
  8
0
  6
Continuous
 62
     2
 48
10.0
370
    13
100
AcDbLine
 10
137.3031944320368
 20
58.34453623429912
 30
0.0
 11
154.2499871249801
 21
58.34453623429912
 31
0.0
  0
TEXT
  5
291E
330
19
100
AcDbEntity
  8
0
  6
Continuous
 62
     2
370
    13
100
AcDbText
 10
138.0917919409957
 20
57.29936057199108
 30
0.0
 40
5.0
  1
合成ゴム
 41
0.714286
100
AcDbText
  0
LINE
  5
291F
330
19
100
AcDbEntity
  8
0
 62
     2
370
    13
100
AcDbLine
 10
131.7110173703158
 20
57.12357350482938
 30
0.0
 11
137.3634973703156
 21
57.12357350482938
 31
0.0
  0
LINE
  5
2920
330
19
100
AcDbEntity
  8
0
 62
     2
370
    13
100
AcDbLine
 10
137.3634973703156
 20
57.12357350482938
 30
0.0
 11
134.5372573703156
 21
62.03877350482938
 31
0.0
  0
LINE
  5
2921
330
19
100
AcDbEntity
  8
0
 62
     2
370
    13
100
AcDbLine
 10
134.5372573703156
 20
62.03877350482938
 30
0.0
 11
131.7110173703158
 21
57.12357350482938
 31
0.0
  0
TEXT
  5
2922
330
19
100
AcDbEntity
  8
文字
 62
     2
370
    13
100
AcDbText
 10
134.0771008988829
 20
57.68297132737354
 30
0.0
 40
2.4576
  1
1
100
AcDbText
  0
TEXT
  5
292F
330
19
100
AcDbEntity
  8
0
  6
Continuous
 62
     0
370
    -3
100
AcDbText
 10
1007.492260339343
 20
774.5627094999997
 30
0.0
 40
6.0
  1
定格及び材質の修正
 41
0.9768950156855375
 72
     5
 11
1069.232025330668
 21
774.5627094999997
 31
0.0
100
AcDbText
  0
ENDSEC
  0
SECTION
  2
OBJECTS
  0
DICTIONARY
  5
C
330
0
100
AcDbDictionary
281
     1
  3
ACAD_GROUP
350
D
  3
ACAD_LAYOUT
350
1133
  3
ACAD_MLINESTYLE
350
E
  3
ACAD_PLOTSETTINGS
350
1134
  3
ACAD_PLOTSTYLENAME
350
1131
  0
DICTIONARY
  5
D
102
{ACAD_REACTORS
330
C
102
}
330
C
100
AcDbDictionary
281
     1
  3
*A1
350
2782
  3
*A2
350
27B8
  3
*A3
350
27F5
  0
DICTIONARY
  5
1133
102
{ACAD_REACTORS
330
C
102
}
330
C
100
AcDbDictionary
281
     1
  3
Model
350
1135
  3
ﾚｲｱｳﾄ1
350
1136
  0
DICTIONARY
  5
E
102
{ACAD_REACTORS
330
C
102
}
330
C
100
AcDbDictionary
281
     1
  3
STANDARD
350
1C
  0
DICTIONARY
  5
1134
102
{ACAD_REACTORS
330
C
102
}
330
C
100
AcDbDictionary
281
     1
  0
ACDBDICTIONARYWDFLT
  5
1131
102
{ACAD_REACTORS
330
C
102
}
330
C
100
AcDbDictionary
281
     1
  3
Normal
350
1132
100
AcDbDictionaryWithDefault
340
1132
  0
GROUP
  5
2782
102
{ACAD_REACTORS
330
D
102
}
330
D
100
AcDbGroup
300

 70
     1
 71
     1
  0
GROUP
  5
27B8
102
{ACAD_REACTORS
330
D
102
}
330
D
100
AcDbGroup
300

 70
     1
 71
     1
  0
GROUP
  5
27F5
102
{ACAD_REACTORS
330
D
102
}
330
D
100
AcDbGroup
300

 70
     1
 71
     1
  0
LAYOUT
  5
1135
102
{ACAD_REACTORS
330
1133
102
}
330
1133
100
AcDbPlotSettings
  1

  2
PrimoPDF
  4
A3
  6

 40
3.174999952316283
 41
3.174999952316283
 42
3.17498779296875
 43
3.17498779296875
 44
297.0106506347656
 45
419.9889831542968
 46
9.619999999999999
 47
9.859999999999999
 48
44.649898
 49
38.35555599999996
140
1147.649898
141
798.3555249999998
142
1.0
143
2.799999999999998
 70
 11940
 72
     1
 73
     1
 74
     4
  7
monochrome.ctb
 75
     0
147
0.3571428571428572
148
-44.649898
149
-38.35555599999996
100
AcDbLayout
  1
Model
 70
     1
 71
     0
 10
0.0
 20
0.0
 11
12.0
 21
9.0
 12
0.0
 22
0.0
 32
0.0
 14
0.0
 24
0.0
 34
0.0
 15
0.0
 25
0.0
 35
0.0
146
0.0
 13
0.0
 23
0.0
 33
0.0
 16
1.0
 26
0.0
 36
0.0
 17
0.0
 27
1.0
 37
0.0
 76
     0
330
19
  0
LAYOUT
  5
1136
102
{ACAD_REACTORS
330
1133
102
}
330
1133
100
AcDbPlotSettings
  1

  2
なし
  4

  6

 40
0.0
 41
0.0
 42
0.0
 43
0.0
 44
0.0
 45
0.0
 46
0.0
 47
0.0
 48
0.0
 49
0.0
140
0.0
141
0.0
142
1.0
143
1.0
 70
   688
 72
     0
 73
     0
 74
     5
  7
monochrome.ctb
 75
    16
147
1.0
148
0.0
149
0.0
100
AcDbLayout
  1
ﾚｲｱｳﾄ1
 70
     1
 71
     1
 10
0.0
 20
0.0
 11
1188.0
 21
840.0
 12
0.0
 22
0.0
 32
0.0
 14
0.0
 24
0.0
 34
0.0
 15
1800.0
 25
1800.0
 35
1800.0
146
0.0
 13
0.0
 23
0.0
 33
0.0
 16
1.0
 26
0.0
 36
0.0
 17
0.0
 27
1.0
 37
0.0
 76
     0
330
16
  0
MLINESTYLE
  5
1C
102
{ACAD_REACTORS
330
E
102
}
330
E
100
AcDbMlineStyle
  2
STANDARD
 70
     0
  3

 62
     0
 51
90.0
 52
90.0
 71
     2
 49
0.5
 62
   256
  6
BYLAYER
 49
-0.5
 62
   256
  6
BYLAYER
  0
ACDBPLACEHOLDER
  5
1132
102
{ACAD_REACTORS
330
1131
102
}
330
1131
  0
ENDSEC
  0
EOF
