  0
SECTION
  2
HEADER
  9
$ACADVER
  1
AC1015
  9
$ACADMAINTVER
 70
     6
  9
$DWGCODEPAGE
  3
ANSI_932
  9
$INSBASE
 10
0.0
 20
0.0
 30
0.0
  9
$EXTMIN
 10
-4.533826999999999
 20
-0.4989790000000001
 30
0.0
  9
$EXTMAX
 10
425.083914
 20
967.8608740504046
 30
0.0
  9
$LIMMIN
 10
0.0
 20
0.0
  9
$LIMMAX
 10
420.0
 20
297.0
  9
$ORTHOMODE
 70
     1
  9
$REGENMODE
 70
     1
  9
$FILLMODE
 70
     1
  9
$QTEXTMODE
 70
     0
  9
$MIRRTEXT
 70
     1
  9
$LTSCALE
 40
1.0
  9
$ATTMODE
 70
     1
  9
$TEXTSIZE
 40
3.0
  9
$TRACEWID
 40
1.0
  9
$TEXTSTYLE
  7
STANDARD
  9
$CLAYER
  8
4
  9
$CELTYPE
  6
BYLAYER
  9
$CECOLOR
 62
   256
  9
$CELTSCALE
 40
1.0
  9
$DISPSILH
 70
     0
  9
$DIMSCALE
 40
1.0
  9
$DIMASZ
 40
3.0
  9
$DIMEXO
 40
2.0
  9
$DIMDLI
 40
4.0
  9
$DIMRND
 40
0.0
  9
$DIMDLE
 40
0.0
  9
$DIMEXE
 40
2.0
  9
$DIMTP
 40
0.0
  9
$DIMTM
 40
0.0
  9
$DIMTXT
 40
2.5
  9
$DIMCEN
 40
3.0
  9
$DIMTSZ
 40
0.0
  9
$DIMTOL
 70
     0
  9
$DIMLIM
 70
     0
  9
$DIMTIH
 70
     0
  9
$DIMTOH
 70
     1
  9
$DIMSE1
 70
     0
  9
$DIMSE2
 70
     0
  9
$DIMTAD
 70
     1
  9
$DIMZIN
 70
     8
  9
$DIMBLK
  1

  9
$DIMASO
 70
     1
  9
$DIMSHO
 70
     1
  9
$DIMPOST
  1

  9
$DIMAPOST
  1

  9
$DIMALT
 70
     0
  9
$DIMALTD
 70
     4
  9
$DIMALTF
 40
0.0394
  9
$DIMLFAC
 40
1.0
  9
$DIMTOFL
 70
     1
  9
$DIMTVP
 40
0.0
  9
$DIMTIX
 70
     0
  9
$DIMSOXD
 70
     0
  9
$DIMSAH
 70
     0
  9
$DIMBLK1
  1

  9
$DIMBLK2
  1

  9
$DIMSTYLE
  2
STANDARD_WS
  9
$DIMCLRD
 70
     0
  9
$DIMCLRE
 70
     0
  9
$DIMCLRT
 70
     0
  9
$DIMTFAC
 40
1.0
  9
$DIMGAP
 40
1.0
  9
$DIMJUST
 70
     0
  9
$DIMSD1
 70
     0
  9
$DIMSD2
 70
     0
  9
$DIMTOLJ
 70
     1
  9
$DIMTZIN
 70
     0
  9
$DIMALTZ
 70
     0
  9
$DIMALTTZ
 70
     0
  9
$DIMUPT
 70
     0
  9
$DIMDEC
 70
     0
  9
$DIMTDEC
 70
     0
  9
$DIMALTU
 70
     8
  9
$DIMALTTD
 70
     4
  9
$DIMTXSTY
  7
STANDARD
  9
$DIMAUNIT
 70
     0
  9
$DIMADEC
 70
     0
  9
$DIMALTRND
 40
0.0
  9
$DIMAZIN
 70
     0
  9
$DIMDSEP
 70
    46
  9
$DIMATFIT
 70
     3
  9
$DIMFRAC
 70
     0
  9
$DIMLDRBLK
  1

  9
$DIMLUNIT
 70
     2
  9
$DIMLWD
 70
    -2
  9
$DIMLWE
 70
    -2
  9
$DIMTMOVE
 70
     0
  9
$LUNITS
 70
     2
  9
$LUPREC
 70
     0
  9
$SKETCHINC
 40
1.0
  9
$FILLETRAD
 40
0.0
  9
$AUNITS
 70
     0
  9
$AUPREC
 70
     0
  9
$MENU
  1
acad
  9
$ELEVATION
 40
0.0
  9
$PELEVATION
 40
0.0
  9
$THICKNESS
 40
0.0
  9
$LIMCHECK
 70
     0
  9
$CHAMFERA
 40
10.0
  9
$CHAMFERB
 40
10.0
  9
$CHAMFERC
 40
20.0
  9
$CHAMFERD
 40
0.0
  9
$SKPOLY
 70
     0
  9
$TDCREATE
 40
2451705.472354861
  9
$TDUCREATE
 40
2451705.097354861
  9
$TDUPDATE
 40
2459619.711980960
  9
$TDUUPDATE
 40
2459619.336980960
  9
$TDINDWG
 40
1.0213418866
  9
$TDUSRTIMER
 40
1.0213409838
  9
$USRTIMER
 70
     1
  9
$ANGBASE
 50
0.0
  9
$ANGDIR
 70
     0
  9
$PDMODE
 70
     0
  9
$PDSIZE
 40
0.0
  9
$PLINEWID
 40
0.0
  9
$SPLFRAME
 70
     0
  9
$SPLINETYPE
 70
     6
  9
$SPLINESEGS
 70
     8
  9
$HANDSEED
  5
373C
  9
$SURFTAB1
 70
     6
  9
$SURFTAB2
 70
     6
  9
$SURFTYPE
 70
     6
  9
$SURFU
 70
     6
  9
$SURFV
 70
     6
  9
$UCSBASE
  2

  9
$UCSNAME
  2

  9
$UCSORG
 10
0.0
 20
0.0
 30
0.0
  9
$UCSXDIR
 10
1.0
 20
0.0
 30
0.0
  9
$UCSYDIR
 10
0.0
 20
1.0
 30
0.0
  9
$UCSORTHOREF
  2

  9
$UCSORTHOVIEW
 70
     0
  9
$UCSORGTOP
 10
0.0
 20
0.0
 30
0.0
  9
$UCSORGBOTTOM
 10
0.0
 20
0.0
 30
0.0
  9
$UCSORGLEFT
 10
0.0
 20
0.0
 30
0.0
  9
$UCSORGRIGHT
 10
0.0
 20
0.0
 30
0.0
  9
$UCSORGFRONT
 10
0.0
 20
0.0
 30
0.0
  9
$UCSORGBACK
 10
0.0
 20
0.0
 30
0.0
  9
$PUCSBASE
  2

  9
$PUCSNAME
  2

  9
$PUCSORG
 10
0.0
 20
0.0
 30
0.0
  9
$PUCSXDIR
 10
1.0
 20
0.0
 30
0.0
  9
$PUCSYDIR
 10
0.0
 20
1.0
 30
0.0
  9
$PUCSORTHOREF
  2

  9
$PUCSORTHOVIEW
 70
     0
  9
$PUCSORGTOP
 10
0.0
 20
0.0
 30
0.0
  9
$PUCSORGBOTTOM
 10
0.0
 20
0.0
 30
0.0
  9
$PUCSORGLEFT
 10
0.0
 20
0.0
 30
0.0
  9
$PUCSORGRIGHT
 10
0.0
 20
0.0
 30
0.0
  9
$PUCSORGFRONT
 10
0.0
 20
0.0
 30
0.0
  9
$PUCSORGBACK
 10
0.0
 20
0.0
 30
0.0
  9
$USERI1
 70
     0
  9
$USERI2
 70
     0
  9
$USERI3
 70
     0
  9
$USERI4
 70
     0
  9
$USERI5
 70
     0
  9
$USERR1
 40
0.0
  9
$USERR2
 40
0.0
  9
$USERR3
 40
0.0
  9
$USERR4
 40
0.0
  9
$USERR5
 40
0.0
  9
$WORLDVIEW
 70
     1
  9
$SHADEDGE
 70
     3
  9
$SHADEDIF
 70
    70
  9
$TILEMODE
 70
     1
  9
$MAXACTVP
 70
    48
  9
$PINSBASE
 10
0.0
 20
0.0
 30
0.0
  9
$PLIMCHECK
 70
     0
  9
$PEXTMIN
 10
0.9998200220350099
 20
2.497209426507311
 30
-0.0015258207003583
  9
$PEXTMAX
 10
419.0322293466493
 20
295.0239887061757
 30
0.0000000349246037
  9
$PLIMMIN
 10
-3.5664937800347
 20
-2.069121863313562
  9
$PLIMMAX
 10
423.5985606364702
 20
299.9784823009688
  9
$UNITMODE
 70
     0
  9
$VISRETAIN
 70
     1
  9
$PLINEGEN
 70
     0
  9
$PSLTSCALE
 70
     1
  9
$TREEDEPTH
 70
  3020
  9
$CMLSTYLE
  2
STANDARD
  9
$CMLJUST
 70
     0
  9
$CMLSCALE
 40
20.0
  9
$PROXYGRAPHICS
 70
     1
  9
$MEASUREMENT
 70
     1
  9
$CELWEIGHT
370
    -1
  9
$ENDCAPS
280
     0
  9
$JOINSTYLE
280
     0
  9
$LWDISPLAY
290
     1
  9
$INSUNITS
 70
     0
  9
$HYPERLINKBASE
  1

  9
$STYLESHEET
  1
monochrome.ctb
  9
$XEDIT
290
     1
  9
$CEPSNTYPE
380
     0
  9
$PSTYLEMODE
290
     1
  9
$FINGERPRINTGUID
  2
{BEA307F9-B731-45A1-A7DB-B1C76B917DDE}
  9
$VERSIONGUID
  2
{BC847398-FEAF-4F3A-A655-79E0561D5109}
  9
$EXTNAMES
290
     1
  9
$PSVPSCALE
 40
0.0
  9
$OLESTARTUP
290
     0
  0
ENDSEC
  0
SECTION
  2
CLASSES
  0
CLASS
  1
DICTIONARYVAR
  2
AcDbDictionaryVar
  3
AutoCAD 2000
 90
        0
280
     0
281
     0
  0
CLASS
  1
LWPOLYLINE
  2
AcDbPolyline
  3
AutoCAD 2000
 90
    32768
280
     0
281
     1
  0
CLASS
  1
ACDBDICTIONARYWDFLT
  2
AcDbDictionaryWithDefault
  3
AutoCAD 2000
 90
        0
280
     0
281
     0
  0
CLASS
  1
ACDBPLACEHOLDER
  2
AcDbPlaceHolder
  3
AutoCAD 2000
 90
        0
280
     0
281
     0
  0
CLASS
  1
LAYOUT
  2
AcDbLayout
  3
AutoCAD 2000
 90
        0
280
     0
281
     0
  0
ENDSEC
  0
SECTION
  2
TABLES
  0
TABLE
  2
VPORT
  5
8
330
0
100
AcDbSymbolTable
 70
     4
  0
VPORT
  5
373B
330
8
100
AcDbSymbolTableRecord
100
AcDbViewportTableRecord
  2
*Active
 70
     0
 10
0.0
 20
0.0
 11
1.0
 21
1.0
 12
213.8164176136592
 22
141.0312795365825
 13
0.0
 23
0.0
 14
10.0
 24
10.0
 15
10.0
 25
10.0
 16
0.0
 26
0.0
 36
1.0
 17
0.0
 27
0.0
 37
0.0
 40
394.262291754695
 41
1.508910891089109
 42
50.0
 43
0.0
 44
0.0
 50
0.0
 51
0.0
 71
     0
 72
   100
 73
     1
 74
     1
 75
     0
 76
     0
 77
     0
 78
     0
281
     0
 65
     1
110
0.0
120
0.0
130
0.0
111
1.0
121
0.0
131
0.0
112
0.0
122
1.0
132
0.0
 79
     0
146
0.0
  0
ENDTAB
  0
TABLE
  2
LTYPE
  5
5
330
0
100
AcDbSymbolTable
 70
     4
  0
LTYPE
  5
12
330
5
100
AcDbSymbolTableRecord
100
AcDbLinetypeTableRecord
  2
BYBLOCK
 70
     0
  3

 72
    65
 73
     0
 40
0.0
  0
LTYPE
  5
13
330
5
100
AcDbSymbolTableRecord
100
AcDbLinetypeTableRecord
  2
BYLAYER
 70
     0
  3

 72
    65
 73
     0
 40
0.0
  0
LTYPE
  5
14
330
5
100
AcDbSymbolTableRecord
100
AcDbLinetypeTableRecord
  2
CONTINUOUS
 70
     0
  3
Solid line
 72
    65
 73
     0
 40
0.0
  0
LTYPE
  5
195
330
5
100
AcDbSymbolTableRecord
100
AcDbLinetypeTableRecord
  2
CENTER
 70
     0
  3
Center ____ _ ____ _ ____ _ ____ _ ____ _ ____
 72
    65
 73
     4
 40
50.8
 49
31.75
 74
     0
 49
-6.349999999999999
 74
     0
 49
6.349999999999999
 74
     0
 49
-6.349999999999999
 74
     0
  0
LTYPE
  5
196
330
5
100
AcDbSymbolTableRecord
100
AcDbLinetypeTableRecord
  2
HIDDEN2
 70
     0
  3
Hidden (.5x) _ _ _ _ _ _ _ _ _ _ _ _ _ _ _ _ _
 72
    65
 73
     2
 40
4.7625
 49
3.174999999999999
 74
     0
 49
-1.587499999999999
 74
     0
  0
LTYPE
  5
E8B
330
5
100
AcDbSymbolTableRecord
100
AcDbLinetypeTableRecord
  2
HIDDEN
 70
     0
  3
__ __ __ __ __ __ __ __ __ __ __ __ __ __ __ __
 72
    65
 73
     2
 40
0.375
 49
0.25
 74
     0
 49
-0.125
 74
     0
  0
ENDTAB
  0
TABLE
  2
LAYER
  5
2
330
0
100
AcDbSymbolTable
 70
     9
  0
LAYER
  5
E
330
2
100
AcDbSymbolTableRecord
100
AcDbLayerTableRecord
  2
0
 70
     0
 62
     7
  6
CONTINUOUS
370
    -3
390
C4B
  0
LAYER
  5
38
330
2
100
AcDbSymbolTableRecord
100
AcDbLayerTableRecord
  2
DEFPOINTS
 70
     0
 62
     7
  6
CONTINUOUS
290
     0
370
    -3
390
C4B
  0
LAYER
  5
39
330
2
100
AcDbSymbolTableRecord
100
AcDbLayerTableRecord
  2
OBJECT
 70
     0
 62
     7
  6
CONTINUOUS
370
    -3
390
C4B
  0
LAYER
  5
D2
330
2
100
AcDbSymbolTableRecord
100
AcDbLayerTableRecord
  2
VIEWPORT
 70
     0
 62
     7
  6
CONTINUOUS
370
    -3
390
C4B
  0
LAYER
  5
197
330
2
100
AcDbSymbolTableRecord
100
AcDbLayerTableRecord
  2
1
 70
     0
 62
     2
  6
CONTINUOUS
370
    -3
390
C4B
  0
LAYER
  5
198
330
2
100
AcDbSymbolTableRecord
100
AcDbLayerTableRecord
  2
2
 70
     0
 62
     3
  6
HIDDEN2
370
    -3
390
C4B
  0
LAYER
  5
199
330
2
100
AcDbSymbolTableRecord
100
AcDbLayerTableRecord
  2
3
 70
     0
 62
     1
  6
CENTER
370
    -3
390
C4B
  0
LAYER
  5
207
330
2
100
AcDbSymbolTableRecord
100
AcDbLayerTableRecord
  2
4
 70
     0
 62
     7
  6
CONTINUOUS
370
    -3
390
C4B
  0
LAYER
  5
E8C
330
2
100
AcDbSymbolTableRecord
100
AcDbLayerTableRecord
  2
文字
 70
     0
 62
     7
  6
CONTINUOUS
370
    -3
390
C4B
  0
ENDTAB
  0
TABLE
  2
STYLE
  5
3
330
0
100
AcDbSymbolTable
 70
     4
  0
STYLE
  5
F
330
3
100
AcDbSymbolTableRecord
100
AcDbTextStyleTableRecord
  2
STANDARD
 70
     0
 40
3.0
 41
1.0
 50
0.0
 71
     0
 42
3.0
  3
txt.shx
  4
bigfont.shx
  0
STYLE
  5
3A
330
3
100
AcDbSymbolTableRecord
100
AcDbTextStyleTableRecord
  2
ADESK1
 70
     0
 40
0.0
 41
1.0
 50
0.0
 71
     0
 42
5.0
  3
romans
  4
bigfont
  0
STYLE
  5
194
330
3
100
AcDbSymbolTableRecord
100
AcDbTextStyleTableRecord
  2

 70
     1
 40
0.0
 41
1.0
 50
0.0
 71
     0
 42
3.0
  3
ltypeshp.shx
  4

  0
STYLE
  5
E8D
330
3
100
AcDbSymbolTableRecord
100
AcDbTextStyleTableRecord
  2
ED_VECTOR
 70
     0
 40
0.0
 41
1.0
 50
0.0
 71
     0
 42
0.2
  3
MONOTXT.SHX
  4
BIGFONT.SHX
  0
ENDTAB
  0
TABLE
  2
VIEW
  5
6
330
0
100
AcDbSymbolTable
 70
     0
  0
ENDTAB
  0
TABLE
  2
UCS
  5
7
330
0
100
AcDbSymbolTable
 70
     0
  0
ENDTAB
  0
TABLE
  2
APPID
  5
9
330
0
100
AcDbSymbolTable
 70
     3
  0
APPID
  5
10
330
9
100
AcDbSymbolTableRecord
100
AcDbRegAppTableRecord
  2
ACAD
 70
     0
  0
APPID
  5
24
330
9
100
AcDbSymbolTableRecord
100
AcDbRegAppTableRecord
  2
CONTENTTABDATA
 70
     0
  0
APPID
  5
25
330
9
100
AcDbSymbolTableRecord
100
AcDbRegAppTableRecord
  2
CONTENTCURRENTTAB
 70
     0
  0
ENDTAB
  0
TABLE
  2
DIMSTYLE
  5
A
330
0
100
AcDbSymbolTable
 70
     6
100
AcDbDimStyleTable
 71
     1
340
D7
  0
DIMSTYLE
105
1D
330
A
100
AcDbSymbolTableRecord
100
AcDbDimStyleTableRecord
  2
STANDARD
 70
     0
340
F
  0
DIMSTYLE
105
3B
330
A
100
AcDbSymbolTableRecord
100
AcDbDimStyleTableRecord
  2
JIS
 70
     0
 41
2.5
 42
1.0
 43
7.0
 44
1.0
 73
     0
 74
     0
 77
     1
 78
     8
140
2.5
141
0.0
143
0.0394
147
0.0
172
     1
174
     1
175
     1
340
F
  0
DIMSTYLE
105
D7
102
{ACAD_REACTORS
330
85E
330
869
330
932
330
976
330
985
330
992
330
9A2
330
A1A
330
A29
330
A5D
330
A6C
330
A93
330
AA0
330
AAF
330
ADA
330
AE7
330
B49
330
B65
330
2160
330
9B1
330
21D8
330
34EC
330
29E8
330
29E7
330
29E6
330
34F7
330
29F0
330
29ED
330
3501
330
2A04
330
2A18
330
2A17
330
2A24
330
251D
330
251C
330
251B
330
2A32
330
2556
330
2535
330
350B
330
255C
330
2A64
330
2A6B
330
2570
330
2534
330
2577
330
2597
330
25AA
330
25AE
330
2A90
330
2AA0
330
2A9E
330
2A9D
330
2A9C
330
2AC5
330
2A92
330
2A8F
330
2695
330
25EB
330
25EF
330
2B19
330
2621
330
261F
330
25F0
330
25ED
330
25EE
330
2696
102
}
330
A
100
AcDbSymbolTableRecord
100
AcDbDimStyleTableRecord
  2
STANDARD_WS
 70
     0
 41
3.0
 42
2.0
 43
4.0
 44
2.0
 73
     0
 77
     1
 78
     8
140
2.5
141
3.0
143
0.0394
147
1.0
171
     4
172
     1
271
     0
272
     0
273
     8
274
     4
340
F
  0
DIMSTYLE
105
E8E
330
A
100
AcDbSymbolTableRecord
100
AcDbDimStyleTableRecord
  2
DIM1
 70
     0
 41
4.0
 42
1.0
 43
30.0
 44
1.0
 73
     0
 74
     0
 77
     1
 78
     8
140
6.0
141
0.0
146
0.5
147
1.5
172
     1
173
     1
176
     3
177
     3
284
     8
288
     1
340
F
341
C61
342
C61
343
C61
344
C61
  0
DIMSTYLE
105
2382
330
A
100
AcDbSymbolTableRecord
100
AcDbDimStyleTableRecord
  2
ISO-25
 70
     0
 41
2.5
 42
0.625
 43
3.75
 44
1.25
 73
     0
 74
     0
 77
     1
 78
     8
140
2.5
141
2.5
143
0.03937
147
0.625
171
     3
172
     1
271
     2
272
     2
274
     3
278
    44
283
     0
284
     8
340
F
  0
DIMSTYLE
105
2383
330
A
100
AcDbSymbolTableRecord
100
AcDbDimStyleTableRecord
  2
EDDIMINFO
 70
     0
 41
3.0
 42
1.0
 43
10.0
 44
1.0
 46
5.0
 73
     0
 74
     0
 77
     1
 78
     8
140
4.0
141
2.5
143
0.03937
147
1.0
171
     3
172
     1
173
     1
176
   256
177
   256
178
   256
179
     2
271
     2
272
     2
274
     3
283
     0
284
     8
340
E8D
341
2374
343
2374
344
237A
371
    -1
372
    -1
  0
ENDTAB
  0
TABLE
  2
BLOCK_RECORD
  5
1
330
0
100
AcDbSymbolTable
 70
    71
  0
BLOCK_RECORD
  5
18
330
1
100
AcDbSymbolTableRecord
100
AcDbBlockTableRecord
  2
*MODEL_SPACE
340
C4E
  0
BLOCK_RECORD
  5
15
330
1
100
AcDbSymbolTableRecord
100
AcDbBlockTableRecord
  2
*PAPER_SPACE
340
C4F
  0
BLOCK_RECORD
  5
3C
330
1
100
AcDbSymbolTableRecord
100
AcDbBlockTableRecord
  2
TITLE_BLOCK
340
0
  0
BLOCK_RECORD
  5
854
330
1
100
AcDbSymbolTableRecord
100
AcDbBlockTableRecord
  2
*D1
340
0
  0
BLOCK_RECORD
  5
85F
330
1
100
AcDbSymbolTableRecord
100
AcDbBlockTableRecord
  2
*D2
340
0
  0
BLOCK_RECORD
  5
928
330
1
100
AcDbSymbolTableRecord
100
AcDbBlockTableRecord
  2
*D3
340
0
  0
BLOCK_RECORD
  5
96A
330
1
100
AcDbSymbolTableRecord
100
AcDbBlockTableRecord
  2
*D4
340
0
  0
BLOCK_RECORD
  5
977
330
1
100
AcDbSymbolTableRecord
100
AcDbBlockTableRecord
  2
*D5
340
0
  0
BLOCK_RECORD
  5
986
330
1
100
AcDbSymbolTableRecord
100
AcDbBlockTableRecord
  2
*D6
340
0
  0
BLOCK_RECORD
  5
993
330
1
100
AcDbSymbolTableRecord
100
AcDbBlockTableRecord
  2
*D7
340
0
  0
BLOCK_RECORD
  5
9A3
330
1
100
AcDbSymbolTableRecord
100
AcDbBlockTableRecord
  2
*D8
340
0
  0
BLOCK_RECORD
  5
A0E
330
1
100
AcDbSymbolTableRecord
100
AcDbBlockTableRecord
  2
*D9
340
0
  0
BLOCK_RECORD
  5
A1B
330
1
100
AcDbSymbolTableRecord
100
AcDbBlockTableRecord
  2
*D10
340
0
  0
BLOCK_RECORD
  5
A4F
330
1
100
AcDbSymbolTableRecord
100
AcDbBlockTableRecord
  2
*D11
340
0
  0
BLOCK_RECORD
  5
A5E
330
1
100
AcDbSymbolTableRecord
100
AcDbBlockTableRecord
  2
*D12
340
0
  0
BLOCK_RECORD
  5
A87
330
1
100
AcDbSymbolTableRecord
100
AcDbBlockTableRecord
  2
*D13
340
0
  0
BLOCK_RECORD
  5
A94
330
1
100
AcDbSymbolTableRecord
100
AcDbBlockTableRecord
  2
*D14
340
0
  0
BLOCK_RECORD
  5
AA1
330
1
100
AcDbSymbolTableRecord
100
AcDbBlockTableRecord
  2
*D15
340
0
  0
BLOCK_RECORD
  5
ACE
330
1
100
AcDbSymbolTableRecord
100
AcDbBlockTableRecord
  2
*D16
340
0
  0
BLOCK_RECORD
  5
ADB
330
1
100
AcDbSymbolTableRecord
100
AcDbBlockTableRecord
  2
*D17
340
0
  0
BLOCK_RECORD
  5
B3B
330
1
100
AcDbSymbolTableRecord
100
AcDbBlockTableRecord
  2
*D18
340
0
  0
BLOCK_RECORD
  5
B57
330
1
100
AcDbSymbolTableRecord
100
AcDbBlockTableRecord
  2
*D19
340
0
  0
BLOCK_RECORD
  5
C61
330
1
100
AcDbSymbolTableRecord
100
AcDbBlockTableRecord
  2
_OPEN
340
0
  0
BLOCK_RECORD
  5
2161
330
1
100
AcDbSymbolTableRecord
100
AcDbBlockTableRecord
  2
*D21
340
0
  0
BLOCK_RECORD
  5
21D9
330
1
100
AcDbSymbolTableRecord
100
AcDbBlockTableRecord
  2
*D22
340
0
  0
BLOCK_RECORD
  5
2374
330
1
100
AcDbSymbolTableRecord
100
AcDbBlockTableRecord
  2
EDTIP_ARROW_S
340
0
  0
BLOCK_RECORD
  5
237A
330
1
100
AcDbSymbolTableRecord
100
AcDbBlockTableRecord
  2
EDTIP_ARROW_E
340
0
  0
BLOCK_RECORD
  5
26F3
330
1
100
AcDbSymbolTableRecord
100
AcDbBlockTableRecord
  2
*D25
340
0
  0
BLOCK_RECORD
  5
26FD
330
1
100
AcDbSymbolTableRecord
100
AcDbBlockTableRecord
  2
*D26
340
0
  0
BLOCK_RECORD
  5
2707
330
1
100
AcDbSymbolTableRecord
100
AcDbBlockTableRecord
  2
*D27
340
0
  0
BLOCK_RECORD
  5
2711
330
1
100
AcDbSymbolTableRecord
100
AcDbBlockTableRecord
  2
*D28
340
0
  0
BLOCK_RECORD
  5
271D
330
1
100
AcDbSymbolTableRecord
100
AcDbBlockTableRecord
  2
*D29
340
0
  0
BLOCK_RECORD
  5
2729
330
1
100
AcDbSymbolTableRecord
100
AcDbBlockTableRecord
  2
*D30
340
0
  0
BLOCK_RECORD
  5
2735
330
1
100
AcDbSymbolTableRecord
100
AcDbBlockTableRecord
  2
*D31
340
0
  0
BLOCK_RECORD
  5
2744
330
1
100
AcDbSymbolTableRecord
100
AcDbBlockTableRecord
  2
*D32
340
0
  0
BLOCK_RECORD
  5
2752
330
1
100
AcDbSymbolTableRecord
100
AcDbBlockTableRecord
  2
*D33
340
0
  0
BLOCK_RECORD
  5
275E
330
1
100
AcDbSymbolTableRecord
100
AcDbBlockTableRecord
  2
*D34
340
0
  0
BLOCK_RECORD
  5
276C
330
1
100
AcDbSymbolTableRecord
100
AcDbBlockTableRecord
  2
*D35
340
0
  0
BLOCK_RECORD
  5
277A
330
1
100
AcDbSymbolTableRecord
100
AcDbBlockTableRecord
  2
*D36
340
0
  0
BLOCK_RECORD
  5
2788
330
1
100
AcDbSymbolTableRecord
100
AcDbBlockTableRecord
  2
*D37
340
0
  0
BLOCK_RECORD
  5
2794
330
1
100
AcDbSymbolTableRecord
100
AcDbBlockTableRecord
  2
*D38
340
0
  0
BLOCK_RECORD
  5
27A0
330
1
100
AcDbSymbolTableRecord
100
AcDbBlockTableRecord
  2
*D39
340
0
  0
BLOCK_RECORD
  5
27AE
330
1
100
AcDbSymbolTableRecord
100
AcDbBlockTableRecord
  2
*D40
340
0
  0
BLOCK_RECORD
  5
27BA
330
1
100
AcDbSymbolTableRecord
100
AcDbBlockTableRecord
  2
*D41
340
0
  0
BLOCK_RECORD
  5
27C6
330
1
100
AcDbSymbolTableRecord
100
AcDbBlockTableRecord
  2
*D42
340
0
  0
BLOCK_RECORD
  5
27D4
330
1
100
AcDbSymbolTableRecord
100
AcDbBlockTableRecord
  2
*D43
340
0
  0
BLOCK_RECORD
  5
27E2
330
1
100
AcDbSymbolTableRecord
100
AcDbBlockTableRecord
  2
*D44
340
0
  0
BLOCK_RECORD
  5
27EE
330
1
100
AcDbSymbolTableRecord
100
AcDbBlockTableRecord
  2
*D45
340
0
  0
BLOCK_RECORD
  5
2B9D
330
1
100
AcDbSymbolTableRecord
100
AcDbBlockTableRecord
  2
*D46
340
0
  0
BLOCK_RECORD
  5
2BA7
330
1
100
AcDbSymbolTableRecord
100
AcDbBlockTableRecord
  2
*D47
340
0
  0
BLOCK_RECORD
  5
2BB1
330
1
100
AcDbSymbolTableRecord
100
AcDbBlockTableRecord
  2
*D48
340
0
  0
BLOCK_RECORD
  5
2BBB
330
1
100
AcDbSymbolTableRecord
100
AcDbBlockTableRecord
  2
*D49
340
0
  0
BLOCK_RECORD
  5
2BC7
330
1
100
AcDbSymbolTableRecord
100
AcDbBlockTableRecord
  2
*D50
340
0
  0
BLOCK_RECORD
  5
2BD3
330
1
100
AcDbSymbolTableRecord
100
AcDbBlockTableRecord
  2
*D51
340
0
  0
BLOCK_RECORD
  5
2BDF
330
1
100
AcDbSymbolTableRecord
100
AcDbBlockTableRecord
  2
*D52
340
0
  0
BLOCK_RECORD
  5
2BEE
330
1
100
AcDbSymbolTableRecord
100
AcDbBlockTableRecord
  2
*D53
340
0
  0
BLOCK_RECORD
  5
2BFC
330
1
100
AcDbSymbolTableRecord
100
AcDbBlockTableRecord
  2
*D54
340
0
  0
BLOCK_RECORD
  5
2C08
330
1
100
AcDbSymbolTableRecord
100
AcDbBlockTableRecord
  2
*D55
340
0
  0
BLOCK_RECORD
  5
2C16
330
1
100
AcDbSymbolTableRecord
100
AcDbBlockTableRecord
  2
*D56
340
0
  0
BLOCK_RECORD
  5
2C24
330
1
100
AcDbSymbolTableRecord
100
AcDbBlockTableRecord
  2
*D57
340
0
  0
BLOCK_RECORD
  5
2C32
330
1
100
AcDbSymbolTableRecord
100
AcDbBlockTableRecord
  2
*D58
340
0
  0
BLOCK_RECORD
  5
2C3E
330
1
100
AcDbSymbolTableRecord
100
AcDbBlockTableRecord
  2
*D59
340
0
  0
BLOCK_RECORD
  5
2C4A
330
1
100
AcDbSymbolTableRecord
100
AcDbBlockTableRecord
  2
*D60
340
0
  0
BLOCK_RECORD
  5
2C58
330
1
100
AcDbSymbolTableRecord
100
AcDbBlockTableRecord
  2
*D61
340
0
  0
BLOCK_RECORD
  5
2C64
330
1
100
AcDbSymbolTableRecord
100
AcDbBlockTableRecord
  2
*D62
340
0
  0
BLOCK_RECORD
  5
2C70
330
1
100
AcDbSymbolTableRecord
100
AcDbBlockTableRecord
  2
*D63
340
0
  0
BLOCK_RECORD
  5
2C7E
330
1
100
AcDbSymbolTableRecord
100
AcDbBlockTableRecord
  2
*D64
340
0
  0
BLOCK_RECORD
  5
2C8C
330
1
100
AcDbSymbolTableRecord
100
AcDbBlockTableRecord
  2
*D65
340
0
  0
BLOCK_RECORD
  5
2C98
330
1
100
AcDbSymbolTableRecord
100
AcDbBlockTableRecord
  2
*D66
340
0
  0
BLOCK_RECORD
  5
34ED
330
1
100
AcDbSymbolTableRecord
100
AcDbBlockTableRecord
  2
*D67
340
0
  0
BLOCK_RECORD
  5
34F8
330
1
100
AcDbSymbolTableRecord
100
AcDbBlockTableRecord
  2
*D68
340
0
  0
BLOCK_RECORD
  5
3502
330
1
100
AcDbSymbolTableRecord
100
AcDbBlockTableRecord
  2
*D69
340
0
  0
BLOCK_RECORD
  5
350C
330
1
100
AcDbSymbolTableRecord
100
AcDbBlockTableRecord
  2
*D70
340
0
  0
ENDTAB
  0
ENDSEC
  0
SECTION
  2
BLOCKS
  0
BLOCK
  5
19
330
18
100
AcDbEntity
  8
0
100
AcDbBlockBegin
  2
*MODEL_SPACE
 70
     0
 10
0.0
 20
0.0
 30
0.0
  3
*MODEL_SPACE
  1

  0
ENDBLK
  5
1A
330
18
100
AcDbEntity
  8
0
100
AcDbBlockEnd
  0
BLOCK
  5
16
330
15
100
AcDbEntity
 67
     1
  8
0
100
AcDbBlockBegin
  2
*PAPER_SPACE
 70
     0
 10
0.0
 20
0.0
 30
0.0
  3
*PAPER_SPACE
  1

  0
ENDBLK
  5
17
330
15
100
AcDbEntity
 67
     1
  8
0
100
AcDbBlockEnd
  0
BLOCK
  5
C9
330
3C
100
AcDbEntity
  8
0
100
AcDbBlockBegin
  2
TITLE_BLOCK
 70
     2
 10
0.0
 20
0.0
 30
0.0
  3
TITLE_BLOCK
  1

  0
LINE
  5
3D
330
3C
100
AcDbEntity
  8
0
100
AcDbLine
 10
0.0
 20
0.0
 30
0.0
 11
0.0
 21
10.0
 31
0.0
  0
LINE
  5
3E
330
3C
100
AcDbEntity
  8
0
100
AcDbLine
 10
0.0
 20
297.0
 30
0.0
 11
25.0
 21
297.0
 31
0.0
  0
LINE
  5
3F
330
3C
100
AcDbEntity
  8
0
100
AcDbLine
 10
420.0
 20
297.0
 30
0.0
 11
420.0
 21
287.0
 31
0.0
  0
LINE
  5
40
330
3C
100
AcDbEntity
  8
0
100
AcDbLine
 10
420.0
 20
0.0
 30
0.0
 11
410.0
 21
0.0
 31
0.0
  0
LINE
  5
41
330
3C
100
AcDbEntity
  8
0
100
AcDbLine
 10
25.0
 20
10.0
 30
0.0
 11
25.0
 21
287.0
 31
0.0
  0
LINE
  5
42
330
3C
100
AcDbEntity
  8
0
100
AcDbLine
 10
410.0
 20
10.0
 30
0.0
 11
25.0
 21
10.0
 31
0.0
  0
LINE
  5
43
330
3C
100
AcDbEntity
  8
0
100
AcDbLine
 10
410.0
 20
287.0
 30
0.0
 11
410.0
 21
10.0
 31
0.0
  0
LINE
  5
44
330
3C
100
AcDbEntity
  8
0
100
AcDbLine
 10
25.0
 20
287.0
 30
0.0
 11
410.0
 21
287.0
 31
0.0
  0
LINE
  5
45
330
3C
100
AcDbEntity
  8
0
100
AcDbLine
 10
0.0
 20
287.0
 30
0.0
 11
0.0
 21
297.0
 31
0.0
  0
LINE
  5
46
330
3C
100
AcDbEntity
  8
0
100
AcDbLine
 10
25.0
 20
0.0
 30
0.0
 11
0.0
 21
0.0
 31
0.0
  0
LINE
  5
47
330
3C
100
AcDbEntity
  8
0
100
AcDbLine
 10
420.0
 20
10.0
 30
0.0
 11
420.0
 21
0.0
 31
0.0
  0
LINE
  5
48
330
3C
100
AcDbEntity
  8
0
100
AcDbLine
 10
410.0
 20
297.0
 30
0.0
 11
420.0
 21
297.0
 31
0.0
  0
ATTDEF
  5
49
330
3C
100
AcDbEntity
  8
0
 62
     0
100
AcDbText
 10
19.0
 20
10.0
 30
0.0
 40
3.0
  1

 50
90.0
  7
ADESK1
100
AcDbAttributeDefinition
  3

  2
USER
 70
     8
  0
ATTDEF
  5
4A
330
3C
100
AcDbEntity
  8
0
 62
     0
100
AcDbText
 10
19.0
 20
70.0
 30
0.0
 40
3.0
  1

 50
90.0
  7
ADESK1
100
AcDbAttributeDefinition
  3

  2
REVDATE
 70
     8
  0
ATTDEF
  5
4B
330
3C
100
AcDbEntity
  8
0
 62
     0
100
AcDbText
 10
19.0
 20
118.0
 30
0.0
 40
3.0
  1

 50
90.0
  7
ADESK1
100
AcDbAttributeDefinition
  3

  2
FNAME
 70
     8
  0
LINE
  5
4C
330
3C
100
AcDbEntity
  8
OBJECT
100
AcDbLine
 10
130.0
 20
16.0
 30
0.0
 11
25.0
 21
16.0
 31
0.0
  0
LINE
  5
4D
330
3C
100
AcDbEntity
  8
OBJECT
100
AcDbLine
 10
130.0
 20
22.0
 30
0.0
 11
25.0
 21
22.0
 31
0.0
  0
LINE
  5
4E
330
3C
100
AcDbEntity
  8
OBJECT
100
AcDbLine
 10
130.0
 20
28.0
 30
0.0
 11
25.0
 21
28.0
 31
0.0
  0
LINE
  5
4F
330
3C
100
AcDbEntity
  8
OBJECT
100
AcDbLine
 10
130.0
 20
34.0
 30
0.0
 11
25.0
 21
34.0
 31
0.0
  0
LINE
  5
50
330
3C
100
AcDbEntity
  8
OBJECT
100
AcDbLine
 10
130.0
 20
40.0
 30
0.0
 11
25.0
 21
40.0
 31
0.0
  0
LINE
  5
51
330
3C
100
AcDbEntity
  8
OBJECT
100
AcDbLine
 10
28.0
 20
11.53589799999999
 30
0.0
 11
30.0
 21
15.0
 31
0.0
  0
LINE
  5
52
330
3C
100
AcDbEntity
  8
OBJECT
100
AcDbLine
 10
32.0
 20
11.53589799999999
 30
0.0
 11
30.0
 21
15.0
 31
0.0
  0
LINE
  5
53
330
3C
100
AcDbEntity
  8
OBJECT
100
AcDbLine
 10
35.0
 20
10.0
 30
0.0
 11
35.0
 21
40.0
 31
0.0
  0
LINE
  5
54
330
3C
100
AcDbEntity
  8
OBJECT
100
AcDbLine
 10
50.0
 20
10.0
 30
0.0
 11
50.0
 21
40.0
 31
0.0
  0
LINE
  5
55
330
3C
100
AcDbEntity
  8
OBJECT
100
AcDbLine
 10
80.0
 20
10.0
 30
0.0
 11
80.0
 21
40.0
 31
0.0
  0
LINE
  5
56
330
3C
100
AcDbEntity
  8
OBJECT
100
AcDbLine
 10
28.0
 20
11.53589799999999
 30
0.0
 11
32.0
 21
11.53589799999999
 31
0.0
  0
LINE
  5
57
330
3C
100
AcDbEntity
  8
OBJECT
100
AcDbLine
 10
39.5
 20
13.0
 30
0.0
 11
40.49999999999999
 21
13.0
 31
0.0
  0
LINE
  5
58
330
3C
100
AcDbEntity
  8
OBJECT
100
AcDbLine
 10
44.5
 20
13.0
 30
0.0
 11
45.49999999999999
 21
13.0
 31
0.0
  0
LINE
  5
59
330
3C
100
AcDbEntity
  8
OBJECT
100
AcDbLine
 10
32.0
 20
17.535898
 30
0.0
 11
30.0
 21
21.0
 31
0.0
  0
LINE
  5
5A
330
3C
100
AcDbEntity
  8
OBJECT
100
AcDbLine
 10
28.0
 20
17.535898
 30
0.0
 11
32.0
 21
17.535898
 31
0.0
  0
LINE
  5
5B
330
3C
100
AcDbEntity
  8
OBJECT
100
AcDbLine
 10
28.0
 20
17.535898
 30
0.0
 11
30.0
 21
21.0
 31
0.0
  0
LINE
  5
5C
330
3C
100
AcDbEntity
  8
OBJECT
100
AcDbLine
 10
32.0
 20
23.53589799999999
 30
0.0
 11
30.0
 21
27.0
 31
0.0
  0
LINE
  5
5D
330
3C
100
AcDbEntity
  8
OBJECT
100
AcDbLine
 10
28.0
 20
23.53589799999999
 30
0.0
 11
32.0
 21
23.53589799999999
 31
0.0
  0
LINE
  5
5E
330
3C
100
AcDbEntity
  8
OBJECT
100
AcDbLine
 10
28.0
 20
23.53589799999999
 30
0.0
 11
30.0
 21
27.0
 31
0.0
  0
LINE
  5
5F
330
3C
100
AcDbEntity
  8
OBJECT
100
AcDbLine
 10
28.0
 20
35.53589799999999
 30
0.0
 11
30.0
 21
39.0
 31
0.0
  0
LINE
  5
60
330
3C
100
AcDbEntity
  8
OBJECT
100
AcDbLine
 10
32.0
 20
35.53589799999999
 30
0.0
 11
30.0
 21
39.0
 31
0.0
  0
LINE
  5
61
330
3C
100
AcDbEntity
  8
OBJECT
100
AcDbLine
 10
28.0
 20
35.53589799999999
 30
0.0
 11
32.0
 21
35.53589799999999
 31
0.0
  0
LINE
  5
62
330
3C
100
AcDbEntity
  8
OBJECT
100
AcDbLine
 10
32.0
 20
29.53589799999999
 30
0.0
 11
30.0
 21
33.0
 31
0.0
  0
LINE
  5
63
330
3C
100
AcDbEntity
  8
OBJECT
100
AcDbLine
 10
28.0
 20
29.53589799999999
 30
0.0
 11
32.0
 21
29.53589799999999
 31
0.0
  0
LINE
  5
64
330
3C
100
AcDbEntity
  8
OBJECT
100
AcDbLine
 10
28.0
 20
29.53589799999999
 30
0.0
 11
30.0
 21
33.0
 31
0.0
  0
LINE
  5
65
330
3C
100
AcDbEntity
  8
OBJECT
100
AcDbLine
 10
39.5
 20
19.0
 30
0.0
 11
40.49999999999999
 21
19.0
 31
0.0
  0
LINE
  5
66
330
3C
100
AcDbEntity
  8
OBJECT
100
AcDbLine
 10
44.5
 20
19.0
 30
0.0
 11
45.49999999999999
 21
19.0
 31
0.0
  0
LINE
  5
67
330
3C
100
AcDbEntity
  8
OBJECT
100
AcDbLine
 10
39.5
 20
25.0
 30
0.0
 11
40.49999999999999
 21
25.0
 31
0.0
  0
LINE
  5
68
330
3C
100
AcDbEntity
  8
OBJECT
100
AcDbLine
 10
44.5
 20
25.0
 30
0.0
 11
45.49999999999999
 21
25.0
 31
0.0
  0
LINE
  5
69
330
3C
100
AcDbEntity
  8
OBJECT
100
AcDbLine
 10
39.5
 20
31.0
 30
0.0
 11
40.49999999999999
 21
31.0
 31
0.0
  0
LINE
  5
6A
330
3C
100
AcDbEntity
  8
OBJECT
100
AcDbLine
 10
39.5
 20
37.0
 30
0.0
 11
40.49999999999999
 21
37.0
 31
0.0
  0
LINE
  5
6B
330
3C
100
AcDbEntity
  8
OBJECT
100
AcDbLine
 10
44.5
 20
31.0
 30
0.0
 11
45.49999999999999
 21
31.0
 31
0.0
  0
LINE
  5
6C
330
3C
100
AcDbEntity
  8
OBJECT
100
AcDbLine
 10
44.5
 20
37.0
 30
0.0
 11
45.49999999999999
 21
37.0
 31
0.0
  0
LINE
  5
6D
330
3C
100
AcDbEntity
  8
OBJECT
100
AcDbLine
 10
120.0
 20
10.0
 30
0.0
 11
120.0
 21
40.0
 31
0.0
  0
LINE
  5
6E
330
3C
100
AcDbEntity
  8
OBJECT
100
AcDbLine
 10
130.0
 20
40.0
 30
0.0
 11
130.0
 21
10.0
 31
0.0
  0
LINE
  5
6F
330
3C
100
AcDbEntity
  8
0
100
AcDbLine
 10
217.5
 20
10.0
 30
0.0
 11
217.5
 21
0.0
 31
0.0
  0
LINE
  5
70
330
3C
100
AcDbEntity
  8
0
100
AcDbLine
 10
217.5
 20
287.0
 30
0.0
 11
217.5
 21
297.0
 31
0.0
  0
LINE
  5
71
330
3C
100
AcDbEntity
  8
0
100
AcDbLine
 10
410.0
 20
148.5
 30
0.0
 11
420.0
 21
148.5
 31
0.0
  0
LINE
  5
72
330
3C
100
AcDbEntity
  8
0
100
AcDbLine
 10
25.0
 20
148.5
 30
0.0
 11
0.0
 21
148.5
 31
0.0
  0
TEXT
  5
73
330
3C
100
AcDbEntity
  8
0
100
AcDbText
 10
1.0
 20
1.0
 30
0.0
 40
3.0
  1
この図枠はサンプルです。社内の規格やプロッタの出力範囲に合わせて適当に変更してご利用ください。
  7
ADESK1
100
AcDbText
  0
LINE
  5
74
330
3C
100
AcDbEntity
  8
0
100
AcDbLine
 10
25.0
 20
240.833333
 30
0.0
 11
20.0
 21
240.833333
 31
0.0
  0
LINE
  5
75
330
3C
100
AcDbEntity
  8
0
100
AcDbLine
 10
25.0
 20
194.6666669999999
 30
0.0
 11
20.0
 21
194.6666669999999
 31
0.0
  0
LINE
  5
76
330
3C
100
AcDbEntity
  8
0
100
AcDbLine
 10
25.0
 20
148.5
 30
0.0
 11
20.0
 21
148.5
 31
0.0
  0
LINE
  5
77
330
3C
100
AcDbEntity
  8
0
100
AcDbLine
 10
25.0
 20
102.333333
 30
0.0
 11
20.0
 21
102.333333
 31
0.0
  0
LINE
  5
78
330
3C
100
AcDbEntity
  8
0
100
AcDbLine
 10
25.0
 20
56.166667
 30
0.0
 11
20.0
 21
56.166667
 31
0.0
  0
LINE
  5
79
330
3C
100
AcDbEntity
  8
0
100
AcDbLine
 10
410.0
 20
56.166667
 30
0.0
 11
415.0
 21
56.166667
 31
0.0
  0
LINE
  5
7A
330
3C
100
AcDbEntity
  8
0
100
AcDbLine
 10
410.0
 20
102.333333
 30
0.0
 11
415.0
 21
102.333333
 31
0.0
  0
LINE
  5
7B
330
3C
100
AcDbEntity
  8
0
100
AcDbLine
 10
410.0
 20
148.5
 30
0.0
 11
415.0
 21
148.5
 31
0.0
  0
LINE
  5
7C
330
3C
100
AcDbEntity
  8
0
100
AcDbLine
 10
410.0
 20
194.6666669999999
 30
0.0
 11
415.0
 21
194.6666669999999
 31
0.0
  0
LINE
  5
7D
330
3C
100
AcDbEntity
  8
0
100
AcDbLine
 10
410.0
 20
240.833333
 30
0.0
 11
415.0
 21
240.833333
 31
0.0
  0
LINE
  5
7E
330
3C
100
AcDbEntity
  8
0
100
AcDbLine
 10
73.125
 20
10.0
 30
0.0
 11
73.125
 21
5.0
 31
0.0
  0
LINE
  5
7F
330
3C
100
AcDbEntity
  8
0
100
AcDbLine
 10
121.25
 20
10.0
 30
0.0
 11
121.25
 21
5.0
 31
0.0
  0
LINE
  5
80
330
3C
100
AcDbEntity
  8
0
100
AcDbLine
 10
169.375
 20
10.0
 30
0.0
 11
169.375
 21
5.0
 31
0.0
  0
LINE
  5
81
330
3C
100
AcDbEntity
  8
0
100
AcDbLine
 10
217.5
 20
10.0
 30
0.0
 11
217.5
 21
5.0
 31
0.0
  0
LINE
  5
82
330
3C
100
AcDbEntity
  8
0
100
AcDbLine
 10
265.625
 20
10.0
 30
0.0
 11
265.625
 21
5.0
 31
0.0
  0
LINE
  5
83
330
3C
100
AcDbEntity
  8
0
100
AcDbLine
 10
313.75
 20
10.0
 30
0.0
 11
313.75
 21
5.0
 31
0.0
  0
LINE
  5
84
330
3C
100
AcDbEntity
  8
0
100
AcDbLine
 10
361.8749999999999
 20
10.0
 30
0.0
 11
361.8749999999999
 21
5.0
 31
0.0
  0
LINE
  5
85
330
3C
100
AcDbEntity
  8
0
100
AcDbLine
 10
361.8749999999999
 20
287.0
 30
0.0
 11
361.8749999999999
 21
292.0
 31
0.0
  0
LINE
  5
86
330
3C
100
AcDbEntity
  8
0
100
AcDbLine
 10
313.75
 20
287.0
 30
0.0
 11
313.75
 21
292.0
 31
0.0
  0
LINE
  5
87
330
3C
100
AcDbEntity
  8
0
100
AcDbLine
 10
265.625
 20
287.0
 30
0.0
 11
265.625
 21
292.0
 31
0.0
  0
LINE
  5
88
330
3C
100
AcDbEntity
  8
0
100
AcDbLine
 10
217.5
 20
287.0
 30
0.0
 11
217.5
 21
292.0
 31
0.0
  0
LINE
  5
89
330
3C
100
AcDbEntity
  8
0
100
AcDbLine
 10
169.375
 20
287.0
 30
0.0
 11
169.375
 21
292.0
 31
0.0
  0
LINE
  5
8A
330
3C
100
AcDbEntity
  8
0
100
AcDbLine
 10
121.25
 20
287.0
 30
0.0
 11
121.25
 21
292.0
 31
0.0
  0
LINE
  5
8B
330
3C
100
AcDbEntity
  8
0
100
AcDbLine
 10
73.125
 20
287.0
 30
0.0
 11
73.125
 21
292.0
 31
0.0
  0
TEXT
  5
8C
330
3C
100
AcDbEntity
  8
0
100
AcDbText
 10
47.84821428571429
 20
288.0
 30
0.0
 40
3.0
  1
1
  7
ADESK1
 72
     1
 11
49.0625
 21
288.0
 31
0.0
100
AcDbText
  0
TEXT
  5
8D
330
3C
100
AcDbEntity
  8
0
100
AcDbText
 10
21.32144671428571
 20
263.916667
 30
0.0
 40
3.0
  1
A
  7
ADESK1
 72
     1
 11
22.60716099999999
 21
263.916667
 31
0.0
100
AcDbText
  0
TEXT
  5
8E
330
3C
100
AcDbEntity
  8
0
100
AcDbText
 10
95.75892857142857
 20
288.0
 30
0.0
 40
3.0
  1
2
  7
ADESK1
 72
     1
 11
97.1875
 21
288.0
 31
0.0
100
AcDbText
  0
TEXT
  5
8F
330
3C
100
AcDbEntity
  8
0
100
AcDbText
 10
143.8839285714285
 20
288.0
 30
0.0
 40
3.0
  1
3
  7
ADESK1
 72
     1
 11
145.3125
 21
288.0
 31
0.0
100
AcDbText
  0
TEXT
  5
90
330
3C
100
AcDbEntity
  8
0
100
AcDbText
 10
191.9375
 20
288.0
 30
0.0
 40
3.0
  1
4
  7
ADESK1
 72
     1
 11
193.4375
 21
288.0
 31
0.0
100
AcDbText
  0
TEXT
  5
91
330
3C
100
AcDbEntity
  8
0
100
AcDbText
 10
240.1339285714285
 20
288.0
 30
0.0
 40
3.0
  1
5
  7
ADESK1
 72
     1
 11
241.5624999999999
 21
288.0
 31
0.0
100
AcDbText
  0
TEXT
  5
92
330
3C
100
AcDbEntity
  8
0
100
AcDbText
 10
288.1874999999999
 20
288.0
 30
0.0
 40
3.0
  1
6
  7
ADESK1
 72
     1
 11
289.6875
 21
288.0
 31
0.0
100
AcDbText
  0
TEXT
  5
93
330
3C
100
AcDbEntity
  8
0
100
AcDbText
 10
336.3839285714285
 20
288.0
 30
0.0
 40
3.0
  1
7
  7
ADESK1
 72
     1
 11
337.8125
 21
288.0
 31
0.0
100
AcDbText
  0
TEXT
  5
94
330
3C
100
AcDbEntity
  8
0
100
AcDbText
 10
384.5089285714285
 20
288.0
 30
0.0
 40
3.0
  1
8
  7
ADESK1
 72
     1
 11
385.9375
 21
288.0
 31
0.0
100
AcDbText
  0
TEXT
  5
95
330
3C
100
AcDbEntity
  8
0
100
AcDbText
 10
21.03573242857142
 20
217.75
 30
0.0
 40
3.0
  1
B
  7
ADESK1
 72
     1
 11
22.60716099999999
 21
217.75
 31
0.0
100
AcDbText
  0
TEXT
  5
96
330
3C
100
AcDbEntity
  8
0
100
AcDbText
 10
21.10716099999999
 20
171.583333
 30
0.0
 40
3.0
  1
C
  7
ADESK1
 72
     1
 11
22.60716099999999
 21
171.583333
 31
0.0
100
AcDbText
  0
TEXT
  5
97
330
3C
100
AcDbEntity
  8
0
100
AcDbText
 10
21.03573242857142
 20
125.4166669999999
 30
0.0
 40
3.0
  1
D
  7
ADESK1
 72
     1
 11
22.60716099999999
 21
125.4166669999999
 31
0.0
100
AcDbText
  0
TEXT
  5
98
330
3C
100
AcDbEntity
  8
0
100
AcDbText
 10
21.10716099999999
 20
79.25
 30
0.0
 40
3.0
  1
E
  7
ADESK1
 72
     1
 11
22.60716099999999
 21
79.25
 31
0.0
100
AcDbText
  0
TEXT
  5
99
330
3C
100
AcDbEntity
  8
0
100
AcDbText
 10
21.10716099999999
 20
33.083333
 30
0.0
 40
3.0
  1
F
  7
ADESK1
 72
     1
 11
22.60716099999999
 21
33.083333
 31
0.0
100
AcDbText
  0
TEXT
  5
9A
330
3C
100
AcDbEntity
  8
0
100
AcDbText
 10
47.84821428571429
 20
6.019997
 30
0.0
 40
3.0
  1
1
  7
ADESK1
 72
     1
 11
49.0625
 21
6.019997
 31
0.0
100
AcDbText
  0
TEXT
  5
9B
330
3C
100
AcDbEntity
  8
0
100
AcDbText
 10
95.75892857142857
 20
6.019997
 30
0.0
 40
3.0
  1
2
  7
ADESK1
 72
     1
 11
97.1875
 21
6.019997
 31
0.0
100
AcDbText
  0
TEXT
  5
9C
330
3C
100
AcDbEntity
  8
0
100
AcDbText
 10
143.8839285714285
 20
6.019997
 30
0.0
 40
3.0
  1
3
  7
ADESK1
 72
     1
 11
145.3125
 21
6.019997
 31
0.0
100
AcDbText
  0
TEXT
  5
9D
330
3C
100
AcDbEntity
  8
0
100
AcDbText
 10
191.9375
 20
6.019997
 30
0.0
 40
3.0
  1
4
  7
ADESK1
 72
     1
 11
193.4375
 21
6.019997
 31
0.0
100
AcDbText
  0
TEXT
  5
9E
330
3C
100
AcDbEntity
  8
0
100
AcDbText
 10
240.1339285714285
 20
6.019997
 30
0.0
 40
3.0
  1
5
  7
ADESK1
 72
     1
 11
241.5624999999999
 21
6.019997
 31
0.0
100
AcDbText
  0
TEXT
  5
9F
330
3C
100
AcDbEntity
  8
0
100
AcDbText
 10
288.1874999999999
 20
6.019997
 30
0.0
 40
3.0
  1
6
  7
ADESK1
 72
     1
 11
289.6875
 21
6.019997
 31
0.0
100
AcDbText
  0
TEXT
  5
A0
330
3C
100
AcDbEntity
  8
0
100
AcDbText
 10
336.3839285714285
 20
6.019997
 30
0.0
 40
3.0
  1
7
  7
ADESK1
 72
     1
 11
337.8125
 21
6.019997
 31
0.0
100
AcDbText
  0
TEXT
  5
A1
330
3C
100
AcDbEntity
  8
0
100
AcDbText
 10
384.5089285714285
 20
6.019997
 30
0.0
 40
3.0
  1
8
  7
ADESK1
 72
     1
 11
385.9375
 21
6.019997
 31
0.0
100
AcDbText
  0
TEXT
  5
A2
330
3C
100
AcDbEntity
  8
0
100
AcDbText
 10
411.5851107142857
 20
263.916667
 30
0.0
 40
3.0
  1
A
  7
ADESK1
 72
     1
 11
412.870825
 21
263.916667
 31
0.0
100
AcDbText
  0
TEXT
  5
A3
330
3C
100
AcDbEntity
  8
0
100
AcDbText
 10
411.2993964285714
 20
217.75
 30
0.0
 40
3.0
  1
B
  7
ADESK1
 72
     1
 11
412.870825
 21
217.75
 31
0.0
100
AcDbText
  0
TEXT
  5
A4
330
3C
100
AcDbEntity
  8
0
100
AcDbText
 10
411.370825
 20
171.583333
 30
0.0
 40
3.0
  1
C
  7
ADESK1
 72
     1
 11
412.870825
 21
171.583333
 31
0.0
100
AcDbText
  0
TEXT
  5
A5
330
3C
100
AcDbEntity
  8
0
100
AcDbText
 10
411.2993964285714
 20
125.4166669999999
 30
0.0
 40
3.0
  1
D
  7
ADESK1
 72
     1
 11
412.870825
 21
125.4166669999999
 31
0.0
100
AcDbText
  0
TEXT
  5
A6
330
3C
100
AcDbEntity
  8
0
100
AcDbText
 10
411.370825
 20
79.25
 30
0.0
 40
3.0
  1
E
  7
ADESK1
 72
     1
 11
412.870825
 21
79.25
 31
0.0
100
AcDbText
  0
TEXT
  5
A7
330
3C
100
AcDbEntity
  8
0
100
AcDbText
 10
411.370825
 20
33.083333
 30
0.0
 40
3.0
  1
F
  7
ADESK1
 72
     1
 11
412.870825
 21
33.083333
 31
0.0
100
AcDbText
  0
LINE
  5
A8
330
3C
100
AcDbEntity
  8
0
 62
     0
100
AcDbLine
 10
280.297872
 20
49.0
 30
0.0
 11
410.0
 21
49.0
 31
0.0
  0
LINE
  5
A9
330
3C
100
AcDbEntity
  8
0
 62
     0
100
AcDbLine
 10
280.297872
 20
13.0
 30
0.0
 11
410.0
 21
13.0
 31
0.0
  0
LINE
  5
AA
330
3C
100
AcDbEntity
  8
0
 62
     0
100
AcDbLine
 10
280.297872
 20
37.0
 30
0.0
 11
410.0
 21
37.0
 31
0.0
  0
LINE
  5
AB
330
3C
100
AcDbEntity
  8
0
 62
     0
100
AcDbLine
 10
318.1276599999999
 20
22.0
 30
0.0
 11
410.0
 21
22.0
 31
0.0
  0
LINE
  5
AC
330
3C
100
AcDbEntity
  8
0
 62
     0
100
AcDbLine
 10
280.297872
 20
10.0
 30
0.0
 11
410.0
 21
10.0
 31
0.0
  0
LINE
  5
AD
330
3C
100
AcDbEntity
  8
0
 62
     0
100
AcDbLine
 10
410.0
 20
49.0
 30
0.0
 11
280.297872
 21
49.0
 31
0.0
  0
LINE
  5
AE
330
3C
100
AcDbEntity
  8
0
 62
     0
100
AcDbLine
 10
303.716312
 20
37.0
 30
0.0
 11
303.716312
 21
10.0
 31
0.0
  0
LINE
  5
AF
330
3C
100
AcDbEntity
  8
0
 62
     0
100
AcDbLine
 10
285.7021279999999
 20
37.0
 30
0.0
 11
285.7021279999999
 21
10.0
 31
0.0
  0
LINE
  5
B0
330
3C
100
AcDbEntity
  8
0
 62
     0
100
AcDbLine
 10
312.723404
 20
37.0
 30
0.0
 11
312.723404
 21
10.0
 31
0.0
  0
LINE
  5
B1
330
3C
100
AcDbEntity
  8
0
 62
     0
100
AcDbLine
 10
318.1276599999999
 20
25.0
 30
0.0
 11
318.1276599999999
 21
10.0
 31
0.0
  0
LINE
  5
B2
330
3C
100
AcDbEntity
  8
0
 62
     0
100
AcDbLine
 10
280.297872
 20
49.0
 30
0.0
 11
280.297872
 21
10.0
 31
0.0
  0
LINE
  5
B3
330
3C
100
AcDbEntity
  8
0
 62
     0
100
AcDbLine
 10
348.751773
 20
49.0
 30
0.0
 11
348.751773
 21
10.0
 31
0.0
  0
LINE
  5
B4
330
3C
100
AcDbEntity
  8
0
 62
     0
100
AcDbLine
 10
328.7659569999999
 20
22.0
 30
0.0
 11
328.7659569999999
 21
10.0
 31
0.0
  0
LINE
  5
B5
330
3C
100
AcDbEntity
  8
0
 62
     0
100
AcDbLine
 10
339.4042549999999
 20
22.0
 30
0.0
 11
339.4042549999999
 21
10.0
 31
0.0
  0
LINE
  5
B6
330
3C
100
AcDbEntity
  8
0
 62
     0
100
AcDbLine
 10
280.297872
 20
16.0
 30
0.0
 11
318.1276599999999
 21
16.0
 31
0.0
  0
LINE
  5
B7
330
3C
100
AcDbEntity
  8
0
 62
     0
100
AcDbLine
 10
280.297872
 20
10.0
 30
0.0
 11
280.297872
 21
13.0
 31
0.0
  0
TEXT
  5
B8
330
3C
100
AcDbEntity
  8
0
 62
     0
100
AcDbText
 10
321.7174935333333
 20
10.48329
 30
0.0
 40
1.791674
  1
製図
  7
ADESK1
 72
     1
 11
323.5688899999999
 21
10.48329
 31
0.0
100
AcDbText
  0
TEXT
  5
B9
330
3C
100
AcDbEntity
  8
0
 62
     0
100
AcDbText
 10
332.2960690666666
 20
10.48329
 30
0.0
 40
1.791674
  1
設計
  7
ADESK1
 72
     1
 11
334.2071879999999
 21
10.48329
 31
0.0
100
AcDbText
  0
TEXT
  5
BA
330
3C
100
AcDbEntity
  8
0
 62
     0
100
AcDbText
 10
342.2447160666667
 20
10.552201
 30
0.0
 40
1.791674
  1
照査
  7
ADESK1
 72
     1
 11
344.155835
 21
10.552201
 31
0.0
100
AcDbText
  0
LINE
  5
BB
330
3C
100
AcDbEntity
  8
0
 62
     0
100
AcDbLine
 10
280.297872
 20
25.0
 30
0.0
 11
318.1276599999999
 21
25.0
 31
0.0
  0
LINE
  5
BC
330
3C
100
AcDbEntity
  8
0
 62
     0
100
AcDbLine
 10
280.297872
 20
22.0
 30
0.0
 11
318.1276599999999
 21
22.0
 31
0.0
  0
LINE
  5
BD
330
3C
100
AcDbEntity
  8
0
 62
     0
100
AcDbLine
 10
280.297872
 20
19.0
 30
0.0
 11
318.1276599999999
 21
19.0
 31
0.0
  0
LINE
  5
BE
330
3C
100
AcDbEntity
  8
0
 62
     0
100
AcDbLine
 10
280.297872
 20
34.0
 30
0.0
 11
348.751773
 21
34.0
 31
0.0
  0
LINE
  5
BF
330
3C
100
AcDbEntity
  8
0
 62
     0
100
AcDbLine
 10
280.297872
 20
31.0
 30
0.0
 11
348.751773
 21
31.0
 31
0.0
  0
LINE
  5
C0
330
3C
100
AcDbEntity
  8
0
 62
     0
100
AcDbLine
 10
280.297872
 20
28.0
 30
0.0
 11
348.751773
 21
28.0
 31
0.0
  0
LINE
  5
C1
330
3C
100
AcDbEntity
  8
0
 62
     0
100
AcDbLine
 10
318.1276599999999
 20
25.0
 30
0.0
 11
348.751773
 21
25.0
 31
0.0
  0
LINE
  5
C2
330
3C
100
AcDbEntity
  8
0
 62
     0
100
AcDbLine
 10
318.1276599999999
 20
49.0
 30
0.0
 11
318.1276599999999
 21
25.0
 31
0.0
  0
LINE
  5
C3
330
3C
100
AcDbEntity
  8
0
 62
     0
100
AcDbLine
 10
325.3333329999999
 20
37.0
 30
0.0
 11
325.3333329999999
 21
25.0
 31
0.0
  0
LINE
  5
C4
330
3C
100
AcDbEntity
  8
0
 62
     0
100
AcDbLine
 10
336.141844
 20
49.0
 30
0.0
 11
336.141844
 21
22.0
 31
0.0
  0
LINE
  5
C5
330
3C
100
AcDbEntity
  8
0
 62
     0
100
AcDbLine
 10
402.7943259999999
 20
22.0
 30
0.0
 11
402.7943259999999
 21
10.0
 31
0.0
  0
LINE
  5
C6
330
3C
100
AcDbEntity
  8
0
 62
     0
100
AcDbLine
 10
410.0
 20
49.0
 30
0.0
 11
410.0
 21
10.0
 31
0.0
  0
LINE
  5
C7
330
3C
100
AcDbEntity
  8
0
 62
     0
100
AcDbLine
 10
410.0
 20
10.0
 30
0.0
 11
410.0
 21
49.0
 31
0.0
  0
LINE
  5
C8
330
3C
100
AcDbEntity
  8
0
 62
     0
100
AcDbLine
 10
402.7943259999999
 20
16.0
 30
0.0
 11
410.0
 21
16.0
 31
0.0
  0
ENDBLK
  5
CA
330
3C
100
AcDbEntity
  8
0
100
AcDbBlockEnd
  0
BLOCK
  5
86A
330
854
100
AcDbEntity
  8
0
100
AcDbBlockBegin
  2
*D1
 70
     1
 10
0.0
 20
0.0
 30
0.0
  3
*D1
  1

  0
LINE
  5
366F
330
854
100
AcDbEntity
  8
4
 62
     0
370
    -2
100
AcDbLine
 10
102.8137525566339
 20
104.8612080507262
 30
0.0
 11
166.6338142625159
 21
104.8612080507262
 31
0.0
  0
SOLID
  5
3670
330
854
100
AcDbEntity
  8
4
 62
     0
100
AcDbTrace
 10
102.8137525566339
 20
105.3612080507262
 30
0.0
 11
102.8137525566339
 21
104.3612080507262
 31
0.0
 12
99.81375255663397
 22
104.8612080507262
 32
0.0
 13
99.81375255663397
 23
104.8612080507262
 33
0.0
  0
SOLID
  5
3671
330
854
100
AcDbEntity
  8
4
 62
     0
100
AcDbTrace
 10
166.6338142625159
 20
105.3612080507262
 30
0.0
 11
166.6338142625159
 21
104.3612080507262
 31
0.0
 12
169.6338142625158
 22
104.8612080507262
 32
0.0
 13
169.6338142625158
 23
104.8612080507262
 33
0.0
  0
MTEXT
  5
3672
330
854
100
AcDbEntity
  8
4
 62
     0
100
AcDbMText
 10
134.7237834095749
 20
107.3612080507262
 30
0.0
 40
3.0
 41
0.0
 71
     5
 72
     1
  1
\A1;280
 73
     1
 44
1.0
  0
POINT
  5
3673
330
854
100
AcDbEntity
  8
DEFPOINTS
 62
     0
100
AcDbPoint
 10
99.81375255663397
 20
104.8612080507262
 30
0.0
  0
POINT
  5
3674
330
854
100
AcDbEntity
  8
DEFPOINTS
 62
     0
100
AcDbPoint
 10
169.6338142625158
 20
104.8612080507262
 30
0.0
  0
POINT
  5
3675
330
854
100
AcDbEntity
  8
DEFPOINTS
 62
     0
100
AcDbPoint
 10
169.6338142625158
 20
104.8612080507262
 30
0.0
  0
ENDBLK
  5
872
330
854
100
AcDbEntity
  8
0
100
AcDbBlockEnd
  0
BLOCK
  5
873
330
85F
100
AcDbEntity
  8
0
100
AcDbBlockBegin
  2
*D2
 70
     1
 10
0.0
 20
0.0
 30
0.0
  3
*D2
  1

  0
LINE
  5
3661
330
85F
100
AcDbEntity
  8
4
 62
     0
370
    -2
100
AcDbLine
 10
157.4101159999999
 20
160.0743752705918
 30
0.0
 11
157.4101159999999
 21
96.32434757996225
 31
0.0
  0
SOLID
  5
3662
330
85F
100
AcDbEntity
  8
4
 62
     0
100
AcDbTrace
 10
156.9101159999999
 20
160.0743752705918
 30
0.0
 11
157.910116
 21
160.0743752705918
 31
0.0
 12
157.4101159999999
 22
163.0743752705918
 32
0.0
 13
157.4101159999999
 23
163.0743752705918
 33
0.0
  0
SOLID
  5
3663
330
85F
100
AcDbEntity
  8
4
 62
     0
100
AcDbTrace
 10
156.9101159999999
 20
96.32434757996225
 30
0.0
 11
157.910116
 21
96.32434757996225
 31
0.0
 12
157.4101159999999
 22
93.32434757996225
 32
0.0
 13
157.4101159999999
 23
93.32434757996225
 33
0.0
  0
MTEXT
  5
3664
330
85F
100
AcDbEntity
  8
4
 62
     0
100
AcDbMText
 10
154.9101159999999
 20
128.1993614252771
 30
0.0
 40
3.0
 41
0.0
 71
     5
 72
     1
  1
\A1;280
 11
0.0000000000000001
 21
1.0
 31
0.0
 73
     1
 44
1.0
  0
POINT
  5
3665
330
85F
100
AcDbEntity
  8
DEFPOINTS
 62
     0
100
AcDbPoint
 10
157.4101159999999
 20
163.0743752705918
 30
0.0
  0
POINT
  5
3666
330
85F
100
AcDbEntity
  8
DEFPOINTS
 62
     0
100
AcDbPoint
 10
157.4101159999999
 20
93.32434757996225
 30
0.0
  0
POINT
  5
3667
330
85F
100
AcDbEntity
  8
DEFPOINTS
 62
     0
100
AcDbPoint
 10
157.4101159999999
 20
93.32434757996225
 30
0.0
  0
ENDBLK
  5
87B
330
85F
100
AcDbEntity
  8
0
100
AcDbBlockEnd
  0
BLOCK
  5
933
330
928
100
AcDbEntity
  8
0
100
AcDbBlockBegin
  2
*D3
 70
     1
 10
0.0
 20
0.0
 30
0.0
  3
*D3
  1

  0
LINE
  5
2233
330
928
100
AcDbEntity
  8
4
 62
     0
370
    -2
100
AcDbLine
 10
273.3358959999999
 20
104.7796070507262
 30
0.0
 11
324.1107339999999
 21
104.7796070507262
 31
0.0
  0
SOLID
  5
2234
330
928
100
AcDbEntity
  8
4
 62
     0
100
AcDbTrace
 10
273.3358959999999
 20
105.2796070507262
 30
0.0
 11
273.3358959999999
 21
104.2796070507262
 31
0.0
 12
270.335896
 22
104.7796070507262
 32
0.0
 13
270.335896
 23
104.7796070507262
 33
0.0
  0
SOLID
  5
2235
330
928
100
AcDbEntity
  8
4
 62
     0
100
AcDbTrace
 10
324.1107339999999
 20
105.2796070507262
 30
0.0
 11
324.1107339999999
 21
104.2796070507262
 31
0.0
 12
327.1107339999999
 22
104.7796070507262
 32
0.0
 13
327.1107339999999
 23
104.7796070507262
 33
0.0
  0
MTEXT
  5
2236
330
928
100
AcDbEntity
  8
4
 62
     0
100
AcDbMText
 10
298.7233149999999
 20
107.2796070507262
 30
0.0
 40
3.0
 41
0.0
 71
     5
 72
     1
  1
\A1;230
 73
     1
 44
1.0
  0
POINT
  5
2237
330
928
100
AcDbEntity
  8
DEFPOINTS
 62
     0
100
AcDbPoint
 10
270.335896
 20
104.7796070507262
 30
0.0
  0
POINT
  5
2238
330
928
100
AcDbEntity
  8
DEFPOINTS
 62
     0
100
AcDbPoint
 10
327.1107339999999
 20
104.7796070507262
 30
0.0
  0
POINT
  5
2239
330
928
100
AcDbEntity
  8
DEFPOINTS
 62
     0
100
AcDbPoint
 10
327.1107339999999
 20
104.7796070507262
 30
0.0
  0
ENDBLK
  5
93B
330
928
100
AcDbEntity
  8
0
100
AcDbBlockEnd
  0
BLOCK
  5
9CD
330
96A
100
AcDbEntity
  8
0
100
AcDbBlockBegin
  2
*D4
 70
     1
 10
0.0
 20
0.0
 30
0.0
  3
*D4
  1

  0
LINE
  5
245C
330
96A
100
AcDbEntity
  8
4
 62
     0
370
    -2
100
AcDbLine
 10
181.762697
 20
174.9432660507262
 30
0.0
 11
197.3189422672414
 21
174.9432660507262
 31
0.0
  0
LINE
  5
245D
330
96A
100
AcDbEntity
  8
4
 62
     0
370
    -2
100
AcDbLine
 10
181.7416951918129
 20
79.90390234462598
 30
0.0
 11
197.3189422672414
 21
79.90390234462598
 31
0.0
  0
LINE
  5
245E
330
96A
100
AcDbEntity
  8
4
 62
     0
370
    -2
100
AcDbLine
 10
195.3189422672414
 20
171.9432660507262
 30
0.0
 11
195.3189422672414
 21
82.90390234462597
 31
0.0
  0
SOLID
  5
245F
330
96A
100
AcDbEntity
  8
4
 62
     0
100
AcDbTrace
 10
194.8189422672414
 20
171.9432660507262
 30
0.0
 11
195.8189422672414
 21
171.9432660507262
 31
0.0
 12
195.3189422672414
 22
174.9432660507262
 32
0.0
 13
195.3189422672414
 23
174.9432660507262
 33
0.0
  0
SOLID
  5
2460
330
96A
100
AcDbEntity
  8
4
 62
     0
100
AcDbTrace
 10
194.8189422672414
 20
82.90390234462597
 30
0.0
 11
195.8189422672414
 21
82.90390234462597
 31
0.0
 12
195.3189422672414
 22
79.90390234462598
 32
0.0
 13
195.3189422672414
 23
79.90390234462598
 33
0.0
  0
MTEXT
  5
2461
330
96A
100
AcDbEntity
  8
4
 62
     0
100
AcDbMText
 10
192.8189422672414
 20
127.4235841976761
 30
0.0
 40
3.0
 41
0.0
 71
     5
 72
     1
  1
\A1;370
 11
0.0000000000000001
 21
1.0
 31
0.0
 73
     1
 44
1.0
  0
POINT
  5
2462
330
96A
100
AcDbEntity
  8
DEFPOINTS
 62
     0
100
AcDbPoint
 10
179.762697
 20
174.9432660507262
 30
0.0
  0
POINT
  5
2463
330
96A
100
AcDbEntity
  8
DEFPOINTS
 62
     0
100
AcDbPoint
 10
179.741695191813
 20
79.90390234462598
 30
0.0
  0
POINT
  5
2464
330
96A
100
AcDbEntity
  8
DEFPOINTS
 62
     0
100
AcDbPoint
 10
195.3189422672414
 20
79.90390234462598
 30
0.0
  0
ENDBLK
  5
9D7
330
96A
100
AcDbEntity
  8
0
100
AcDbBlockEnd
  0
BLOCK
  5
C22
330
977
100
AcDbEntity
  8
0
100
AcDbBlockBegin
  2
*D5
 70
     1
 10
0.0
 20
0.0
 30
0.0
  3
*D5
  1

  0
LINE
  5
28D9
330
977
100
AcDbEntity
  8
4
 62
     0
370
    -2
100
AcDbLine
 10
181.7416951918129
 20
79.90390234462598
 30
0.0
 11
197.3189422672414
 21
79.90390234462598
 31
0.0
  0
LINE
  5
28DA
330
977
100
AcDbEntity
  8
4
 62
     0
370
    -2
100
AcDbLine
 10
180.99763
 20
70.52269005072621
 30
0.0
 11
197.3189422672414
 21
70.52269005072621
 31
0.0
  0
LINE
  5
28DB
330
977
100
AcDbEntity
  8
4
 62
     0
370
    -2
100
AcDbLine
 10
195.3189422672414
 20
76.90390234462597
 30
0.0
 11
195.3189422672414
 21
73.52269005072621
 31
0.0
  0
SOLID
  5
28DC
330
977
100
AcDbEntity
  8
4
 62
     0
100
AcDbTrace
 10
194.8189422672414
 20
76.90390234462597
 30
0.0
 11
195.8189422672414
 21
76.90390234462597
 31
0.0
 12
195.3189422672414
 22
79.90390234462598
 32
0.0
 13
195.3189422672414
 23
79.90390234462598
 33
0.0
  0
SOLID
  5
28DD
330
977
100
AcDbEntity
  8
4
 62
     0
100
AcDbTrace
 10
194.8189422672414
 20
73.52269005072621
 30
0.0
 11
195.8189422672414
 21
73.52269005072621
 31
0.0
 12
195.3189422672414
 22
70.52269005072621
 32
0.0
 13
195.3189422672414
 23
70.52269005072621
 33
0.0
  0
MTEXT
  5
28DE
330
977
100
AcDbEntity
  8
4
 62
     0
100
AcDbMText
 10
192.8189422672414
 20
75.21329619767612
 30
0.0
 40
3.0
 41
0.0
 71
     5
 72
     1
  1
\A1;30
 11
0.0000000000000001
 21
1.0
 31
0.0
 73
     1
 44
1.0
  0
POINT
  5
28DF
330
977
100
AcDbEntity
  8
DEFPOINTS
 62
     0
100
AcDbPoint
 10
179.741695191813
 20
79.90390234462598
 30
0.0
  0
POINT
  5
28E0
330
977
100
AcDbEntity
  8
DEFPOINTS
 62
     0
100
AcDbPoint
 10
178.99763
 20
70.52269005072621
 30
0.0
  0
POINT
  5
28E1
330
977
100
AcDbEntity
  8
DEFPOINTS
 62
     0
100
AcDbPoint
 10
195.3189422672414
 20
70.52269005072621
 30
0.0
  0
ENDBLK
  5
C2C
330
977
100
AcDbEntity
  8
0
100
AcDbBlockEnd
  0
BLOCK
  5
C2D
330
986
100
AcDbEntity
  8
0
100
AcDbBlockBegin
  2
*D6
 70
     1
 10
0.0
 20
0.0
 30
0.0
  3
*D6
  1

  0
LINE
  5
28D0
330
986
100
AcDbEntity
  8
4
 62
     0
370
    -2
100
AcDbLine
 10
182.4635639999999
 20
175.5905100507262
 30
0.0
 11
207.0888972672415
 21
175.5905100507261
 31
0.0
  0
LINE
  5
28D1
330
986
100
AcDbEntity
  8
4
 62
     0
370
    -2
100
AcDbLine
 10
180.99763
 20
70.52269005072621
 30
0.0
 11
207.0888972672415
 21
70.52269005072621
 31
0.0
  0
LINE
  5
28D2
330
986
100
AcDbEntity
  8
4
 62
     0
370
    -2
100
AcDbLine
 10
205.0888972672415
 20
172.5905100507261
 30
0.0
 11
205.0888972672415
 21
73.52269005072621
 31
0.0
  0
SOLID
  5
28D3
330
986
100
AcDbEntity
  8
4
 62
     0
100
AcDbTrace
 10
204.5888972672414
 20
172.5905100507261
 30
0.0
 11
205.5888972672414
 21
172.5905100507261
 31
0.0
 12
205.0888972672415
 22
175.5905100507261
 32
0.0
 13
205.0888972672415
 23
175.5905100507261
 33
0.0
  0
SOLID
  5
28D4
330
986
100
AcDbEntity
  8
4
 62
     0
100
AcDbTrace
 10
204.5888972672414
 20
73.52269005072621
 30
0.0
 11
205.5888972672414
 21
73.52269005072621
 31
0.0
 12
205.0888972672415
 22
70.52269005072621
 32
0.0
 13
205.0888972672415
 23
70.52269005072621
 33
0.0
  0
MTEXT
  5
28D5
330
986
100
AcDbEntity
  8
4
 62
     0
100
AcDbMText
 10
202.5888972672414
 20
127.5669667004541
 30
0.0
 40
3.0
 41
0.0
 71
     5
 72
     1
  1
\A1;403
 11
0.0000000000000001
 21
1.0
 31
0.0
 73
     1
 44
1.0
  0
POINT
  5
28D6
330
986
100
AcDbEntity
  8
DEFPOINTS
 62
     0
100
AcDbPoint
 10
180.4635639999999
 20
175.5905100507262
 30
0.0
  0
POINT
  5
28D7
330
986
100
AcDbEntity
  8
DEFPOINTS
 62
     0
100
AcDbPoint
 10
178.99763
 20
70.52269005072621
 30
0.0
  0
POINT
  5
28D8
330
986
100
AcDbEntity
  8
DEFPOINTS
 62
     0
100
AcDbPoint
 10
205.0888972672415
 20
70.52269005072621
 30
0.0
  0
ENDBLK
  5
C37
330
986
100
AcDbEntity
  8
0
100
AcDbBlockEnd
  0
BLOCK
  5
9BF
330
993
100
AcDbEntity
  8
0
100
AcDbBlockBegin
  2
*D7
 70
     1
 10
0.0
 20
0.0
 30
0.0
  3
*D7
  1

  0
LINE
  5
2450
330
993
100
AcDbEntity
  8
4
 62
     0
370
    -2
100
AcDbLine
 10
181.762697
 20
174.9432660507262
 30
0.0
 11
197.3189422672414
 21
174.9432660507262
 31
0.0
  0
LINE
  5
2451
330
993
100
AcDbEntity
  8
4
 62
     0
370
    -2
100
AcDbLine
 10
182.570693
 20
175.5892740507261
 30
0.0
 11
197.3189422672414
 21
175.5892740507261
 31
0.0
  0
LINE
  5
2452
330
993
100
AcDbEntity
  8
4
 62
     0
370
    -2
100
AcDbLine
 10
195.3189422672414
 20
171.9432660507262
 30
0.0
 11
195.3189422672414
 21
168.9432660507262
 31
0.0
  0
LINE
  5
2453
330
993
100
AcDbEntity
  8
4
 62
     0
370
    -2
100
AcDbLine
 10
195.3189422672414
 20
178.5892740507261
 30
0.0
 11
195.3189422672414
 21
181.5892740507261
 31
0.0
  0
LINE
  5
2454
330
993
100
AcDbEntity
  8
4
 62
     0
370
    -2
100
AcDbLine
 10
195.3189422672414
 20
181.5892740507261
 30
0.0
 11
198.3189422672414
 21
181.5892740507261
 31
0.0
  0
LINE
  5
2455
330
993
100
AcDbEntity
  8
4
 62
     0
370
    -2
100
AcDbLine
 10
195.3189422672414
 20
174.9432660507262
 30
0.0
 11
195.3189422672414
 21
175.5892740507261
 31
0.0
  0
SOLID
  5
2456
330
993
100
AcDbEntity
  8
4
 62
     0
100
AcDbTrace
 10
194.8189422672414
 20
171.9432660507262
 30
0.0
 11
195.8189422672414
 21
171.9432660507262
 31
0.0
 12
195.3189422672414
 22
174.9432660507262
 32
0.0
 13
195.3189422672414
 23
174.9432660507262
 33
0.0
  0
SOLID
  5
2457
330
993
100
AcDbEntity
  8
4
 62
     0
100
AcDbTrace
 10
194.8189422672414
 20
178.5892740507261
 30
0.0
 11
195.8189422672414
 21
178.5892740507261
 31
0.0
 12
195.3189422672414
 22
175.5892740507261
 32
0.0
 13
195.3189422672414
 23
175.5892740507261
 33
0.0
  0
MTEXT
  5
2458
330
993
100
AcDbEntity
  8
4
 62
     0
100
AcDbMText
 10
197.3189422672414
 20
184.0892740507262
 30
0.0
 40
3.0
 41
0.0
 71
     5
 72
     1
  1
\A1;3
 73
     1
 44
1.0
  0
POINT
  5
2459
330
993
100
AcDbEntity
  8
DEFPOINTS
 62
     0
100
AcDbPoint
 10
179.762697
 20
174.9432660507262
 30
0.0
  0
POINT
  5
245A
330
993
100
AcDbEntity
  8
DEFPOINTS
 62
     0
100
AcDbPoint
 10
180.570693
 20
175.5892740507261
 30
0.0
  0
POINT
  5
245B
330
993
100
AcDbEntity
  8
DEFPOINTS
 62
     0
100
AcDbPoint
 10
195.3189422672414
 20
175.5892740507261
 30
0.0
  0
ENDBLK
  5
9CC
330
993
100
AcDbEntity
  8
0
100
AcDbBlockEnd
  0
BLOCK
  5
9B2
330
9A3
100
AcDbEntity
  8
0
100
AcDbBlockBegin
  2
*D8
 70
     1
 10
0.0
 20
0.0
 30
0.0
  3
*D8
  1

  0
LINE
  5
242D
330
9A3
100
AcDbEntity
  8
4
 62
     0
370
    -2
100
AcDbLine
 10
180.46464
 20
176.2902120507262
 30
0.0
 11
180.46464
 21
186.6919780507262
 31
0.0
  0
LINE
  5
242E
330
9A3
100
AcDbEntity
  8
4
 62
     0
370
    -2
100
AcDbLine
 10
182.7240402509723
 20
156.4238464522164
 30
0.0
 11
182.7240402509723
 21
186.6919780507262
 31
0.0
  0
LINE
  5
242F
330
9A3
100
AcDbEntity
  8
4
 62
     0
370
    -2
100
AcDbLine
 10
177.4646399999999
 20
184.6919780507262
 30
0.0
 11
174.46464
 21
184.6919780507262
 31
0.0
  0
LINE
  5
2430
330
9A3
100
AcDbEntity
  8
4
 62
     0
370
    -2
100
AcDbLine
 10
185.7240402509723
 20
184.6919780507262
 30
0.0
 11
192.7240402509723
 21
184.6919780507262
 31
0.0
  0
LINE
  5
2431
330
9A3
100
AcDbEntity
  8
4
 62
     0
370
    -2
100
AcDbLine
 10
180.46464
 20
184.6919780507262
 30
0.0
 11
182.7240402509723
 21
184.6919780507262
 31
0.0
  0
SOLID
  5
2432
330
9A3
100
AcDbEntity
  8
4
 62
     0
100
AcDbTrace
 10
177.4646399999999
 20
185.1919780507262
 30
0.0
 11
177.4646399999999
 21
184.1919780507262
 31
0.0
 12
180.46464
 22
184.6919780507262
 32
0.0
 13
180.46464
 23
184.6919780507262
 33
0.0
  0
SOLID
  5
2433
330
9A3
100
AcDbEntity
  8
4
 62
     0
100
AcDbTrace
 10
185.7240402509723
 20
185.1919780507262
 30
0.0
 11
185.7240402509723
 21
184.1919780507262
 31
0.0
 12
182.7240402509723
 22
184.6919780507262
 32
0.0
 13
182.7240402509723
 23
184.6919780507262
 33
0.0
  0
MTEXT
  5
2434
330
9A3
100
AcDbEntity
  8
4
 62
     0
100
AcDbMText
 10
190.7240402509723
 20
187.1919780507262
 30
0.0
 40
3.0
 41
0.0
 71
     5
 72
     1
  1
\A1;8
 73
     1
 44
1.0
  0
POINT
  5
2435
330
9A3
100
AcDbEntity
  8
DEFPOINTS
 62
     0
100
AcDbPoint
 10
180.46464
 20
174.2902120507262
 30
0.0
  0
POINT
  5
2436
330
9A3
100
AcDbEntity
  8
DEFPOINTS
 62
     0
100
AcDbPoint
 10
182.7240402509723
 20
154.4238464522164
 30
0.0
  0
POINT
  5
2437
330
9A3
100
AcDbEntity
  8
DEFPOINTS
 62
     0
100
AcDbPoint
 10
182.7240402509723
 20
184.6919780507262
 30
0.0
  0
ENDBLK
  5
9BE
330
9A3
100
AcDbEntity
  8
0
100
AcDbBlockEnd
  0
BLOCK
  5
A37
330
A0E
100
AcDbEntity
  8
0
100
AcDbBlockBegin
  2
*D9
 70
     1
 10
0.0
 20
0.0
 30
0.0
  3
*D9
  1

  0
LINE
  5
2267
330
A0E
100
AcDbEntity
  8
4
 62
     0
370
    -2
100
AcDbLine
 10
87.662855
 20
62.91003205072621
 30
0.0
 11
87.662855
 21
52.95363905072622
 31
0.0
  0
LINE
  5
2268
330
A0E
100
AcDbEntity
  8
4
 62
     0
370
    -2
100
AcDbLine
 10
180.4301189999999
 20
62.91003205072621
 30
0.0
 11
180.4301189999999
 21
52.95363905072622
 31
0.0
  0
LINE
  5
2269
330
A0E
100
AcDbEntity
  8
4
 62
     0
370
    -2
100
AcDbLine
 10
90.66285500000001
 20
54.95363905072622
 30
0.0
 11
177.4301189999999
 21
54.95363905072622
 31
0.0
  0
SOLID
  5
226A
330
A0E
100
AcDbEntity
  8
4
 62
     0
100
AcDbTrace
 10
90.66285500000001
 20
55.45363905072622
 30
0.0
 11
90.66285500000001
 21
54.45363905072621
 31
0.0
 12
87.662855
 22
54.95363905072622
 32
0.0
 13
87.662855
 23
54.95363905072622
 33
0.0
  0
SOLID
  5
226B
330
A0E
100
AcDbEntity
  8
4
 62
     0
100
AcDbTrace
 10
177.4301189999999
 20
55.45363905072622
 30
0.0
 11
177.4301189999999
 21
54.45363905072621
 31
0.0
 12
180.4301189999999
 22
54.95363905072622
 32
0.0
 13
180.4301189999999
 23
54.95363905072622
 33
0.0
  0
MTEXT
  5
226C
330
A0E
100
AcDbEntity
  8
4
 62
     0
100
AcDbMText
 10
134.046487
 20
57.45363905072622
 30
0.0
 40
3.0
 41
0.0
 71
     5
 72
     1
  1
\A1;380
 73
     1
 44
1.0
  0
POINT
  5
226D
330
A0E
100
AcDbEntity
  8
DEFPOINTS
 62
     0
100
AcDbPoint
 10
87.662855
 20
64.91003205072622
 30
0.0
  0
POINT
  5
226E
330
A0E
100
AcDbEntity
  8
DEFPOINTS
 62
     0
100
AcDbPoint
 10
180.4301189999999
 20
64.91003205072622
 30
0.0
  0
POINT
  5
226F
330
A0E
100
AcDbEntity
  8
DEFPOINTS
 62
     0
100
AcDbPoint
 10
180.4301189999999
 20
54.95363905072622
 30
0.0
  0
ENDBLK
  5
A41
330
A0E
100
AcDbEntity
  8
0
100
AcDbBlockEnd
  0
BLOCK
  5
A42
330
A1B
100
AcDbEntity
  8
0
100
AcDbBlockBegin
  2
*D10
 70
     1
 10
0.0
 20
0.0
 30
0.0
  3
*D10
  1

  0
LINE
  5
22A8
330
A1B
100
AcDbEntity
  8
4
 62
     0
370
    -2
100
AcDbLine
 10
180.4301189999999
 20
70.84139605072621
 30
0.0
 11
180.4301189999999
 21
52.95363905072622
 31
0.0
  0
LINE
  5
22A9
330
A1B
100
AcDbEntity
  8
4
 62
     0
370
    -2
100
AcDbLine
 10
182.11987
 20
81.81030405072622
 30
0.0
 11
182.11987
 21
52.95363905072622
 31
0.0
  0
LINE
  5
22AA
330
A1B
100
AcDbEntity
  8
4
 62
     0
370
    -2
100
AcDbLine
 10
177.4301189999999
 20
54.95363905072622
 30
0.0
 11
174.4301189999999
 21
54.95363905072622
 31
0.0
  0
LINE
  5
22AB
330
A1B
100
AcDbEntity
  8
4
 62
     0
370
    -2
100
AcDbLine
 10
185.1198699999999
 20
54.95363905072622
 30
0.0
 11
192.1198699999999
 21
54.95363905072622
 31
0.0
  0
LINE
  5
22AC
330
A1B
100
AcDbEntity
  8
4
 62
     0
370
    -2
100
AcDbLine
 10
180.4301189999999
 20
54.95363905072622
 30
0.0
 11
182.11987
 21
54.95363905072622
 31
0.0
  0
SOLID
  5
22AD
330
A1B
100
AcDbEntity
  8
4
 62
     0
100
AcDbTrace
 10
177.4301189999999
 20
55.45363905072622
 30
0.0
 11
177.4301189999999
 21
54.45363905072621
 31
0.0
 12
180.4301189999999
 22
54.95363905072622
 32
0.0
 13
180.4301189999999
 23
54.95363905072622
 33
0.0
  0
SOLID
  5
22AE
330
A1B
100
AcDbEntity
  8
4
 62
     0
100
AcDbTrace
 10
185.1198699999999
 20
55.45363905072622
 30
0.0
 11
185.1198699999999
 21
54.45363905072621
 31
0.0
 12
182.11987
 22
54.95363905072622
 32
0.0
 13
182.11987
 23
54.95363905072622
 33
0.0
  0
MTEXT
  5
22AF
330
A1B
100
AcDbEntity
  8
4
 62
     0
100
AcDbMText
 10
190.1198699999999
 20
57.45363905072622
 30
0.0
 40
3.0
 41
0.0
 71
     5
 72
     1
  1
\A1;7
 73
     1
 44
1.0
  0
POINT
  5
22B0
330
A1B
100
AcDbEntity
  8
DEFPOINTS
 62
     0
100
AcDbPoint
 10
180.4301189999999
 20
72.84139605072621
 30
0.0
  0
POINT
  5
22B1
330
A1B
100
AcDbEntity
  8
DEFPOINTS
 62
     0
100
AcDbPoint
 10
182.11987
 20
83.81030405072621
 30
0.0
  0
POINT
  5
22B2
330
A1B
100
AcDbEntity
  8
DEFPOINTS
 62
     0
100
AcDbPoint
 10
182.11987
 20
54.95363905072622
 30
0.0
  0
ENDBLK
  5
A4E
330
A1B
100
AcDbEntity
  8
0
100
AcDbBlockEnd
  0
BLOCK
  5
A7A
330
A4F
100
AcDbEntity
  8
0
100
AcDbBlockBegin
  2
*D11
 70
     1
 10
0.0
 20
0.0
 30
0.0
  3
*D11
  1

  0
LINE
  5
2277
330
A4F
100
AcDbEntity
  8
4
 62
     0
370
    -2
100
AcDbLine
 10
87.662855
 20
70.84139605072621
 30
0.0
 11
87.662855
 21
62.91003205072621
 31
0.0
  0
LINE
  5
2278
330
A4F
100
AcDbEntity
  8
4
 62
     0
370
    -2
100
AcDbLine
 10
93.83770799999998
 20
68.52269005072621
 30
0.0
 11
93.83770799999998
 21
62.91003205072621
 31
0.0
  0
LINE
  5
2279
330
A4F
100
AcDbEntity
  8
4
 62
     0
370
    -2
100
AcDbLine
 10
84.66285500000001
 20
64.91003205072622
 30
0.0
 11
81.662855
 21
64.91003205072622
 31
0.0
  0
LINE
  5
227A
330
A4F
100
AcDbEntity
  8
4
 62
     0
370
    -2
100
AcDbLine
 10
96.83770799999999
 20
64.91003205072622
 30
0.0
 11
106.8377079999999
 21
64.91003205072622
 31
0.0
  0
LINE
  5
227B
330
A4F
100
AcDbEntity
  8
4
 62
     0
370
    -2
100
AcDbLine
 10
87.662855
 20
64.91003205072622
 30
0.0
 11
93.83770799999998
 21
64.91003205072622
 31
0.0
  0
SOLID
  5
227C
330
A4F
100
AcDbEntity
  8
4
 62
     0
100
AcDbTrace
 10
84.66285500000001
 20
65.41003205072621
 30
0.0
 11
84.66285500000001
 21
64.41003205072622
 31
0.0
 12
87.662855
 22
64.91003205072622
 32
0.0
 13
87.662855
 23
64.91003205072622
 33
0.0
  0
SOLID
  5
227D
330
A4F
100
AcDbEntity
  8
4
 62
     0
100
AcDbTrace
 10
96.83770799999999
 20
65.41003205072621
 30
0.0
 11
96.83770799999999
 21
64.41003205072622
 31
0.0
 12
93.83770799999998
 22
64.91003205072622
 32
0.0
 13
93.83770799999998
 23
64.91003205072622
 33
0.0
  0
MTEXT
  5
227E
330
A4F
100
AcDbEntity
  8
4
 62
     0
100
AcDbMText
 10
103.3377079999999
 20
67.41003205072622
 30
0.0
 40
3.0
 41
0.0
 71
     5
 72
     1
  1
\A1;25
 73
     1
 44
1.0
  0
POINT
  5
227F
330
A4F
100
AcDbEntity
  8
DEFPOINTS
 62
     0
100
AcDbPoint
 10
87.662855
 20
72.84139605072621
 30
0.0
  0
POINT
  5
2280
330
A4F
100
AcDbEntity
  8
DEFPOINTS
 62
     0
100
AcDbPoint
 10
93.83770799999998
 20
70.52269005072621
 30
0.0
  0
POINT
  5
2281
330
A4F
100
AcDbEntity
  8
DEFPOINTS
 62
     0
100
AcDbPoint
 10
93.83770799999998
 20
64.91003205072622
 30
0.0
  0
ENDBLK
  5
A86
330
A4F
100
AcDbEntity
  8
0
100
AcDbBlockEnd
  0
BLOCK
  5
A6D
330
A5E
100
AcDbEntity
  8
0
100
AcDbBlockBegin
  2
*D12
 70
     1
 10
0.0
 20
0.0
 30
0.0
  3
*D12
  1

  0
LINE
  5
225C
330
A5E
100
AcDbEntity
  8
4
 62
     0
370
    -2
100
AcDbLine
 10
180.4301189999999
 20
70.84139605072621
 30
0.0
 11
180.4301189999999
 21
62.91003205072621
 31
0.0
  0
LINE
  5
225D
330
A5E
100
AcDbEntity
  8
4
 62
     0
370
    -2
100
AcDbLine
 10
174.221408
 20
68.52269005072621
 30
0.0
 11
174.221408
 21
62.91003205072621
 31
0.0
  0
LINE
  5
225E
330
A5E
100
AcDbEntity
  8
4
 62
     0
370
    -2
100
AcDbLine
 10
183.4301189999999
 20
64.91003205072622
 30
0.0
 11
186.4301189999999
 21
64.91003205072622
 31
0.0
  0
LINE
  5
225F
330
A5E
100
AcDbEntity
  8
4
 62
     0
370
    -2
100
AcDbLine
 10
171.221408
 20
64.91003205072622
 30
0.0
 11
161.221408
 21
64.91003205072622
 31
0.0
  0
LINE
  5
2260
330
A5E
100
AcDbEntity
  8
4
 62
     0
370
    -2
100
AcDbLine
 10
180.4301189999999
 20
64.91003205072622
 30
0.0
 11
174.221408
 21
64.91003205072622
 31
0.0
  0
SOLID
  5
2261
330
A5E
100
AcDbEntity
  8
4
 62
     0
100
AcDbTrace
 10
183.4301189999999
 20
65.41003205072621
 30
0.0
 11
183.4301189999999
 21
64.41003205072622
 31
0.0
 12
180.4301189999999
 22
64.91003205072622
 32
0.0
 13
180.4301189999999
 23
64.91003205072622
 33
0.0
  0
SOLID
  5
2262
330
A5E
100
AcDbEntity
  8
4
 62
     0
100
AcDbTrace
 10
171.221408
 20
65.41003205072621
 30
0.0
 11
171.221408
 21
64.41003205072622
 31
0.0
 12
174.221408
 22
64.91003205072622
 32
0.0
 13
174.221408
 23
64.91003205072622
 33
0.0
  0
MTEXT
  5
2263
330
A5E
100
AcDbEntity
  8
4
 62
     0
100
AcDbMText
 10
164.7214079999999
 20
67.41003205072622
 30
0.0
 40
3.0
 41
0.0
 71
     5
 72
     1
  1
\A1;25
 73
     1
 44
1.0
  0
POINT
  5
2264
330
A5E
100
AcDbEntity
  8
DEFPOINTS
 62
     0
100
AcDbPoint
 10
180.4301189999999
 20
72.84139605072621
 30
0.0
  0
POINT
  5
2265
330
A5E
100
AcDbEntity
  8
DEFPOINTS
 62
     0
100
AcDbPoint
 10
174.221408
 20
70.52269005072621
 30
0.0
  0
POINT
  5
2266
330
A5E
100
AcDbEntity
  8
DEFPOINTS
 62
     0
100
AcDbPoint
 10
174.221408
 20
64.91003205072622
 30
0.0
  0
ENDBLK
  5
A79
330
A5E
100
AcDbEntity
  8
0
100
AcDbBlockEnd
  0
BLOCK
  5
AE8
330
A87
100
AcDbEntity
  8
0
100
AcDbBlockBegin
  2
*D13
 70
     1
 10
0.0
 20
0.0
 30
0.0
  3
*D13
  1

  0
LINE
  5
2327
330
A87
100
AcDbEntity
  8
4
 62
     0
370
    -2
100
AcDbLine
 10
261.6906559999999
 20
70.82303005072621
 30
0.0
 11
261.6906559999999
 21
42.99346005072622
 31
0.0
  0
LINE
  5
2328
330
A87
100
AcDbEntity
  8
4
 62
     0
370
    -2
100
AcDbLine
 10
253.686514
 20
134.9437528671915
 30
0.0
 11
253.686514
 21
42.99346005072621
 31
0.0
  0
LINE
  5
2329
330
A87
100
AcDbEntity
  8
4
 62
     0
370
    -2
100
AcDbLine
 10
258.690656
 20
44.99346005072622
 30
0.0
 11
256.6865139999999
 21
44.99346005072622
 31
0.0
  0
SOLID
  5
232A
330
A87
100
AcDbEntity
  8
4
 62
     0
100
AcDbTrace
 10
258.690656
 20
45.49346005072622
 30
0.0
 11
258.690656
 21
44.49346005072622
 31
0.0
 12
261.6906559999999
 22
44.99346005072622
 32
0.0
 13
261.6906559999999
 23
44.99346005072622
 33
0.0
  0
SOLID
  5
232B
330
A87
100
AcDbEntity
  8
4
 62
     0
100
AcDbTrace
 10
256.6865139999999
 20
45.49346005072622
 30
0.0
 11
256.6865139999999
 21
44.49346005072622
 31
0.0
 12
253.686514
 22
44.99346005072622
 32
0.0
 13
253.686514
 23
44.99346005072622
 33
0.0
  0
MTEXT
  5
232C
330
A87
100
AcDbEntity
  8
4
 62
     0
100
AcDbMText
 10
257.688585
 20
47.49346005072622
 30
0.0
 40
3.0
 41
0.0
 71
     5
 72
     1
  1
\A1;27
 73
     1
 44
1.0
  0
POINT
  5
232D
330
A87
100
AcDbEntity
  8
DEFPOINTS
 62
     0
100
AcDbPoint
 10
261.6906559999999
 20
72.82303005072622
 30
0.0
  0
POINT
  5
232E
330
A87
100
AcDbEntity
  8
DEFPOINTS
 62
     0
100
AcDbPoint
 10
253.686514
 20
136.9437528671915
 30
0.0
  0
POINT
  5
232F
330
A87
100
AcDbEntity
  8
DEFPOINTS
 62
     0
100
AcDbPoint
 10
253.686514
 20
44.99346005072622
 30
0.0
  0
ENDBLK
  5
AF2
330
A87
100
AcDbEntity
  8
0
100
AcDbBlockEnd
  0
BLOCK
  5
B16
330
A94
100
AcDbEntity
  8
0
100
AcDbBlockBegin
  2
*D14
 70
     1
 10
0.0
 20
0.0
 30
0.0
  3
*D14
  1

  0
LINE
  5
2282
330
A94
100
AcDbEntity
  8
4
 62
     0
370
    -2
100
AcDbLine
 10
261.6906559999999
 20
68.45455505072621
 30
0.0
 11
261.6906559999999
 21
52.76341505072622
 31
0.0
  0
LINE
  5
2283
330
A94
100
AcDbEntity
  8
4
 62
     0
370
    -2
100
AcDbLine
 10
270.287697
 20
77.92845205072622
 30
0.0
 11
270.287697
 21
52.76341505072622
 31
0.0
  0
LINE
  5
2284
330
A94
100
AcDbEntity
  8
4
 62
     0
370
    -2
100
AcDbLine
 10
264.690656
 20
54.76341505072621
 30
0.0
 11
267.287697
 21
54.76341505072621
 31
0.0
  0
SOLID
  5
2285
330
A94
100
AcDbEntity
  8
4
 62
     0
100
AcDbTrace
 10
264.690656
 20
55.26341505072622
 30
0.0
 11
264.690656
 21
54.26341505072621
 31
0.0
 12
261.6906559999999
 22
54.76341505072621
 32
0.0
 13
261.6906559999999
 23
54.76341505072621
 33
0.0
  0
SOLID
  5
2286
330
A94
100
AcDbEntity
  8
4
 62
     0
100
AcDbTrace
 10
267.287697
 20
55.26341505072622
 30
0.0
 11
267.287697
 21
54.26341505072621
 31
0.0
 12
270.287697
 22
54.76341505072621
 32
0.0
 13
270.287697
 23
54.76341505072621
 33
0.0
  0
MTEXT
  5
2287
330
A94
100
AcDbEntity
  8
4
 62
     0
100
AcDbMText
 10
265.9891764999999
 20
57.26341505072621
 30
0.0
 40
3.0
 41
0.0
 71
     5
 72
     1
  1
\A1;35
 73
     1
 44
1.0
  0
POINT
  5
2288
330
A94
100
AcDbEntity
  8
DEFPOINTS
 62
     0
100
AcDbPoint
 10
261.6906559999999
 20
70.45455505072621
 30
0.0
  0
POINT
  5
2289
330
A94
100
AcDbEntity
  8
DEFPOINTS
 62
     0
100
AcDbPoint
 10
270.287697
 20
79.92845205072622
 30
0.0
  0
POINT
  5
228A
330
A94
100
AcDbEntity
  8
DEFPOINTS
 62
     0
100
AcDbPoint
 10
270.287697
 20
54.76341505072621
 30
0.0
  0
ENDBLK
  5
B20
330
A94
100
AcDbEntity
  8
0
100
AcDbBlockEnd
  0
BLOCK
  5
B21
330
AA1
100
AcDbEntity
  8
0
100
AcDbBlockBegin
  2
*D15
 70
     1
 10
0.0
 20
0.0
 30
0.0
  3
*D15
  1

  0
LINE
  5
228B
330
AA1
100
AcDbEntity
  8
4
 62
     0
370
    -2
100
AcDbLine
 10
270.287697
 20
77.63239205072621
 30
0.0
 11
270.287697
 21
62.82943005072621
 31
0.0
  0
LINE
  5
228C
330
AA1
100
AcDbEntity
  8
4
 62
     0
370
    -2
100
AcDbLine
 10
275.327343
 20
68.45455505072621
 30
0.0
 11
275.327343
 21
62.82943005072621
 31
0.0
  0
LINE
  5
228D
330
AA1
100
AcDbEntity
  8
4
 62
     0
370
    -2
100
AcDbLine
 10
267.287697
 20
64.82943005072622
 30
0.0
 11
264.287697
 21
64.82943005072622
 31
0.0
  0
LINE
  5
228E
330
AA1
100
AcDbEntity
  8
4
 62
     0
370
    -2
100
AcDbLine
 10
278.327343
 20
64.82943005072622
 30
0.0
 11
287.827343
 21
64.82943005072622
 31
0.0
  0
LINE
  5
228F
330
AA1
100
AcDbEntity
  8
4
 62
     0
370
    -2
100
AcDbLine
 10
270.287697
 20
64.82943005072622
 30
0.0
 11
275.327343
 21
64.82943005072622
 31
0.0
  0
SOLID
  5
2290
330
AA1
100
AcDbEntity
  8
4
 62
     0
100
AcDbTrace
 10
267.287697
 20
65.32943005072621
 30
0.0
 11
267.287697
 21
64.32943005072622
 31
0.0
 12
270.287697
 22
64.82943005072622
 32
0.0
 13
270.287697
 23
64.82943005072622
 33
0.0
  0
SOLID
  5
2291
330
AA1
100
AcDbEntity
  8
4
 62
     0
100
AcDbTrace
 10
278.327343
 20
65.32943005072621
 30
0.0
 11
278.327343
 21
64.32943005072622
 31
0.0
 12
275.327343
 22
64.82943005072622
 32
0.0
 13
275.327343
 23
64.82943005072622
 33
0.0
  0
MTEXT
  5
2292
330
AA1
100
AcDbEntity
  8
4
 62
     0
100
AcDbMText
 10
284.577343
 20
67.32943005072622
 30
0.0
 40
3.0
 41
0.0
 71
     5
 72
     1
  1
\A1;20
 73
     1
 44
1.0
  0
POINT
  5
2293
330
AA1
100
AcDbEntity
  8
DEFPOINTS
 62
     0
100
AcDbPoint
 10
270.287697
 20
79.63239205072621
 30
0.0
  0
POINT
  5
2294
330
AA1
100
AcDbEntity
  8
DEFPOINTS
 62
     0
100
AcDbPoint
 10
275.327343
 20
70.45455505072621
 30
0.0
  0
POINT
  5
2295
330
AA1
100
AcDbEntity
  8
DEFPOINTS
 62
     0
100
AcDbPoint
 10
275.327343
 20
64.82943005072622
 30
0.0
  0
ENDBLK
  5
B2D
330
AA1
100
AcDbEntity
  8
0
100
AcDbBlockEnd
  0
BLOCK
  5
AF3
330
ACE
100
AcDbEntity
  8
0
100
AcDbBlockBegin
  2
*D16
 70
     1
 10
0.0
 20
0.0
 30
0.0
  3
*D16
  1

  0
LINE
  5
223A
330
ACE
100
AcDbEntity
  8
4
 62
     0
370
    -2
100
AcDbLine
 10
261.6906559999999
 20
52.76341505072622
 30
0.0
 11
261.6906559999999
 21
42.99346005072622
 31
0.0
  0
LINE
  5
223B
330
ACE
100
AcDbEntity
  8
4
 62
     0
370
    -2
100
AcDbLine
 10
340.249829
 20
52.76341505072622
 30
0.0
 11
340.249829
 21
42.99346005072622
 31
0.0
  0
LINE
  5
223C
330
ACE
100
AcDbEntity
  8
4
 62
     0
370
    -2
100
AcDbLine
 10
264.690656
 20
44.99346005072622
 30
0.0
 11
337.2498289999999
 21
44.99346005072622
 31
0.0
  0
SOLID
  5
223D
330
ACE
100
AcDbEntity
  8
4
 62
     0
100
AcDbTrace
 10
264.690656
 20
45.49346005072622
 30
0.0
 11
264.690656
 21
44.49346005072622
 31
0.0
 12
261.6906559999999
 22
44.99346005072622
 32
0.0
 13
261.6906559999999
 23
44.99346005072622
 33
0.0
  0
SOLID
  5
223E
330
ACE
100
AcDbEntity
  8
4
 62
     0
100
AcDbTrace
 10
337.2498289999999
 20
45.49346005072622
 30
0.0
 11
337.2498289999999
 21
44.49346005072622
 31
0.0
 12
340.249829
 22
44.99346005072622
 32
0.0
 13
340.249829
 23
44.99346005072622
 33
0.0
  0
MTEXT
  5
223F
330
ACE
100
AcDbEntity
  8
4
 62
     0
100
AcDbMText
 10
300.9702424999999
 20
47.49346005072622
 30
0.0
 40
3.0
 41
0.0
 71
     5
 72
     1
  1
\A1;315
 73
     1
 44
1.0
  0
POINT
  5
2240
330
ACE
100
AcDbEntity
  8
DEFPOINTS
 62
     0
100
AcDbPoint
 10
261.6906559999999
 20
54.76341505072621
 30
0.0
  0
POINT
  5
2241
330
ACE
100
AcDbEntity
  8
DEFPOINTS
 62
     0
100
AcDbPoint
 10
340.249829
 20
54.76341505072621
 30
0.0
  0
POINT
  5
2242
330
ACE
100
AcDbEntity
  8
DEFPOINTS
 62
     0
100
AcDbPoint
 10
340.249829
 20
44.99346005072622
 30
0.0
  0
ENDBLK
  5
AFD
330
ACE
100
AcDbEntity
  8
0
100
AcDbBlockEnd
  0
BLOCK
  5
B0B
330
ADB
100
AcDbEntity
  8
0
100
AcDbBlockBegin
  2
*D17
 70
     1
 10
0.0
 20
0.0
 30
0.0
  3
*D17
  1

  0
LINE
  5
233D
330
ADB
100
AcDbEntity
  8
4
 62
     0
370
    -2
100
AcDbLine
 10
270.287697
 20
62.82943005072621
 30
0.0
 11
270.287697
 21
52.76341505072622
 31
0.0
  0
LINE
  5
233E
330
ADB
100
AcDbEntity
  8
4
 62
     0
370
    -2
100
AcDbLine
 10
340.249829
 20
62.82943005072621
 30
0.0
 11
340.249829
 21
52.76341505072622
 31
0.0
  0
LINE
  5
233F
330
ADB
100
AcDbEntity
  8
4
 62
     0
370
    -2
100
AcDbLine
 10
273.287697
 20
54.76341505072621
 30
0.0
 11
337.2498289999999
 21
54.76341505072621
 31
0.0
  0
SOLID
  5
2340
330
ADB
100
AcDbEntity
  8
4
 62
     0
100
AcDbTrace
 10
273.287697
 20
55.26341505072622
 30
0.0
 11
273.287697
 21
54.26341505072621
 31
0.0
 12
270.287697
 22
54.76341505072621
 32
0.0
 13
270.287697
 23
54.76341505072621
 33
0.0
  0
SOLID
  5
2341
330
ADB
100
AcDbEntity
  8
4
 62
     0
100
AcDbTrace
 10
337.2498289999999
 20
55.26341505072622
 30
0.0
 11
337.2498289999999
 21
54.26341505072621
 31
0.0
 12
340.249829
 22
54.76341505072621
 32
0.0
 13
340.249829
 23
54.76341505072621
 33
0.0
  0
MTEXT
  5
2342
330
ADB
100
AcDbEntity
  8
4
 62
     0
100
AcDbMText
 10
300.9804653190585
 20
57.26341505072621
 30
0.0
 40
3.0
 41
0.0
 71
     5
 72
     1
  1
\A1;280
 73
     1
 44
1.0
  0
POINT
  5
2343
330
ADB
100
AcDbEntity
  8
DEFPOINTS
 62
     0
100
AcDbPoint
 10
270.287697
 20
64.82943005072622
 30
0.0
  0
POINT
  5
2344
330
ADB
100
AcDbEntity
  8
DEFPOINTS
 62
     0
100
AcDbPoint
 10
340.249829
 20
64.82943005072622
 30
0.0
  0
POINT
  5
2345
330
ADB
100
AcDbEntity
  8
DEFPOINTS
 62
     0
100
AcDbPoint
 10
340.249829
 20
54.76341505072621
 30
0.0
  0
ENDBLK
  5
B15
330
ADB
100
AcDbEntity
  8
0
100
AcDbBlockEnd
  0
BLOCK
  5
B4A
330
B3B
100
AcDbEntity
  8
0
100
AcDbBlockBegin
  2
*D18
 70
     1
 10
0.0
 20
0.0
 30
0.0
  3
*D18
  1

  0
LINE
  5
22D3
330
B3B
100
AcDbEntity
  8
4
 62
     0
370
    -2
100
AcDbLine
 10
340.249829
 20
77.63239205072621
 30
0.0
 11
340.249829
 21
62.82943005072621
 31
0.0
  0
LINE
  5
22D4
330
B3B
100
AcDbEntity
  8
4
 62
     0
370
    -2
100
AcDbLine
 10
334.0243839999999
 20
68.75061505072621
 30
0.0
 11
334.0243839999999
 21
62.82943005072621
 31
0.0
  0
LINE
  5
22D5
330
B3B
100
AcDbEntity
  8
4
 62
     0
370
    -2
100
AcDbLine
 10
343.2498289999999
 20
64.82943005072622
 30
0.0
 11
346.2498289999999
 21
64.82943005072622
 31
0.0
  0
LINE
  5
22D6
330
B3B
100
AcDbEntity
  8
4
 62
     0
370
    -2
100
AcDbLine
 10
331.024384
 20
64.82943005072622
 30
0.0
 11
321.5243839999999
 21
64.82943005072622
 31
0.0
  0
LINE
  5
22D7
330
B3B
100
AcDbEntity
  8
4
 62
     0
370
    -2
100
AcDbLine
 10
340.249829
 20
64.82943005072622
 30
0.0
 11
334.0243839999999
 21
64.82943005072622
 31
0.0
  0
SOLID
  5
22D8
330
B3B
100
AcDbEntity
  8
4
 62
     0
100
AcDbTrace
 10
343.2498289999999
 20
65.32943005072621
 30
0.0
 11
343.2498289999999
 21
64.32943005072622
 31
0.0
 12
340.249829
 22
64.82943005072622
 32
0.0
 13
340.249829
 23
64.82943005072622
 33
0.0
  0
SOLID
  5
22D9
330
B3B
100
AcDbEntity
  8
4
 62
     0
100
AcDbTrace
 10
331.024384
 20
65.32943005072621
 30
0.0
 11
331.024384
 21
64.32943005072622
 31
0.0
 12
334.0243839999999
 22
64.82943005072622
 32
0.0
 13
334.0243839999999
 23
64.82943005072622
 33
0.0
  0
MTEXT
  5
22DA
330
B3B
100
AcDbEntity
  8
4
 62
     0
100
AcDbMText
 10
324.774384
 20
67.32943005072622
 30
0.0
 40
3.0
 41
0.0
 71
     5
 72
     1
  1
\A1;20
 73
     1
 44
1.0
  0
POINT
  5
22DB
330
B3B
100
AcDbEntity
  8
DEFPOINTS
 62
     0
100
AcDbPoint
 10
340.249829
 20
79.63239205072621
 30
0.0
  0
POINT
  5
22DC
330
B3B
100
AcDbEntity
  8
DEFPOINTS
 62
     0
100
AcDbPoint
 10
334.0243839999999
 20
70.75061505072621
 30
0.0
  0
POINT
  5
22DD
330
B3B
100
AcDbEntity
  8
DEFPOINTS
 62
     0
100
AcDbPoint
 10
334.0243839999999
 20
64.82943005072622
 30
0.0
  0
ENDBLK
  5
B56
330
B3B
100
AcDbEntity
  8
0
100
AcDbBlockEnd
  0
BLOCK
  5
B66
330
B57
100
AcDbEntity
  8
0
100
AcDbBlockBegin
  2
*D19
 70
     1
 10
0.0
 20
0.0
 30
0.0
  3
*D19
  1

  0
LINE
  5
22DE
330
B57
100
AcDbEntity
  8
4
 62
     0
370
    -2
100
AcDbLine
 10
340.196318
 20
176.7133010507262
 30
0.0
 11
340.196318
 21
186.6919780507262
 31
0.0
  0
LINE
  5
22DF
330
B57
100
AcDbEntity
  8
4
 62
     0
370
    -2
100
AcDbLine
 10
341.3687899999999
 20
174.5122200507261
 30
0.0
 11
341.3687899999999
 21
186.6919780507262
 31
0.0
  0
LINE
  5
22E0
330
B57
100
AcDbEntity
  8
4
 62
     0
370
    -2
100
AcDbLine
 10
337.196318
 20
184.6919780507262
 30
0.0
 11
334.196318
 21
184.6919780507262
 31
0.0
  0
LINE
  5
22E1
330
B57
100
AcDbEntity
  8
4
 62
     0
370
    -2
100
AcDbLine
 10
344.36879
 20
184.6919780507262
 30
0.0
 11
355.3687899999999
 21
184.6919780507262
 31
0.0
  0
LINE
  5
22E2
330
B57
100
AcDbEntity
  8
4
 62
     0
370
    -2
100
AcDbLine
 10
340.196318
 20
184.6919780507262
 30
0.0
 11
341.3687899999999
 21
184.6919780507262
 31
0.0
  0
SOLID
  5
22E3
330
B57
100
AcDbEntity
  8
4
 62
     0
100
AcDbTrace
 10
337.196318
 20
185.1919780507262
 30
0.0
 11
337.196318
 21
184.1919780507262
 31
0.0
 12
340.196318
 22
184.6919780507262
 32
0.0
 13
340.196318
 23
184.6919780507262
 33
0.0
  0
SOLID
  5
22E4
330
B57
100
AcDbEntity
  8
4
 62
     0
100
AcDbTrace
 10
344.36879
 20
185.1919780507262
 30
0.0
 11
344.36879
 21
184.1919780507262
 31
0.0
 12
341.3687899999999
 22
184.6919780507262
 32
0.0
 13
341.3687899999999
 23
184.6919780507262
 33
0.0
  0
MTEXT
  5
22E5
330
B57
100
AcDbEntity
  8
4
 62
     0
100
AcDbMText
 10
351.3687899999999
 20
187.1919780507262
 30
0.0
 40
3.0
 41
0.0
 71
     5
 72
     1
  1
\A1;3.5
 73
     1
 44
1.0
  0
POINT
  5
22E6
330
B57
100
AcDbEntity
  8
DEFPOINTS
 62
     0
100
AcDbPoint
 10
340.196318
 20
174.7133010507262
 30
0.0
  0
POINT
  5
22E7
330
B57
100
AcDbEntity
  8
DEFPOINTS
 62
     0
100
AcDbPoint
 10
341.3687899999999
 20
172.5122200507261
 30
0.0
  0
POINT
  5
22E8
330
B57
100
AcDbEntity
  8
DEFPOINTS
 62
     0
100
AcDbPoint
 10
341.3687899999999
 20
184.6919780507262
 30
0.0
  0
ENDBLK
  5
B72
330
B57
100
AcDbEntity
  8
0
100
AcDbBlockEnd
  0
BLOCK
  5
C65
330
C61
100
AcDbEntity
  8
0
100
AcDbBlockBegin
  2
_OPEN
 70
     0
 10
0.0
 20
0.0
 30
0.0
  3
_OPEN
  1

  0
LINE
  5
C62
330
C61
100
AcDbEntity
  8
0
  6
ByBlock
 62
     0
100
AcDbLine
 10
-1.0
 20
0.1667
 30
0.0
 11
0.0
 21
0.0
 31
0.0
  0
LINE
  5
C63
330
C61
100
AcDbEntity
  8
0
  6
ByBlock
 62
     0
100
AcDbLine
 10
0.0
 20
0.0
 30
0.0
 11
-1.0
 21
-0.1667
 31
0.0
  0
LINE
  5
C64
330
C61
100
AcDbEntity
  8
0
  6
ByBlock
 62
     0
100
AcDbLine
 10
0.0
 20
0.0
 30
0.0
 11
-1.0
 21
0.0
 31
0.0
  0
ENDBLK
  5
C66
330
C61
100
AcDbEntity
  8
0
100
AcDbBlockEnd
  0
BLOCK
  5
216B
330
2161
100
AcDbEntity
  8
0
100
AcDbBlockBegin
  2
*D21
 70
     1
 10
0.0
 20
0.0
 30
0.0
  3
*D21
  1

  0
LINE
  5
22B3
330
2161
100
AcDbEntity
  8
4
 62
     0
370
    -2
100
AcDbLine
 10
87.58770799999998
 20
176.1876290507262
 30
0.0
 11
87.58770799999998
 21
196.4619330507262
 31
0.0
  0
LINE
  5
22B4
330
2161
100
AcDbEntity
  8
4
 62
     0
370
    -2
100
AcDbLine
 10
182.7240402509723
 20
156.4238464522164
 30
0.0
 11
182.7240402509723
 21
196.4619330507262
 31
0.0
  0
LINE
  5
22B5
330
2161
100
AcDbEntity
  8
4
 62
     0
370
    -2
100
AcDbLine
 10
90.58770799999999
 20
194.4619330507262
 30
0.0
 11
179.7240402509723
 21
194.4619330507262
 31
0.0
  0
SOLID
  5
22B6
330
2161
100
AcDbEntity
  8
4
 62
     0
100
AcDbTrace
 10
90.58770799999999
 20
194.9619330507262
 30
0.0
 11
90.58770799999999
 21
193.9619330507262
 31
0.0
 12
87.58770799999998
 22
194.4619330507262
 32
0.0
 13
87.58770799999998
 23
194.4619330507262
 33
0.0
  0
SOLID
  5
22B7
330
2161
100
AcDbEntity
  8
4
 62
     0
100
AcDbTrace
 10
179.7240402509723
 20
194.9619330507262
 30
0.0
 11
179.7240402509723
 21
193.9619330507262
 31
0.0
 12
182.7240402509723
 22
194.4619330507262
 32
0.0
 13
182.7240402509723
 23
194.4619330507262
 33
0.0
  0
MTEXT
  5
22B8
330
2161
100
AcDbEntity
  8
4
 62
     0
100
AcDbMText
 10
134.8920636603937
 20
196.9619330507262
 30
0.0
 40
3.0
 41
0.0
 71
     5
 72
     1
  1
\A1;388
 73
     1
 44
1.0
  0
POINT
  5
22B9
330
2161
100
AcDbEntity
  8
DEFPOINTS
 62
     0
100
AcDbPoint
 10
87.58770799999998
 20
174.1876290507262
 30
0.0
  0
POINT
  5
22BA
330
2161
100
AcDbEntity
  8
DEFPOINTS
 62
     0
100
AcDbPoint
 10
182.7240402509723
 20
154.4238464522164
 30
0.0
  0
POINT
  5
22BB
330
2161
100
AcDbEntity
  8
DEFPOINTS
 62
     0
100
AcDbPoint
 10
182.7240402509723
 20
194.4619330507262
 30
0.0
  0
ENDBLK
  5
216C
330
2161
100
AcDbEntity
  8
0
100
AcDbBlockEnd
  0
BLOCK
  5
21E3
330
21D9
100
AcDbEntity
  8
0
100
AcDbBlockBegin
  2
*D22
 70
     1
 10
0.0
 20
0.0
 30
0.0
  3
*D22
  1

  0
LINE
  5
231E
330
21D9
100
AcDbEntity
  8
4
 62
     0
370
    -2
100
AcDbLine
 10
253.654496
 20
153.7424675196166
 30
0.0
 11
253.654496
 21
196.4619330507262
 31
0.0
  0
LINE
  5
231F
330
21D9
100
AcDbEntity
  8
4
 62
     0
370
    -2
100
AcDbLine
 10
341.3687899999999
 20
174.5122200507261
 30
0.0
 11
341.3687899999999
 21
196.4619330507262
 31
0.0
  0
LINE
  5
2320
330
21D9
100
AcDbEntity
  8
4
 62
     0
370
    -2
100
AcDbLine
 10
256.6544959999999
 20
194.4619330507262
 30
0.0
 11
338.3687899999999
 21
194.4619330507262
 31
0.0
  0
SOLID
  5
2321
330
21D9
100
AcDbEntity
  8
4
 62
     0
100
AcDbTrace
 10
256.6544959999999
 20
194.9619330507262
 30
0.0
 11
256.6544959999999
 21
193.9619330507262
 31
0.0
 12
253.654496
 22
194.4619330507262
 32
0.0
 13
253.654496
 23
194.4619330507262
 33
0.0
  0
SOLID
  5
2322
330
21D9
100
AcDbEntity
  8
4
 62
     0
100
AcDbTrace
 10
338.3687899999999
 20
194.9619330507262
 30
0.0
 11
338.3687899999999
 21
193.9619330507262
 31
0.0
 12
341.3687899999999
 22
194.4619330507262
 32
0.0
 13
341.3687899999999
 23
194.4619330507262
 33
0.0
  0
MTEXT
  5
2323
330
21D9
100
AcDbEntity
  8
4
 62
     0
100
AcDbMText
 10
297.5116429999999
 20
196.9619330507262
 30
0.0
 40
3.0
 41
0.0
 71
     5
 72
     1
  1
\A1;345.5
 73
     1
 44
1.0
  0
POINT
  5
2324
330
21D9
100
AcDbEntity
  8
DEFPOINTS
 62
     0
100
AcDbPoint
 10
253.654496
 20
151.7424675196166
 30
0.0
  0
POINT
  5
2325
330
21D9
100
AcDbEntity
  8
DEFPOINTS
 62
     0
100
AcDbPoint
 10
341.3687899999999
 20
172.5122200507261
 30
0.0
  0
POINT
  5
2326
330
21D9
100
AcDbEntity
  8
DEFPOINTS
 62
     0
100
AcDbPoint
 10
341.3687899999999
 20
194.4619330507262
 30
0.0
  0
ENDBLK
  5
21E4
330
21D9
100
AcDbEntity
  8
0
100
AcDbBlockEnd
  0
BLOCK
  5
2378
330
2374
100
AcDbEntity
  8
0
100
AcDbBlockBegin
  2
EDTIP_ARROW_S
 70
     0
 10
0.0
 20
0.0
 30
0.0
  3
EDTIP_ARROW_S
  1

  0
LINE
  5
2375
330
2374
100
AcDbEntity
  8
0
  6
Continuous
 62
     0
370
    -2
100
AcDbLine
 10
0.0
 20
0.0
 30
0.0
 11
-1.0
 21
0.0
 31
0.0
  0
LINE
  5
2376
330
2374
100
AcDbEntity
  8
0
  6
Continuous
 62
     0
370
    -2
100
AcDbLine
 10
0.0
 20
0.0
 30
0.0
 11
-0.9659259999999999
 21
0.258819
 31
0.0
  0
LINE
  5
2377
330
2374
100
AcDbEntity
  8
0
  6
Continuous
 62
     0
370
    -2
100
AcDbLine
 10
0.0
 20
0.0
 30
0.0
 11
-0.9659259999999999
 21
-0.258819
 31
0.0
  0
ENDBLK
  5
2379
330
2374
100
AcDbEntity
  8
0
100
AcDbBlockEnd
  0
BLOCK
  5
237E
330
237A
100
AcDbEntity
  8
0
100
AcDbBlockBegin
  2
EDTIP_ARROW_E
 70
     0
 10
0.0
 20
0.0
 30
0.0
  3
EDTIP_ARROW_E
  1

  0
LINE
  5
237B
330
237A
100
AcDbEntity
  8
0
  6
Continuous
 62
     0
370
    -2
100
AcDbLine
 10
0.0
 20
0.0
 30
0.0
 11
-1.0
 21
0.0
 31
0.0
  0
LINE
  5
237C
330
237A
100
AcDbEntity
  8
0
  6
Continuous
 62
     0
370
    -2
100
AcDbLine
 10
0.0
 20
0.0
 30
0.0
 11
-0.9659259999999999
 21
-0.258819
 31
0.0
  0
LINE
  5
237D
330
237A
100
AcDbEntity
  8
0
  6
Continuous
 62
     0
370
    -2
100
AcDbLine
 10
0.0
 20
0.0
 30
0.0
 11
-0.9659259999999999
 21
0.258819
 31
0.0
  0
ENDBLK
  5
237F
330
237A
100
AcDbEntity
  8
0
100
AcDbBlockEnd
  0
BLOCK
  5
26FB
330
26F3
100
AcDbEntity
  8
0
100
AcDbBlockBegin
  2
*D25
 70
     1
 10
0.0
 20
0.0
 30
0.0
  3
*D25
  1

  0
LINE
  5
290B
330
26F3
100
AcDbEntity
  8
4
 62
     0
370
    -2
100
AcDbLine
 10
102.9163489999999
 20
775.7719021011308
 30
0.0
 11
166.504275
 21
775.7719021011308
 31
0.0
  0
SOLID
  5
290C
330
26F3
100
AcDbEntity
  8
4
 62
     0
100
AcDbTrace
 10
102.9163489999999
 20
776.2719021011308
 30
0.0
 11
102.9163489999999
 21
775.2719021011309
 31
0.0
 12
99.91634900000001
 22
775.7719021011308
 32
0.0
 13
99.91634900000001
 23
775.7719021011308
 33
0.0
  0
SOLID
  5
290D
330
26F3
100
AcDbEntity
  8
4
 62
     0
100
AcDbTrace
 10
166.504275
 20
776.2719021011308
 30
0.0
 11
166.504275
 21
775.2719021011309
 31
0.0
 12
169.5042749999999
 22
775.7719021011308
 32
0.0
 13
169.5042749999999
 23
775.7719021011308
 33
0.0
  0
MTEXT
  5
290E
330
26F3
100
AcDbEntity
  8
4
 62
     0
100
AcDbMText
 10
134.7103119999999
 20
778.2719021011309
 30
0.0
 40
3.0
 41
0.0
 71
     5
 72
     1
  1
\A1;280
 73
     1
 44
1.0
  0
POINT
  5
290F
330
26F3
100
AcDbEntity
  8
DEFPOINTS
 62
     0
100
AcDbPoint
 10
99.91634900000001
 20
775.7719021011308
 30
0.0
  0
POINT
  5
2910
330
26F3
100
AcDbEntity
  8
DEFPOINTS
 62
     0
100
AcDbPoint
 10
169.5042749999999
 20
775.7719021011308
 30
0.0
  0
POINT
  5
2911
330
26F3
100
AcDbEntity
  8
DEFPOINTS
 62
     0
100
AcDbPoint
 10
169.5042749999999
 20
775.7719021011308
 30
0.0
  0
ENDBLK
  5
26FC
330
26F3
100
AcDbEntity
  8
0
100
AcDbBlockEnd
  0
BLOCK
  5
2705
330
26FD
100
AcDbEntity
  8
0
100
AcDbBlockBegin
  2
*D26
 70
     1
 10
0.0
 20
0.0
 30
0.0
  3
*D26
  1

  0
LINE
  5
2957
330
26FD
100
AcDbEntity
  8
4
 62
     0
370
    -2
100
AcDbLine
 10
157.4101159999999
 20
830.9724641011309
 30
0.0
 11
157.4101159999999
 21
767.2433571011309
 31
0.0
  0
SOLID
  5
2958
330
26FD
100
AcDbEntity
  8
4
 62
     0
100
AcDbTrace
 10
156.9101159999999
 20
830.9724641011309
 30
0.0
 11
157.910116
 21
830.9724641011309
 31
0.0
 12
157.410116
 22
833.9724641011308
 32
0.0
 13
157.410116
 23
833.9724641011308
 33
0.0
  0
SOLID
  5
2959
330
26FD
100
AcDbEntity
  8
4
 62
     0
100
AcDbTrace
 10
156.9101159999999
 20
767.2433571011309
 30
0.0
 11
157.910116
 21
767.2433571011309
 31
0.0
 12
157.4101159999999
 22
764.2433571011308
 32
0.0
 13
157.4101159999999
 23
764.2433571011308
 33
0.0
  0
MTEXT
  5
295A
330
26FD
100
AcDbEntity
  8
4
 62
     0
100
AcDbMText
 10
154.9101159999998
 20
799.1079106011309
 30
0.0
 40
3.0
 41
0.0
 71
     5
 72
     1
  1
\A1;280
 11
0.0000000000000001
 21
1.0
 31
0.0
 73
     1
 44
1.0
  0
POINT
  5
295B
330
26FD
100
AcDbEntity
  8
DEFPOINTS
 62
     0
100
AcDbPoint
 10
157.4101159999999
 20
833.9724641011308
 30
0.0
  0
POINT
  5
295C
330
26FD
100
AcDbEntity
  8
DEFPOINTS
 62
     0
100
AcDbPoint
 10
157.4101159999999
 20
764.2433571011308
 30
0.0
  0
POINT
  5
295D
330
26FD
100
AcDbEntity
  8
DEFPOINTS
 62
     0
100
AcDbPoint
 10
157.4101159999999
 20
764.2433571011308
 30
0.0
  0
ENDBLK
  5
2706
330
26FD
100
AcDbEntity
  8
0
100
AcDbBlockEnd
  0
BLOCK
  5
270F
330
2707
100
AcDbEntity
  8
0
100
AcDbBlockBegin
  2
*D27
 70
     1
 10
0.0
 20
0.0
 30
0.0
  3
*D27
  1

  0
LINE
  5
297D
330
2707
100
AcDbEntity
  8
4
 62
     0
370
    -2
100
AcDbLine
 10
273.3358959999999
 20
775.6903011011309
 30
0.0
 11
324.1107339999999
 21
775.6903011011309
 31
0.0
  0
SOLID
  5
297E
330
2707
100
AcDbEntity
  8
4
 62
     0
100
AcDbTrace
 10
273.3358959999999
 20
776.1903011011309
 30
0.0
 11
273.3358959999999
 21
775.1903011011308
 31
0.0
 12
270.335896
 22
775.6903011011309
 32
0.0
 13
270.335896
 23
775.6903011011309
 33
0.0
  0
SOLID
  5
297F
330
2707
100
AcDbEntity
  8
4
 62
     0
100
AcDbTrace
 10
324.1107339999999
 20
776.1903011011309
 30
0.0
 11
324.1107339999999
 21
775.1903011011308
 31
0.0
 12
327.1107339999999
 22
775.6903011011309
 32
0.0
 13
327.1107339999999
 23
775.6903011011309
 33
0.0
  0
MTEXT
  5
2980
330
2707
100
AcDbEntity
  8
4
 62
     0
100
AcDbMText
 10
298.7233149999999
 20
778.1903011011308
 30
0.0
 40
3.0
 41
0.0
 71
     5
 72
     1
  1
\A1;230
 73
     1
 44
1.0
  0
POINT
  5
2981
330
2707
100
AcDbEntity
  8
DEFPOINTS
 62
     0
100
AcDbPoint
 10
270.335896
 20
775.6903011011309
 30
0.0
  0
POINT
  5
2982
330
2707
100
AcDbEntity
  8
DEFPOINTS
 62
     0
100
AcDbPoint
 10
327.1107339999999
 20
775.6903011011309
 30
0.0
  0
POINT
  5
2983
330
2707
100
AcDbEntity
  8
DEFPOINTS
 62
     0
100
AcDbPoint
 10
327.1107339999999
 20
775.6903011011309
 30
0.0
  0
ENDBLK
  5
2710
330
2707
100
AcDbEntity
  8
0
100
AcDbBlockEnd
  0
BLOCK
  5
271B
330
2711
100
AcDbEntity
  8
0
100
AcDbBlockBegin
  2
*D28
 70
     1
 10
0.0
 20
0.0
 30
0.0
  3
*D28
  1

  0
LINE
  5
2931
330
2711
100
AcDbEntity
  8
4
 62
     0
370
    -2
100
AcDbLine
 10
181.762697
 20
845.853960101131
 30
0.0
 11
197.3189422672415
 21
845.853960101131
 31
0.0
  0
LINE
  5
2932
330
2711
100
AcDbEntity
  8
4
 62
     0
370
    -2
100
AcDbLine
 10
181.7416951918129
 20
750.8145963950306
 30
0.0
 11
197.3189422672414
 21
750.8145963950306
 31
0.0
  0
LINE
  5
2933
330
2711
100
AcDbEntity
  8
4
 62
     0
370
    -2
100
AcDbLine
 10
195.3189422672415
 20
842.8539601011308
 30
0.0
 11
195.3189422672414
 21
753.8145963950306
 31
0.0
  0
SOLID
  5
2934
330
2711
100
AcDbEntity
  8
4
 62
     0
100
AcDbTrace
 10
194.8189422672415
 20
842.8539601011308
 30
0.0
 11
195.8189422672415
 21
842.8539601011308
 31
0.0
 12
195.3189422672415
 22
845.853960101131
 32
0.0
 13
195.3189422672415
 23
845.853960101131
 33
0.0
  0
SOLID
  5
2935
330
2711
100
AcDbEntity
  8
4
 62
     0
100
AcDbTrace
 10
194.8189422672414
 20
753.8145963950306
 30
0.0
 11
195.8189422672414
 21
753.8145963950306
 31
0.0
 12
195.3189422672414
 22
750.8145963950306
 32
0.0
 13
195.3189422672414
 23
750.8145963950306
 33
0.0
  0
MTEXT
  5
2936
330
2711
100
AcDbEntity
  8
4
 62
     0
100
AcDbMText
 10
192.8189422672413
 20
798.3342782480808
 30
0.0
 40
3.0
 41
0.0
 71
     5
 72
     1
  1
\A1;370
 11
0.0000000000000001
 21
1.0
 31
0.0
 73
     1
 44
1.0
  0
POINT
  5
2937
330
2711
100
AcDbEntity
  8
DEFPOINTS
 62
     0
100
AcDbPoint
 10
179.762697
 20
845.853960101131
 30
0.0
  0
POINT
  5
2938
330
2711
100
AcDbEntity
  8
DEFPOINTS
 62
     0
100
AcDbPoint
 10
179.741695191813
 20
750.8145963950306
 30
0.0
  0
POINT
  5
2939
330
2711
100
AcDbEntity
  8
DEFPOINTS
 62
     0
100
AcDbPoint
 10
195.3189422672414
 20
750.8145963950306
 30
0.0
  0
ENDBLK
  5
271C
330
2711
100
AcDbEntity
  8
0
100
AcDbBlockEnd
  0
BLOCK
  5
2727
330
271D
100
AcDbEntity
  8
0
100
AcDbBlockBegin
  2
*D29
 70
     1
 10
0.0
 20
0.0
 30
0.0
  3
*D29
  1

  0
LINE
  5
294E
330
271D
100
AcDbEntity
  8
4
 62
     0
370
    -2
100
AcDbLine
 10
181.7416951918129
 20
750.8145963950306
 30
0.0
 11
197.3189422672414
 21
750.8145963950306
 31
0.0
  0
LINE
  5
294F
330
271D
100
AcDbEntity
  8
4
 62
     0
370
    -2
100
AcDbLine
 10
180.99763
 20
741.4333841011309
 30
0.0
 11
197.3189422672414
 21
741.4333841011309
 31
0.0
  0
LINE
  5
2950
330
271D
100
AcDbEntity
  8
4
 62
     0
370
    -2
100
AcDbLine
 10
195.3189422672414
 20
747.8145963950306
 30
0.0
 11
195.3189422672414
 21
744.4333841011309
 31
0.0
  0
SOLID
  5
2951
330
271D
100
AcDbEntity
  8
4
 62
     0
100
AcDbTrace
 10
194.8189422672414
 20
747.8145963950306
 30
0.0
 11
195.8189422672414
 21
747.8145963950306
 31
0.0
 12
195.3189422672414
 22
750.8145963950306
 32
0.0
 13
195.3189422672414
 23
750.8145963950306
 33
0.0
  0
SOLID
  5
2952
330
271D
100
AcDbEntity
  8
4
 62
     0
100
AcDbTrace
 10
194.8189422672414
 20
744.4333841011309
 30
0.0
 11
195.8189422672414
 21
744.4333841011309
 31
0.0
 12
195.3189422672414
 22
741.4333841011309
 32
0.0
 13
195.3189422672414
 23
741.4333841011309
 33
0.0
  0
MTEXT
  5
2953
330
271D
100
AcDbEntity
  8
4
 62
     0
100
AcDbMText
 10
192.8189422672413
 20
746.1239902480809
 30
0.0
 40
3.0
 41
0.0
 71
     5
 72
     1
  1
\A1;31
 11
0.0000000000000001
 21
1.0
 31
0.0
 73
     1
 44
1.0
  0
POINT
  5
2954
330
271D
100
AcDbEntity
  8
DEFPOINTS
 62
     0
100
AcDbPoint
 10
179.741695191813
 20
750.8145963950306
 30
0.0
  0
POINT
  5
2955
330
271D
100
AcDbEntity
  8
DEFPOINTS
 62
     0
100
AcDbPoint
 10
178.99763
 20
741.4333841011309
 30
0.0
  0
POINT
  5
2956
330
271D
100
AcDbEntity
  8
DEFPOINTS
 62
     0
100
AcDbPoint
 10
195.3189422672414
 20
741.4333841011309
 30
0.0
  0
ENDBLK
  5
2728
330
271D
100
AcDbEntity
  8
0
100
AcDbBlockEnd
  0
BLOCK
  5
2733
330
2729
100
AcDbEntity
  8
0
100
AcDbBlockBegin
  2
*D30
 70
     1
 10
0.0
 20
0.0
 30
0.0
  3
*D30
  1

  0
LINE
  5
293A
330
2729
100
AcDbEntity
  8
4
 62
     0
370
    -2
100
AcDbLine
 10
182.4635639999999
 20
846.5012041011309
 30
0.0
 11
207.0888972672416
 21
846.5012041011309
 31
0.0
  0
LINE
  5
293B
330
2729
100
AcDbEntity
  8
4
 62
     0
370
    -2
100
AcDbLine
 10
180.99763
 20
741.4333841011309
 30
0.0
 11
207.0888972672416
 21
741.4333841011309
 31
0.0
  0
LINE
  5
293C
330
2729
100
AcDbEntity
  8
4
 62
     0
370
    -2
100
AcDbLine
 10
205.0888972672415
 20
843.501204101131
 30
0.0
 11
205.0888972672415
 21
744.4333841011309
 31
0.0
  0
SOLID
  5
293D
330
2729
100
AcDbEntity
  8
4
 62
     0
100
AcDbTrace
 10
204.5888972672416
 20
843.501204101131
 30
0.0
 11
205.5888972672415
 21
843.501204101131
 31
0.0
 12
205.0888972672415
 22
846.5012041011309
 32
0.0
 13
205.0888972672415
 23
846.5012041011309
 33
0.0
  0
SOLID
  5
293E
330
2729
100
AcDbEntity
  8
4
 62
     0
100
AcDbTrace
 10
204.5888972672415
 20
744.4333841011309
 30
0.0
 11
205.5888972672415
 21
744.4333841011309
 31
0.0
 12
205.0888972672415
 22
741.4333841011309
 32
0.0
 13
205.0888972672415
 23
741.4333841011309
 33
0.0
  0
MTEXT
  5
293F
330
2729
100
AcDbEntity
  8
4
 62
     0
100
AcDbMText
 10
202.5888972672414
 20
798.4776607508588
 30
0.0
 40
3.0
 41
0.0
 71
     5
 72
     1
  1
\A1;404
 11
0.0000000000000001
 21
1.0
 31
0.0
 73
     1
 44
1.0
  0
POINT
  5
2940
330
2729
100
AcDbEntity
  8
DEFPOINTS
 62
     0
100
AcDbPoint
 10
180.4635639999999
 20
846.5012041011309
 30
0.0
  0
POINT
  5
2941
330
2729
100
AcDbEntity
  8
DEFPOINTS
 62
     0
100
AcDbPoint
 10
178.99763
 20
741.4333841011309
 30
0.0
  0
POINT
  5
2942
330
2729
100
AcDbEntity
  8
DEFPOINTS
 62
     0
100
AcDbPoint
 10
205.0888972672415
 20
741.4333841011309
 30
0.0
  0
ENDBLK
  5
2734
330
2729
100
AcDbEntity
  8
0
100
AcDbBlockEnd
  0
BLOCK
  5
2742
330
2735
100
AcDbEntity
  8
0
100
AcDbBlockBegin
  2
*D31
 70
     1
 10
0.0
 20
0.0
 30
0.0
  3
*D31
  1

  0
LINE
  5
28EB
330
2735
100
AcDbEntity
  8
4
 62
     0
370
    -2
100
AcDbLine
 10
181.762697
 20
845.853960101131
 30
0.0
 11
197.3189422672414
 21
845.853960101131
 31
0.0
  0
LINE
  5
28EC
330
2735
100
AcDbEntity
  8
4
 62
     0
370
    -2
100
AcDbLine
 10
182.570693
 20
846.4999681011308
 30
0.0
 11
197.3189422672414
 21
846.4999681011308
 31
0.0
  0
LINE
  5
28ED
330
2735
100
AcDbEntity
  8
4
 62
     0
370
    -2
100
AcDbLine
 10
195.3189422672414
 20
842.8539601011308
 30
0.0
 11
195.3189422672414
 21
839.8539601011309
 31
0.0
  0
LINE
  5
28EE
330
2735
100
AcDbEntity
  8
4
 62
     0
370
    -2
100
AcDbLine
 10
195.3189422672414
 20
849.4999681011309
 30
0.0
 11
195.3189422672414
 21
852.4999681011308
 31
0.0
  0
LINE
  5
28EF
330
2735
100
AcDbEntity
  8
4
 62
     0
370
    -2
100
AcDbLine
 10
195.3189422672414
 20
852.4999681011308
 30
0.0
 11
198.3189422672414
 21
852.4999681011308
 31
0.0
  0
LINE
  5
28F0
330
2735
100
AcDbEntity
  8
4
 62
     0
370
    -2
100
AcDbLine
 10
195.3189422672414
 20
845.853960101131
 30
0.0
 11
195.3189422672414
 21
846.4999681011308
 31
0.0
  0
SOLID
  5
28F1
330
2735
100
AcDbEntity
  8
4
 62
     0
100
AcDbTrace
 10
194.8189422672414
 20
842.8539601011308
 30
0.0
 11
195.8189422672414
 21
842.8539601011308
 31
0.0
 12
195.3189422672414
 22
845.853960101131
 32
0.0
 13
195.3189422672414
 23
845.853960101131
 33
0.0
  0
SOLID
  5
28F2
330
2735
100
AcDbEntity
  8
4
 62
     0
100
AcDbTrace
 10
194.8189422672414
 20
849.4999681011309
 30
0.0
 11
195.8189422672414
 21
849.4999681011309
 31
0.0
 12
195.3189422672414
 22
846.4999681011308
 32
0.0
 13
195.3189422672414
 23
846.4999681011308
 33
0.0
  0
MTEXT
  5
28F3
330
2735
100
AcDbEntity
  8
4
 62
     0
100
AcDbMText
 10
197.3189422672413
 20
854.9999681011309
 30
0.0
 40
3.0
 41
0.0
 71
     5
 72
     1
  1
\A1;3
 73
     1
 44
1.0
  0
POINT
  5
28F4
330
2735
100
AcDbEntity
  8
DEFPOINTS
 62
     0
100
AcDbPoint
 10
179.762697
 20
845.853960101131
 30
0.0
  0
POINT
  5
28F5
330
2735
100
AcDbEntity
  8
DEFPOINTS
 62
     0
100
AcDbPoint
 10
180.570693
 20
846.4999681011308
 30
0.0
  0
POINT
  5
28F6
330
2735
100
AcDbEntity
  8
DEFPOINTS
 62
     0
100
AcDbPoint
 10
195.3189422672414
 20
846.4999681011308
 30
0.0
  0
ENDBLK
  5
2743
330
2735
100
AcDbEntity
  8
0
100
AcDbBlockEnd
  0
BLOCK
  5
2750
330
2744
100
AcDbEntity
  8
0
100
AcDbBlockBegin
  2
*D32
 70
     1
 10
0.0
 20
0.0
 30
0.0
  3
*D32
  1

  0
LINE
  5
28F7
330
2744
100
AcDbEntity
  8
4
 62
     0
370
    -2
100
AcDbLine
 10
180.46464
 20
847.2009061011307
 30
0.0
 11
180.46464
 21
857.6026721011309
 31
0.0
  0
LINE
  5
28F8
330
2744
100
AcDbEntity
  8
4
 62
     0
370
    -2
100
AcDbLine
 10
182.7240402509723
 20
827.3345405026212
 30
0.0
 11
182.7240402509723
 21
857.6026721011309
 31
0.0
  0
LINE
  5
28F9
330
2744
100
AcDbEntity
  8
4
 62
     0
370
    -2
100
AcDbLine
 10
177.4646399999999
 20
855.6026721011308
 30
0.0
 11
174.46464
 21
855.6026721011308
 31
0.0
  0
LINE
  5
28FA
330
2744
100
AcDbEntity
  8
4
 62
     0
370
    -2
100
AcDbLine
 10
185.7240402509723
 20
855.6026721011308
 30
0.0
 11
192.7240402509723
 21
855.6026721011308
 31
0.0
  0
LINE
  5
28FB
330
2744
100
AcDbEntity
  8
4
 62
     0
370
    -2
100
AcDbLine
 10
180.46464
 20
855.6026721011308
 30
0.0
 11
182.7240402509723
 21
855.6026721011308
 31
0.0
  0
SOLID
  5
28FC
330
2744
100
AcDbEntity
  8
4
 62
     0
100
AcDbTrace
 10
177.4646399999999
 20
856.1026721011309
 30
0.0
 11
177.4646399999999
 21
855.1026721011309
 31
0.0
 12
180.46464
 22
855.6026721011308
 32
0.0
 13
180.46464
 23
855.6026721011308
 33
0.0
  0
SOLID
  5
28FD
330
2744
100
AcDbEntity
  8
4
 62
     0
100
AcDbTrace
 10
185.7240402509723
 20
856.1026721011309
 30
0.0
 11
185.7240402509723
 21
855.1026721011309
 31
0.0
 12
182.7240402509723
 22
855.6026721011308
 32
0.0
 13
182.7240402509723
 23
855.6026721011308
 33
0.0
  0
MTEXT
  5
28FE
330
2744
100
AcDbEntity
  8
4
 62
     0
100
AcDbMText
 10
190.7240402509723
 20
858.1026721011308
 30
0.0
 40
3.0
 41
0.0
 71
     5
 72
     1
  1
\A1;8
 73
     1
 44
1.0
  0
POINT
  5
28FF
330
2744
100
AcDbEntity
  8
DEFPOINTS
 62
     0
100
AcDbPoint
 10
180.46464
 20
845.2009061011308
 30
0.0
  0
POINT
  5
2900
330
2744
100
AcDbEntity
  8
DEFPOINTS
 62
     0
100
AcDbPoint
 10
182.7240402509723
 20
825.3345405026211
 30
0.0
  0
POINT
  5
2901
330
2744
100
AcDbEntity
  8
DEFPOINTS
 62
     0
100
AcDbPoint
 10
182.7240402509723
 20
855.6026721011308
 30
0.0
  0
ENDBLK
  5
2751
330
2744
100
AcDbEntity
  8
0
100
AcDbBlockEnd
  0
BLOCK
  5
275C
330
2752
100
AcDbEntity
  8
0
100
AcDbBlockBegin
  2
*D33
 70
     1
 10
0.0
 20
0.0
 30
0.0
  3
*D33
  1

  0
LINE
  5
2912
330
2752
100
AcDbEntity
  8
4
 62
     0
370
    -2
100
AcDbLine
 10
87.662855
 20
733.820726101131
 30
0.0
 11
87.662855
 21
723.8643331011309
 31
0.0
  0
LINE
  5
2913
330
2752
100
AcDbEntity
  8
4
 62
     0
370
    -2
100
AcDbLine
 10
180.4301189999999
 20
733.820726101131
 30
0.0
 11
180.4301189999999
 21
723.8643331011309
 31
0.0
  0
LINE
  5
2914
330
2752
100
AcDbEntity
  8
4
 62
     0
370
    -2
100
AcDbLine
 10
90.66285500000001
 20
725.8643331011309
 30
0.0
 11
177.4301189999999
 21
725.8643331011309
 31
0.0
  0
SOLID
  5
2915
330
2752
100
AcDbEntity
  8
4
 62
     0
100
AcDbTrace
 10
90.66285500000001
 20
726.3643331011309
 30
0.0
 11
90.66285500000001
 21
725.3643331011309
 31
0.0
 12
87.662855
 22
725.8643331011309
 32
0.0
 13
87.662855
 23
725.8643331011309
 33
0.0
  0
SOLID
  5
2916
330
2752
100
AcDbEntity
  8
4
 62
     0
100
AcDbTrace
 10
177.4301189999999
 20
726.3643331011309
 30
0.0
 11
177.4301189999999
 21
725.3643331011309
 31
0.0
 12
180.4301189999999
 22
725.8643331011309
 32
0.0
 13
180.4301189999999
 23
725.8643331011309
 33
0.0
  0
MTEXT
  5
2917
330
2752
100
AcDbEntity
  8
4
 62
     0
100
AcDbMText
 10
134.046487
 20
728.3643331011309
 30
0.0
 40
3.0
 41
0.0
 71
     5
 72
     1
  1
\A1;380
 73
     1
 44
1.0
  0
POINT
  5
2918
330
2752
100
AcDbEntity
  8
DEFPOINTS
 62
     0
100
AcDbPoint
 10
87.662855
 20
735.8207261011309
 30
0.0
  0
POINT
  5
2919
330
2752
100
AcDbEntity
  8
DEFPOINTS
 62
     0
100
AcDbPoint
 10
180.4301189999999
 20
735.8207261011309
 30
0.0
  0
POINT
  5
291A
330
2752
100
AcDbEntity
  8
DEFPOINTS
 62
     0
100
AcDbPoint
 10
180.4301189999999
 20
725.8643331011309
 30
0.0
  0
ENDBLK
  5
275D
330
2752
100
AcDbEntity
  8
0
100
AcDbBlockEnd
  0
BLOCK
  5
276A
330
275E
100
AcDbEntity
  8
0
100
AcDbBlockBegin
  2
*D34
 70
     1
 10
0.0
 20
0.0
 30
0.0
  3
*D34
  1

  0
LINE
  5
2926
330
275E
100
AcDbEntity
  8
4
 62
     0
370
    -2
100
AcDbLine
 10
180.4301189999999
 20
741.7520901011308
 30
0.0
 11
180.4301189999999
 21
723.8643331011309
 31
0.0
  0
LINE
  5
2927
330
275E
100
AcDbEntity
  8
4
 62
     0
370
    -2
100
AcDbLine
 10
182.11987
 20
752.7209981011309
 30
0.0
 11
182.11987
 21
723.8643331011309
 31
0.0
  0
LINE
  5
2928
330
275E
100
AcDbEntity
  8
4
 62
     0
370
    -2
100
AcDbLine
 10
177.4301189999999
 20
725.8643331011309
 30
0.0
 11
174.4301189999999
 21
725.8643331011309
 31
0.0
  0
LINE
  5
2929
330
275E
100
AcDbEntity
  8
4
 62
     0
370
    -2
100
AcDbLine
 10
185.1198699999999
 20
725.8643331011309
 30
0.0
 11
192.1198699999999
 21
725.8643331011309
 31
0.0
  0
LINE
  5
292A
330
275E
100
AcDbEntity
  8
4
 62
     0
370
    -2
100
AcDbLine
 10
180.4301189999999
 20
725.8643331011309
 30
0.0
 11
182.11987
 21
725.8643331011309
 31
0.0
  0
SOLID
  5
292B
330
275E
100
AcDbEntity
  8
4
 62
     0
100
AcDbTrace
 10
177.4301189999999
 20
726.3643331011309
 30
0.0
 11
177.4301189999999
 21
725.3643331011309
 31
0.0
 12
180.4301189999999
 22
725.8643331011309
 32
0.0
 13
180.4301189999999
 23
725.8643331011309
 33
0.0
  0
SOLID
  5
292C
330
275E
100
AcDbEntity
  8
4
 62
     0
100
AcDbTrace
 10
185.1198699999999
 20
726.3643331011309
 30
0.0
 11
185.1198699999999
 21
725.3643331011309
 31
0.0
 12
182.11987
 22
725.8643331011309
 32
0.0
 13
182.11987
 23
725.8643331011309
 33
0.0
  0
MTEXT
  5
292D
330
275E
100
AcDbEntity
  8
4
 62
     0
100
AcDbMText
 10
190.1198699999999
 20
728.3643331011309
 30
0.0
 40
3.0
 41
0.0
 71
     5
 72
     1
  1
\A1;7
 73
     1
 44
1.0
  0
POINT
  5
292E
330
275E
100
AcDbEntity
  8
DEFPOINTS
 62
     0
100
AcDbPoint
 10
180.4301189999999
 20
743.7520901011309
 30
0.0
  0
POINT
  5
292F
330
275E
100
AcDbEntity
  8
DEFPOINTS
 62
     0
100
AcDbPoint
 10
182.11987
 20
754.7209981011309
 30
0.0
  0
POINT
  5
2930
330
275E
100
AcDbEntity
  8
DEFPOINTS
 62
     0
100
AcDbPoint
 10
182.11987
 20
725.8643331011309
 30
0.0
  0
ENDBLK
  5
276B
330
275E
100
AcDbEntity
  8
0
100
AcDbBlockEnd
  0
BLOCK
  5
2778
330
276C
100
AcDbEntity
  8
0
100
AcDbBlockBegin
  2
*D35
 70
     1
 10
0.0
 20
0.0
 30
0.0
  3
*D35
  1

  0
LINE
  5
291B
330
276C
100
AcDbEntity
  8
4
 62
     0
370
    -2
100
AcDbLine
 10
87.662855
 20
741.7520901011308
 30
0.0
 11
87.662855
 21
733.820726101131
 31
0.0
  0
LINE
  5
291C
330
276C
100
AcDbEntity
  8
4
 62
     0
370
    -2
100
AcDbLine
 10
93.83770799999998
 20
739.4333841011309
 30
0.0
 11
93.83770799999998
 21
733.820726101131
 31
0.0
  0
LINE
  5
291D
330
276C
100
AcDbEntity
  8
4
 62
     0
370
    -2
100
AcDbLine
 10
84.66285500000001
 20
735.8207261011309
 30
0.0
 11
81.662855
 21
735.8207261011309
 31
0.0
  0
LINE
  5
291E
330
276C
100
AcDbEntity
  8
4
 62
     0
370
    -2
100
AcDbLine
 10
96.83770799999999
 20
735.8207261011309
 30
0.0
 11
106.8377079999999
 21
735.8207261011309
 31
0.0
  0
LINE
  5
291F
330
276C
100
AcDbEntity
  8
4
 62
     0
370
    -2
100
AcDbLine
 10
87.662855
 20
735.8207261011309
 30
0.0
 11
93.83770799999998
 21
735.8207261011309
 31
0.0
  0
SOLID
  5
2920
330
276C
100
AcDbEntity
  8
4
 62
     0
100
AcDbTrace
 10
84.66285500000001
 20
736.3207261011309
 30
0.0
 11
84.66285500000001
 21
735.3207261011309
 31
0.0
 12
87.662855
 22
735.8207261011309
 32
0.0
 13
87.662855
 23
735.8207261011309
 33
0.0
  0
SOLID
  5
2921
330
276C
100
AcDbEntity
  8
4
 62
     0
100
AcDbTrace
 10
96.83770799999999
 20
736.3207261011309
 30
0.0
 11
96.83770799999999
 21
735.3207261011309
 31
0.0
 12
93.83770799999998
 22
735.8207261011309
 32
0.0
 13
93.83770799999998
 23
735.8207261011309
 33
0.0
  0
MTEXT
  5
2922
330
276C
100
AcDbEntity
  8
4
 62
     0
100
AcDbMText
 10
103.3377079999999
 20
738.3207261011309
 30
0.0
 40
3.0
 41
0.0
 71
     5
 72
     1
  1
\A1;25
 73
     1
 44
1.0
  0
POINT
  5
2923
330
276C
100
AcDbEntity
  8
DEFPOINTS
 62
     0
100
AcDbPoint
 10
87.662855
 20
743.7520901011309
 30
0.0
  0
POINT
  5
2924
330
276C
100
AcDbEntity
  8
DEFPOINTS
 62
     0
100
AcDbPoint
 10
93.83770799999998
 20
741.4333841011309
 30
0.0
  0
POINT
  5
2925
330
276C
100
AcDbEntity
  8
DEFPOINTS
 62
     0
100
AcDbPoint
 10
93.83770799999998
 20
735.8207261011309
 30
0.0
  0
ENDBLK
  5
2779
330
276C
100
AcDbEntity
  8
0
100
AcDbBlockEnd
  0
BLOCK
  5
2786
330
277A
100
AcDbEntity
  8
0
100
AcDbBlockBegin
  2
*D36
 70
     1
 10
0.0
 20
0.0
 30
0.0
  3
*D36
  1

  0
LINE
  5
2943
330
277A
100
AcDbEntity
  8
4
 62
     0
370
    -2
100
AcDbLine
 10
180.4301189999999
 20
741.7520901011308
 30
0.0
 11
180.4301189999999
 21
733.820726101131
 31
0.0
  0
LINE
  5
2944
330
277A
100
AcDbEntity
  8
4
 62
     0
370
    -2
100
AcDbLine
 10
174.221408
 20
739.4333841011309
 30
0.0
 11
174.221408
 21
733.820726101131
 31
0.0
  0
LINE
  5
2945
330
277A
100
AcDbEntity
  8
4
 62
     0
370
    -2
100
AcDbLine
 10
183.4301189999999
 20
735.8207261011309
 30
0.0
 11
186.4301189999999
 21
735.8207261011309
 31
0.0
  0
LINE
  5
2946
330
277A
100
AcDbEntity
  8
4
 62
     0
370
    -2
100
AcDbLine
 10
171.221408
 20
735.8207261011309
 30
0.0
 11
161.221408
 21
735.8207261011309
 31
0.0
  0
LINE
  5
2947
330
277A
100
AcDbEntity
  8
4
 62
     0
370
    -2
100
AcDbLine
 10
180.4301189999999
 20
735.8207261011309
 30
0.0
 11
174.221408
 21
735.8207261011309
 31
0.0
  0
SOLID
  5
2948
330
277A
100
AcDbEntity
  8
4
 62
     0
100
AcDbTrace
 10
183.4301189999999
 20
736.3207261011309
 30
0.0
 11
183.4301189999999
 21
735.3207261011309
 31
0.0
 12
180.4301189999999
 22
735.8207261011309
 32
0.0
 13
180.4301189999999
 23
735.8207261011309
 33
0.0
  0
SOLID
  5
2949
330
277A
100
AcDbEntity
  8
4
 62
     0
100
AcDbTrace
 10
171.221408
 20
736.3207261011309
 30
0.0
 11
171.221408
 21
735.3207261011309
 31
0.0
 12
174.221408
 22
735.8207261011309
 32
0.0
 13
174.221408
 23
735.8207261011309
 33
0.0
  0
MTEXT
  5
294A
330
277A
100
AcDbEntity
  8
4
 62
     0
100
AcDbMText
 10
164.7214079999999
 20
738.3207261011309
 30
0.0
 40
3.0
 41
0.0
 71
     5
 72
     1
  1
\A1;25
 73
     1
 44
1.0
  0
POINT
  5
294B
330
277A
100
AcDbEntity
  8
DEFPOINTS
 62
     0
100
AcDbPoint
 10
180.4301189999999
 20
743.7520901011309
 30
0.0
  0
POINT
  5
294C
330
277A
100
AcDbEntity
  8
DEFPOINTS
 62
     0
100
AcDbPoint
 10
174.221408
 20
741.4333841011309
 30
0.0
  0
POINT
  5
294D
330
277A
100
AcDbEntity
  8
DEFPOINTS
 62
     0
100
AcDbPoint
 10
174.221408
 20
735.8207261011309
 30
0.0
  0
ENDBLK
  5
2787
330
277A
100
AcDbEntity
  8
0
100
AcDbBlockEnd
  0
BLOCK
  5
2792
330
2788
100
AcDbEntity
  8
0
100
AcDbBlockBegin
  2
*D37
 70
     1
 10
0.0
 20
0.0
 30
0.0
  3
*D37
  1

  0
LINE
  5
29A1
330
2788
100
AcDbEntity
  8
4
 62
     0
370
    -2
100
AcDbLine
 10
261.6906559999999
 20
741.733724101131
 30
0.0
 11
261.6906559999999
 21
713.9041541011309
 31
0.0
  0
LINE
  5
29A2
330
2788
100
AcDbEntity
  8
4
 62
     0
370
    -2
100
AcDbLine
 10
253.686514
 20
805.8544469175961
 30
0.0
 11
253.686514
 21
713.9041541011309
 31
0.0
  0
LINE
  5
29A3
330
2788
100
AcDbEntity
  8
4
 62
     0
370
    -2
100
AcDbLine
 10
258.690656
 20
715.9041541011308
 30
0.0
 11
256.6865139999999
 21
715.9041541011308
 31
0.0
  0
SOLID
  5
29A4
330
2788
100
AcDbEntity
  8
4
 62
     0
100
AcDbTrace
 10
258.690656
 20
716.4041541011308
 30
0.0
 11
258.690656
 21
715.4041541011308
 31
0.0
 12
261.6906559999999
 22
715.9041541011308
 32
0.0
 13
261.6906559999999
 23
715.9041541011308
 33
0.0
  0
SOLID
  5
29A5
330
2788
100
AcDbEntity
  8
4
 62
     0
100
AcDbTrace
 10
256.6865139999999
 20
716.4041541011308
 30
0.0
 11
256.6865139999999
 21
715.4041541011308
 31
0.0
 12
253.686514
 22
715.9041541011308
 32
0.0
 13
253.686514
 23
715.9041541011308
 33
0.0
  0
MTEXT
  5
29A6
330
2788
100
AcDbEntity
  8
4
 62
     0
100
AcDbMText
 10
257.688585
 20
718.4041541011309
 30
0.0
 40
3.0
 41
0.0
 71
     5
 72
     1
  1
\A1;27
 73
     1
 44
1.0
  0
POINT
  5
29A7
330
2788
100
AcDbEntity
  8
DEFPOINTS
 62
     0
100
AcDbPoint
 10
261.6906559999999
 20
743.7337241011309
 30
0.0
  0
POINT
  5
29A8
330
2788
100
AcDbEntity
  8
DEFPOINTS
 62
     0
100
AcDbPoint
 10
253.686514
 20
807.8544469175962
 30
0.0
  0
POINT
  5
29A9
330
2788
100
AcDbEntity
  8
DEFPOINTS
 62
     0
100
AcDbPoint
 10
253.686514
 20
715.9041541011308
 30
0.0
  0
ENDBLK
  5
2793
330
2788
100
AcDbEntity
  8
0
100
AcDbBlockEnd
  0
BLOCK
  5
279E
330
2794
100
AcDbEntity
  8
0
100
AcDbBlockBegin
  2
*D38
 70
     1
 10
0.0
 20
0.0
 30
0.0
  3
*D38
  1

  0
LINE
  5
29AA
330
2794
100
AcDbEntity
  8
4
 62
     0
370
    -2
100
AcDbLine
 10
261.6906559999999
 20
739.3652491011309
 30
0.0
 11
261.6906559999999
 21
723.6741091011309
 31
0.0
  0
LINE
  5
29AB
330
2794
100
AcDbEntity
  8
4
 62
     0
370
    -2
100
AcDbLine
 10
270.287697
 20
748.8391461011308
 30
0.0
 11
270.287697
 21
723.6741091011309
 31
0.0
  0
LINE
  5
29AC
330
2794
100
AcDbEntity
  8
4
 62
     0
370
    -2
100
AcDbLine
 10
264.690656
 20
725.6741091011308
 30
0.0
 11
267.287697
 21
725.6741091011308
 31
0.0
  0
SOLID
  5
29AD
330
2794
100
AcDbEntity
  8
4
 62
     0
100
AcDbTrace
 10
264.690656
 20
726.1741091011308
 30
0.0
 11
264.690656
 21
725.1741091011308
 31
0.0
 12
261.6906559999999
 22
725.6741091011308
 32
0.0
 13
261.6906559999999
 23
725.6741091011308
 33
0.0
  0
SOLID
  5
29AE
330
2794
100
AcDbEntity
  8
4
 62
     0
100
AcDbTrace
 10
267.287697
 20
726.1741091011308
 30
0.0
 11
267.287697
 21
725.1741091011308
 31
0.0
 12
270.287697
 22
725.6741091011308
 32
0.0
 13
270.287697
 23
725.6741091011308
 33
0.0
  0
MTEXT
  5
29AF
330
2794
100
AcDbEntity
  8
4
 62
     0
100
AcDbMText
 10
265.9891764999999
 20
728.1741091011308
 30
0.0
 40
3.0
 41
0.0
 71
     5
 72
     1
  1
\A1;35
 73
     1
 44
1.0
  0
POINT
  5
29B0
330
2794
100
AcDbEntity
  8
DEFPOINTS
 62
     0
100
AcDbPoint
 10
261.6906559999999
 20
741.3652491011308
 30
0.0
  0
POINT
  5
29B1
330
2794
100
AcDbEntity
  8
DEFPOINTS
 62
     0
100
AcDbPoint
 10
270.287697
 20
750.8391461011308
 30
0.0
  0
POINT
  5
29B2
330
2794
100
AcDbEntity
  8
DEFPOINTS
 62
     0
100
AcDbPoint
 10
270.287697
 20
725.6741091011308
 30
0.0
  0
ENDBLK
  5
279F
330
2794
100
AcDbEntity
  8
0
100
AcDbBlockEnd
  0
BLOCK
  5
27AC
330
27A0
100
AcDbEntity
  8
0
100
AcDbBlockBegin
  2
*D39
 70
     1
 10
0.0
 20
0.0
 30
0.0
  3
*D39
  1

  0
LINE
  5
2984
330
27A0
100
AcDbEntity
  8
4
 62
     0
370
    -2
100
AcDbLine
 10
270.287697
 20
748.5430861011309
 30
0.0
 11
270.287697
 21
733.7401241011309
 31
0.0
  0
LINE
  5
2985
330
27A0
100
AcDbEntity
  8
4
 62
     0
370
    -2
100
AcDbLine
 10
275.327343
 20
739.3652491011309
 30
0.0
 11
275.327343
 21
733.7401241011309
 31
0.0
  0
LINE
  5
2986
330
27A0
100
AcDbEntity
  8
4
 62
     0
370
    -2
100
AcDbLine
 10
267.287697
 20
735.7401241011309
 30
0.0
 11
264.287697
 21
735.7401241011309
 31
0.0
  0
LINE
  5
2987
330
27A0
100
AcDbEntity
  8
4
 62
     0
370
    -2
100
AcDbLine
 10
278.327343
 20
735.7401241011309
 30
0.0
 11
287.827343
 21
735.7401241011309
 31
0.0
  0
LINE
  5
2988
330
27A0
100
AcDbEntity
  8
4
 62
     0
370
    -2
100
AcDbLine
 10
270.287697
 20
735.7401241011309
 30
0.0
 11
275.327343
 21
735.7401241011309
 31
0.0
  0
SOLID
  5
2989
330
27A0
100
AcDbEntity
  8
4
 62
     0
100
AcDbTrace
 10
267.287697
 20
736.2401241011309
 30
0.0
 11
267.287697
 21
735.2401241011309
 31
0.0
 12
270.287697
 22
735.7401241011309
 32
0.0
 13
270.287697
 23
735.7401241011309
 33
0.0
  0
SOLID
  5
298A
330
27A0
100
AcDbEntity
  8
4
 62
     0
100
AcDbTrace
 10
278.327343
 20
736.2401241011309
 30
0.0
 11
278.327343
 21
735.2401241011309
 31
0.0
 12
275.327343
 22
735.7401241011309
 32
0.0
 13
275.327343
 23
735.7401241011309
 33
0.0
  0
MTEXT
  5
298B
330
27A0
100
AcDbEntity
  8
4
 62
     0
100
AcDbMText
 10
284.577343
 20
738.2401241011309
 30
0.0
 40
3.0
 41
0.0
 71
     5
 72
     1
  1
\A1;20
 73
     1
 44
1.0
  0
POINT
  5
298C
330
27A0
100
AcDbEntity
  8
DEFPOINTS
 62
     0
100
AcDbPoint
 10
270.287697
 20
750.5430861011309
 30
0.0
  0
POINT
  5
298D
330
27A0
100
AcDbEntity
  8
DEFPOINTS
 62
     0
100
AcDbPoint
 10
275.327343
 20
741.3652491011308
 30
0.0
  0
POINT
  5
298E
330
27A0
100
AcDbEntity
  8
DEFPOINTS
 62
     0
100
AcDbPoint
 10
275.327343
 20
735.7401241011309
 30
0.0
  0
ENDBLK
  5
27AD
330
27A0
100
AcDbEntity
  8
0
100
AcDbBlockEnd
  0
BLOCK
  5
27B8
330
27AE
100
AcDbEntity
  8
0
100
AcDbBlockBegin
  2
*D40
 70
     1
 10
0.0
 20
0.0
 30
0.0
  3
*D40
  1

  0
LINE
  5
298F
330
27AE
100
AcDbEntity
  8
4
 62
     0
370
    -2
100
AcDbLine
 10
261.6906559999999
 20
723.6741091011309
 30
0.0
 11
261.6906559999999
 21
713.9041541011309
 31
0.0
  0
LINE
  5
2990
330
27AE
100
AcDbEntity
  8
4
 62
     0
370
    -2
100
AcDbLine
 10
340.249829
 20
723.6741091011309
 30
0.0
 11
340.249829
 21
713.9041541011309
 31
0.0
  0
LINE
  5
2991
330
27AE
100
AcDbEntity
  8
4
 62
     0
370
    -2
100
AcDbLine
 10
264.690656
 20
715.9041541011308
 30
0.0
 11
337.2498289999999
 21
715.9041541011308
 31
0.0
  0
SOLID
  5
2992
330
27AE
100
AcDbEntity
  8
4
 62
     0
100
AcDbTrace
 10
264.690656
 20
716.4041541011308
 30
0.0
 11
264.690656
 21
715.4041541011308
 31
0.0
 12
261.6906559999999
 22
715.9041541011308
 32
0.0
 13
261.6906559999999
 23
715.9041541011308
 33
0.0
  0
SOLID
  5
2993
330
27AE
100
AcDbEntity
  8
4
 62
     0
100
AcDbTrace
 10
337.2498289999999
 20
716.4041541011308
 30
0.0
 11
337.2498289999999
 21
715.4041541011308
 31
0.0
 12
340.249829
 22
715.9041541011308
 32
0.0
 13
340.249829
 23
715.9041541011308
 33
0.0
  0
MTEXT
  5
2994
330
27AE
100
AcDbEntity
  8
4
 62
     0
100
AcDbMText
 10
300.9702424999999
 20
718.4041541011309
 30
0.0
 40
3.0
 41
0.0
 71
     5
 72
     1
  1
\A1;315
 73
     1
 44
1.0
  0
POINT
  5
2995
330
27AE
100
AcDbEntity
  8
DEFPOINTS
 62
     0
100
AcDbPoint
 10
261.6906559999999
 20
725.6741091011308
 30
0.0
  0
POINT
  5
2996
330
27AE
100
AcDbEntity
  8
DEFPOINTS
 62
     0
100
AcDbPoint
 10
340.249829
 20
725.6741091011308
 30
0.0
  0
POINT
  5
2997
330
27AE
100
AcDbEntity
  8
DEFPOINTS
 62
     0
100
AcDbPoint
 10
340.249829
 20
715.9041541011308
 30
0.0
  0
ENDBLK
  5
27B9
330
27AE
100
AcDbEntity
  8
0
100
AcDbBlockEnd
  0
BLOCK
  5
27C4
330
27BA
100
AcDbEntity
  8
0
100
AcDbBlockBegin
  2
*D41
 70
     1
 10
0.0
 20
0.0
 30
0.0
  3
*D41
  1

  0
LINE
  5
2998
330
27BA
100
AcDbEntity
  8
4
 62
     0
370
    -2
100
AcDbLine
 10
270.287697
 20
733.7401241011309
 30
0.0
 11
270.287697
 21
723.6741091011309
 31
0.0
  0
LINE
  5
2999
330
27BA
100
AcDbEntity
  8
4
 62
     0
370
    -2
100
AcDbLine
 10
340.249829
 20
733.7401241011309
 30
0.0
 11
340.249829
 21
723.6741091011309
 31
0.0
  0
LINE
  5
299A
330
27BA
100
AcDbEntity
  8
4
 62
     0
370
    -2
100
AcDbLine
 10
273.287697
 20
725.6741091011308
 30
0.0
 11
337.2498289999999
 21
725.6741091011308
 31
0.0
  0
SOLID
  5
299B
330
27BA
100
AcDbEntity
  8
4
 62
     0
100
AcDbTrace
 10
273.287697
 20
726.1741091011308
 30
0.0
 11
273.287697
 21
725.1741091011308
 31
0.0
 12
270.287697
 22
725.6741091011308
 32
0.0
 13
270.287697
 23
725.6741091011308
 33
0.0
  0
SOLID
  5
299C
330
27BA
100
AcDbEntity
  8
4
 62
     0
100
AcDbTrace
 10
337.2498289999999
 20
726.1741091011308
 30
0.0
 11
337.2498289999999
 21
725.1741091011308
 31
0.0
 12
340.249829
 22
725.6741091011308
 32
0.0
 13
340.249829
 23
725.6741091011308
 33
0.0
  0
MTEXT
  5
299D
330
27BA
100
AcDbEntity
  8
4
 62
     0
100
AcDbMText
 10
300.9804653190585
 20
728.1741091011308
 30
0.0
 40
3.0
 41
0.0
 71
     5
 72
     1
  1
\A1;280
 73
     1
 44
1.0
  0
POINT
  5
299E
330
27BA
100
AcDbEntity
  8
DEFPOINTS
 62
     0
100
AcDbPoint
 10
270.287697
 20
735.7401241011309
 30
0.0
  0
POINT
  5
299F
330
27BA
100
AcDbEntity
  8
DEFPOINTS
 62
     0
100
AcDbPoint
 10
340.249829
 20
735.7401241011309
 30
0.0
  0
POINT
  5
29A0
330
27BA
100
AcDbEntity
  8
DEFPOINTS
 62
     0
100
AcDbPoint
 10
340.249829
 20
725.6741091011308
 30
0.0
  0
ENDBLK
  5
27C5
330
27BA
100
AcDbEntity
  8
0
100
AcDbBlockEnd
  0
BLOCK
  5
27D2
330
27C6
100
AcDbEntity
  8
0
100
AcDbBlockBegin
  2
*D42
 70
     1
 10
0.0
 20
0.0
 30
0.0
  3
*D42
  1

  0
LINE
  5
2969
330
27C6
100
AcDbEntity
  8
4
 62
     0
370
    -2
100
AcDbLine
 10
340.249829
 20
748.5430861011309
 30
0.0
 11
340.249829
 21
733.7401241011309
 31
0.0
  0
LINE
  5
296A
330
27C6
100
AcDbEntity
  8
4
 62
     0
370
    -2
100
AcDbLine
 10
334.0243839999999
 20
739.6613091011309
 30
0.0
 11
334.0243839999999
 21
733.7401241011309
 31
0.0
  0
LINE
  5
296B
330
27C6
100
AcDbEntity
  8
4
 62
     0
370
    -2
100
AcDbLine
 10
343.2498289999999
 20
735.7401241011309
 30
0.0
 11
346.2498289999999
 21
735.7401241011309
 31
0.0
  0
LINE
  5
296C
330
27C6
100
AcDbEntity
  8
4
 62
     0
370
    -2
100
AcDbLine
 10
331.024384
 20
735.7401241011309
 30
0.0
 11
321.5243839999999
 21
735.7401241011309
 31
0.0
  0
LINE
  5
296D
330
27C6
100
AcDbEntity
  8
4
 62
     0
370
    -2
100
AcDbLine
 10
340.249829
 20
735.7401241011309
 30
0.0
 11
334.0243839999999
 21
735.7401241011309
 31
0.0
  0
SOLID
  5
296E
330
27C6
100
AcDbEntity
  8
4
 62
     0
100
AcDbTrace
 10
343.2498289999999
 20
736.2401241011309
 30
0.0
 11
343.2498289999999
 21
735.2401241011309
 31
0.0
 12
340.249829
 22
735.7401241011309
 32
0.0
 13
340.249829
 23
735.7401241011309
 33
0.0
  0
SOLID
  5
296F
330
27C6
100
AcDbEntity
  8
4
 62
     0
100
AcDbTrace
 10
331.024384
 20
736.2401241011309
 30
0.0
 11
331.024384
 21
735.2401241011309
 31
0.0
 12
334.0243839999999
 22
735.7401241011309
 32
0.0
 13
334.0243839999999
 23
735.7401241011309
 33
0.0
  0
MTEXT
  5
2970
330
27C6
100
AcDbEntity
  8
4
 62
     0
100
AcDbMText
 10
324.774384
 20
738.2401241011309
 30
0.0
 40
3.0
 41
0.0
 71
     5
 72
     1
  1
\A1;20
 73
     1
 44
1.0
  0
POINT
  5
2971
330
27C6
100
AcDbEntity
  8
DEFPOINTS
 62
     0
100
AcDbPoint
 10
340.249829
 20
750.5430861011309
 30
0.0
  0
POINT
  5
2972
330
27C6
100
AcDbEntity
  8
DEFPOINTS
 62
     0
100
AcDbPoint
 10
334.0243839999999
 20
741.6613091011308
 30
0.0
  0
POINT
  5
2973
330
27C6
100
AcDbEntity
  8
DEFPOINTS
 62
     0
100
AcDbPoint
 10
334.0243839999999
 20
735.7401241011309
 30
0.0
  0
ENDBLK
  5
27D3
330
27C6
100
AcDbEntity
  8
0
100
AcDbBlockEnd
  0
BLOCK
  5
27E0
330
27D4
100
AcDbEntity
  8
0
100
AcDbBlockBegin
  2
*D43
 70
     1
 10
0.0
 20
0.0
 30
0.0
  3
*D43
  1

  0
LINE
  5
295E
330
27D4
100
AcDbEntity
  8
4
 62
     0
370
    -2
100
AcDbLine
 10
340.196318
 20
847.623995101131
 30
0.0
 11
340.196318
 21
857.6026721011309
 31
0.0
  0
LINE
  5
295F
330
27D4
100
AcDbEntity
  8
4
 62
     0
370
    -2
100
AcDbLine
 10
341.3687899999999
 20
845.4229141011309
 30
0.0
 11
341.3687899999999
 21
857.6026721011309
 31
0.0
  0
LINE
  5
2960
330
27D4
100
AcDbEntity
  8
4
 62
     0
370
    -2
100
AcDbLine
 10
337.196318
 20
855.6026721011308
 30
0.0
 11
334.196318
 21
855.6026721011308
 31
0.0
  0
LINE
  5
2961
330
27D4
100
AcDbEntity
  8
4
 62
     0
370
    -2
100
AcDbLine
 10
344.36879
 20
855.6026721011308
 30
0.0
 11
355.3687899999999
 21
855.6026721011308
 31
0.0
  0
LINE
  5
2962
330
27D4
100
AcDbEntity
  8
4
 62
     0
370
    -2
100
AcDbLine
 10
340.196318
 20
855.6026721011308
 30
0.0
 11
341.3687899999999
 21
855.6026721011308
 31
0.0
  0
SOLID
  5
2963
330
27D4
100
AcDbEntity
  8
4
 62
     0
100
AcDbTrace
 10
337.196318
 20
856.1026721011309
 30
0.0
 11
337.196318
 21
855.1026721011309
 31
0.0
 12
340.196318
 22
855.6026721011308
 32
0.0
 13
340.196318
 23
855.6026721011308
 33
0.0
  0
SOLID
  5
2964
330
27D4
100
AcDbEntity
  8
4
 62
     0
100
AcDbTrace
 10
344.36879
 20
856.1026721011309
 30
0.0
 11
344.36879
 21
855.1026721011309
 31
0.0
 12
341.3687899999999
 22
855.6026721011308
 32
0.0
 13
341.3687899999999
 23
855.6026721011308
 33
0.0
  0
MTEXT
  5
2965
330
27D4
100
AcDbEntity
  8
4
 62
     0
100
AcDbMText
 10
351.3687899999999
 20
858.1026721011308
 30
0.0
 40
3.0
 41
0.0
 71
     5
 72
     1
  1
\A1;3.5
 73
     1
 44
1.0
  0
POINT
  5
2966
330
27D4
100
AcDbEntity
  8
DEFPOINTS
 62
     0
100
AcDbPoint
 10
340.196318
 20
845.6239951011308
 30
0.0
  0
POINT
  5
2967
330
27D4
100
AcDbEntity
  8
DEFPOINTS
 62
     0
100
AcDbPoint
 10
341.3687899999999
 20
843.4229141011309
 30
0.0
  0
POINT
  5
2968
330
27D4
100
AcDbEntity
  8
DEFPOINTS
 62
     0
100
AcDbPoint
 10
341.3687899999999
 20
855.6026721011308
 30
0.0
  0
ENDBLK
  5
27E1
330
27D4
100
AcDbEntity
  8
0
100
AcDbBlockEnd
  0
BLOCK
  5
27EC
330
27E2
100
AcDbEntity
  8
0
100
AcDbBlockBegin
  2
*D44
 70
     1
 10
0.0
 20
0.0
 30
0.0
  3
*D44
  1

  0
LINE
  5
2902
330
27E2
100
AcDbEntity
  8
4
 62
     0
370
    -2
100
AcDbLine
 10
87.58770799999998
 20
847.098323101131
 30
0.0
 11
87.58770799999998
 21
867.3726271011309
 31
0.0
  0
LINE
  5
2903
330
27E2
100
AcDbEntity
  8
4
 62
     0
370
    -2
100
AcDbLine
 10
182.7240402509723
 20
827.3345405026212
 30
0.0
 11
182.7240402509723
 21
867.3726271011309
 31
0.0
  0
LINE
  5
2904
330
27E2
100
AcDbEntity
  8
4
 62
     0
370
    -2
100
AcDbLine
 10
90.58770799999999
 20
865.3726271011308
 30
0.0
 11
179.7240402509723
 21
865.3726271011308
 31
0.0
  0
SOLID
  5
2905
330
27E2
100
AcDbEntity
  8
4
 62
     0
100
AcDbTrace
 10
90.58770799999999
 20
865.8726271011309
 30
0.0
 11
90.58770799999999
 21
864.8726271011309
 31
0.0
 12
87.58770799999998
 22
865.3726271011308
 32
0.0
 13
87.58770799999998
 23
865.3726271011308
 33
0.0
  0
SOLID
  5
2906
330
27E2
100
AcDbEntity
  8
4
 62
     0
100
AcDbTrace
 10
179.7240402509723
 20
865.8726271011309
 30
0.0
 11
179.7240402509723
 21
864.8726271011309
 31
0.0
 12
182.7240402509723
 22
865.3726271011308
 32
0.0
 13
182.7240402509723
 23
865.3726271011308
 33
0.0
  0
MTEXT
  5
2907
330
27E2
100
AcDbEntity
  8
4
 62
     0
100
AcDbMText
 10
134.8920636603937
 20
867.8726271011308
 30
0.0
 40
3.0
 41
0.0
 71
     5
 72
     1
  1
\A1;388
 73
     1
 44
1.0
  0
POINT
  5
2908
330
27E2
100
AcDbEntity
  8
DEFPOINTS
 62
     0
100
AcDbPoint
 10
87.58770799999998
 20
845.098323101131
 30
0.0
  0
POINT
  5
2909
330
27E2
100
AcDbEntity
  8
DEFPOINTS
 62
     0
100
AcDbPoint
 10
182.7240402509723
 20
825.3345405026211
 30
0.0
  0
POINT
  5
290A
330
27E2
100
AcDbEntity
  8
DEFPOINTS
 62
     0
100
AcDbPoint
 10
182.7240402509723
 20
865.3726271011308
 30
0.0
  0
ENDBLK
  5
27ED
330
27E2
100
AcDbEntity
  8
0
100
AcDbBlockEnd
  0
BLOCK
  5
27F8
330
27EE
100
AcDbEntity
  8
0
100
AcDbBlockBegin
  2
*D45
 70
     1
 10
0.0
 20
0.0
 30
0.0
  3
*D45
  1

  0
LINE
  5
2974
330
27EE
100
AcDbEntity
  8
4
 62
     0
370
    -2
100
AcDbLine
 10
253.654496
 20
824.6531615700213
 30
0.0
 11
253.654496
 21
867.3726271011309
 31
0.0
  0
LINE
  5
2975
330
27EE
100
AcDbEntity
  8
4
 62
     0
370
    -2
100
AcDbLine
 10
341.3687899999999
 20
845.4229141011309
 30
0.0
 11
341.3687899999999
 21
867.3726271011309
 31
0.0
  0
LINE
  5
2976
330
27EE
100
AcDbEntity
  8
4
 62
     0
370
    -2
100
AcDbLine
 10
256.6544959999999
 20
865.3726271011308
 30
0.0
 11
338.3687899999999
 21
865.3726271011308
 31
0.0
  0
SOLID
  5
2977
330
27EE
100
AcDbEntity
  8
4
 62
     0
100
AcDbTrace
 10
256.6544959999999
 20
865.8726271011309
 30
0.0
 11
256.6544959999999
 21
864.8726271011309
 31
0.0
 12
253.654496
 22
865.3726271011308
 32
0.0
 13
253.654496
 23
865.3726271011308
 33
0.0
  0
SOLID
  5
2978
330
27EE
100
AcDbEntity
  8
4
 62
     0
100
AcDbTrace
 10
338.3687899999999
 20
865.8726271011309
 30
0.0
 11
338.3687899999999
 21
864.8726271011309
 31
0.0
 12
341.3687899999999
 22
865.3726271011308
 32
0.0
 13
341.3687899999999
 23
865.3726271011308
 33
0.0
  0
MTEXT
  5
2979
330
27EE
100
AcDbEntity
  8
4
 62
     0
100
AcDbMText
 10
297.5116429999999
 20
867.8726271011308
 30
0.0
 40
3.0
 41
0.0
 71
     5
 72
     1
  1
\A1;345.5
 73
     1
 44
1.0
  0
POINT
  5
297A
330
27EE
100
AcDbEntity
  8
DEFPOINTS
 62
     0
100
AcDbPoint
 10
253.654496
 20
822.6531615700213
 30
0.0
  0
POINT
  5
297B
330
27EE
100
AcDbEntity
  8
DEFPOINTS
 62
     0
100
AcDbPoint
 10
341.3687899999999
 20
843.4229141011309
 30
0.0
  0
POINT
  5
297C
330
27EE
100
AcDbEntity
  8
DEFPOINTS
 62
     0
100
AcDbPoint
 10
341.3687899999999
 20
865.3726271011308
 30
0.0
  0
ENDBLK
  5
27F9
330
27EE
100
AcDbEntity
  8
0
100
AcDbBlockEnd
  0
BLOCK
  5
2BA5
330
2B9D
100
AcDbEntity
  8
0
100
AcDbBlockBegin
  2
*D46
 70
     1
 10
0.0
 20
0.0
 30
0.0
  3
*D46
  1

  0
LINE
  5
2CA4
330
2B9D
100
AcDbEntity
  8
4
 62
     0
370
    -2
100
AcDbLine
 10
102.9163489999999
 20
439.915360976171
 30
0.0
 11
166.504275
 21
439.915360976171
 31
0.0
  0
SOLID
  5
2CA5
330
2B9D
100
AcDbEntity
  8
4
 62
     0
100
AcDbTrace
 10
102.9163489999999
 20
440.4153609761711
 30
0.0
 11
102.9163489999999
 21
439.415360976171
 31
0.0
 12
99.91634900000001
 22
439.915360976171
 32
0.0
 13
99.91634900000001
 23
439.915360976171
 33
0.0
  0
SOLID
  5
2CA6
330
2B9D
100
AcDbEntity
  8
4
 62
     0
100
AcDbTrace
 10
166.504275
 20
440.4153609761711
 30
0.0
 11
166.504275
 21
439.415360976171
 31
0.0
 12
169.5042749999999
 22
439.915360976171
 32
0.0
 13
169.5042749999999
 23
439.915360976171
 33
0.0
  0
MTEXT
  5
2CA7
330
2B9D
100
AcDbEntity
  8
4
 62
     0
100
AcDbMText
 10
134.7103119999999
 20
442.415360976171
 30
0.0
 40
3.0
 41
0.0
 71
     5
 72
     1
  1
\A1;280
 73
     1
 44
1.0
  0
POINT
  5
2CA8
330
2B9D
100
AcDbEntity
  8
DEFPOINTS
 62
     0
100
AcDbPoint
 10
99.91634900000001
 20
439.915360976171
 30
0.0
  0
POINT
  5
2CA9
330
2B9D
100
AcDbEntity
  8
DEFPOINTS
 62
     0
100
AcDbPoint
 10
169.5042749999999
 20
439.915360976171
 30
0.0
  0
POINT
  5
2CAA
330
2B9D
100
AcDbEntity
  8
DEFPOINTS
 62
     0
100
AcDbPoint
 10
169.5042749999999
 20
439.915360976171
 30
0.0
  0
ENDBLK
  5
2BA6
330
2B9D
100
AcDbEntity
  8
0
100
AcDbBlockEnd
  0
BLOCK
  5
2BAF
330
2BA7
100
AcDbEntity
  8
0
100
AcDbBlockBegin
  2
*D47
 70
     1
 10
0.0
 20
0.0
 30
0.0
  3
*D47
  1

  0
LINE
  5
2CAB
330
2BA7
100
AcDbEntity
  8
4
 62
     0
370
    -2
100
AcDbLine
 10
157.410116
 20
495.115922976171
 30
0.0
 11
157.4101159999999
 21
431.3868159761711
 31
0.0
  0
SOLID
  5
2CAC
330
2BA7
100
AcDbEntity
  8
4
 62
     0
100
AcDbTrace
 10
156.910116
 20
495.115922976171
 30
0.0
 11
157.910116
 21
495.115922976171
 31
0.0
 12
157.410116
 22
498.115922976171
 32
0.0
 13
157.410116
 23
498.115922976171
 33
0.0
  0
SOLID
  5
2CAD
330
2BA7
100
AcDbEntity
  8
4
 62
     0
100
AcDbTrace
 10
156.9101159999999
 20
431.3868159761711
 30
0.0
 11
157.910116
 21
431.3868159761711
 31
0.0
 12
157.4101159999999
 22
428.3868159761711
 32
0.0
 13
157.4101159999999
 23
428.3868159761711
 33
0.0
  0
MTEXT
  5
2CAE
330
2BA7
100
AcDbEntity
  8
4
 62
     0
100
AcDbMText
 10
154.9101159999999
 20
463.2513694761711
 30
0.0
 40
3.0
 41
0.0
 71
     5
 72
     1
  1
\A1;280
 11
0.0000000000000001
 21
1.0
 31
0.0
 73
     1
 44
1.0
  0
POINT
  5
2CAF
330
2BA7
100
AcDbEntity
  8
DEFPOINTS
 62
     0
100
AcDbPoint
 10
157.4101159999999
 20
498.115922976171
 30
0.0
  0
POINT
  5
2CB0
330
2BA7
100
AcDbEntity
  8
DEFPOINTS
 62
     0
100
AcDbPoint
 10
157.4101159999999
 20
428.3868159761711
 30
0.0
  0
POINT
  5
2CB1
330
2BA7
100
AcDbEntity
  8
DEFPOINTS
 62
     0
100
AcDbPoint
 10
157.4101159999999
 20
428.3868159761711
 30
0.0
  0
ENDBLK
  5
2BB0
330
2BA7
100
AcDbEntity
  8
0
100
AcDbBlockEnd
  0
BLOCK
  5
2BB9
330
2BB1
100
AcDbEntity
  8
0
100
AcDbBlockBegin
  2
*D48
 70
     1
 10
0.0
 20
0.0
 30
0.0
  3
*D48
  1

  0
LINE
  5
2CB2
330
2BB1
100
AcDbEntity
  8
4
 62
     0
370
    -2
100
AcDbLine
 10
273.3358959999999
 20
439.8337599761711
 30
0.0
 11
324.1107339999999
 21
439.8337599761711
 31
0.0
  0
SOLID
  5
2CB3
330
2BB1
100
AcDbEntity
  8
4
 62
     0
100
AcDbTrace
 10
273.3358959999999
 20
440.3337599761711
 30
0.0
 11
273.3358959999999
 21
439.3337599761711
 31
0.0
 12
270.335896
 22
439.8337599761711
 32
0.0
 13
270.335896
 23
439.8337599761711
 33
0.0
  0
SOLID
  5
2CB4
330
2BB1
100
AcDbEntity
  8
4
 62
     0
100
AcDbTrace
 10
324.1107339999999
 20
440.3337599761711
 30
0.0
 11
324.1107339999999
 21
439.3337599761711
 31
0.0
 12
327.1107339999999
 22
439.8337599761711
 32
0.0
 13
327.1107339999999
 23
439.8337599761711
 33
0.0
  0
MTEXT
  5
2CB5
330
2BB1
100
AcDbEntity
  8
4
 62
     0
100
AcDbMText
 10
298.7233149999999
 20
442.3337599761711
 30
0.0
 40
3.0
 41
0.0
 71
     5
 72
     1
  1
\A1;230
 73
     1
 44
1.0
  0
POINT
  5
2CB6
330
2BB1
100
AcDbEntity
  8
DEFPOINTS
 62
     0
100
AcDbPoint
 10
270.335896
 20
439.8337599761711
 30
0.0
  0
POINT
  5
2CB7
330
2BB1
100
AcDbEntity
  8
DEFPOINTS
 62
     0
100
AcDbPoint
 10
327.1107339999999
 20
439.8337599761711
 30
0.0
  0
POINT
  5
2CB8
330
2BB1
100
AcDbEntity
  8
DEFPOINTS
 62
     0
100
AcDbPoint
 10
327.1107339999999
 20
439.8337599761711
 30
0.0
  0
ENDBLK
  5
2BBA
330
2BB1
100
AcDbEntity
  8
0
100
AcDbBlockEnd
  0
BLOCK
  5
2BC5
330
2BBB
100
AcDbEntity
  8
0
100
AcDbBlockBegin
  2
*D49
 70
     1
 10
0.0
 20
0.0
 30
0.0
  3
*D49
  1

  0
LINE
  5
2CB9
330
2BBB
100
AcDbEntity
  8
4
 62
     0
370
    -2
100
AcDbLine
 10
181.762697
 20
509.9974189761711
 30
0.0
 11
197.3189422672415
 21
509.9974189761711
 31
0.0
  0
LINE
  5
2CBA
330
2BBB
100
AcDbEntity
  8
4
 62
     0
370
    -2
100
AcDbLine
 10
181.7416951918129
 20
414.9580552700708
 30
0.0
 11
197.3189422672414
 21
414.9580552700708
 31
0.0
  0
LINE
  5
2CBB
330
2BBB
100
AcDbEntity
  8
4
 62
     0
370
    -2
100
AcDbLine
 10
195.3189422672415
 20
506.9974189761711
 30
0.0
 11
195.3189422672414
 21
417.9580552700708
 31
0.0
  0
SOLID
  5
2CBC
330
2BBB
100
AcDbEntity
  8
4
 62
     0
100
AcDbTrace
 10
194.8189422672415
 20
506.9974189761711
 30
0.0
 11
195.8189422672415
 21
506.9974189761711
 31
0.0
 12
195.3189422672415
 22
509.9974189761711
 32
0.0
 13
195.3189422672415
 23
509.9974189761711
 33
0.0
  0
SOLID
  5
2CBD
330
2BBB
100
AcDbEntity
  8
4
 62
     0
100
AcDbTrace
 10
194.8189422672414
 20
417.9580552700708
 30
0.0
 11
195.8189422672414
 21
417.9580552700708
 31
0.0
 12
195.3189422672414
 22
414.9580552700708
 32
0.0
 13
195.3189422672414
 23
414.9580552700708
 33
0.0
  0
MTEXT
  5
2CBE
330
2BBB
100
AcDbEntity
  8
4
 62
     0
100
AcDbMText
 10
192.8189422672414
 20
462.4777371231211
 30
0.0
 40
3.0
 41
0.0
 71
     5
 72
     1
  1
\A1;370
 11
0.0000000000000001
 21
1.0
 31
0.0
 73
     1
 44
1.0
  0
POINT
  5
2CBF
330
2BBB
100
AcDbEntity
  8
DEFPOINTS
 62
     0
100
AcDbPoint
 10
179.762697
 20
509.9974189761711
 30
0.0
  0
POINT
  5
2CC0
330
2BBB
100
AcDbEntity
  8
DEFPOINTS
 62
     0
100
AcDbPoint
 10
179.741695191813
 20
414.9580552700708
 30
0.0
  0
POINT
  5
2CC1
330
2BBB
100
AcDbEntity
  8
DEFPOINTS
 62
     0
100
AcDbPoint
 10
195.3189422672414
 20
414.9580552700708
 30
0.0
  0
ENDBLK
  5
2BC6
330
2BBB
100
AcDbEntity
  8
0
100
AcDbBlockEnd
  0
BLOCK
  5
2BD1
330
2BC7
100
AcDbEntity
  8
0
100
AcDbBlockBegin
  2
*D50
 70
     1
 10
0.0
 20
0.0
 30
0.0
  3
*D50
  1

  0
LINE
  5
2CC2
330
2BC7
100
AcDbEntity
  8
4
 62
     0
370
    -2
100
AcDbLine
 10
181.7416951918129
 20
414.9580552700708
 30
0.0
 11
197.3189422672414
 21
414.9580552700708
 31
0.0
  0
LINE
  5
2CC3
330
2BC7
100
AcDbEntity
  8
4
 62
     0
370
    -2
100
AcDbLine
 10
180.99763
 20
405.5768429761711
 30
0.0
 11
197.3189422672414
 21
405.5768429761711
 31
0.0
  0
LINE
  5
2CC4
330
2BC7
100
AcDbEntity
  8
4
 62
     0
370
    -2
100
AcDbLine
 10
195.3189422672414
 20
411.9580552700709
 30
0.0
 11
195.3189422672414
 21
408.5768429761711
 31
0.0
  0
SOLID
  5
2CC5
330
2BC7
100
AcDbEntity
  8
4
 62
     0
100
AcDbTrace
 10
194.8189422672414
 20
411.9580552700709
 30
0.0
 11
195.8189422672414
 21
411.9580552700709
 31
0.0
 12
195.3189422672414
 22
414.9580552700708
 32
0.0
 13
195.3189422672414
 23
414.9580552700708
 33
0.0
  0
SOLID
  5
2CC6
330
2BC7
100
AcDbEntity
  8
4
 62
     0
100
AcDbTrace
 10
194.8189422672414
 20
408.5768429761711
 30
0.0
 11
195.8189422672414
 21
408.5768429761711
 31
0.0
 12
195.3189422672414
 22
405.5768429761711
 32
0.0
 13
195.3189422672414
 23
405.5768429761711
 33
0.0
  0
MTEXT
  5
2CC7
330
2BC7
100
AcDbEntity
  8
4
 62
     0
100
AcDbMText
 10
192.8189422672414
 20
410.267449123121
 30
0.0
 40
3.0
 41
0.0
 71
     5
 72
     1
  1
\A1;30
 11
0.0000000000000001
 21
1.0
 31
0.0
 73
     1
 44
1.0
  0
POINT
  5
2CC8
330
2BC7
100
AcDbEntity
  8
DEFPOINTS
 62
     0
100
AcDbPoint
 10
179.741695191813
 20
414.9580552700708
 30
0.0
  0
POINT
  5
2CC9
330
2BC7
100
AcDbEntity
  8
DEFPOINTS
 62
     0
100
AcDbPoint
 10
178.99763
 20
405.5768429761711
 30
0.0
  0
POINT
  5
2CCA
330
2BC7
100
AcDbEntity
  8
DEFPOINTS
 62
     0
100
AcDbPoint
 10
195.3189422672414
 20
405.5768429761711
 30
0.0
  0
ENDBLK
  5
2BD2
330
2BC7
100
AcDbEntity
  8
0
100
AcDbBlockEnd
  0
BLOCK
  5
2BDD
330
2BD3
100
AcDbEntity
  8
0
100
AcDbBlockBegin
  2
*D51
 70
     1
 10
0.0
 20
0.0
 30
0.0
  3
*D51
  1

  0
LINE
  5
2CCB
330
2BD3
100
AcDbEntity
  8
4
 62
     0
370
    -2
100
AcDbLine
 10
182.4635639999999
 20
510.6446629761711
 30
0.0
 11
207.0888972672415
 21
510.6446629761711
 31
0.0
  0
LINE
  5
2CCC
330
2BD3
100
AcDbEntity
  8
4
 62
     0
370
    -2
100
AcDbLine
 10
180.99763
 20
405.5768429761711
 30
0.0
 11
207.0888972672415
 21
405.5768429761711
 31
0.0
  0
LINE
  5
2CCD
330
2BD3
100
AcDbEntity
  8
4
 62
     0
370
    -2
100
AcDbLine
 10
205.0888972672415
 20
507.6446629761711
 30
0.0
 11
205.0888972672415
 21
408.5768429761711
 31
0.0
  0
SOLID
  5
2CCE
330
2BD3
100
AcDbEntity
  8
4
 62
     0
100
AcDbTrace
 10
204.5888972672415
 20
507.6446629761711
 30
0.0
 11
205.5888972672415
 21
507.6446629761711
 31
0.0
 12
205.0888972672415
 22
510.6446629761711
 32
0.0
 13
205.0888972672415
 23
510.6446629761711
 33
0.0
  0
SOLID
  5
2CCF
330
2BD3
100
AcDbEntity
  8
4
 62
     0
100
AcDbTrace
 10
204.5888972672415
 20
408.5768429761711
 30
0.0
 11
205.5888972672415
 21
408.5768429761711
 31
0.0
 12
205.0888972672415
 22
405.5768429761711
 32
0.0
 13
205.0888972672415
 23
405.5768429761711
 33
0.0
  0
MTEXT
  5
2CD0
330
2BD3
100
AcDbEntity
  8
4
 62
     0
100
AcDbMText
 10
202.5888972672414
 20
462.621119625899
 30
0.0
 40
3.0
 41
0.0
 71
     5
 72
     1
  1
\A1;403
 11
0.0000000000000001
 21
1.0
 31
0.0
 73
     1
 44
1.0
  0
POINT
  5
2CD1
330
2BD3
100
AcDbEntity
  8
DEFPOINTS
 62
     0
100
AcDbPoint
 10
180.4635639999999
 20
510.6446629761711
 30
0.0
  0
POINT
  5
2CD2
330
2BD3
100
AcDbEntity
  8
DEFPOINTS
 62
     0
100
AcDbPoint
 10
178.99763
 20
405.5768429761711
 30
0.0
  0
POINT
  5
2CD3
330
2BD3
100
AcDbEntity
  8
DEFPOINTS
 62
     0
100
AcDbPoint
 10
205.0888972672415
 20
405.5768429761711
 30
0.0
  0
ENDBLK
  5
2BDE
330
2BD3
100
AcDbEntity
  8
0
100
AcDbBlockEnd
  0
BLOCK
  5
2BEC
330
2BDF
100
AcDbEntity
  8
0
100
AcDbBlockBegin
  2
*D52
 70
     1
 10
0.0
 20
0.0
 30
0.0
  3
*D52
  1

  0
LINE
  5
2CD4
330
2BDF
100
AcDbEntity
  8
4
 62
     0
370
    -2
100
AcDbLine
 10
181.762697
 20
509.9974189761711
 30
0.0
 11
197.3189422672414
 21
509.9974189761711
 31
0.0
  0
LINE
  5
2CD5
330
2BDF
100
AcDbEntity
  8
4
 62
     0
370
    -2
100
AcDbLine
 10
182.570693
 20
510.643426976171
 30
0.0
 11
197.3189422672414
 21
510.643426976171
 31
0.0
  0
LINE
  5
2CD6
330
2BDF
100
AcDbEntity
  8
4
 62
     0
370
    -2
100
AcDbLine
 10
195.3189422672414
 20
506.9974189761711
 30
0.0
 11
195.3189422672414
 21
503.9974189761712
 31
0.0
  0
LINE
  5
2CD7
330
2BDF
100
AcDbEntity
  8
4
 62
     0
370
    -2
100
AcDbLine
 10
195.3189422672414
 20
513.6434269761712
 30
0.0
 11
195.3189422672414
 21
516.6434269761712
 31
0.0
  0
LINE
  5
2CD8
330
2BDF
100
AcDbEntity
  8
4
 62
     0
370
    -2
100
AcDbLine
 10
195.3189422672414
 20
516.6434269761712
 30
0.0
 11
198.3189422672414
 21
516.6434269761712
 31
0.0
  0
LINE
  5
2CD9
330
2BDF
100
AcDbEntity
  8
4
 62
     0
370
    -2
100
AcDbLine
 10
195.3189422672414
 20
509.9974189761711
 30
0.0
 11
195.3189422672414
 21
510.643426976171
 31
0.0
  0
SOLID
  5
2CDA
330
2BDF
100
AcDbEntity
  8
4
 62
     0
100
AcDbTrace
 10
194.8189422672414
 20
506.9974189761711
 30
0.0
 11
195.8189422672414
 21
506.9974189761711
 31
0.0
 12
195.3189422672414
 22
509.9974189761711
 32
0.0
 13
195.3189422672414
 23
509.9974189761711
 33
0.0
  0
SOLID
  5
2CDB
330
2BDF
100
AcDbEntity
  8
4
 62
     0
100
AcDbTrace
 10
194.8189422672414
 20
513.6434269761712
 30
0.0
 11
195.8189422672414
 21
513.6434269761712
 31
0.0
 12
195.3189422672414
 22
510.643426976171
 32
0.0
 13
195.3189422672414
 23
510.643426976171
 33
0.0
  0
MTEXT
  5
2CDC
330
2BDF
100
AcDbEntity
  8
4
 62
     0
100
AcDbMText
 10
197.3189422672414
 20
519.1434269761712
 30
0.0
 40
3.0
 41
0.0
 71
     5
 72
     1
  1
\A1;3
 73
     1
 44
1.0
  0
POINT
  5
2CDD
330
2BDF
100
AcDbEntity
  8
DEFPOINTS
 62
     0
100
AcDbPoint
 10
179.762697
 20
509.9974189761711
 30
0.0
  0
POINT
  5
2CDE
330
2BDF
100
AcDbEntity
  8
DEFPOINTS
 62
     0
100
AcDbPoint
 10
180.570693
 20
510.643426976171
 30
0.0
  0
POINT
  5
2CDF
330
2BDF
100
AcDbEntity
  8
DEFPOINTS
 62
     0
100
AcDbPoint
 10
195.3189422672414
 20
510.643426976171
 30
0.0
  0
ENDBLK
  5
2BED
330
2BDF
100
AcDbEntity
  8
0
100
AcDbBlockEnd
  0
BLOCK
  5
2BFA
330
2BEE
100
AcDbEntity
  8
0
100
AcDbBlockBegin
  2
*D53
 70
     1
 10
0.0
 20
0.0
 30
0.0
  3
*D53
  1

  0
LINE
  5
2CE0
330
2BEE
100
AcDbEntity
  8
4
 62
     0
370
    -2
100
AcDbLine
 10
180.46464
 20
511.3443649761711
 30
0.0
 11
180.46464
 21
521.7461309761711
 31
0.0
  0
LINE
  5
2CE1
330
2BEE
100
AcDbEntity
  8
4
 62
     0
370
    -2
100
AcDbLine
 10
182.7240402509723
 20
491.4779993776614
 30
0.0
 11
182.7240402509723
 21
521.7461309761711
 31
0.0
  0
LINE
  5
2CE2
330
2BEE
100
AcDbEntity
  8
4
 62
     0
370
    -2
100
AcDbLine
 10
177.4646399999999
 20
519.7461309761711
 30
0.0
 11
174.46464
 21
519.7461309761711
 31
0.0
  0
LINE
  5
2CE3
330
2BEE
100
AcDbEntity
  8
4
 62
     0
370
    -2
100
AcDbLine
 10
185.7240402509723
 20
519.7461309761711
 30
0.0
 11
192.7240402509723
 21
519.7461309761711
 31
0.0
  0
LINE
  5
2CE4
330
2BEE
100
AcDbEntity
  8
4
 62
     0
370
    -2
100
AcDbLine
 10
180.46464
 20
519.7461309761711
 30
0.0
 11
182.7240402509723
 21
519.7461309761711
 31
0.0
  0
SOLID
  5
2CE5
330
2BEE
100
AcDbEntity
  8
4
 62
     0
100
AcDbTrace
 10
177.4646399999999
 20
520.246130976171
 30
0.0
 11
177.4646399999999
 21
519.2461309761711
 31
0.0
 12
180.46464
 22
519.7461309761711
 32
0.0
 13
180.46464
 23
519.7461309761711
 33
0.0
  0
SOLID
  5
2CE6
330
2BEE
100
AcDbEntity
  8
4
 62
     0
100
AcDbTrace
 10
185.7240402509723
 20
520.246130976171
 30
0.0
 11
185.7240402509723
 21
519.2461309761711
 31
0.0
 12
182.7240402509723
 22
519.7461309761711
 32
0.0
 13
182.7240402509723
 23
519.7461309761711
 33
0.0
  0
MTEXT
  5
2CE7
330
2BEE
100
AcDbEntity
  8
4
 62
     0
100
AcDbMText
 10
190.7240402509723
 20
522.2461309761711
 30
0.0
 40
3.0
 41
0.0
 71
     5
 72
     1
  1
\A1;8
 73
     1
 44
1.0
  0
POINT
  5
2CE8
330
2BEE
100
AcDbEntity
  8
DEFPOINTS
 62
     0
100
AcDbPoint
 10
180.46464
 20
509.344364976171
 30
0.0
  0
POINT
  5
2CE9
330
2BEE
100
AcDbEntity
  8
DEFPOINTS
 62
     0
100
AcDbPoint
 10
182.7240402509723
 20
489.4779993776613
 30
0.0
  0
POINT
  5
2CEA
330
2BEE
100
AcDbEntity
  8
DEFPOINTS
 62
     0
100
AcDbPoint
 10
182.7240402509723
 20
519.7461309761711
 30
0.0
  0
ENDBLK
  5
2BFB
330
2BEE
100
AcDbEntity
  8
0
100
AcDbBlockEnd
  0
BLOCK
  5
2C06
330
2BFC
100
AcDbEntity
  8
0
100
AcDbBlockBegin
  2
*D54
 70
     1
 10
0.0
 20
0.0
 30
0.0
  3
*D54
  1

  0
LINE
  5
2CEB
330
2BFC
100
AcDbEntity
  8
4
 62
     0
370
    -2
100
AcDbLine
 10
87.662855
 20
397.9641849761711
 30
0.0
 11
87.662855
 21
388.0077919761711
 31
0.0
  0
LINE
  5
2CEC
330
2BFC
100
AcDbEntity
  8
4
 62
     0
370
    -2
100
AcDbLine
 10
180.4301189999999
 20
397.9641849761711
 30
0.0
 11
180.4301189999999
 21
388.0077919761711
 31
0.0
  0
LINE
  5
2CED
330
2BFC
100
AcDbEntity
  8
4
 62
     0
370
    -2
100
AcDbLine
 10
90.66285500000001
 20
390.0077919761711
 30
0.0
 11
177.4301189999999
 21
390.0077919761711
 31
0.0
  0
SOLID
  5
2CEE
330
2BFC
100
AcDbEntity
  8
4
 62
     0
100
AcDbTrace
 10
90.66285500000001
 20
390.5077919761711
 30
0.0
 11
90.66285500000001
 21
389.5077919761711
 31
0.0
 12
87.662855
 22
390.0077919761711
 32
0.0
 13
87.662855
 23
390.0077919761711
 33
0.0
  0
SOLID
  5
2CEF
330
2BFC
100
AcDbEntity
  8
4
 62
     0
100
AcDbTrace
 10
177.4301189999999
 20
390.5077919761711
 30
0.0
 11
177.4301189999999
 21
389.5077919761711
 31
0.0
 12
180.4301189999999
 22
390.0077919761711
 32
0.0
 13
180.4301189999999
 23
390.0077919761711
 33
0.0
  0
MTEXT
  5
2CF0
330
2BFC
100
AcDbEntity
  8
4
 62
     0
100
AcDbMText
 10
134.046487
 20
392.5077919761711
 30
0.0
 40
3.0
 41
0.0
 71
     5
 72
     1
  1
\A1;380
 73
     1
 44
1.0
  0
POINT
  5
2CF1
330
2BFC
100
AcDbEntity
  8
DEFPOINTS
 62
     0
100
AcDbPoint
 10
87.662855
 20
399.9641849761711
 30
0.0
  0
POINT
  5
2CF2
330
2BFC
100
AcDbEntity
  8
DEFPOINTS
 62
     0
100
AcDbPoint
 10
180.4301189999999
 20
399.9641849761711
 30
0.0
  0
POINT
  5
2CF3
330
2BFC
100
AcDbEntity
  8
DEFPOINTS
 62
     0
100
AcDbPoint
 10
180.4301189999999
 20
390.0077919761711
 30
0.0
  0
ENDBLK
  5
2C07
330
2BFC
100
AcDbEntity
  8
0
100
AcDbBlockEnd
  0
BLOCK
  5
2C14
330
2C08
100
AcDbEntity
  8
0
100
AcDbBlockBegin
  2
*D55
 70
     1
 10
0.0
 20
0.0
 30
0.0
  3
*D55
  1

  0
LINE
  5
2CF4
330
2C08
100
AcDbEntity
  8
4
 62
     0
370
    -2
100
AcDbLine
 10
180.4301189999999
 20
405.8955489761711
 30
0.0
 11
180.4301189999999
 21
388.0077919761711
 31
0.0
  0
LINE
  5
2CF5
330
2C08
100
AcDbEntity
  8
4
 62
     0
370
    -2
100
AcDbLine
 10
182.11987
 20
416.8644569761711
 30
0.0
 11
182.11987
 21
388.0077919761711
 31
0.0
  0
LINE
  5
2CF6
330
2C08
100
AcDbEntity
  8
4
 62
     0
370
    -2
100
AcDbLine
 10
177.4301189999999
 20
390.0077919761711
 30
0.0
 11
174.4301189999999
 21
390.0077919761711
 31
0.0
  0
LINE
  5
2CF7
330
2C08
100
AcDbEntity
  8
4
 62
     0
370
    -2
100
AcDbLine
 10
185.1198699999999
 20
390.0077919761711
 30
0.0
 11
192.1198699999999
 21
390.0077919761711
 31
0.0
  0
LINE
  5
2CF8
330
2C08
100
AcDbEntity
  8
4
 62
     0
370
    -2
100
AcDbLine
 10
180.4301189999999
 20
390.0077919761711
 30
0.0
 11
182.11987
 21
390.0077919761711
 31
0.0
  0
SOLID
  5
2CF9
330
2C08
100
AcDbEntity
  8
4
 62
     0
100
AcDbTrace
 10
177.4301189999999
 20
390.5077919761711
 30
0.0
 11
177.4301189999999
 21
389.5077919761711
 31
0.0
 12
180.4301189999999
 22
390.0077919761711
 32
0.0
 13
180.4301189999999
 23
390.0077919761711
 33
0.0
  0
SOLID
  5
2CFA
330
2C08
100
AcDbEntity
  8
4
 62
     0
100
AcDbTrace
 10
185.1198699999999
 20
390.5077919761711
 30
0.0
 11
185.1198699999999
 21
389.5077919761711
 31
0.0
 12
182.11987
 22
390.0077919761711
 32
0.0
 13
182.11987
 23
390.0077919761711
 33
0.0
  0
MTEXT
  5
2CFB
330
2C08
100
AcDbEntity
  8
4
 62
     0
100
AcDbMText
 10
190.1198699999999
 20
392.5077919761711
 30
0.0
 40
3.0
 41
0.0
 71
     5
 72
     1
  1
\A1;7
 73
     1
 44
1.0
  0
POINT
  5
2CFC
330
2C08
100
AcDbEntity
  8
DEFPOINTS
 62
     0
100
AcDbPoint
 10
180.4301189999999
 20
407.895548976171
 30
0.0
  0
POINT
  5
2CFD
330
2C08
100
AcDbEntity
  8
DEFPOINTS
 62
     0
100
AcDbPoint
 10
182.11987
 20
418.8644569761711
 30
0.0
  0
POINT
  5
2CFE
330
2C08
100
AcDbEntity
  8
DEFPOINTS
 62
     0
100
AcDbPoint
 10
182.11987
 20
390.0077919761711
 30
0.0
  0
ENDBLK
  5
2C15
330
2C08
100
AcDbEntity
  8
0
100
AcDbBlockEnd
  0
BLOCK
  5
2C22
330
2C16
100
AcDbEntity
  8
0
100
AcDbBlockBegin
  2
*D56
 70
     1
 10
0.0
 20
0.0
 30
0.0
  3
*D56
  1

  0
LINE
  5
2CFF
330
2C16
100
AcDbEntity
  8
4
 62
     0
370
    -2
100
AcDbLine
 10
87.662855
 20
405.8955489761711
 30
0.0
 11
87.662855
 21
397.9641849761711
 31
0.0
  0
LINE
  5
2D00
330
2C16
100
AcDbEntity
  8
4
 62
     0
370
    -2
100
AcDbLine
 10
93.83770799999998
 20
403.5768429761711
 30
0.0
 11
93.83770799999998
 21
397.9641849761711
 31
0.0
  0
LINE
  5
2D01
330
2C16
100
AcDbEntity
  8
4
 62
     0
370
    -2
100
AcDbLine
 10
84.66285500000001
 20
399.9641849761711
 30
0.0
 11
81.662855
 21
399.9641849761711
 31
0.0
  0
LINE
  5
2D02
330
2C16
100
AcDbEntity
  8
4
 62
     0
370
    -2
100
AcDbLine
 10
96.83770799999999
 20
399.9641849761711
 30
0.0
 11
106.8377079999999
 21
399.9641849761711
 31
0.0
  0
LINE
  5
2D03
330
2C16
100
AcDbEntity
  8
4
 62
     0
370
    -2
100
AcDbLine
 10
87.662855
 20
399.9641849761711
 30
0.0
 11
93.83770799999998
 21
399.9641849761711
 31
0.0
  0
SOLID
  5
2D04
330
2C16
100
AcDbEntity
  8
4
 62
     0
100
AcDbTrace
 10
84.66285500000001
 20
400.4641849761711
 30
0.0
 11
84.66285500000001
 21
399.4641849761711
 31
0.0
 12
87.662855
 22
399.9641849761711
 32
0.0
 13
87.662855
 23
399.9641849761711
 33
0.0
  0
SOLID
  5
2D05
330
2C16
100
AcDbEntity
  8
4
 62
     0
100
AcDbTrace
 10
96.83770799999999
 20
400.4641849761711
 30
0.0
 11
96.83770799999999
 21
399.4641849761711
 31
0.0
 12
93.83770799999998
 22
399.9641849761711
 32
0.0
 13
93.83770799999998
 23
399.9641849761711
 33
0.0
  0
MTEXT
  5
2D06
330
2C16
100
AcDbEntity
  8
4
 62
     0
100
AcDbMText
 10
103.3377079999999
 20
402.4641849761711
 30
0.0
 40
3.0
 41
0.0
 71
     5
 72
     1
  1
\A1;25
 73
     1
 44
1.0
  0
POINT
  5
2D07
330
2C16
100
AcDbEntity
  8
DEFPOINTS
 62
     0
100
AcDbPoint
 10
87.662855
 20
407.895548976171
 30
0.0
  0
POINT
  5
2D08
330
2C16
100
AcDbEntity
  8
DEFPOINTS
 62
     0
100
AcDbPoint
 10
93.83770799999998
 20
405.5768429761711
 30
0.0
  0
POINT
  5
2D09
330
2C16
100
AcDbEntity
  8
DEFPOINTS
 62
     0
100
AcDbPoint
 10
93.83770799999998
 20
399.9641849761711
 30
0.0
  0
ENDBLK
  5
2C23
330
2C16
100
AcDbEntity
  8
0
100
AcDbBlockEnd
  0
BLOCK
  5
2C30
330
2C24
100
AcDbEntity
  8
0
100
AcDbBlockBegin
  2
*D57
 70
     1
 10
0.0
 20
0.0
 30
0.0
  3
*D57
  1

  0
LINE
  5
2D0A
330
2C24
100
AcDbEntity
  8
4
 62
     0
370
    -2
100
AcDbLine
 10
180.4301189999999
 20
405.8955489761711
 30
0.0
 11
180.4301189999999
 21
397.9641849761711
 31
0.0
  0
LINE
  5
2D0B
330
2C24
100
AcDbEntity
  8
4
 62
     0
370
    -2
100
AcDbLine
 10
174.221408
 20
403.5768429761711
 30
0.0
 11
174.221408
 21
397.9641849761711
 31
0.0
  0
LINE
  5
2D0C
330
2C24
100
AcDbEntity
  8
4
 62
     0
370
    -2
100
AcDbLine
 10
183.4301189999999
 20
399.9641849761711
 30
0.0
 11
186.4301189999999
 21
399.9641849761711
 31
0.0
  0
LINE
  5
2D0D
330
2C24
100
AcDbEntity
  8
4
 62
     0
370
    -2
100
AcDbLine
 10
171.221408
 20
399.9641849761711
 30
0.0
 11
161.221408
 21
399.9641849761711
 31
0.0
  0
LINE
  5
2D0E
330
2C24
100
AcDbEntity
  8
4
 62
     0
370
    -2
100
AcDbLine
 10
180.4301189999999
 20
399.9641849761711
 30
0.0
 11
174.221408
 21
399.9641849761711
 31
0.0
  0
SOLID
  5
2D0F
330
2C24
100
AcDbEntity
  8
4
 62
     0
100
AcDbTrace
 10
183.4301189999999
 20
400.4641849761711
 30
0.0
 11
183.4301189999999
 21
399.4641849761711
 31
0.0
 12
180.4301189999999
 22
399.9641849761711
 32
0.0
 13
180.4301189999999
 23
399.9641849761711
 33
0.0
  0
SOLID
  5
2D10
330
2C24
100
AcDbEntity
  8
4
 62
     0
100
AcDbTrace
 10
171.221408
 20
400.4641849761711
 30
0.0
 11
171.221408
 21
399.4641849761711
 31
0.0
 12
174.221408
 22
399.9641849761711
 32
0.0
 13
174.221408
 23
399.9641849761711
 33
0.0
  0
MTEXT
  5
2D11
330
2C24
100
AcDbEntity
  8
4
 62
     0
100
AcDbMText
 10
164.7214079999999
 20
402.4641849761711
 30
0.0
 40
3.0
 41
0.0
 71
     5
 72
     1
  1
\A1;25
 73
     1
 44
1.0
  0
POINT
  5
2D12
330
2C24
100
AcDbEntity
  8
DEFPOINTS
 62
     0
100
AcDbPoint
 10
180.4301189999999
 20
407.895548976171
 30
0.0
  0
POINT
  5
2D13
330
2C24
100
AcDbEntity
  8
DEFPOINTS
 62
     0
100
AcDbPoint
 10
174.221408
 20
405.5768429761711
 30
0.0
  0
POINT
  5
2D14
330
2C24
100
AcDbEntity
  8
DEFPOINTS
 62
     0
100
AcDbPoint
 10
174.221408
 20
399.9641849761711
 30
0.0
  0
ENDBLK
  5
2C31
330
2C24
100
AcDbEntity
  8
0
100
AcDbBlockEnd
  0
BLOCK
  5
2C3C
330
2C32
100
AcDbEntity
  8
0
100
AcDbBlockBegin
  2
*D58
 70
     1
 10
0.0
 20
0.0
 30
0.0
  3
*D58
  1

  0
LINE
  5
2D15
330
2C32
100
AcDbEntity
  8
4
 62
     0
370
    -2
100
AcDbLine
 10
261.6906559999999
 20
405.8771829761711
 30
0.0
 11
261.6906559999999
 21
378.0476129761711
 31
0.0
  0
LINE
  5
2D16
330
2C32
100
AcDbEntity
  8
4
 62
     0
370
    -2
100
AcDbLine
 10
253.686514
 20
469.9979057926364
 30
0.0
 11
253.686514
 21
378.0476129761711
 31
0.0
  0
LINE
  5
2D17
330
2C32
100
AcDbEntity
  8
4
 62
     0
370
    -2
100
AcDbLine
 10
258.690656
 20
380.0476129761711
 30
0.0
 11
256.6865139999999
 21
380.0476129761711
 31
0.0
  0
SOLID
  5
2D18
330
2C32
100
AcDbEntity
  8
4
 62
     0
100
AcDbTrace
 10
258.690656
 20
380.5476129761711
 30
0.0
 11
258.690656
 21
379.5476129761711
 31
0.0
 12
261.6906559999999
 22
380.0476129761711
 32
0.0
 13
261.6906559999999
 23
380.0476129761711
 33
0.0
  0
SOLID
  5
2D19
330
2C32
100
AcDbEntity
  8
4
 62
     0
100
AcDbTrace
 10
256.6865139999999
 20
380.5476129761711
 30
0.0
 11
256.6865139999999
 21
379.5476129761711
 31
0.0
 12
253.686514
 22
380.0476129761711
 32
0.0
 13
253.686514
 23
380.0476129761711
 33
0.0
  0
MTEXT
  5
2D1A
330
2C32
100
AcDbEntity
  8
4
 62
     0
100
AcDbMText
 10
257.688585
 20
382.5476129761711
 30
0.0
 40
3.0
 41
0.0
 71
     5
 72
     1
  1
\A1;27
 73
     1
 44
1.0
  0
POINT
  5
2D1B
330
2C32
100
AcDbEntity
  8
DEFPOINTS
 62
     0
100
AcDbPoint
 10
261.6906559999999
 20
407.8771829761711
 30
0.0
  0
POINT
  5
2D1C
330
2C32
100
AcDbEntity
  8
DEFPOINTS
 62
     0
100
AcDbPoint
 10
253.686514
 20
471.9979057926364
 30
0.0
  0
POINT
  5
2D1D
330
2C32
100
AcDbEntity
  8
DEFPOINTS
 62
     0
100
AcDbPoint
 10
253.686514
 20
380.0476129761711
 30
0.0
  0
ENDBLK
  5
2C3D
330
2C32
100
AcDbEntity
  8
0
100
AcDbBlockEnd
  0
BLOCK
  5
2C48
330
2C3E
100
AcDbEntity
  8
0
100
AcDbBlockBegin
  2
*D59
 70
     1
 10
0.0
 20
0.0
 30
0.0
  3
*D59
  1

  0
LINE
  5
2D1E
330
2C3E
100
AcDbEntity
  8
4
 62
     0
370
    -2
100
AcDbLine
 10
261.6906559999999
 20
403.508707976171
 30
0.0
 11
261.6906559999999
 21
387.817567976171
 31
0.0
  0
LINE
  5
2D1F
330
2C3E
100
AcDbEntity
  8
4
 62
     0
370
    -2
100
AcDbLine
 10
270.287697
 20
412.982604976171
 30
0.0
 11
270.287697
 21
387.817567976171
 31
0.0
  0
LINE
  5
2D20
330
2C3E
100
AcDbEntity
  8
4
 62
     0
370
    -2
100
AcDbLine
 10
264.690656
 20
389.8175679761711
 30
0.0
 11
267.287697
 21
389.8175679761711
 31
0.0
  0
SOLID
  5
2D21
330
2C3E
100
AcDbEntity
  8
4
 62
     0
100
AcDbTrace
 10
264.690656
 20
390.3175679761711
 30
0.0
 11
264.690656
 21
389.3175679761711
 31
0.0
 12
261.6906559999999
 22
389.8175679761711
 32
0.0
 13
261.6906559999999
 23
389.8175679761711
 33
0.0
  0
SOLID
  5
2D22
330
2C3E
100
AcDbEntity
  8
4
 62
     0
100
AcDbTrace
 10
267.287697
 20
390.3175679761711
 30
0.0
 11
267.287697
 21
389.3175679761711
 31
0.0
 12
270.287697
 22
389.8175679761711
 32
0.0
 13
270.287697
 23
389.8175679761711
 33
0.0
  0
MTEXT
  5
2D23
330
2C3E
100
AcDbEntity
  8
4
 62
     0
100
AcDbMText
 10
265.9891764999999
 20
392.3175679761711
 30
0.0
 40
3.0
 41
0.0
 71
     5
 72
     1
  1
\A1;35
 73
     1
 44
1.0
  0
POINT
  5
2D24
330
2C3E
100
AcDbEntity
  8
DEFPOINTS
 62
     0
100
AcDbPoint
 10
261.6906559999999
 20
405.508707976171
 30
0.0
  0
POINT
  5
2D25
330
2C3E
100
AcDbEntity
  8
DEFPOINTS
 62
     0
100
AcDbPoint
 10
270.287697
 20
414.9826049761711
 30
0.0
  0
POINT
  5
2D26
330
2C3E
100
AcDbEntity
  8
DEFPOINTS
 62
     0
100
AcDbPoint
 10
270.287697
 20
389.8175679761711
 30
0.0
  0
ENDBLK
  5
2C49
330
2C3E
100
AcDbEntity
  8
0
100
AcDbBlockEnd
  0
BLOCK
  5
2C56
330
2C4A
100
AcDbEntity
  8
0
100
AcDbBlockBegin
  2
*D60
 70
     1
 10
0.0
 20
0.0
 30
0.0
  3
*D60
  1

  0
LINE
  5
2D27
330
2C4A
100
AcDbEntity
  8
4
 62
     0
370
    -2
100
AcDbLine
 10
270.287697
 20
412.686544976171
 30
0.0
 11
270.287697
 21
397.8835829761711
 31
0.0
  0
LINE
  5
2D28
330
2C4A
100
AcDbEntity
  8
4
 62
     0
370
    -2
100
AcDbLine
 10
275.327343
 20
403.508707976171
 30
0.0
 11
275.327343
 21
397.8835829761711
 31
0.0
  0
LINE
  5
2D29
330
2C4A
100
AcDbEntity
  8
4
 62
     0
370
    -2
100
AcDbLine
 10
267.287697
 20
399.8835829761711
 30
0.0
 11
264.287697
 21
399.8835829761711
 31
0.0
  0
LINE
  5
2D2A
330
2C4A
100
AcDbEntity
  8
4
 62
     0
370
    -2
100
AcDbLine
 10
278.327343
 20
399.8835829761711
 30
0.0
 11
287.827343
 21
399.8835829761711
 31
0.0
  0
LINE
  5
2D2B
330
2C4A
100
AcDbEntity
  8
4
 62
     0
370
    -2
100
AcDbLine
 10
270.287697
 20
399.8835829761711
 30
0.0
 11
275.327343
 21
399.8835829761711
 31
0.0
  0
SOLID
  5
2D2C
330
2C4A
100
AcDbEntity
  8
4
 62
     0
100
AcDbTrace
 10
267.287697
 20
400.3835829761711
 30
0.0
 11
267.287697
 21
399.3835829761711
 31
0.0
 12
270.287697
 22
399.8835829761711
 32
0.0
 13
270.287697
 23
399.8835829761711
 33
0.0
  0
SOLID
  5
2D2D
330
2C4A
100
AcDbEntity
  8
4
 62
     0
100
AcDbTrace
 10
278.327343
 20
400.3835829761711
 30
0.0
 11
278.327343
 21
399.3835829761711
 31
0.0
 12
275.327343
 22
399.8835829761711
 32
0.0
 13
275.327343
 23
399.8835829761711
 33
0.0
  0
MTEXT
  5
2D2E
330
2C4A
100
AcDbEntity
  8
4
 62
     0
100
AcDbMText
 10
284.577343
 20
402.383582976171
 30
0.0
 40
3.0
 41
0.0
 71
     5
 72
     1
  1
\A1;20
 73
     1
 44
1.0
  0
POINT
  5
2D2F
330
2C4A
100
AcDbEntity
  8
DEFPOINTS
 62
     0
100
AcDbPoint
 10
270.287697
 20
414.686544976171
 30
0.0
  0
POINT
  5
2D30
330
2C4A
100
AcDbEntity
  8
DEFPOINTS
 62
     0
100
AcDbPoint
 10
275.327343
 20
405.508707976171
 30
0.0
  0
POINT
  5
2D31
330
2C4A
100
AcDbEntity
  8
DEFPOINTS
 62
     0
100
AcDbPoint
 10
275.327343
 20
399.8835829761711
 30
0.0
  0
ENDBLK
  5
2C57
330
2C4A
100
AcDbEntity
  8
0
100
AcDbBlockEnd
  0
BLOCK
  5
2C62
330
2C58
100
AcDbEntity
  8
0
100
AcDbBlockBegin
  2
*D61
 70
     1
 10
0.0
 20
0.0
 30
0.0
  3
*D61
  1

  0
LINE
  5
2D32
330
2C58
100
AcDbEntity
  8
4
 62
     0
370
    -2
100
AcDbLine
 10
261.6906559999999
 20
387.817567976171
 30
0.0
 11
261.6906559999999
 21
378.0476129761711
 31
0.0
  0
LINE
  5
2D33
330
2C58
100
AcDbEntity
  8
4
 62
     0
370
    -2
100
AcDbLine
 10
340.249829
 20
387.817567976171
 30
0.0
 11
340.249829
 21
378.0476129761711
 31
0.0
  0
LINE
  5
2D34
330
2C58
100
AcDbEntity
  8
4
 62
     0
370
    -2
100
AcDbLine
 10
264.690656
 20
380.0476129761711
 30
0.0
 11
337.2498289999999
 21
380.0476129761711
 31
0.0
  0
SOLID
  5
2D35
330
2C58
100
AcDbEntity
  8
4
 62
     0
100
AcDbTrace
 10
264.690656
 20
380.5476129761711
 30
0.0
 11
264.690656
 21
379.5476129761711
 31
0.0
 12
261.6906559999999
 22
380.0476129761711
 32
0.0
 13
261.6906559999999
 23
380.0476129761711
 33
0.0
  0
SOLID
  5
2D36
330
2C58
100
AcDbEntity
  8
4
 62
     0
100
AcDbTrace
 10
337.2498289999999
 20
380.5476129761711
 30
0.0
 11
337.2498289999999
 21
379.5476129761711
 31
0.0
 12
340.249829
 22
380.0476129761711
 32
0.0
 13
340.249829
 23
380.0476129761711
 33
0.0
  0
MTEXT
  5
2D37
330
2C58
100
AcDbEntity
  8
4
 62
     0
100
AcDbMText
 10
300.9702424999999
 20
382.5476129761711
 30
0.0
 40
3.0
 41
0.0
 71
     5
 72
     1
  1
\A1;315
 73
     1
 44
1.0
  0
POINT
  5
2D38
330
2C58
100
AcDbEntity
  8
DEFPOINTS
 62
     0
100
AcDbPoint
 10
261.6906559999999
 20
389.8175679761711
 30
0.0
  0
POINT
  5
2D39
330
2C58
100
AcDbEntity
  8
DEFPOINTS
 62
     0
100
AcDbPoint
 10
340.249829
 20
389.8175679761711
 30
0.0
  0
POINT
  5
2D3A
330
2C58
100
AcDbEntity
  8
DEFPOINTS
 62
     0
100
AcDbPoint
 10
340.249829
 20
380.0476129761711
 30
0.0
  0
ENDBLK
  5
2C63
330
2C58
100
AcDbEntity
  8
0
100
AcDbBlockEnd
  0
BLOCK
  5
2C6E
330
2C64
100
AcDbEntity
  8
0
100
AcDbBlockBegin
  2
*D62
 70
     1
 10
0.0
 20
0.0
 30
0.0
  3
*D62
  1

  0
LINE
  5
2D3B
330
2C64
100
AcDbEntity
  8
4
 62
     0
370
    -2
100
AcDbLine
 10
270.287697
 20
397.8835829761711
 30
0.0
 11
270.287697
 21
387.817567976171
 31
0.0
  0
LINE
  5
2D3C
330
2C64
100
AcDbEntity
  8
4
 62
     0
370
    -2
100
AcDbLine
 10
340.249829
 20
397.8835829761711
 30
0.0
 11
340.249829
 21
387.817567976171
 31
0.0
  0
LINE
  5
2D3D
330
2C64
100
AcDbEntity
  8
4
 62
     0
370
    -2
100
AcDbLine
 10
273.287697
 20
389.8175679761711
 30
0.0
 11
337.2498289999999
 21
389.8175679761711
 31
0.0
  0
SOLID
  5
2D3E
330
2C64
100
AcDbEntity
  8
4
 62
     0
100
AcDbTrace
 10
273.287697
 20
390.3175679761711
 30
0.0
 11
273.287697
 21
389.3175679761711
 31
0.0
 12
270.287697
 22
389.8175679761711
 32
0.0
 13
270.287697
 23
389.8175679761711
 33
0.0
  0
SOLID
  5
2D3F
330
2C64
100
AcDbEntity
  8
4
 62
     0
100
AcDbTrace
 10
337.2498289999999
 20
390.3175679761711
 30
0.0
 11
337.2498289999999
 21
389.3175679761711
 31
0.0
 12
340.249829
 22
389.8175679761711
 32
0.0
 13
340.249829
 23
389.8175679761711
 33
0.0
  0
MTEXT
  5
2D40
330
2C64
100
AcDbEntity
  8
4
 62
     0
100
AcDbMText
 10
300.9804653190585
 20
392.3175679761711
 30
0.0
 40
3.0
 41
0.0
 71
     5
 72
     1
  1
\A1;280
 73
     1
 44
1.0
  0
POINT
  5
2D41
330
2C64
100
AcDbEntity
  8
DEFPOINTS
 62
     0
100
AcDbPoint
 10
270.287697
 20
399.8835829761711
 30
0.0
  0
POINT
  5
2D42
330
2C64
100
AcDbEntity
  8
DEFPOINTS
 62
     0
100
AcDbPoint
 10
340.249829
 20
399.8835829761711
 30
0.0
  0
POINT
  5
2D43
330
2C64
100
AcDbEntity
  8
DEFPOINTS
 62
     0
100
AcDbPoint
 10
340.249829
 20
389.8175679761711
 30
0.0
  0
ENDBLK
  5
2C6F
330
2C64
100
AcDbEntity
  8
0
100
AcDbBlockEnd
  0
BLOCK
  5
2C7C
330
2C70
100
AcDbEntity
  8
0
100
AcDbBlockBegin
  2
*D63
 70
     1
 10
0.0
 20
0.0
 30
0.0
  3
*D63
  1

  0
LINE
  5
2D44
330
2C70
100
AcDbEntity
  8
4
 62
     0
370
    -2
100
AcDbLine
 10
340.249829
 20
412.686544976171
 30
0.0
 11
340.249829
 21
397.8835829761711
 31
0.0
  0
LINE
  5
2D45
330
2C70
100
AcDbEntity
  8
4
 62
     0
370
    -2
100
AcDbLine
 10
334.0243839999999
 20
403.804767976171
 30
0.0
 11
334.0243839999999
 21
397.8835829761711
 31
0.0
  0
LINE
  5
2D46
330
2C70
100
AcDbEntity
  8
4
 62
     0
370
    -2
100
AcDbLine
 10
343.2498289999999
 20
399.8835829761711
 30
0.0
 11
346.2498289999999
 21
399.8835829761711
 31
0.0
  0
LINE
  5
2D47
330
2C70
100
AcDbEntity
  8
4
 62
     0
370
    -2
100
AcDbLine
 10
331.024384
 20
399.8835829761711
 30
0.0
 11
321.5243839999999
 21
399.8835829761711
 31
0.0
  0
LINE
  5
2D48
330
2C70
100
AcDbEntity
  8
4
 62
     0
370
    -2
100
AcDbLine
 10
340.249829
 20
399.8835829761711
 30
0.0
 11
334.0243839999999
 21
399.8835829761711
 31
0.0
  0
SOLID
  5
2D49
330
2C70
100
AcDbEntity
  8
4
 62
     0
100
AcDbTrace
 10
343.2498289999999
 20
400.3835829761711
 30
0.0
 11
343.2498289999999
 21
399.3835829761711
 31
0.0
 12
340.249829
 22
399.8835829761711
 32
0.0
 13
340.249829
 23
399.8835829761711
 33
0.0
  0
SOLID
  5
2D4A
330
2C70
100
AcDbEntity
  8
4
 62
     0
100
AcDbTrace
 10
331.024384
 20
400.3835829761711
 30
0.0
 11
331.024384
 21
399.3835829761711
 31
0.0
 12
334.0243839999999
 22
399.8835829761711
 32
0.0
 13
334.0243839999999
 23
399.8835829761711
 33
0.0
  0
MTEXT
  5
2D4B
330
2C70
100
AcDbEntity
  8
4
 62
     0
100
AcDbMText
 10
324.774384
 20
402.383582976171
 30
0.0
 40
3.0
 41
0.0
 71
     5
 72
     1
  1
\A1;20
 73
     1
 44
1.0
  0
POINT
  5
2D4C
330
2C70
100
AcDbEntity
  8
DEFPOINTS
 62
     0
100
AcDbPoint
 10
340.249829
 20
414.686544976171
 30
0.0
  0
POINT
  5
2D4D
330
2C70
100
AcDbEntity
  8
DEFPOINTS
 62
     0
100
AcDbPoint
 10
334.0243839999999
 20
405.8047679761711
 30
0.0
  0
POINT
  5
2D4E
330
2C70
100
AcDbEntity
  8
DEFPOINTS
 62
     0
100
AcDbPoint
 10
334.0243839999999
 20
399.8835829761711
 30
0.0
  0
ENDBLK
  5
2C7D
330
2C70
100
AcDbEntity
  8
0
100
AcDbBlockEnd
  0
BLOCK
  5
2C8A
330
2C7E
100
AcDbEntity
  8
0
100
AcDbBlockBegin
  2
*D64
 70
     1
 10
0.0
 20
0.0
 30
0.0
  3
*D64
  1

  0
LINE
  5
2D4F
330
2C7E
100
AcDbEntity
  8
4
 62
     0
370
    -2
100
AcDbLine
 10
340.196318
 20
511.767453976171
 30
0.0
 11
340.196318
 21
521.7461309761711
 31
0.0
  0
LINE
  5
2D50
330
2C7E
100
AcDbEntity
  8
4
 62
     0
370
    -2
100
AcDbLine
 10
341.3687899999999
 20
509.5663729761711
 30
0.0
 11
341.3687899999999
 21
521.7461309761711
 31
0.0
  0
LINE
  5
2D51
330
2C7E
100
AcDbEntity
  8
4
 62
     0
370
    -2
100
AcDbLine
 10
337.196318
 20
519.7461309761711
 30
0.0
 11
334.196318
 21
519.7461309761711
 31
0.0
  0
LINE
  5
2D52
330
2C7E
100
AcDbEntity
  8
4
 62
     0
370
    -2
100
AcDbLine
 10
344.36879
 20
519.7461309761711
 30
0.0
 11
355.3687899999999
 21
519.7461309761711
 31
0.0
  0
LINE
  5
2D53
330
2C7E
100
AcDbEntity
  8
4
 62
     0
370
    -2
100
AcDbLine
 10
340.196318
 20
519.7461309761711
 30
0.0
 11
341.3687899999999
 21
519.7461309761711
 31
0.0
  0
SOLID
  5
2D54
330
2C7E
100
AcDbEntity
  8
4
 62
     0
100
AcDbTrace
 10
337.196318
 20
520.246130976171
 30
0.0
 11
337.196318
 21
519.2461309761711
 31
0.0
 12
340.196318
 22
519.7461309761711
 32
0.0
 13
340.196318
 23
519.7461309761711
 33
0.0
  0
SOLID
  5
2D55
330
2C7E
100
AcDbEntity
  8
4
 62
     0
100
AcDbTrace
 10
344.36879
 20
520.246130976171
 30
0.0
 11
344.36879
 21
519.2461309761711
 31
0.0
 12
341.3687899999999
 22
519.7461309761711
 32
0.0
 13
341.3687899999999
 23
519.7461309761711
 33
0.0
  0
MTEXT
  5
2D56
330
2C7E
100
AcDbEntity
  8
4
 62
     0
100
AcDbMText
 10
351.3687899999999
 20
522.2461309761711
 30
0.0
 40
3.0
 41
0.0
 71
     5
 72
     1
  1
\A1;3.5
 73
     1
 44
1.0
  0
POINT
  5
2D57
330
2C7E
100
AcDbEntity
  8
DEFPOINTS
 62
     0
100
AcDbPoint
 10
340.196318
 20
509.7674539761711
 30
0.0
  0
POINT
  5
2D58
330
2C7E
100
AcDbEntity
  8
DEFPOINTS
 62
     0
100
AcDbPoint
 10
341.3687899999999
 20
507.5663729761711
 30
0.0
  0
POINT
  5
2D59
330
2C7E
100
AcDbEntity
  8
DEFPOINTS
 62
     0
100
AcDbPoint
 10
341.3687899999999
 20
519.7461309761711
 30
0.0
  0
ENDBLK
  5
2C8B
330
2C7E
100
AcDbEntity
  8
0
100
AcDbBlockEnd
  0
BLOCK
  5
2C96
330
2C8C
100
AcDbEntity
  8
0
100
AcDbBlockBegin
  2
*D65
 70
     1
 10
0.0
 20
0.0
 30
0.0
  3
*D65
  1

  0
LINE
  5
2D5A
330
2C8C
100
AcDbEntity
  8
4
 62
     0
370
    -2
100
AcDbLine
 10
87.58770799999998
 20
511.2417819761711
 30
0.0
 11
87.58770799999998
 21
531.5160859761711
 31
0.0
  0
LINE
  5
2D5B
330
2C8C
100
AcDbEntity
  8
4
 62
     0
370
    -2
100
AcDbLine
 10
182.7240402509723
 20
491.4779993776614
 30
0.0
 11
182.7240402509723
 21
531.5160859761711
 31
0.0
  0
LINE
  5
2D5C
330
2C8C
100
AcDbEntity
  8
4
 62
     0
370
    -2
100
AcDbLine
 10
90.58770799999999
 20
529.516085976171
 30
0.0
 11
179.7240402509723
 21
529.516085976171
 31
0.0
  0
SOLID
  5
2D5D
330
2C8C
100
AcDbEntity
  8
4
 62
     0
100
AcDbTrace
 10
90.58770799999999
 20
530.016085976171
 30
0.0
 11
90.58770799999999
 21
529.016085976171
 31
0.0
 12
87.58770799999998
 22
529.516085976171
 32
0.0
 13
87.58770799999998
 23
529.516085976171
 33
0.0
  0
SOLID
  5
2D5E
330
2C8C
100
AcDbEntity
  8
4
 62
     0
100
AcDbTrace
 10
179.7240402509723
 20
530.016085976171
 30
0.0
 11
179.7240402509723
 21
529.016085976171
 31
0.0
 12
182.7240402509723
 22
529.516085976171
 32
0.0
 13
182.7240402509723
 23
529.516085976171
 33
0.0
  0
MTEXT
  5
2D5F
330
2C8C
100
AcDbEntity
  8
4
 62
     0
100
AcDbMText
 10
134.8920636603937
 20
532.0160859761711
 30
0.0
 40
3.0
 41
0.0
 71
     5
 72
     1
  1
\A1;388
 73
     1
 44
1.0
  0
POINT
  5
2D60
330
2C8C
100
AcDbEntity
  8
DEFPOINTS
 62
     0
100
AcDbPoint
 10
87.58770799999998
 20
509.2417819761711
 30
0.0
  0
POINT
  5
2D61
330
2C8C
100
AcDbEntity
  8
DEFPOINTS
 62
     0
100
AcDbPoint
 10
182.7240402509723
 20
489.4779993776613
 30
0.0
  0
POINT
  5
2D62
330
2C8C
100
AcDbEntity
  8
DEFPOINTS
 62
     0
100
AcDbPoint
 10
182.7240402509723
 20
529.516085976171
 30
0.0
  0
ENDBLK
  5
2C97
330
2C8C
100
AcDbEntity
  8
0
100
AcDbBlockEnd
  0
BLOCK
  5
2CA2
330
2C98
100
AcDbEntity
  8
0
100
AcDbBlockBegin
  2
*D66
 70
     1
 10
0.0
 20
0.0
 30
0.0
  3
*D66
  1

  0
LINE
  5
2D63
330
2C98
100
AcDbEntity
  8
4
 62
     0
370
    -2
100
AcDbLine
 10
253.654496
 20
488.7966204450615
 30
0.0
 11
253.654496
 21
531.5160859761711
 31
0.0
  0
LINE
  5
2D64
330
2C98
100
AcDbEntity
  8
4
 62
     0
370
    -2
100
AcDbLine
 10
341.3687899999999
 20
509.5663729761711
 30
0.0
 11
341.3687899999999
 21
531.5160859761711
 31
0.0
  0
LINE
  5
2D65
330
2C98
100
AcDbEntity
  8
4
 62
     0
370
    -2
100
AcDbLine
 10
256.6544959999999
 20
529.516085976171
 30
0.0
 11
338.3687899999999
 21
529.516085976171
 31
0.0
  0
SOLID
  5
2D66
330
2C98
100
AcDbEntity
  8
4
 62
     0
100
AcDbTrace
 10
256.6544959999999
 20
530.016085976171
 30
0.0
 11
256.6544959999999
 21
529.016085976171
 31
0.0
 12
253.654496
 22
529.516085976171
 32
0.0
 13
253.654496
 23
529.516085976171
 33
0.0
  0
SOLID
  5
2D67
330
2C98
100
AcDbEntity
  8
4
 62
     0
100
AcDbTrace
 10
338.3687899999999
 20
530.016085976171
 30
0.0
 11
338.3687899999999
 21
529.016085976171
 31
0.0
 12
341.3687899999999
 22
529.516085976171
 32
0.0
 13
341.3687899999999
 23
529.516085976171
 33
0.0
  0
MTEXT
  5
2D68
330
2C98
100
AcDbEntity
  8
4
 62
     0
100
AcDbMText
 10
297.5116429999999
 20
532.0160859761711
 30
0.0
 40
3.0
 41
0.0
 71
     5
 72
     1
  1
\A1;345.5
 73
     1
 44
1.0
  0
POINT
  5
2D69
330
2C98
100
AcDbEntity
  8
DEFPOINTS
 62
     0
100
AcDbPoint
 10
253.654496
 20
486.7966204450615
 30
0.0
  0
POINT
  5
2D6A
330
2C98
100
AcDbEntity
  8
DEFPOINTS
 62
     0
100
AcDbPoint
 10
341.3687899999999
 20
507.5663729761711
 30
0.0
  0
POINT
  5
2D6B
330
2C98
100
AcDbEntity
  8
DEFPOINTS
 62
     0
100
AcDbPoint
 10
341.3687899999999
 20
529.516085976171
 30
0.0
  0
ENDBLK
  5
2CA3
330
2C98
100
AcDbEntity
  8
0
100
AcDbBlockEnd
  0
BLOCK
  5
34F5
330
34ED
100
AcDbEntity
  8
0
100
AcDbBlockBegin
  2
*D67
 70
     1
 10
0.0
 20
0.0
 30
0.0
  3
*D67
  1

  0
LINE
  5
3527
330
34ED
100
AcDbEntity
  8
4
 62
     0
370
    -2
100
AcDbLine
 10
234.2181350278016
 20
523.1837915998191
 30
0.0
 11
218.2181350278016
 21
523.1837915998191
 31
0.0
  0
LINE
  5
3528
330
34ED
100
AcDbEntity
  8
4
 62
     0
370
    -2
100
AcDbLine
 10
218.2181350278016
 20
523.1837915998191
 30
0.0
 11
171.7497914845886
 21
497.2413022873242
 31
0.0
  0
MTEXT
  5
3529
330
34ED
100
AcDbEntity
  8
4
 62
     0
100
AcDbMText
 10
226.7181350278016
 20
525.6837915998191
 30
0.0
 40
3.0
 41
0.0
 71
     5
 72
     1
  1
\A1;R4.633
 73
     1
 44
1.0
  0
LINE
  5
352A
330
34ED
100
AcDbEntity
  8
4
 62
     0
370
    -2
100
AcDbLine
 10
165.0850500000003
 20
493.5204899761711
 30
0.0
 11
169.1303583948981
 21
495.7789171504213
 31
0.0
  0
SOLID
  5
352B
330
34ED
100
AcDbEntity
  8
4
 62
     0
100
AcDbTrace
 10
171.5060606284381
 20
497.6778744689393
 30
0.0
 11
171.9935223407391
 21
496.8047301057091
 31
0.0
 12
169.1303583948981
 22
495.7789171504213
 32
0.0
 13
169.1303583948981
 23
495.7789171504213
 33
0.0
  0
POINT
  5
352C
330
34ED
100
AcDbEntity
  8
DEFPOINTS
 62
     0
100
AcDbPoint
 10
169.1303583948981
 20
495.7789171504213
 30
0.0
  0
POINT
  5
352D
330
34ED
100
AcDbEntity
  8
DEFPOINTS
 62
     0
100
AcDbPoint
 10
165.0850500000003
 20
493.5204899761711
 30
0.0
  0
ENDBLK
  5
34F6
330
34ED
100
AcDbEntity
  8
0
100
AcDbBlockEnd
  0
BLOCK
  5
34FF
330
34F8
100
AcDbEntity
  8
0
100
AcDbBlockBegin
  2
*D68
 70
     1
 10
0.0
 20
0.0
 30
0.0
  3
*D68
  1

  0
LINE
  5
3521
330
34F8
100
AcDbEntity
  8
4
 62
     0
370
    -2
100
AcDbLine
 10
133.0368926539573
 20
453.4584402212887
 30
0.0
 11
145.5368926539574
 21
453.4584402212888
 31
0.0
  0
LINE
  5
3522
330
34F8
100
AcDbEntity
  8
4
 62
     0
370
    -2
100
AcDbLine
 10
145.5368926539574
 20
453.4584402212888
 30
0.0
 11
166.2986052400035
 21
431.646747069591
 31
0.0
  0
MTEXT
  5
3523
330
34F8
100
AcDbEntity
  8
4
 62
     0
100
AcDbMText
 10
138.7868926539574
 20
455.9584402212887
 30
0.0
 40
3.0
 41
0.0
 71
     5
 72
     1
  1
\A1;R4.08
 73
     1
 44
1.0
  0
SOLID
  5
3524
330
34F8
100
AcDbEntity
  8
4
 62
     0
100
AcDbTrace
 10
166.6607681299508
 20
431.9914760082443
 30
0.0
 11
165.9364423500563
 21
431.3020181309376
 31
0.0
 12
168.3669788719235
 22
429.4737697299074
 32
0.0
 13
168.3669788719235
 23
429.4737697299074
 33
0.0
  0
POINT
  5
3525
330
34F8
100
AcDbEntity
  8
DEFPOINTS
 62
     0
100
AcDbPoint
 10
168.3669788719235
 20
429.4737697299074
 30
0.0
  0
POINT
  5
3526
330
34F8
100
AcDbEntity
  8
DEFPOINTS
 62
     0
100
AcDbPoint
 10
165.5542610000002
 20
432.4287349761714
 30
0.0
  0
ENDBLK
  5
3500
330
34F8
100
AcDbEntity
  8
0
100
AcDbBlockEnd
  0
BLOCK
  5
3509
330
3502
100
AcDbEntity
  8
0
100
AcDbBlockBegin
  2
*D69
 70
     1
 10
0.0
 20
0.0
 30
0.0
  3
*D69
  1

  0
LINE
  5
351B
330
3502
100
AcDbEntity
  8
4
 62
     0
370
    -2
100
AcDbLine
 10
132.7146453067718
 20
449.7449123892232
 30
0.0
 11
119.7146453067718
 21
449.7449123892232
 31
0.0
  0
LINE
  5
351C
330
3502
100
AcDbEntity
  8
4
 62
     0
370
    -2
100
AcDbLine
 10
119.7146453067718
 20
449.7449123892232
 30
0.0
 11
103.2654721487899
 21
431.7194707976706
 31
0.0
  0
MTEXT
  5
351D
330
3502
100
AcDbEntity
  8
4
 62
     0
100
AcDbMText
 10
126.7146453067718
 20
452.2449123892232
 30
0.0
 40
3.0
 41
0.0
 71
     5
 72
     1
  1
\A1;R4.38
 73
     1
 44
1.0
  0
SOLID
  5
351E
330
3502
100
AcDbEntity
  8
4
 62
     0
100
AcDbTrace
 10
102.8961392377078
 20
432.056506701977
 30
0.0
 11
103.634805059872
 21
431.3824348933642
 31
0.0
 12
101.2432567229516
 22
429.503473331178
 32
0.0
 13
101.2432567229516
 23
429.503473331178
 33
0.0
  0
POINT
  5
351F
330
3502
100
AcDbEntity
  8
DEFPOINTS
 62
     0
100
AcDbPoint
 10
101.2432567229516
 20
429.503473331178
 30
0.0
  0
POINT
  5
3520
330
3502
100
AcDbEntity
  8
DEFPOINTS
 62
     0
100
AcDbPoint
 10
104.19576
 20
432.738904976171
 30
0.0
  0
ENDBLK
  5
350A
330
3502
100
AcDbEntity
  8
0
100
AcDbBlockEnd
  0
BLOCK
  5
3513
330
350C
100
AcDbEntity
  8
0
100
AcDbBlockBegin
  2
*D70
 70
     1
 10
0.0
 20
0.0
 30
0.0
  3
*D70
  1

  0
LINE
  5
3515
330
350C
100
AcDbEntity
  8
4
 62
     0
370
    -2
100
AcDbLine
 10
126.5832111096106
 20
483.704040324879
 30
0.0
 11
111.5832111096107
 21
483.704040324879
 31
0.0
  0
LINE
  5
3516
330
350C
100
AcDbEntity
  8
4
 62
     0
370
    -2
100
AcDbLine
 10
111.5832111096107
 20
483.704040324879
 30
0.0
 11
102.8819166785107
 21
495.0960176115541
 31
0.0
  0
MTEXT
  5
3517
330
350C
100
AcDbEntity
  8
4
 62
     0
100
AcDbMText
 10
119.5832111096107
 20
486.2040403248791
 30
0.0
 40
3.0
 41
0.0
 71
     5
 72
     1
  1
\A1;R3.195
 73
     1
 44
1.0
  0
SOLID
  5
3518
330
350C
100
AcDbEntity
  8
4
 62
     0
100
AcDbTrace
 10
103.2792675007417
 20
495.3995177335843
 30
0.0
 11
102.4845658562797
 21
494.7925174895239
 31
0.0
 12
101.0609159463293
 22
497.48012254494
 32
0.0
 13
101.0609159463293
 23
497.48012254494
 33
0.0
  0
POINT
  5
3519
330
350C
100
AcDbEntity
  8
DEFPOINTS
 62
     0
100
AcDbPoint
 10
101.0609159463293
 20
497.48012254494
 30
0.0
  0
POINT
  5
351A
330
350C
100
AcDbEntity
  8
DEFPOINTS
 62
     0
100
AcDbPoint
 10
103.0000280000002
 20
494.9413829761717
 30
0.0
  0
ENDBLK
  5
3514
330
350C
100
AcDbEntity
  8
0
100
AcDbBlockEnd
  0
ENDSEC
  0
SECTION
  2
ENTITIES
  0
LWPOLYLINE
  5
D8
330
18
100
AcDbEntity
  8
0
370
    60
100
AcDbPolyline
 90
        4
 70
     1
 43
0.0
 10
18.569816
 20
290.913389
 10
416.8326129999999
 20
290.913389
 10
416.8326129999999
 20
5.537812
 10
18.569816
 20
5.537812
  0
LINE
  5
D9
330
18
100
AcDbEntity
  8
0
100
AcDbLine
 10
68.62770799999999
 20
296.4013799999999
 30
0.0
 11
68.62770799999999
 21
290.913389
 31
0.0
  0
LINE
  5
DA
330
18
100
AcDbEntity
  8
0
100
AcDbLine
 10
118.1355149999999
 20
296.4013799999999
 30
0.0
 11
118.1355149999999
 21
290.913389
 31
0.0
  0
LINE
  5
DB
330
18
100
AcDbEntity
  8
0
100
AcDbLine
 10
168.1934079999999
 20
296.4013799999999
 30
0.0
 11
168.1934079999999
 21
290.913389
 31
0.0
  0
LINE
  5
DC
330
18
100
AcDbEntity
  8
0
100
AcDbLine
 10
217.701214
 20
296.9501799999999
 30
0.0
 11
217.701214
 21
290.913389
 31
0.0
  0
LINE
  5
DD
330
18
100
AcDbEntity
  8
0
100
AcDbLine
 10
267.759108
 20
296.4013799999999
 30
0.0
 11
267.759108
 21
290.913389
 31
0.0
  0
LINE
  5
DE
330
18
100
AcDbEntity
  8
0
100
AcDbLine
 10
317.2669139999999
 20
296.4013799999999
 30
0.0
 11
317.2669139999999
 21
290.913389
 31
0.0
  0
LINE
  5
DF
330
18
100
AcDbEntity
  8
0
100
AcDbLine
 10
366.7747199999999
 20
296.9501799999999
 30
0.0
 11
366.7747199999999
 21
290.913389
 31
0.0
  0
LINE
  5
E0
330
18
100
AcDbEntity
  8
0
100
AcDbLine
 10
13.068948
 20
243.16786
 30
0.0
 11
18.569816
 21
243.16786
 31
0.0
  0
LINE
  5
E1
330
18
100
AcDbEntity
  8
0
100
AcDbLine
 10
13.068948
 20
195.97113
 30
0.0
 11
18.569816
 21
195.97113
 31
0.0
  0
LINE
  5
E2
330
18
100
AcDbEntity
  8
0
100
AcDbLine
 10
-4.533826999999999
 20
148.225601
 30
0.0
 11
18.569816
 21
148.225601
 31
0.0
  0
LINE
  5
E3
330
18
100
AcDbEntity
  8
0
100
AcDbLine
 10
12.518862
 20
100.480071
 30
0.0
 11
18.569816
 21
100.480071
 31
0.0
  0
LINE
  5
E4
330
18
100
AcDbEntity
  8
0
100
AcDbLine
 10
13.619035
 20
53.283341
 30
0.0
 11
18.569816
 21
53.283341
 31
0.0
  0
LINE
  5
E5
330
18
100
AcDbEntity
  8
0
100
AcDbLine
 10
416.8326129999999
 20
243.16786
 30
0.0
 11
421.783394
 21
243.16786
 31
0.0
  0
LINE
  5
E6
330
18
100
AcDbEntity
  8
0
100
AcDbLine
 10
416.8326129999999
 20
195.97113
 30
0.0
 11
423.433654
 21
195.97113
 31
0.0
  0
LINE
  5
E7
330
18
100
AcDbEntity
  8
0
100
AcDbLine
 10
416.8326129999999
 20
148.225601
 30
0.0
 11
425.083914
 21
148.225601
 31
0.0
  0
LINE
  5
E8
330
18
100
AcDbEntity
  8
0
100
AcDbLine
 10
416.8326129999999
 20
100.480071
 30
0.0
 11
422.8835669999999
 21
100.480071
 31
0.0
  0
LINE
  5
E9
330
18
100
AcDbEntity
  8
0
100
AcDbLine
 10
416.8326129999999
 20
53.283341
 30
0.0
 11
422.8835669999999
 21
53.283341
 31
0.0
  0
LINE
  5
EA
330
18
100
AcDbEntity
  8
0
100
AcDbLine
 10
366.7747199999999
 20
5.537812
 30
0.0
 11
366.7747199999999
 21
-0.4989790000000001
 31
0.0
  0
LINE
  5
EB
330
18
100
AcDbEntity
  8
0
100
AcDbLine
 10
317.2669139999999
 20
5.537812
 30
0.0
 11
317.2669139999999
 21
0.04982
 31
0.0
  0
LINE
  5
EC
330
18
100
AcDbEntity
  8
0
100
AcDbLine
 10
267.759108
 20
5.537812
 30
0.0
 11
267.759108
 21
0.59862
 31
0.0
  0
LINE
  5
ED
330
18
100
AcDbEntity
  8
0
100
AcDbLine
 10
217.701214
 20
5.537812
 30
0.0
 11
217.701214
 21
0.04982
 31
0.0
  0
LINE
  5
EE
330
18
100
AcDbEntity
  8
0
100
AcDbLine
 10
168.1934079999999
 20
5.537812
 30
0.0
 11
168.1934079999999
 21
0.04982
 31
0.0
  0
LINE
  5
EF
330
18
100
AcDbEntity
  8
0
100
AcDbLine
 10
118.1355149999999
 20
5.537812
 30
0.0
 11
118.1355149999999
 21
0.04982
 31
0.0
  0
LINE
  5
F0
330
18
100
AcDbEntity
  8
0
100
AcDbLine
 10
68.62770799999999
 20
5.537812
 30
0.0
 11
68.62770799999999
 21
0.04982
 31
0.0
  0
MTEXT
  5
F2
330
18
100
AcDbEntity
  8
0
100
AcDbMText
 10
43.32371699999999
 20
296.401381
 30
0.0
 40
3.0
 41
9.0
 71
     1
 72
     5
  1
1
 73
     1
 44
1.0
  0
MTEXT
  5
F3
330
18
100
AcDbEntity
  8
0
100
AcDbMText
 10
90.631178
 20
296.401381
 30
0.0
 40
3.0
 41
7.0
 71
     1
 72
     5
  1
2
 73
     1
 44
1.0
  0
MTEXT
  5
F4
330
18
100
AcDbEntity
  8
0
100
AcDbMText
 10
141.239157
 20
295.8525819999999
 30
0.0
 40
3.0
 41
8.0
 71
     1
 72
     5
  1
3
 73
     1
 44
1.0
  0
MTEXT
  5
F5
330
18
100
AcDbEntity
  8
0
100
AcDbMText
 10
190.196877
 20
296.401381
 30
0.0
 40
3.0
 41
8.0
 71
     1
 72
     5
  1
4
 73
     1
 44
1.0
  0
MTEXT
  5
F6
330
18
100
AcDbEntity
  8
0
100
AcDbMText
 10
239.154597
 20
296.401381
 30
0.0
 40
3.0
 41
9.0
 71
     1
 72
     5
  1
5
 73
     1
 44
1.0
  0
MTEXT
  5
F7
330
18
100
AcDbEntity
  8
0
100
AcDbMText
 10
289.762577
 20
296.401381
 30
0.0
 40
3.0
 41
9.0
 71
     1
 72
     5
  1
6
 73
     1
 44
1.0
  0
MTEXT
  5
F8
330
18
100
AcDbEntity
  8
0
100
AcDbMText
 10
339.8204699999999
 20
296.401381
 30
0.0
 40
3.0
 41
9.0
 71
     1
 72
     5
  1
7
 73
     1
 44
1.0
  0
MTEXT
  5
F9
330
18
100
AcDbEntity
  8
0
100
AcDbMText
 10
389.328277
 20
296.401381
 30
0.0
 40
3.0
 41
8.0
 71
     1
 72
     5
  1
8
 73
     1
 44
1.0
  0
MTEXT
  5
102
330
18
100
AcDbEntity
  8
0
100
AcDbMText
 10
43.32371699999999
 20
3.832615
 30
0.0
 40
3.0
 41
9.0
 71
     1
 72
     5
  1
1
 73
     1
 44
1.0
  0
MTEXT
  5
103
330
18
100
AcDbEntity
  8
0
100
AcDbMText
 10
141.239157
 20
3.283816
 30
0.0
 40
3.0
 41
8.0
 71
     1
 72
     5
  1
3
 73
     1
 44
1.0
  0
MTEXT
  5
104
330
18
100
AcDbEntity
  8
0
100
AcDbMText
 10
90.631178
 20
3.832615
 30
0.0
 40
3.0
 41
7.0
 71
     1
 72
     5
  1
2
 73
     1
 44
1.0
  0
MTEXT
  5
105
330
18
100
AcDbEntity
  8
0
100
AcDbMText
 10
190.196877
 20
3.832615
 30
0.0
 40
3.0
 41
8.0
 71
     1
 72
     5
  1
4
 73
     1
 44
1.0
  0
MTEXT
  5
106
330
18
100
AcDbEntity
  8
0
100
AcDbMText
 10
239.154597
 20
3.832615
 30
0.0
 40
3.0
 41
9.0
 71
     1
 72
     5
  1
5
 73
     1
 44
1.0
  0
MTEXT
  5
107
330
18
100
AcDbEntity
  8
0
100
AcDbMText
 10
289.762577
 20
3.832615
 30
0.0
 40
3.0
 41
9.0
 71
     1
 72
     5
  1
6
 73
     1
 44
1.0
  0
MTEXT
  5
108
330
18
100
AcDbEntity
  8
0
100
AcDbMText
 10
339.8204699999999
 20
3.832615
 30
0.0
 40
3.0
 41
9.0
 71
     1
 72
     5
  1
7
 73
     1
 44
1.0
  0
MTEXT
  5
109
330
18
100
AcDbEntity
  8
0
100
AcDbMText
 10
389.328277
 20
3.832615
 30
0.0
 40
3.0
 41
8.0
 71
     1
 72
     5
  1
8
 73
     1
 44
1.0
  0
MTEXT
  5
10A
330
18
100
AcDbEntity
  8
0
100
AcDbMText
 10
418.4893999999999
 20
269.5102209999999
 30
0.0
 40
3.0
 41
7.0
 71
     1
 72
     5
  1
A
 73
     1
 44
1.0
  0
MTEXT
  5
10B
330
18
100
AcDbEntity
  8
0
100
AcDbMText
 10
418.4893999999999
 20
222.8622899999999
 30
0.0
 40
3.0
 41
5.0
 71
     1
 72
     5
  1
B
 73
     1
 44
1.0
  0
MTEXT
  5
10C
330
18
100
AcDbEntity
  8
0
100
AcDbMText
 10
418.4893999999999
 20
175.66556
 30
0.0
 40
3.0
 41
5.0
 71
     1
 72
     5
  1
C
 73
     1
 44
1.0
  0
MTEXT
  5
10D
330
18
100
AcDbEntity
  8
0
100
AcDbMText
 10
419.0390029999999
 20
125.724834
 30
0.0
 40
3.0
 41
5.0
 71
     1
 72
     5
  1
D
 73
     1
 44
1.0
  0
MTEXT
  5
10E
330
18
100
AcDbEntity
  8
0
100
AcDbMText
 10
419.0390029999999
 20
77.979304
 30
0.0
 40
3.0
 41
5.0
 71
     1
 72
     5
  1
E
 73
     1
 44
1.0
  0
MTEXT
  5
10F
330
18
100
AcDbEntity
  8
0
100
AcDbMText
 10
418.4893999999999
 20
32.42897199999999
 30
0.0
 40
3.0
 41
5.0
 71
     1
 72
     5
  1
F
 73
     1
 44
1.0
  0
MTEXT
  5
110
330
18
100
AcDbEntity
  8
0
100
AcDbMText
 10
13.62556099999999
 20
32.42897199999999
 30
0.0
 40
3.0
 41
5.0
 71
     1
 72
     5
  1
F
 73
     1
 44
1.0
  0
LINE
  5
111
330
18
100
AcDbEntity
  8
0
100
AcDbLine
 10
11.96877399999999
 20
53.283341
 30
0.0
 11
18.019728
 21
53.283341
 31
0.0
  0
MTEXT
  5
112
330
18
100
AcDbEntity
  8
0
100
AcDbMText
 10
14.175164
 20
77.979304
 30
0.0
 40
3.0
 41
5.0
 71
     1
 72
     5
  1
E
 73
     1
 44
1.0
  0
LINE
  5
113
330
18
100
AcDbEntity
  8
0
100
AcDbLine
 10
11.96877399999999
 20
100.480071
 30
0.0
 11
18.019728
 21
100.480071
 31
0.0
  0
MTEXT
  5
114
330
18
100
AcDbEntity
  8
0
100
AcDbMText
 10
14.175164
 20
125.724834
 30
0.0
 40
3.0
 41
5.0
 71
     1
 72
     5
  1
D
 73
     1
 44
1.0
  0
MTEXT
  5
115
330
18
100
AcDbEntity
  8
0
100
AcDbMText
 10
13.62556099999999
 20
175.66556
 30
0.0
 40
3.0
 41
5.0
 71
     1
 72
     5
  1
C
 73
     1
 44
1.0
  0
LINE
  5
116
330
18
100
AcDbEntity
  8
0
100
AcDbLine
 10
11.96877399999999
 20
195.97113
 30
0.0
 11
18.56981499999999
 21
195.97113
 31
0.0
  0
MTEXT
  5
117
330
18
100
AcDbEntity
  8
0
100
AcDbMText
 10
13.62556099999999
 20
222.8622899999999
 30
0.0
 40
3.0
 41
5.0
 71
     1
 72
     5
  1
B
 73
     1
 44
1.0
  0
LINE
  5
118
330
18
100
AcDbEntity
  8
0
100
AcDbLine
 10
11.96877399999999
 20
243.16786
 30
0.0
 11
16.91955499999999
 21
243.16786
 31
0.0
  0
MTEXT
  5
119
330
18
100
AcDbEntity
  8
0
100
AcDbMText
 10
13.62556099999999
 20
269.5102209999999
 30
0.0
 40
3.0
 41
7.0
 71
     1
 72
     5
  1
A
 73
     1
 44
1.0
  0
LINE
  5
122
330
18
100
AcDbEntity
  8
0
370
    40
100
AcDbLine
 10
18.56981499999999
 20
40.15619599999999
 30
0.0
 11
416.8326129999999
 21
40.15619599999999
 31
0.0
  0
LINE
  5
124
330
18
100
AcDbEntity
  8
0
100
AcDbLine
 10
416.824971
 20
23.529141
 30
0.0
 11
250.00835
 21
23.529141
 31
0.0
  0
LINE
  5
125
330
18
100
AcDbEntity
  8
0
100
AcDbLine
 10
354.943724
 20
5.552904999999999
 30
0.0
 11
354.943724
 21
40.192826
 31
0.0
  0
LINE
  5
126
330
18
100
AcDbEntity
  8
0
100
AcDbLine
 10
350.0308959999999
 20
40.192826
 30
0.0
 11
350.0308959999999
 21
5.552903999999999
 31
0.0
  0
LINE
  5
127
330
18
100
AcDbEntity
  8
0
100
AcDbLine
 10
294.9310549999999
 20
23.529141
 30
0.0
 11
294.9310549999999
 21
40.192826
 31
0.0
  0
LINE
  5
128
330
18
100
AcDbEntity
  8
0
100
AcDbLine
 10
289.6479429999999
 20
5.552903999999999
 30
0.0
 11
289.6479429999999
 21
40.192826
 31
0.0
  0
LINE
  5
129
330
18
100
AcDbEntity
  8
0
100
AcDbLine
 10
250.00835
 20
40.192826
 30
0.0
 11
250.00835
 21
5.552903999999999
 31
0.0
  0
LINE
  5
12A
330
18
100
AcDbEntity
  8
0
100
AcDbLine
 10
269.828146
 20
40.192826
 30
0.0
 11
269.828146
 21
5.552903999999999
 31
0.0
  0
LINE
  5
12B
330
18
100
AcDbEntity
  8
0
100
AcDbLine
 10
250.00835
 20
32.663548
 30
0.0
 11
289.6479429999999
 21
32.663548
 31
0.0
  0
LINE
  5
12C
330
18
100
AcDbEntity
  8
0
100
AcDbLine
 10
250.00835
 20
14.882429
 30
0.0
 11
289.6479429999999
 21
14.882429
 31
0.0
  0
LINE
  5
12F
330
18
100
AcDbEntity
  8
0
100
AcDbLine
 10
239.9924589999999
 20
32.69499
 30
0.0
 11
239.9924589999999
 21
5.690279
 31
0.0
  0
LINE
  5
130
330
18
100
AcDbEntity
  8
0
100
AcDbLine
 10
230.107604
 20
40.144565
 30
0.0
 11
230.107604
 21
5.690279
 31
0.0
  0
LINE
  5
134
330
18
100
AcDbEntity
  8
0
100
AcDbLine
 10
220.0362419999999
 20
10.160024
 30
0.0
 11
250.0638209999999
 21
10.160024
 31
0.0
  0
LINE
  5
135
330
18
100
AcDbEntity
  8
0
100
AcDbLine
 10
220.0362419999999
 20
14.816009
 30
0.0
 11
250.0638209999999
 21
14.816009
 31
0.0
  0
LINE
  5
136
330
18
100
AcDbEntity
  8
0
100
AcDbLine
 10
220.0362419999999
 20
19.285754
 30
0.0
 11
250.0638209999999
 21
19.285754
 31
0.0
  0
LINE
  5
138
330
18
100
AcDbEntity
  8
0
100
AcDbLine
 10
220.0362419999999
 20
23.56926
 30
0.0
 11
250.0638209999999
 21
23.56926
 31
0.0
  0
LINE
  5
139
330
18
100
AcDbEntity
  8
0
100
AcDbLine
 10
220.0362419999999
 20
28.411484
 30
0.0
 11
250.0638209999999
 21
28.411484
 31
0.0
  0
LINE
  5
13A
330
18
100
AcDbEntity
  8
0
100
AcDbLine
 10
220.0362419999999
 20
32.69499
 30
0.0
 11
250.0638209999999
 21
32.69499
 31
0.0
  0
LINE
  5
13C
330
18
100
AcDbEntity
  8
0
100
AcDbLine
 10
184.879728
 20
40.144565
 30
0.0
 11
184.879728
 21
5.690279
 31
0.0
  0
LINE
  5
13D
330
18
100
AcDbEntity
  8
0
100
AcDbLine
 10
199.986772
 20
40.144565
 30
0.0
 11
199.986772
 21
5.690279
 31
0.0
  0
LINE
  5
13E
330
18
100
AcDbEntity
  8
0
100
AcDbLine
 10
219.942989
 20
32.69499
 30
0.0
 11
189.915409
 21
32.69499
 31
0.0
  0
LINE
  5
13F
330
18
100
AcDbEntity
  8
0
100
AcDbLine
 10
219.942989
 20
14.816009
 30
0.0
 11
189.915409
 21
14.816009
 31
0.0
  0
LINE
  5
140
330
18
100
AcDbEntity
  8
0
100
AcDbLine
 10
169.959192
 20
40.144565
 30
0.0
 11
169.959192
 21
5.690279
 31
0.0
  0
LINE
  5
141
330
18
100
AcDbEntity
  8
0
100
AcDbLine
 10
189.915409
 20
32.69499
 30
0.0
 11
169.959192
 21
32.69499
 31
0.0
  0
LINE
  5
143
330
18
100
AcDbEntity
  8
0
100
AcDbLine
 10
219.942989
 20
28.411484
 30
0.0
 11
199.986772
 21
28.411484
 31
0.0
  0
LINE
  5
144
330
18
100
AcDbEntity
  8
0
100
AcDbLine
 10
219.942989
 20
23.56926
 30
0.0
 11
169.959192
 21
23.56926
 31
0.0
  0
LINE
  5
145
330
18
100
AcDbEntity
  8
0
100
AcDbLine
 10
219.942989
 20
19.285754
 30
0.0
 11
199.986772
 21
19.285754
 31
0.0
  0
LINE
  5
146
330
18
100
AcDbEntity
  8
0
100
AcDbLine
 10
189.915409
 20
14.816009
 30
0.0
 11
169.959192
 21
14.816009
 31
0.0
  0
LINE
  5
147
330
18
100
AcDbEntity
  8
0
100
AcDbLine
 10
219.942989
 20
10.160024
 30
0.0
 11
199.986772
 21
10.160024
 31
0.0
  0
MTEXT
  5
14C
330
18
100
AcDbEntity
  8
0
100
AcDbMText
 10
174.136942
 20
37.90969299999999
 30
0.0
 40
3.0
 41
9.0
 71
     1
 72
     5
  1
承認
 73
     1
 44
1.0
  0
MTEXT
  5
14D
330
18
100
AcDbEntity
  8
0
100
AcDbMText
 10
189.4304909999999
 20
37.90969299999999
 30
0.0
 40
3.0
 41
8.0
 71
     1
 72
     5
  1
設計
 73
     1
 44
1.0
  0
MTEXT
  5
14E
330
18
100
AcDbEntity
  8
0
100
AcDbMText
 10
174.323449
 20
20.96190899999999
 30
0.0
 40
3.0
 41
9.0
 71
     1
 72
     5
  1
製図
 73
     1
 44
1.0
  0
MTEXT
  5
14F
330
18
100
AcDbEntity
  8
0
100
AcDbMText
 10
189.243985
 20
20.775669
 30
0.0
 40
3.0
 41
9.0
 71
     1
 72
     5
  1
担当
 73
     1
 44
1.0
  0
MTEXT
  5
150
330
18
100
AcDbEntity
  8
0
100
AcDbMText
 10
211.195825
 20
31.391315
 30
0.0
 40
2.0
 41
11.0
 71
     1
 72
     5
  1
日  付
 73
     1
 44
1.0
  0
MTEXT
  5
151
330
18
100
AcDbEntity
  8
0
100
AcDbMText
 10
211.0093169999999
 20
22.07934499999999
 30
0.0
 40
2.0
 41
9.0
 71
     1
 72
     5
  1
訂  正
 73
     1
 44
1.0
  0
MTEXT
  5
153
330
18
100
AcDbEntity
  8
0
100
AcDbMText
 10
231.040138
 20
8.670109
 30
0.0
 40
2.0
 41
13.0
 71
     1
 72
     5
  1
1000～
 73
     1
 44
1.0
  0
LINE
  5
154
330
18
100
AcDbEntity
  8
0
100
AcDbLine
 10
200.080025
 20
36.233538
 30
0.0
 11
230.107604
 21
36.233538
 31
0.0
  0
MTEXT
  5
155
330
18
100
AcDbEntity
  8
0
100
AcDbMText
 10
211.270427
 20
35.67482
 30
0.0
 40
2.0
 41
9.0
 71
     1
 72
     5
  1
仕  上
 73
     1
 44
1.0
  0
MTEXT
  5
157
330
18
100
AcDbEntity
  8
0
100
AcDbMText
 10
231.9726709999999
 20
13.51233299999999
 30
0.0
 40
2.0
 41
8.952322
 71
     1
 72
     5
  1
315～
 73
     1
 44
1.0
  0
MTEXT
  5
159
330
18
100
AcDbEntity
  8
0
100
AcDbMText
 10
231.9726709999999
 20
18.138131
 30
0.0
 40
2.0
 41
7.0
 71
     1
 72
     5
  1
120～
 73
     1
 44
1.0
  0
MTEXT
  5
15A
330
18
100
AcDbEntity
  8
0
100
AcDbMText
 10
233.4647249999999
 20
22.601435
 30
0.0
 40
2.0
 41
6.0
 71
     1
 72
     5
  1
30～
 73
     1
 44
1.0
  0
MTEXT
  5
15B
330
18
100
AcDbEntity
  8
0
100
AcDbMText
 10
234.5837649999999
 20
26.878769
 30
0.0
 40
2.0
 41
5.035680999999999
 71
     1
 72
     5
  1
６～
 73
     1
 44
1.0
  0
MTEXT
  5
15C
330
18
100
AcDbEntity
  8
0
100
AcDbMText
 10
235.143284
 20
31.342074
 30
0.0
 40
2.0
 41
5.0
 71
     1
 72
     5
  1
0～
 73
     1
 44
1.0
  0
MTEXT
  5
15E
330
18
100
AcDbEntity
  8
0
100
AcDbMText
 10
244.46862
 20
22.043522
 30
0.0
 40
2.0
 41
5.0
 71
     1
 72
     5
  1
･15
 73
     1
 44
1.0
  0
MTEXT
  5
15F
330
18
100
AcDbEntity
  8
0
100
AcDbMText
 10
244.6551279999999
 20
26.878769
 30
0.0
 40
2.0
 41
4.0
 71
     1
 72
     5
  1
･1
 73
     1
 44
1.0
  0
MTEXT
  5
160
330
18
100
AcDbEntity
  8
0
100
AcDbMText
 10
244.46862
 20
17.766188
 30
0.0
 40
2.0
 41
4.0
 71
     1
 72
     5
  1
･2
 73
     1
 44
1.0
  0
MTEXT
  5
161
330
18
100
AcDbEntity
  8
0
100
AcDbMText
 10
244.2821139999999
 20
13.302883
 30
0.0
 40
2.0
 41
4.0
 71
     1
 72
     5
  1
･3
 73
     1
 44
1.0
  0
MTEXT
  5
163
330
18
100
AcDbEntity
  8
0
100
AcDbMText
 10
244.2821139999999
 20
8.839577
 30
0.0
 40
2.0
 41
5.0
 71
     1
 72
     5
  1
･5
 73
     1
 44
1.0
  0
MTEXT
  5
164
330
18
100
AcDbEntity
  8
0
100
AcDbMText
 10
241.111499
 20
31.528045
 30
0.0
 40
2.0
 41
9.0
 71
     1
 72
     5
  1
±0.05
 73
     1
 44
1.0
  0
MTEXT
  5
165
330
18
100
AcDbEntity
  8
0
100
AcDbMText
 10
231.9726709999999
 20
37.29314799999999
 30
0.0
 40
2.0
 41
17.0
 71
     1
 72
     5
  1
寸法差 精(12)
 73
     1
 44
1.0
  0
MTEXT
  5
166
330
18
100
AcDbEntity
  8
0
100
AcDbMText
 10
256.40505
 20
37.851061
 30
0.0
 40
3.0
 41
11.0
 71
     1
 72
     5
  1
尺度
 73
     1
 44
1.0
  0
MTEXT
  5
167
330
18
100
AcDbEntity
  8
0
100
AcDbMText
 10
276.3799169999999
 20
37.66509
 30
0.0
 40
3.0
 41
10.0
 71
     1
 72
     5
  1
材質
 73
     1
 44
1.0
  0
MTEXT
  5
168
330
18
100
AcDbEntity
  8
0
100
AcDbMText
 10
256.2371939999999
 20
20.74172399999999
 30
0.0
 40
3.0
 41
9.0
 71
     1
 72
     5
  1
処理
 73
     1
 44
1.0
  0
MTEXT
  5
169
330
18
100
AcDbEntity
  8
0
100
AcDbMText
 10
276.3799169999999
 20
20.555753
 30
0.0
 40
3.0
 41
10.0
 71
     1
 72
     5
  1
個数
 73
     1
 44
1.0
  0
MTEXT
  5
16B
330
18
100
AcDbEntity
  8
0
100
AcDbMText
 10
290.6290279999999
 20
35.619409
 30
0.0
 40
3.0
 41
4.0
 71
     1
 72
     5
  1
品名
 73
     1
 44
1.0
  0
MTEXT
  5
16C
330
18
100
AcDbEntity
  8
0
100
AcDbMText
 10
350.9160959999999
 20
35.061495
 30
0.0
 40
3.0
 41
4.0
 71
     1
 72
     5
  1
機名
 73
     1
 44
1.0
  0
MTEXT
  5
16D
330
18
100
AcDbEntity
  8
0
100
AcDbMText
 10
350.9160959999999
 20
18.13813
 30
0.0
 40
3.0
 41
3.0
 71
     1
 72
     5
  1
図番
 73
     1
 44
1.0
  0
LINE
  5
1E7
330
18
100
AcDbEntity
  8
0
100
AcDbLine
 10
100.067655
 20
40.158364
 30
0.0
 11
100.067655
 21
5.593396
 31
0.0
  0
LINE
  5
1E8
330
18
100
AcDbEntity
  8
0
100
AcDbLine
 10
169.8661729999999
 20
32.684857
 30
0.0
 11
100.067655
 21
32.684857
 31
0.0
  0
LINE
  5
1E9
330
18
100
AcDbEntity
  8
0
100
AcDbLine
 10
169.8661729999999
 20
23.65437
 30
0.0
 11
100.067655
 21
23.65437
 31
0.0
  0
LINE
  5
1EA
330
18
100
AcDbEntity
  8
0
100
AcDbLine
 10
169.8661729999999
 20
14.93527999999999
 30
0.0
 11
100.067655
 21
14.93527999999999
 31
0.0
  0
LINE
  5
1EB
330
18
100
AcDbEntity
  8
0
100
AcDbLine
 10
120.0100889999999
 20
40.158364
 30
0.0
 11
120.0100889999999
 21
5.593396
 31
0.0
  0
MTEXT
  5
1ED
330
18
100
AcDbEntity
  8
0
100
AcDbMText
 10
103.4952609999999
 20
20.54040899999999
 30
0.0
 40
3.0
 41
17.0
 71
     1
 72
     5
  1
外形寸法
 73
     1
 44
1.0
  0
MTEXT
  5
1EE
330
18
100
AcDbEntity
  8
0
100
AcDbMText
 10
103.4952609999999
 20
29.570896
 30
0.0
 40
3.0
 41
18.0
 71
     1
 72
     5
  1
消費電力
 73
     1
 44
1.0
  0
MTEXT
  5
1F0
330
18
100
AcDbEntity
  8
0
100
AcDbMText
 10
103.18366
 20
12.132715
 30
0.0
 40
3.0
 41
15.0
 71
     1
 72
     5
  1
質    量
 73
     1
 44
1.0
  0
MTEXT
  5
1F1
330
18
100
AcDbEntity
  8
0
100
AcDbMText
 10
103.4952609999999
 20
37.667195
 30
0.0
 40
3.0
 41
16.0
 71
     1
 72
     5
  1
電    源
 73
     1
 44
1.0
  0
MTEXT
  5
353
330
18
100
AcDbEntity
  8
4
100
AcDbMText
 10
123.754504
 20
38.092087
 30
0.0
 40
3.0
 41
42.785
 71
     1
 72
     5
  1
単層　100V50/60Hz
 73
     1
 44
1.0
  0
MTEXT
  5
357
330
18
100
AcDbEntity
  8
4
100
AcDbMText
 10
174.498112
 20
11.81246699999999
 30
0.0
 40
3.0
 41
7.0
 71
     1
 72
     5
  1
A.S
 73
     1
 44
1.0
  0
MTEXT
  5
35C
330
18
100
AcDbEntity
  8
4
100
AcDbMText
 10
255.759691
 20
29.431757
 30
0.0
 40
3.0
 41
13.0
 71
     1
 72
     5
  1
1/4
 73
     1
 44
1.0
  0
MTEXT
  5
35E
330
18
100
AcDbEntity
  8
4
100
AcDbMText
 10
278.7977669999999
 20
11.513834
 30
0.0
 40
3.0
 41
6.0
 71
     1
 72
     5
  1
1
 73
     1
 44
1.0
  0
MTEXT
  5
494
330
18
100
AcDbEntity
  8
3
  6
Continuous
100
AcDbMText
 10
91.122002
 20
110.8754559999999
 30
0.0
 40
3.0
 41
0.0
 71
     4
 72
     1
  1
\A1;
 73
     1
 44
1.0
  0
LWPOLYLINE
  5
506
330
18
100
AcDbEntity
  8
1
100
AcDbPolyline
 90
        4
 70
     1
 43
0.0
 10
99.25344200000001
 20
162.0094130507262
 10
93.602121
 20
162.0094130507262
 10
93.602121
 20
126.5830170507262
 10
99.25344200000001
 20
126.5830170507262
  0
LWPOLYLINE
  5
527
330
18
100
AcDbEntity
  8
2
  6
HIDDEN2
100
AcDbPolyline
 90
        4
 70
     1
 43
0.0
 10
125.4430029999999
 20
155.5708335507262
 10
145.562049
 20
155.5708335507262
 10
145.562049
 20
145.5779785507262
 10
125.4430029999999
 20
145.5779785507262
  0
CIRCLE
  5
528
330
18
100
AcDbEntity
  8
2
  6
HIDDEN2
100
AcDbCircle
 10
131.4248509999999
 20
150.7549995507262
 30
0.0
 40
2.863500999999999
  0
LWPOLYLINE
  5
529
330
18
100
AcDbEntity
  8
2
  6
HIDDEN2
100
AcDbPolyline
 90
        4
 70
     1
 43
0.0
 10
136.9783989999999
 20
153.5063675507262
 10
138.171355
 20
153.5063675507262
 10
138.171355
 20
147.9428155507262
 10
136.9783989999999
 20
147.9428155507262
  0
LWPOLYLINE
  5
52A
330
18
100
AcDbEntity
  8
2
  6
HIDDEN2
100
AcDbPolyline
 90
        4
 70
     1
 43
0.0
 10
140.822372
 20
153.5063675507262
 10
142.015328
 20
153.5063675507262
 10
142.015328
 20
147.9428155507262
 10
140.822372
 20
147.9428155507262
  0
LWPOLYLINE
  5
52B
330
18
100
AcDbEntity
  8
2
  6
HIDDEN2
100
AcDbPolyline
 90
        2
 70
     0
 43
0.0
 10
140.8886459999999
 20
150.7908235507262
 10
138.171355
 20
150.7908235507262
  0
LWPOLYLINE
  5
52C
330
18
100
AcDbEntity
  8
2
  6
HIDDEN2
100
AcDbPolyline
 90
        2
 70
     0
 43
0.0
 10
138.171355
 20
149.7973335507262
 10
140.8886459999999
 20
149.7973335507262
  0
LWPOLYLINE
  5
52D
330
18
100
AcDbEntity
  8
2
  6
HIDDEN2
100
AcDbPolyline
 90
        4
 70
     1
 43
0.0
 10
138.171355
 20
147.4129535507262
 10
140.822371
 20
147.4129535507262
 10
140.822371
 20
146.4856945507262
 10
138.171355
 20
146.4856945507262
  0
ARC
  5
52E
330
18
100
AcDbEntity
  8
2
  6
HIDDEN2
100
AcDbCircle
 10
138.40108
 20
147.6644825507262
 30
0.0
 40
0.626342
100
AcDbArc
 50
153.616402
 51
248.483342
  0
ARC
  5
52F
330
18
100
AcDbEntity
  8
2
  6
HIDDEN2
100
AcDbCircle
 10
138.369697
 20
147.7443395507262
 30
0.0
 40
1.078343999999999
100
AcDbArc
 50
169.393902
 51
259.40111
  0
ARC
  5
532
330
18
100
AcDbEntity
  8
2
  6
HIDDEN2
100
AcDbCircle
 10
140.6457969999999
 20
147.6644825507262
 30
0.0
 40
0.626342
100
AcDbArc
 50
291.516658
 51
26.383598
  0
ARC
  5
533
330
18
100
AcDbEntity
  8
2
  6
HIDDEN2
100
AcDbCircle
 10
140.677179
 20
147.7443395507262
 30
0.0
 40
1.078343999999999
100
AcDbArc
 50
280.59889
 51
10.60609799999999
  0
LINE
  5
56B
330
18
100
AcDbEntity
  8
1
100
AcDbLine
 10
257.1162629999999
 20
151.0121140507262
 30
0.0
 11
257.1162629999999
 21
137.706671138128
 31
0.0
  0
LINE
  5
56C
330
18
100
AcDbEntity
  8
1
100
AcDbLine
 10
259.951566
 20
154.6183610507262
 30
0.0
 11
261.498095
 21
154.6183610507262
 31
0.0
  0
LINE
  5
56D
330
18
100
AcDbEntity
  8
1
100
AcDbLine
 10
259.6810498222348
 20
134.6552100507262
 30
0.0
 11
261.498095
 21
134.6552100507262
 31
0.0
  0
ARC
  5
570
330
18
100
AcDbEntity
  8
1
100
AcDbCircle
 10
260.2164979999999
 20
151.5041270507262
 30
0.0
 40
3.139034
100
AcDbArc
 50
97.20705199999999
 51
189.017736
  0
ARC
  5
571
330
18
100
AcDbEntity
  8
1
100
AcDbCircle
 10
260.20783
 20
137.7040390507262
 30
0.0
 40
3.091857
100
AcDbArc
 50
179.217234
 51
260.430186
  0
ARC
  5
573
330
18
100
AcDbEntity
  8
1
100
AcDbCircle
 10
261.8127949999999
 20
150.5247950507262
 30
0.0
 40
11.396212
100
AcDbArc
 50
91.684117
 51
109.5418509999999
  0
ARC
  5
574
330
18
100
AcDbEntity
  8
1
100
AcDbCircle
 10
242.618365
 20
163.8203250507262
 30
0.0
 40
15.602314
100
AcDbArc
 50
319.120607
 51
350.369887
  0
ARC
  5
575
330
18
100
AcDbEntity
  8
1
100
AcDbCircle
 10
257.08855
 20
151.3747570507262
 30
0.0
 40
3.484191999999999
100
AcDbArc
 50
140.1127689999999
 51
189.7317539999999
  0
ARC
  5
57B
330
18
100
AcDbEntity
  8
1
100
AcDbCircle
 10
242.6183659999999
 20
124.7207150507262
 30
0.0
 40
15.602314
100
AcDbArc
 50
9.630112999999999
 51
40.879393
  0
ARC
  5
57C
330
18
100
AcDbEntity
  8
1
100
AcDbCircle
 10
257.088551
 20
137.1662820507262
 30
0.0
 40
3.484191999999999
100
AcDbArc
 50
170.268246
 51
219.887231
  0
ARC
  5
57D
330
18
100
AcDbEntity
  8
1
100
AcDbCircle
 10
261.8127959999999
 20
138.0162450507262
 30
0.0
 40
11.396212
100
AcDbArc
 50
250.458149
 51
268.3158829999999
  0
LINE
  5
57E
330
18
100
AcDbEntity
  8
1
100
AcDbLine
 10
253.654496
 20
150.7858028776804
 30
0.0
 11
253.654496
 21
137.4797920507262
 31
0.0
  0
LINE
  5
5B8
330
18
100
AcDbEntity
  8
2
  6
HIDDEN2
100
AcDbLine
 10
328.603689
 20
155.5708335507262
 30
0.0
 11
328.603689
 21
145.5779785507262
 31
0.0
  0
LWPOLYLINE
  5
5BA
330
18
100
AcDbEntity
  8
2
  6
HIDDEN2
100
AcDbPolyline
 90
        4
 70
     1
 43
0.0
 10
328.603689
 20
153.1805195507262
 10
329.9075839999999
 20
153.1805195507262
 10
329.9075839999999
 20
149.8142895507262
 10
328.603689
 20
149.8142895507262
  0
LINE
  5
5BB
330
18
100
AcDbEntity
  8
2
  6
HIDDEN2
100
AcDbLine
 10
327.1107339999999
 20
155.5708335507262
 30
0.0
 11
331.9720859999999
 21
155.5708335507262
 31
0.0
  0
LINE
  5
5BC
330
18
100
AcDbEntity
  8
2
  6
HIDDEN2
100
AcDbLine
 10
331.9720859999999
 20
155.5708335507262
 30
0.0
 11
331.9720859999999
 21
145.5779785507262
 31
0.0
  0
LINE
  5
5BE
330
18
100
AcDbEntity
  8
2
  6
HIDDEN2
100
AcDbLine
 10
329.9075839999999
 20
154.9179295507262
 30
0.0
 11
329.9075839999999
 21
147.9682925507262
 31
0.0
  0
CIRCLE
  5
5F5
330
18
100
AcDbEntity
  8
2
  6
HIDDEN2
100
AcDbCircle
 10
277.670823
 20
92.73484405072622
 30
0.0
 40
0.459346
  0
CIRCLE
  5
5F6
330
18
100
AcDbEntity
  8
2
  6
HIDDEN2
100
AcDbCircle
 10
284.021021
 20
92.73484405072622
 30
0.0
 40
0.459346
  0
CIRCLE
  5
5F7
330
18
100
AcDbEntity
  8
2
  6
HIDDEN2
100
AcDbCircle
 10
290.9159369999999
 20
92.73484405072622
 30
0.0
 40
0.459346
  0
CIRCLE
  5
5F8
330
18
100
AcDbEntity
  8
2
  6
HIDDEN2
100
AcDbCircle
 10
297.7512919999999
 20
92.73484405072622
 30
0.0
 40
0.459346
  0
CIRCLE
  5
5F9
330
18
100
AcDbEntity
  8
2
  6
HIDDEN2
100
AcDbCircle
 10
303.8426129999999
 20
92.73484405072622
 30
0.0
 40
0.459346
  0
CIRCLE
  5
5FA
330
18
100
AcDbEntity
  8
2
  6
HIDDEN2
100
AcDbCircle
 10
310.1315979999999
 20
92.73484405072622
 30
0.0
 40
0.459346
  0
CIRCLE
  5
5FB
330
18
100
AcDbEntity
  8
2
  6
HIDDEN2
100
AcDbCircle
 10
315.6814569999999
 20
92.73484405072622
 30
0.0
 40
0.459346
  0
CIRCLE
  5
5FC
330
18
100
AcDbEntity
  8
2
  6
HIDDEN2
100
AcDbCircle
 10
321.601016
 20
92.73484405072622
 30
0.0
 40
0.459346
  0
MTEXT
  5
79E
330
18
100
AcDbEntity
  8
4
100
AcDbMText
 10
173.9324469999999
 20
29.84068699999999
 30
0.0
 40
3.0
 41
8.0
 71
     1
 72
     5
  1
G.Y
 73
     1
 44
1.0
  0
MTEXT
  5
79F
330
18
100
AcDbEntity
  8
4
100
AcDbMText
 10
189.466532
 20
29.84068699999999
 30
0.0
 40
3.0
 41
8.0
 71
     1
 72
     5
  1
G.Y
 73
     1
 44
1.0
  0
MTEXT
  5
7A1
330
18
100
AcDbEntity
  8
4
100
AcDbMText
 10
305.824668
 20
17.552219
 30
0.0
 40
5.0
 41
31.298514
 71
     1
 72
     5
  1
承認図-01
 73
     1
 44
1.0
  0
MTEXT
  5
7A3
330
18
100
AcDbEntity
  8
4
100
AcDbMText
 10
369.161033
 20
34.51030499999999
 30
0.0
 40
5.0
 41
35.24163499999999
 71
     1
 72
     5
  1
タオルポット
 73
     1
 44
1.0
  0
MTEXT
  5
7CD
330
18
100
AcDbEntity
  8
4
100
AcDbMText
 10
26.37705260435665
 20
286.1694901108627
 30
0.0
 40
5.0
 41
59.0
 71
     1
 72
     5
  1
材質又は定格
 73
     1
 44
1.0
  0
MTEXT
  5
7CE
330
18
100
AcDbEntity
  8
4
100
AcDbMText
 10
26.67394860435665
 20
276.6813031108627
 30
0.0
 40
4.0
 41
31.0
 71
     1
 72
     5
  1
本体
 73
     1
 44
1.0
  0
MTEXT
  5
7CF
330
18
100
AcDbEntity
  8
4
100
AcDbMText
 10
76.64204036063984
 20
276.6813031108627
 30
0.0
 40
4.0
 41
30.0
 71
     1
 72
     5
  1
SPC
 73
     1
 44
1.0
  0
LINE
  5
7D0
330
18
100
AcDbEntity
  8
4
100
AcDbLine
 10
26.37705260435666
 20
279.9428671108628
 30
0.0
 11
62.00467860435662
 21
279.9428671108628
 31
0.0
  0
MTEXT
  5
7D1
330
18
100
AcDbEntity
  8
4
100
AcDbMText
 10
26.37705260435665
 20
266.6001051108627
 30
0.0
 40
4.0
 41
17.0
 71
     1
 72
     5
  1
中箱
 73
     1
 44
1.0
  0
MTEXT
  5
7D3
330
18
100
AcDbEntity
  8
4
100
AcDbMText
 10
76.64204036063984
 20
266.6001051108627
 30
0.0
 40
4.0
 41
16.0
 71
     1
 72
     5
  1
ALP
 73
     1
 44
1.0
  0
MTEXT
  5
7D5
330
18
100
AcDbEntity
  8
4
100
AcDbMText
 10
76.64204036063984
 20
256.8154121108627
 30
0.0
 40
4.0
 41
31.0
 71
     1
 72
     5
  1
EPT
 73
     1
 44
1.0
  0
MTEXT
  5
7D6
330
18
100
AcDbEntity
  8
4
100
AcDbMText
 10
26.77021570879707
 20
246.7342131108627
 30
0.0
 40
4.0
 41
47.34575081158993
 71
     1
 72
     5
  1
エアタイトパッキン
 73
     1
 44
1.0
  0
MTEXT
  5
7D7
330
18
100
AcDbEntity
  8
4
100
AcDbMText
 10
76.16676463538033
 20
246.7342131108627
 30
0.0
 40
4.0
 41
35.55810702136227
 71
     1
 72
     5
  1
シリコーンゴム
 73
     1
 44
1.0
  0
MTEXT
  5
7D8
330
18
100
AcDbEntity
  8
4
100
AcDbMText
 10
26.72987766281482
 20
236.6530151108627
 30
0.0
 40
4.0
 41
24.0
 71
     1
 72
     5
  1
取手
 73
     1
 44
1.0
  0
MTEXT
  5
7D9
330
18
100
AcDbEntity
  8
4
100
AcDbMText
 10
26.85567662366025
 20
226.8683231108627
 30
0.0
 40
4.0
 41
33.0
 71
     1
 72
     5
  1
スイッチパネル
 73
     1
 44
1.0
  0
MTEXT
  5
7DA
330
18
100
AcDbEntity
  8
4
100
AcDbMText
 10
143.7740212959291
 20
247.1499441108627
 30
0.0
 40
4.0
 41
31.0
 71
     1
 72
     5
  1
水受皿
 73
     1
 44
1.0
  0
MTEXT
  5
7DB
330
18
100
AcDbEntity
  8
4
100
AcDbMText
 10
143.7740212959291
 20
237.0687461108627
 30
0.0
 40
4.0
 41
32.0
 71
     1
 72
     5
  1
電源コード
 73
     1
 44
1.0
  0
MTEXT
  5
7DC
330
18
100
AcDbEntity
  8
4
100
AcDbMText
 10
143.7740212959291
 20
226.6910411108627
 30
0.0
 40
4.0
 41
44.0
 71
     1
 72
     5
  1
固定サーモスタット
 73
     1
 44
1.0
  0
MTEXT
  5
7DD
330
18
100
AcDbEntity
  8
4
100
AcDbMText
 10
26.70094460435665
 20
217.2028551108627
 30
0.0
 40
4.0
 41
34.0
 71
     1
 72
     5
  1
温度ヒューズ
 73
     1
 44
1.0
  0
MTEXT
  5
7DE
330
18
100
AcDbEntity
  8
4
100
AcDbMText
 10
76.64204036063984
 20
236.3565091108627
 30
0.0
 40
4.0
 41
21.0
 71
     1
 72
     5
  1
ABS
 73
     1
 44
1.0
  0
MTEXT
  5
7DF
330
18
100
AcDbEntity
  8
4
100
AcDbMText
 10
76.64204036063984
 20
226.7062619199337
 30
0.0
 40
4.0
 41
21.0
 71
     1
 72
     5
  1
ABS
 73
     1
 44
1.0
  0
MTEXT
  5
7E0
330
18
100
AcDbEntity
  8
4
100
AcDbMText
 10
189.6818656351569
 20
246.8534381108627
 30
0.0
 40
4.0
 41
13.0
 71
     1
 72
     5
  1
PP
 73
     1
 44
1.0
  0
MTEXT
  5
7E1
330
18
100
AcDbEntity
  8
4
100
AcDbMText
 10
189.6818656351569
 20
237.0687461108627
 30
0.0
 40
4.0
 41
18.0
 71
     1
 72
     5
  1
2M
 73
     1
 44
1.0
  0
MTEXT
  5
7E2
330
18
100
AcDbEntity
  8
4
100
AcDbMText
 10
189.6818656351569
 20
227.2840541108627
 30
0.0
 40
4.0
 41
33.69932820374632
 71
     1
 72
     5
  1
75\U+2103　OFF
 73
     1
 44
1.0
  0
MTEXT
  5
7E9
330
18
100
AcDbEntity
  8
4
100
AcDbMText
 10
77.02370736063985
 20
217.0258991108628
 30
0.0
 40
4.0
 41
43.0
 71
     1
 72
     5
  1
113\U+2103　15A
 73
     1
 44
1.0
  0
MTEXT
  5
7EC
330
18
100
AcDbEntity
  8
4
 62
     2
100
AcDbMText
 10
107.8842348494367
 20
223.1345856912968
 30
0.0
 40
4.0
 41
12.0
 71
     1
 72
     5
  1
10A
 73
     1
 44
1.0
  0
MTEXT
  5
7ED
330
18
100
AcDbEntity
  8
4
100
AcDbMText
 10
143.8231468110518
 20
276.7438201108627
 30
0.0
 40
4.0
 41
27.0
 71
     1
 72
     5
  1
発熱体
 73
     1
 44
1.0
  0
MTEXT
  5
7EE
330
18
100
AcDbEntity
  8
4
100
AcDbMText
 10
143.7973169287843
 20
266.5164361108627
 30
0.0
 40
4.0
 41
34.0
 71
     1
 72
     5
  1
電源スイッチ
 73
     1
 44
1.0
  0
MTEXT
  5
7EF
330
18
100
AcDbEntity
  8
4
100
AcDbMText
 10
143.7752931042465
 20
256.5731471108628
 30
0.0
 40
4.0
 41
22.0
 71
     1
 72
     5
  1
アース線
 73
     1
 44
1.0
  0
MTEXT
  5
7F0
330
18
100
AcDbEntity
  8
4
100
AcDbMText
 10
189.7797237089157
 20
276.7438201108627
 30
0.0
 40
4.0
 41
35.0
 71
     1
 72
     5
  1
Cu-Ni合金
 73
     1
 44
1.0
  0
MTEXT
  5
7F1
330
18
100
AcDbEntity
  8
4
100
AcDbMText
 10
189.7797237089157
 20
266.2323421108627
 30
0.0
 40
4.0
 41
48.0
 71
     1
 72
     5
  1
AC250V-15A
 73
     1
 44
1.0
  0
MTEXT
  5
7F2
330
18
100
AcDbEntity
  8
4
100
AcDbMText
 10
190.0836110188679
 20
256.5731471108628
 30
0.0
 40
4.0
 41
39.0
 71
     1
 72
     5
  1
1.25mm
 73
     1
 44
1.0
  0
MTEXT
  5
7F3
330
18
100
AcDbEntity
  8
4
100
AcDbMText
 10
208.2896060188679
 20
257.5729005872799
 30
0.0
 40
2.0
 41
3.0
 71
     1
 72
     5
  1
2
 73
     1
 44
1.0
  0
MTEXT
  5
7F5
330
18
100
AcDbEntity
  8
4
100
AcDbMText
 10
219.8423201071372
 20
256.5477598772199
 30
0.0
 40
4.0
 41
10.0
 71
     1
 72
     5
  1
2M
 73
     1
 44
1.0
  0
MTEXT
  5
7F6
330
18
100
AcDbEntity
  8
4
100
AcDbMText
 10
243.8176534047734
 20
286.6871091108627
 30
0.0
 40
5.0
 41
37.0
 71
     1
 72
     5
  1
仕様
 73
     1
 44
1.0
  0
LINE
  5
7F9
330
18
100
AcDbEntity
  8
4
100
AcDbLine
 10
242.9642474047735
 20
280.1529471108628
 30
0.0
 11
255.4808674047734
 21
280.1529471108628
 31
0.0
  0
MTEXT
  5
7FA
330
18
100
AcDbEntity
  8
4
100
AcDbMText
 10
244.1021214047734
 20
276.4597251108627
 30
0.0
 40
4.0
 41
31.0
 71
     1
 72
     5
  1
温度調節
 73
     1
 44
1.0
  0
MTEXT
  5
7FB
330
18
100
AcDbEntity
  8
4
100
AcDbMText
 10
243.5331854047735
 20
266.5164361108627
 30
0.0
 40
4.0
 41
20.0
 71
     1
 72
     5
  1
庫内温度
 73
     1
 44
1.0
  0
MTEXT
  5
7FD
330
18
100
AcDbEntity
  8
4
100
AcDbMText
 10
243.8176534047734
 20
256.5731471108628
 30
0.0
 40
4.0
 41
20.0
 71
     1
 72
     5
  1
安全装置
 73
     1
 44
1.0
  0
MTEXT
  5
7FE
330
18
100
AcDbEntity
  8
4
100
AcDbMText
 10
243.8176534047734
 20
246.3457631108627
 30
0.0
 40
4.0
 41
20.0
 71
     1
 72
     5
  1
内容積
 73
     1
 44
1.0
  0
MTEXT
  5
7FF
330
18
100
AcDbEntity
  8
4
100
AcDbMText
 10
243.8176534047734
 20
236.4024741108627
 30
0.0
 40
4.0
 41
21.0
 71
     1
 72
     5
  1
中箱寸法
 73
     1
 44
1.0
  0
MTEXT
  5
800
330
18
100
AcDbEntity
  8
4
100
AcDbMText
 10
273.1248152347215
 20
276.7438201108627
 30
0.0
 40
4.0
 41
41.0
 71
     1
 72
     5
  1
固定サーモスタット
 73
     1
 44
1.0
  0
MTEXT
  5
801
330
18
100
AcDbEntity
  8
4
100
AcDbMText
 10
272.8403452347215
 20
266.5164361108627
 30
0.0
 40
4.0
 41
57.76882168493944
 71
     1
 72
     5
  1
65\U+2103～75\U+2103
 73
     1
 44
1.0
  0
MTEXT
  5
80D
330
18
100
AcDbEntity
  8
4
100
AcDbMText
 10
272.9527572347215
 20
256.5731471108628
 30
0.0
 40
4.0
 41
76.0
 71
     1
 72
     5
  1
113\U+2103　温度ヒューズ
 73
     1
 44
1.0
  0
MTEXT
  5
815
330
18
100
AcDbEntity
  8
4
100
AcDbMText
 10
26.96004660435665
 20
256.8719811108627
 30
0.0
 40
4.0
 41
68.84034745009035
 71
     1
 72
     5
  1
マグネットパッキン
 73
     1
 44
1.0
  0
MTEXT
  5
81C
330
18
100
AcDbEntity
  8
4
100
AcDbMText
 10
368.744965
 20
16.709004
 30
0.0
 40
5.0
 41
36.364284
 71
     1
 72
     5
  1
TP-70-01
 73
     1
 44
1.0
  0
MTEXT
  5
81D
330
18
100
AcDbEntity
  8
4
100
AcDbMText
 10
309.790749
 20
33.77312899999999
 30
0.0
 40
5.0
 41
26.446751
 71
     1
 72
     5
  1
TP-70
 73
     1
 44
1.0
  0
MTEXT
  5
81E
330
18
100
AcDbEntity
  8
4
100
AcDbMText
 10
208.350392
 20
26.892434
 30
0.0
 40
2.0
 41
13.0
 71
     1
 72
     5
  1
H12,8,10
 73
     1
 44
1.0
  0
MTEXT
  5
81F
330
18
100
AcDbEntity
  8
4
100
AcDbMText
 10
138.3430929999999
 20
29.36948499999999
 30
0.0
 40
3.0
 41
14.332202
 71
     1
 72
     5
  1
220W
 73
     1
 44
1.0
  0
MTEXT
  5
820
330
18
100
AcDbEntity
  8
4
 62
     2
100
AcDbMText
 10
122.4550266025182
 20
20.69648921371713
 30
0.0
 40
3.0
 41
44.0
 71
     1
 72
     5
  1
380Wx315Dx400H
 73
     1
 44
1.0
  0
MTEXT
  5
821
330
18
100
AcDbEntity
  8
4
100
AcDbMText
 10
139.445569
 20
12.03013099999999
 30
0.0
 40
3.0
 41
9.0
 71
     1
 72
     5
  1
8kg
 73
     1
 44
1.0
  0
LWPOLYLINE
  5
822
330
18
100
AcDbEntity
  8
1
100
AcDbPolyline
 90
        2
 70
     0
 43
0.0
 10
88.281956
 20
174.9309950507262
 10
179.802523
 20
174.9309950507262
  0
LINE
  5
824
330
18
100
AcDbEntity
  8
1
100
AcDbLine
 10
88.24919499999998
 20
173.4904340507262
 30
0.0
 11
179.802523
 21
173.4904340507262
 31
0.0
  0
LINE
  5
825
330
18
100
AcDbEntity
  8
1
100
AcDbLine
 10
88.45837000000001
 20
82.92923605072621
 30
0.0
 11
179.750928
 21
82.92923605072621
 31
0.0
  0
LWPOLYLINE
  5
826
330
18
100
AcDbEntity
  8
2
  6
HIDDEN2
100
AcDbPolyline
 90
        2
 70
     0
 43
0.0
 10
103.893211
 20
163.0744060507262
 10
165.5542609999999
 20
163.0744060507262
  0
ARC
  5
82B
330
18
100
AcDbEntity
  8
1
100
AcDbCircle
 10
88.61859300000004
 20
172.5226560507262
 30
0.0
 40
1.001608999999999
100
AcDbArc
 50
105.345471
 51
173.4154209999999
  0
ARC
  5
82C
330
18
100
AcDbEntity
  8
1
100
AcDbCircle
 10
88.70441800000003
 20
173.8597060507262
 30
0.0
 40
1.106451
100
AcDbArc
 50
111.8456239999999
 51
167.645304
  0
ARC
  5
830
330
18
100
AcDbEntity
  8
1
100
AcDbCircle
 10
179.6322669999999
 20
172.6381290507262
 30
0.0
 40
0.8486729999999999
100
AcDbArc
 50
351.506642
 51
86.717136
  0
ARC
  5
831
330
18
100
AcDbEntity
  8
1
100
AcDbCircle
 10
179.6385699999999
 20
174.1112540507262
 30
0.0
 40
0.8341629999999998
100
AcDbArc
 50
2.943378
 51
87.093514
  0
LWPOLYLINE
  5
838
330
18
100
AcDbEntity
  8
2
  6
HIDDEN2
100
AcDbPolyline
 90
        2
 70
     0
 43
0.0
 10
169.633869
 20
158.9947980507262
 10
169.633869
 20
97.40383605072622
  0
LWPOLYLINE
  5
839
330
18
100
AcDbEntity
  8
1
100
AcDbPolyline
 90
        2
 70
     0
 43
0.0
 10
180.471408
 20
174.1876290507262
 10
180.471408
 20
82.48212705072623
  0
LINE
  5
83A
330
18
100
AcDbEntity
  8
1
100
AcDbLine
 10
180.471408
 20
173.5176810507262
 30
0.0
 11
180.4981429999999
 21
173.5176810507262
 31
0.0
  0
ARC
  5
83B
330
18
100
AcDbEntity
  8
2
  6
HIDDEN2
100
AcDbCircle
 10
165.5542609999999
 20
97.40383605072622
 30
0.0
 40
4.079608
100
AcDbArc
 50
270.0
 51
0.0
  0
ARC
  5
83E
330
18
100
AcDbEntity
  8
1
100
AcDbCircle
 10
179.6385699999999
 20
83.77644205072622
 30
0.0
 40
0.8341629999999998
100
AcDbArc
 50
272.9064839999999
 51
357.056674
  0
ARC
  5
840
330
18
100
AcDbEntity
  8
1
100
AcDbCircle
 10
179.745927
 20
80.63223305072622
 30
0.0
 40
0.7283430000000001
100
AcDbArc
 50
269.667099
 51
4.877375999999999
  0
LWPOLYLINE
  5
844
330
18
100
AcDbEntity
  8
2
  6
HIDDEN2
100
AcDbPolyline
 90
        2
 70
     0
 43
0.0
 10
165.5542609999999
 20
93.32422805072623
 10
103.78209
 20
93.32422805072623
  0
LWPOLYLINE
  5
845
330
18
100
AcDbEntity
  8
1
100
AcDbPolyline
 90
        2
 70
     0
 43
0.0
 10
179.791842
 20
79.90350605072622
 10
88.383783
 20
79.90350605072622
  0
LINE
  5
846
330
18
100
AcDbEntity
  8
1
100
AcDbLine
 10
180.471408
 20
82.92923605072621
 30
0.0
 11
180.4981429999999
 21
82.92923605072621
 31
0.0
  0
ARC
  5
847
330
18
100
AcDbEntity
  8
1
100
AcDbCircle
 10
88.55310300000002
 20
83.8828300507262
 30
0.0
 40
0.9397639999999999
100
AcDbArc
 50
185.3995509999999
 51
268.58707
  0
ARC
  5
848
330
18
100
AcDbEntity
  8
1
100
AcDbCircle
 10
88.45458999999999
 20
80.73878005072621
 30
0.0
 40
0.8382699999999999
100
AcDbArc
 50
183.0512719999999
 51
275.156464
  0
LWPOLYLINE
  5
850
330
18
100
AcDbEntity
  8
2
  6
HIDDEN2
100
AcDbPolyline
 90
        2
 70
     0
 43
0.0
 10
99.813603
 20
97.38568265975047
 10
99.813603
 20
158.9947980507262
  0
LWPOLYLINE
  5
851
330
18
100
AcDbEntity
  8
1
100
AcDbPolyline
 90
        2
 70
     0
 43
0.0
 10
87.58770799999998
 20
80.63337005072622
 10
87.58770799999998
 20
174.1876290507262
  0
LINE
  5
852
330
18
100
AcDbEntity
  8
1
100
AcDbLine
 10
94.14836500000001
 20
155.6239990507262
 30
0.0
 11
98.42783700000001
 21
155.6239990507262
 31
0.0
  0
LINE
  5
853
330
18
100
AcDbEntity
  8
1
100
AcDbLine
 10
94.33443
 20
132.1950190507262
 30
0.0
 11
98.42783700000001
 21
132.1950190507262
 31
0.0
  0
DIMENSION
  5
85E
330
18
100
AcDbEntity
  8
4
100
AcDbDimension
  2
*D1
 10
169.6338142625158
 20
104.8612080507262
 30
0.0
 11
134.7237834095749
 21
107.3612080507262
 31
0.0
 70
    32
  1
280
 71
     5
 42
69.82006170588192
  3
STANDARD_WS
100
AcDbAlignedDimension
 13
99.81375255663397
 23
104.8612080507262
 33
0.0
 14
169.6338142625158
 24
104.8612080507262
 34
0.0
100
AcDbRotatedDimension
  0
DIMENSION
  5
869
330
18
100
AcDbEntity
  8
4
100
AcDbDimension
  2
*D2
 10
157.4101159999999
 20
93.32434757996225
 30
0.0
 11
154.9101159999999
 21
128.1993614252771
 31
0.0
 70
    32
  1
280
 71
     5
 42
69.75002769062962
  3
STANDARD_WS
100
AcDbAlignedDimension
 13
157.4101159999999
 23
163.0743752705918
 33
0.0
 14
157.4101159999999
 24
93.32434757996225
 34
0.0
 50
90.0
100
AcDbRotatedDimension
  0
LWPOLYLINE
  5
87D
330
18
100
AcDbEntity
  8
1
100
AcDbPolyline
 90
        4
 70
     0
 43
0.0
 10
97.45840499999999
 20
71.93780105072621
 10
97.45840499999999
 20
70.52269005072621
 10
89.19828100000001
 20
70.52269005072621
 10
89.19828100000001
 20
72.76328205072622
  0
LWPOLYLINE
  5
87E
330
18
100
AcDbEntity
  8
1
100
AcDbPolyline
 90
        4
 70
     1
 43
0.0
 10
89.19828100000001
 20
71.23024505072622
 10
97.45840499999999
 20
71.23024505072622
 10
97.45840499999999
 20
71.93780105072621
 10
89.19828100000001
 20
71.93780105072621
  0
LWPOLYLINE
  5
87F
330
18
100
AcDbEntity
  8
1
100
AcDbPolyline
 90
        4
 70
     1
 43
0.0
 10
170.7375059999999
 20
71.23024505072622
 10
178.99763
 20
71.23024505072622
 10
178.99763
 20
71.93780105072621
 10
170.7375059999999
 20
71.93780105072621
  0
LWPOLYLINE
  5
880
330
18
100
AcDbEntity
  8
1
100
AcDbPolyline
 90
        4
 70
     0
 43
0.0
 10
170.7375059999999
 20
78.89542705072621
 10
170.7375059999999
 20
79.83883405072622
 10
178.99763
 20
79.83883405072622
 10
178.99763
 20
78.89542705072621
  0
LWPOLYLINE
  5
881
330
18
100
AcDbEntity
  8
1
100
AcDbPolyline
 90
        4
 70
     1
 43
0.0
 10
89.19828100000001
 20
71.93780105072621
 10
99.700438
 20
71.93780105072621
 10
99.700438
 20
72.76328205072622
 10
89.19828100000001
 20
72.76328205072622
  0
LWPOLYLINE
  5
882
330
18
100
AcDbEntity
  8
1
100
AcDbPolyline
 90
        4
 70
     1
 43
0.0
 10
178.99763
 20
71.93780105072621
 10
168.6134739999999
 20
71.93780105072621
 10
168.6134739999999
 20
72.76328205072622
 10
178.99763
 20
72.76328205072622
  0
LINE
  5
886
330
18
100
AcDbEntity
  8
1
100
AcDbLine
 10
87.66425800000002
 20
78.89542705072621
 30
0.0
 11
180.413652
 21
78.89542705072621
 31
0.0
  0
LINE
  5
887
330
18
100
AcDbEntity
  8
1
100
AcDbLine
 10
87.66425800000002
 20
78.89542705072621
 30
0.0
 11
87.66425800000002
 21
74.76802205072622
 31
0.0
  0
LINE
  5
888
330
18
100
AcDbEntity
  8
1
100
AcDbLine
 10
180.413652
 20
78.89542705072621
 30
0.0
 11
180.413652
 21
74.76802205072622
 31
0.0
  0
LINE
  5
88A
330
18
100
AcDbEntity
  8
1
100
AcDbLine
 10
89.19828100000001
 20
72.76328205072622
 30
0.0
 11
178.99763
 21
72.76328205072622
 31
0.0
  0
ARC
  5
88B
330
18
100
AcDbEntity
  8
1
100
AcDbCircle
 10
89.30451900000003
 20
74.43386105072622
 30
0.0
 40
1.673954
100
AcDbArc
 50
168.485039
 51
266.3612679999999
  0
ARC
  5
88C
330
18
100
AcDbEntity
  8
1
100
AcDbCircle
 10
178.492482
 20
74.62255105072621
 30
0.0
 40
1.92667
100
AcDbArc
 50
285.199897
 51
4.33016
  0
LWPOLYLINE
  5
88D
330
18
100
AcDbEntity
  8
1
100
AcDbPolyline
 90
        4
 70
     0
 43
0.0
 10
89.19828100000001
 20
78.89542705072621
 10
89.19828100000001
 20
79.83883405072622
 10
97.45840499999999
 20
79.83883405072622
 10
97.45840499999999
 20
78.89542705072621
  0
LWPOLYLINE
  5
88E
330
18
100
AcDbEntity
  8
1
100
AcDbPolyline
 90
        4
 70
     0
 43
0.0
 10
178.99763
 20
72.76328205072622
 10
178.99763
 20
70.52269005072621
 10
170.7375059999999
 20
70.52269005072621
 10
170.7375059999999
 20
71.93780105072621
  0
LWPOLYLINE
  5
891
330
18
100
AcDbEntity
  8
1
100
AcDbPolyline
 90
        4
 70
     1
 43
0.0
 10
178.762248
 20
82.91439705072622
 10
177.423674
 20
82.91439705072622
 10
177.423674
 20
82.48287705072621
 10
178.762248
 20
82.48287705072621
  0
LWPOLYLINE
  5
893
330
18
100
AcDbEntity
  8
1
100
AcDbPolyline
 90
        4
 70
     0
 43
0.0
 10
180.4894389999999
 20
82.48287705072621
 10
180.4894389999999
 20
86.40971105072623
 10
181.137137
 20
86.40971105072623
 10
181.137137
 20
82.4828754271847
  0
LWPOLYLINE
  5
894
330
18
100
AcDbEntity
  8
1
100
AcDbPolyline
 90
        4
 70
     0
 43
0.0
 10
180.487523
 20
81.83443005072621
 10
175.913408
 20
81.83443005072621
 10
175.913408
 20
82.48212705072623
 10
180.487523
 20
82.48212705072623
  0
LWPOLYLINE
  5
895
330
18
100
AcDbEntity
  8
1
100
AcDbPolyline
 90
        2
 70
     0
 43
0.0
 10
180.471408
 20
81.83443005072621
 10
180.471408
 20
80.56772844400702
  0
ARC
  5
896
330
18
100
AcDbEntity
  8
1
100
AcDbCircle
 10
180.542046
 20
82.43065305072622
 30
0.0
 40
0.597378
100
AcDbArc
 50
264.947817
 51
5.015291999999999
  0
LWPOLYLINE
  5
89B
330
18
100
AcDbEntity
  8
1
100
AcDbPolyline
 90
        2
 70
     0
 43
0.0
 10
180.5946529999999
 20
81.83559605072622
 10
180.4894389999999
 20
81.83559605072622
  0
ARC
  5
89C
330
18
100
AcDbEntity
  8
1
100
AcDbCircle
 10
181.134132
 20
83.84455905072622
 30
0.0
 40
0.958901
100
AcDbArc
 50
132.246776
 51
133.719562
  0
ARC
  5
89D
330
18
100
AcDbEntity
  8
1
100
AcDbCircle
 10
181.134132
 20
83.84455905072622
 30
0.0
 40
0.958901
100
AcDbArc
 50
226.2804379999999
 51
227.753224
  0
ARC
  5
89E
330
18
100
AcDbEntity
  8
1
100
AcDbCircle
 10
181.134132
 20
83.84455905072622
 30
0.0
 40
0.958901
100
AcDbArc
 50
270.179506
 51
89.82049399999999
  0
LWPOLYLINE
  5
8AA
330
18
100
AcDbEntity
  8
1
100
AcDbPolyline
 90
        4
 70
     0
 43
0.0
 10
180.4635639999999
 20
175.5905100507262
 10
175.88945
 20
175.5934660507262
 10
175.889031
 20
174.9457690507262
 10
179.762697
 20
174.9432660507262
  0
LINE
  5
8AB
330
18
100
AcDbEntity
  8
1
100
AcDbLine
 10
180.4467409999999
 20
174.4957150507262
 30
0.0
 11
180.473476
 21
174.4956970507262
 31
0.0
  0
ARC
  5
8AC
330
18
100
AcDbEntity
  8
1
100
AcDbCircle
 10
180.517702
 20
174.9942520507262
 30
0.0
 40
0.597378
100
AcDbArc
 50
354.947676
 51
95.015151
  0
LWPOLYLINE
  5
8AD
330
18
100
AcDbEntity
  8
1
100
AcDbPolyline
 90
        4
 70
     0
 43
0.0
 10
180.46464
 20
174.2902120507262
 10
180.462523
 20
171.0152280507262
 10
181.11022
 20
171.0148100507262
 10
181.112861
 20
175.1010320507262
  0
LWPOLYLINE
  5
8AE
330
18
100
AcDbEntity
  8
1
100
AcDbPolyline
 90
        2
 70
     0
 43
0.0
 10
180.570693
 20
175.5892740507261
 10
180.465479
 20
175.5893420507262
  0
ARC
  5
8AF
330
18
100
AcDbEntity
  8
1
100
AcDbCircle
 10
181.1088739999999
 20
173.5799630507262
 30
0.0
 40
0.958901
100
AcDbArc
 50
226.2434059999999
 51
227.716193
  0
ARC
  5
8B0
330
18
100
AcDbEntity
  8
1
100
AcDbCircle
 10
181.1088739999999
 20
173.5799630507262
 30
0.0
 40
0.958901
100
AcDbArc
 50
132.209744
 51
133.68253
  0
ARC
  5
8B1
330
18
100
AcDbEntity
  8
1
100
AcDbCircle
 10
181.1088739999999
 20
173.5799630507262
 30
0.0
 40
0.958901
100
AcDbArc
 50
270.142474
 51
89.783462
  0
LWPOLYLINE
  5
8BD
330
18
100
AcDbEntity
  8
1
100
AcDbPolyline
 90
        4
 70
     1
 43
0.0
 10
177.4179
 20
174.9331480507262
 10
178.7538889999999
 20
174.9331480507262
 10
178.7538889999999
 20
173.4890270507262
 10
177.4179
 20
173.4890270507262
  0
LWPOLYLINE
  5
8C7
330
18
100
AcDbEntity
  8
1
100
AcDbPolyline
 90
        4
 70
     1
 43
0.0
 10
261.4869479999999
 20
173.1455580507262
 10
266.1203229999999
 20
173.1455580507262
 10
266.1203229999999
 20
82.75221205072623
 10
261.4869479999999
 20
82.75221205072623
  0
LINE
  5
8C8
330
18
100
AcDbEntity
  8
1
100
AcDbLine
 10
266.1203229999999
 20
172.5415940507262
 30
0.0
 11
267.0731839999999
 21
172.5415940507262
 31
0.0
  0
LINE
  5
8C9
330
18
100
AcDbEntity
  8
1
100
AcDbLine
 10
266.2296749999999
 20
83.55749805072623
 30
0.0
 11
267.182535
 21
83.55749805072623
 31
0.0
  0
LWPOLYLINE
  5
8CC
330
18
100
AcDbEntity
  8
1
100
AcDbPolyline
 90
        4
 70
     1
 43
0.0
 10
275.97863
 20
156.5566680507262
 10
279.3630069999999
 20
156.5566680507262
 10
279.3630069999999
 20
150.5170230507262
 10
275.97863
 20
150.5170230507262
  0
LWPOLYLINE
  5
8CD
330
18
100
AcDbEntity
  8
1
100
AcDbPolyline
 90
        4
 70
     1
 43
0.0
 10
276.462112
 20
156.0734960507262
 10
278.879525
 20
156.0734960507262
 10
278.879525
 20
151.0001950507262
 10
276.462112
 20
151.0001950507262
  0
LWPOLYLINE
  5
8D0
330
18
100
AcDbEntity
  8
1
100
AcDbPolyline
 90
        4
 70
     1
 43
0.0
 10
180.427499
 20
156.7189120507262
 10
181.3944629999999
 20
156.7189120507262
 10
181.3944629999999
 20
150.6792670507262
 10
180.427499
 20
150.6792670507262
  0
LINE
  5
8D7
330
18
100
AcDbEntity
  8
1
100
AcDbLine
 10
181.3944629999999
 20
155.8733610507262
 30
0.0
 11
182.7240399999999
 21
154.4238470507262
 31
0.0
  0
ARC
  5
8D8
330
18
100
AcDbEntity
  8
1
100
AcDbCircle
 10
185.281564
 20
151.4964880507262
 30
0.0
 40
3.887204
100
AcDbArc
 50
131.1424989999999
 51
179.582434
  0
LWPOLYLINE
  5
8DA
330
18
100
AcDbEntity
  8
1
100
AcDbPolyline
 90
        2
 70
     0
 43
0.0
 10
268.8549179999999
 20
169.3615710507262
 10
268.8549179999999
 20
87.72805905072621
  0
LINE
  5
8DE
330
18
100
AcDbEntity
  8
1
100
AcDbLine
 10
262.0429849999999
 20
175.3720710507262
 30
0.0
 11
262.0429849999999
 21
174.7163800507262
 31
0.0
  0
LINE
  5
8DF
330
18
100
AcDbEntity
  8
1
100
AcDbLine
 10
262.0429849999999
 20
174.7163800507262
 30
0.0
 11
267.0731839999999
 21
174.7163800507262
 31
0.0
  0
LINE
  5
8E0
330
18
100
AcDbEntity
  8
1
100
AcDbLine
 10
267.0731839999999
 20
174.7163800507262
 30
0.0
 11
267.0731839999999
 21
172.3121800507262
 31
0.0
  0
LINE
  5
8E1
330
18
100
AcDbEntity
  8
1
100
AcDbLine
 10
269.260227
 20
170.7822350507262
 30
0.0
 11
279.976737
 21
170.7822350507262
 31
0.0
  0
LINE
  5
8E2
330
18
100
AcDbEntity
  8
1
100
AcDbLine
 10
281.835724
 20
172.9692790507262
 30
0.0
 11
281.835724
 21
175.3720710507262
 31
0.0
  0
LINE
  5
8E3
330
18
100
AcDbEntity
  8
1
100
AcDbLine
 10
281.835724
 20
175.3720710507262
 30
0.0
 11
262.0429849999999
 21
175.3720710507262
 31
0.0
  0
LWPOLYLINE
  5
8E4
330
18
100
AcDbEntity
  8
1
100
AcDbPolyline
 90
        5
 70
     0
 43
0.0
 10
281.835724
 20
174.7561300507262
 10
340.254314
 20
174.7561300507262
 10
340.254314
 20
79.7323900507262
 10
270.350796
 20
79.7323900507262
 10
270.350796
 20
81.71755905072622
  0
ARC
  5
8E6
330
18
100
AcDbEntity
  8
1
100
AcDbCircle
 10
279.594708
 20
173.0232160507262
 30
0.0
 40
2.241665999999999
100
AcDbArc
 50
268.5843939999999
 51
1.378727
  0
LWPOLYLINE
  5
8E8
330
18
100
AcDbEntity
  8
1
100
AcDbPolyline
 90
        4
 70
     1
 43
0.0
 10
262.9178019999999
 20
174.7163800507262
 10
264.88614
 20
174.7163800507262
 10
264.88614
 20
173.0771530507262
 10
262.9178019999999
 20
173.0771530507262
  0
LWPOLYLINE
  5
8E9
330
18
100
AcDbEntity
  8
1
100
AcDbPolyline
 90
        4
 70
     1
 43
0.0
 10
266.635775
 20
172.3121800507262
 10
269.260227
 20
172.3121800507262
 10
269.260227
 20
169.3615710507262
 10
266.635775
 20
169.3615710507262
  0
CIRCLE
  5
8EA
330
18
100
AcDbEntity
  8
1
100
AcDbCircle
 10
272.212735
 20
173.0771530507262
 30
0.0
 40
1.098967999999999
  0
LINE
  5
8EB
330
18
100
AcDbEntity
  8
1
100
AcDbLine
 10
271.4472699999999
 20
173.0771530507262
 30
0.0
 11
272.9782
 21
173.0771530507262
 31
0.0
  0
LINE
  5
8EC
330
18
100
AcDbEntity
  8
1
100
AcDbLine
 10
272.212735
 20
173.7328440507262
 30
0.0
 11
272.212735
 21
172.3121800507262
 31
0.0
  0
LINE
  5
8ED
330
18
100
AcDbEntity
  8
1
100
AcDbLine
 10
279.2112719999999
 20
173.7328440507262
 30
0.0
 11
279.2112719999999
 21
172.3121800507262
 31
0.0
  0
CIRCLE
  5
8EE
330
18
100
AcDbEntity
  8
1
100
AcDbCircle
 10
279.2112719999999
 20
173.0771530507262
 30
0.0
 40
1.098967999999999
  0
LINE
  5
8EF
330
18
100
AcDbEntity
  8
1
100
AcDbLine
 10
278.4458069999999
 20
173.0771530507262
 30
0.0
 11
279.976737
 21
173.0771530507262
 31
0.0
  0
CIRCLE
  5
901
330
18
100
AcDbEntity
  8
1
100
AcDbCircle
 10
279.320623
 20
84.01247705072622
 30
0.0
 40
1.098967999999999
  0
LINE
  5
902
330
18
100
AcDbEntity
  8
1
100
AcDbLine
 10
278.5551579999999
 20
84.01247705072622
 30
0.0
 11
280.0860879999999
 21
84.01247705072622
 31
0.0
  0
LINE
  5
904
330
18
100
AcDbEntity
  8
1
100
AcDbLine
 10
269.369578
 20
86.30739505072622
 30
0.0
 11
280.0582269999999
 21
86.30739505072622
 31
0.0
  0
LINE
  5
906
330
18
100
AcDbEntity
  8
1
100
AcDbLine
 10
262.1523359999999
 20
82.37325005072623
 30
0.0
 11
267.182535
 21
82.37325005072623
 31
0.0
  0
LINE
  5
907
330
18
100
AcDbEntity
  8
1
100
AcDbLine
 10
262.1523359999999
 20
81.71755905072622
 30
0.0
 11
262.1523359999999
 21
82.37325005072623
 31
0.0
  0
LWPOLYLINE
  5
908
330
18
100
AcDbEntity
  8
1
100
AcDbPolyline
 90
        4
 70
     1
 43
0.0
 10
266.7451249999999
 20
84.77744905072622
 10
269.369578
 20
84.77744905072622
 10
269.369578
 20
87.72805905072621
 10
266.7451249999999
 20
87.72805905072621
  0
LINE
  5
909
330
18
100
AcDbEntity
  8
1
100
AcDbLine
 10
271.5566209999999
 20
84.01247705072622
 30
0.0
 11
273.0875509999999
 21
84.01247705072622
 31
0.0
  0
CIRCLE
  5
90A
330
18
100
AcDbEntity
  8
1
100
AcDbCircle
 10
272.322086
 20
84.01247705072622
 30
0.0
 40
1.098967999999999
  0
LINE
  5
90B
330
18
100
AcDbEntity
  8
1
100
AcDbLine
 10
267.182535
 20
82.37325005072623
 30
0.0
 11
267.182535
 21
84.77744905072622
 31
0.0
  0
LINE
  5
90C
330
18
100
AcDbEntity
  8
1
100
AcDbLine
 10
272.322086
 20
83.35678605072622
 30
0.0
 11
272.322086
 21
84.77744905072622
 31
0.0
  0
LINE
  5
90D
330
18
100
AcDbEntity
  8
1
100
AcDbLine
 10
279.320623
 20
83.35678605072622
 30
0.0
 11
279.320623
 21
84.77744905072622
 31
0.0
  0
LWPOLYLINE
  5
916
330
18
100
AcDbEntity
  8
1
100
AcDbPolyline
 90
        2
 70
     0
 43
0.0
 10
267.796672
 20
87.72805905072621
 10
267.796672
 20
169.3615710507262
  0
LWPOLYLINE
  5
918
330
18
100
AcDbEntity
  8
1
100
AcDbPolyline
 90
        4
 70
     0
 43
0.0
 10
263.0271529999999
 20
82.75221205072623
 10
263.0271529999999
 20
82.37325005072623
 10
264.995491
 20
82.37325005072623
 10
264.995491
 20
82.75221205072623
  0
LWPOLYLINE
  5
919
330
18
100
AcDbEntity
  8
1
100
AcDbPolyline
 90
        2
 70
     0
 43
0.0
 10
270.350796
 20
86.30739505072622
 10
270.350796
 20
170.7822350507262
  0
LINE
  5
91C
330
18
100
AcDbEntity
  8
1
100
AcDbLine
 10
280.0582269999999
 20
81.71755905072622
 30
0.0
 11
262.1523359999999
 21
81.71755905072622
 31
0.0
  0
ARC
  5
91D
330
18
100
AcDbEntity
  8
1
100
AcDbCircle
 10
280.0582269999999
 20
84.01247705072622
 30
0.0
 40
2.294918
100
AcDbArc
 50
270.0
 51
90.0
  0
LINE
  5
91E
330
18
100
AcDbEntity
  8
2
  6
HIDDEN2
100
AcDbLine
 10
269.561191
 20
168.2652490507262
 30
0.0
 11
269.561191
 21
89.24395305072621
 31
0.0
  0
ARC
  5
921
330
18
100
AcDbEntity
  8
2
  6
HIDDEN2
100
AcDbCircle
 10
270.3833419999999
 20
168.3914190507262
 30
0.0
 40
0.830234
100
AcDbArc
 50
92.07713899999999
 51
191.306746
  0
ARC
  5
922
330
18
100
AcDbEntity
  8
2
  6
HIDDEN2
100
AcDbCircle
 10
270.478987
 20
89.16208405072621
 30
0.0
 40
0.9139370000000001
100
AcDbArc
 50
174.523795
 51
262.09232
  0
LINE
  5
925
330
18
100
AcDbEntity
  8
2
  6
HIDDEN2
100
AcDbLine
 10
270.5014199999999
 20
162.8412680507262
 30
0.0
 11
327.1107339999999
 21
162.8412680507262
 31
0.0
  0
LINE
  5
926
330
18
100
AcDbEntity
  8
2
  6
HIDDEN2
100
AcDbLine
 10
327.1107339999999
 20
162.8412680507262
 30
0.0
 11
327.1107339999999
 21
93.20035905072622
 31
0.0
  0
LINE
  5
927
330
18
100
AcDbEntity
  8
2
  6
HIDDEN2
100
AcDbLine
 10
327.1107339999999
 20
93.20035905072622
 30
0.0
 11
270.5014199999999
 21
93.20035905072622
 31
0.0
  0
DIMENSION
  5
932
330
18
100
AcDbEntity
  8
4
100
AcDbDimension
  2
*D3
 10
327.1107339999999
 20
104.7796070507262
 30
0.0
 11
298.7233149999999
 21
107.2796070507262
 31
0.0
 70
    32
  1
230
 71
     5
 42
56.77483799999999
  3
STANDARD_WS
100
AcDbAlignedDimension
 13
270.335896
 23
104.7796070507262
 33
0.0
 14
327.1107339999999
 24
104.7796070507262
 34
0.0
100
AcDbRotatedDimension
  0
LWPOLYLINE
  5
942
330
18
100
AcDbEntity
  8
1
100
AcDbPolyline
 90
        4
 70
     0
 43
0.0
 10
340.254314
 20
80.33635505072622
 10
340.254314
 20
174.3534870507262
 10
340.657216
 20
174.3534870507262
 10
340.6513878007693
 20
80.33635505072618
  0
LWPOLYLINE
  5
944
330
18
100
AcDbEntity
  8
1
100
AcDbPolyline
 90
        5
 70
     0
 43
0.0
 10
271.4643099999999
 20
72.70049905072622
 10
271.4643099999999
 20
79.77325105072622
 10
279.73547
 20
79.77325105072622
 10
279.73547
 20
70.50563605072622
 10
271.4643099999999
 20
70.50563605072622
  0
LINE
  5
94B
330
18
100
AcDbEntity
  8
1
100
AcDbLine
 10
261.5414399999999
 20
78.82014605072622
 30
0.0
 11
271.4643099999999
 21
78.82014605072622
 31
0.0
  0
LINE
  5
94D
330
18
100
AcDbEntity
  8
1
100
AcDbLine
 10
263.248123
 20
72.71258605072623
 30
0.0
 11
271.4643099999999
 21
72.71258605072623
 31
0.0
  0
LINE
  5
94F
330
18
100
AcDbEntity
  8
1
100
AcDbLine
 10
261.626775
 20
78.82014605072622
 30
0.0
 11
261.626775
 21
74.41702205072622
 31
0.0
  0
LINE
  5
950
330
18
100
AcDbEntity
  8
1
100
AcDbLine
 10
286.5159049999999
 20
78.82014605072622
 30
0.0
 11
286.5159049999999
 21
74.41702205072622
 31
0.0
  0
ARC
  5
951
330
18
100
AcDbEntity
  8
1
100
AcDbCircle
 10
263.314294
 20
74.41223205072621
 30
0.0
 40
1.683297999999999
100
AcDbArc
 50
178.749075
 51
265.601262
  0
ARC
  5
952
330
18
100
AcDbEntity
  8
1
100
AcDbCircle
 10
284.948768
 20
74.28332605072622
 30
0.0
 40
1.552178
100
AcDbArc
 50
266.5924659999999
 51
6.126487
  0
LINE
  5
954
330
18
100
AcDbEntity
  8
1
100
AcDbLine
 10
279.73547
 20
72.71258605072623
 30
0.0
 11
284.86611
 21
72.71258605072623
 31
0.0
  0
LINE
  5
955
330
18
100
AcDbEntity
  8
1
100
AcDbLine
 10
279.73547
 20
78.82014605072622
 30
0.0
 11
286.5727929999999
 21
78.82014605072622
 31
0.0
  0
LINE
  5
956
330
18
100
AcDbEntity
  8
1
100
AcDbLine
 10
266.047439
 20
72.73389205072621
 30
0.0
 11
266.047439
 21
71.83551205072622
 31
0.0
  0
LINE
  5
957
330
18
100
AcDbEntity
  8
1
100
AcDbLine
 10
266.047439
 20
71.83551205072622
 30
0.0
 11
261.6313959999999
 21
71.34548805072623
 31
0.0
  0
LINE
  5
958
330
18
100
AcDbEntity
  8
1
100
AcDbLine
 10
261.6313959999999
 20
71.34548805072623
 30
0.0
 11
261.6313959999999
 21
70.52877905072621
 31
0.0
  0
LINE
  5
959
330
18
100
AcDbEntity
  8
1
100
AcDbLine
 10
261.6313959999999
 20
70.52877905072621
 30
0.0
 11
271.4448249999999
 21
70.52877905072621
 31
0.0
  0
LINE
  5
95C
330
18
100
AcDbEntity
  8
1
100
AcDbLine
 10
338.485667
 20
79.72491705072622
 30
0.0
 11
336.8296509999999
 21
70.57369705072622
 31
0.0
  0
LINE
  5
95D
330
18
100
AcDbEntity
  8
1
100
AcDbLine
 10
336.8296509999999
 20
70.57369705072622
 30
0.0
 11
331.861603
 21
70.57369705072622
 31
0.0
  0
LINE
  5
95E
330
18
100
AcDbEntity
  8
1
100
AcDbLine
 10
331.861603
 20
70.57369705072622
 30
0.0
 11
330.3159889999999
 21
79.72491705072622
 31
0.0
  0
ARC
  5
95F
330
18
100
AcDbEntity
  8
1
100
AcDbCircle
 10
340.1295919999999
 20
172.5122200507261
 30
0.0
 40
1.239198
100
AcDbArc
 50
292.5501509999999
 51
67.449849
  0
ARC
  5
960
330
18
100
AcDbEntity
  8
1
100
AcDbCircle
 10
340.053195
 20
129.1683150507262
 30
0.0
 40
1.239198
100
AcDbArc
 50
292.5501509999999
 51
67.449849
  0
ARC
  5
961
330
18
100
AcDbEntity
  8
1
100
AcDbCircle
 10
340.053195
 20
90.87452005072622
 30
0.0
 40
1.239198
100
AcDbArc
 50
292.5501509999999
 51
67.449849
  0
CIRCLE
  5
962
330
18
100
AcDbEntity
  8
2
  6
HIDDEN2
100
AcDbCircle
 10
303.8426129999999
 20
163.6179930507262
 30
0.0
 40
0.459346
  0
CIRCLE
  5
963
330
18
100
AcDbEntity
  8
2
  6
HIDDEN2
100
AcDbCircle
 10
277.670823
 20
163.6179930507262
 30
0.0
 40
0.459346
  0
CIRCLE
  5
964
330
18
100
AcDbEntity
  8
2
  6
HIDDEN2
100
AcDbCircle
 10
284.021021
 20
163.6179930507262
 30
0.0
 40
0.459346
  0
CIRCLE
  5
965
330
18
100
AcDbEntity
  8
2
  6
HIDDEN2
100
AcDbCircle
 10
290.9159369999999
 20
163.6179930507262
 30
0.0
 40
0.459346
  0
CIRCLE
  5
966
330
18
100
AcDbEntity
  8
2
  6
HIDDEN2
100
AcDbCircle
 10
297.7512919999999
 20
163.6179930507262
 30
0.0
 40
0.459346
  0
CIRCLE
  5
967
330
18
100
AcDbEntity
  8
2
  6
HIDDEN2
100
AcDbCircle
 10
310.1315979999999
 20
163.6179930507262
 30
0.0
 40
0.459346
  0
CIRCLE
  5
968
330
18
100
AcDbEntity
  8
2
  6
HIDDEN2
100
AcDbCircle
 10
315.6814569999999
 20
163.6179930507262
 30
0.0
 40
0.459346
  0
CIRCLE
  5
969
330
18
100
AcDbEntity
  8
2
  6
HIDDEN2
100
AcDbCircle
 10
321.601016
 20
163.6179930507262
 30
0.0
 40
0.459346
  0
DIMENSION
  5
976
330
18
100
AcDbEntity
  8
4
100
AcDbDimension
  2
*D4
 10
195.3189422672414
 20
79.90390234462598
 30
0.0
 11
192.8189422672414
 21
127.4235841976761
 31
0.0
 70
    32
  1
370
 71
     5
 42
95.03936370610025
  3
STANDARD_WS
100
AcDbAlignedDimension
 13
179.762697
 23
174.9432660507262
 33
0.0
 14
179.741695191813
 24
79.90390234462598
 34
0.0
 50
90.0
100
AcDbRotatedDimension
  0
DIMENSION
  5
985
330
18
100
AcDbEntity
  8
4
 62
     2
100
AcDbDimension
  2
*D5
 10
195.3189422672414
 20
70.52269005072621
 30
0.0
 11
192.8189422672414
 21
75.21329619767612
 31
0.0
 70
    32
  1
30
 71
     5
 42
9.381212293899764
  3
STANDARD_WS
100
AcDbAlignedDimension
 13
179.741695191813
 23
79.90390234462598
 33
0.0
 14
178.99763
 24
70.52269005072621
 34
0.0
 50
90.0
100
AcDbRotatedDimension
  0
DIMENSION
  5
992
330
18
100
AcDbEntity
  8
4
100
AcDbDimension
  2
*D6
 10
205.0888972672415
 20
70.52269005072621
 30
0.0
 11
205.0888972672414
 21
127.5669667004541
 31
0.0
 70
   160
  1
403
 71
     5
 42
105.0678199999999
  3
STANDARD_WS
100
AcDbAlignedDimension
 13
180.4635639999999
 23
175.5905100507262
 33
0.0
 14
178.99763
 24
70.52269005072621
 34
0.0
 50
90.0
100
AcDbRotatedDimension
  0
DIMENSION
  5
9A2
330
18
100
AcDbEntity
  8
4
100
AcDbDimension
  2
*D7
 10
195.3189422672414
 20
175.5892740507261
 30
0.0
 11
197.3189422672414
 21
184.0892740507262
 31
0.0
 70
    32
  1
3
 71
     5
 42
0.6460079999999664
  3
STANDARD_WS
100
AcDbAlignedDimension
 13
179.762697
 23
174.9432660507262
 33
0.0
 14
180.570693
 24
175.5892740507261
 34
0.0
 50
90.0
100
AcDbRotatedDimension
  0
DIMENSION
  5
9B1
330
18
100
AcDbEntity
  8
4
100
AcDbDimension
  2
*D8
 10
182.7240402509723
 20
184.6919780507262
 30
0.0
 11
190.7240402509723
 21
187.1919780507262
 31
0.0
 70
    32
  1
8
 71
     5
 42
2.259400250972362
  3
STANDARD_WS
100
AcDbAlignedDimension
 13
180.46464
 23
174.2902120507262
 33
0.0
 14
182.7240402509723
 24
154.4238464522164
 34
0.0
100
AcDbRotatedDimension
  0
DIMENSION
  5
A1A
330
18
100
AcDbEntity
  8
4
100
AcDbDimension
  2
*D9
 10
180.4301189999999
 20
54.95363905072622
 30
0.0
 11
134.046487
 21
57.45363905072622
 31
0.0
 70
    32
  1
380
 71
     5
 42
92.76726399999999
  3
STANDARD_WS
100
AcDbAlignedDimension
 13
87.662855
 23
64.91003205072622
 33
0.0
 14
180.4301189999999
 24
64.91003205072622
 34
0.0
100
AcDbRotatedDimension
  0
DIMENSION
  5
A29
330
18
100
AcDbEntity
  8
4
100
AcDbDimension
  2
*D10
 10
182.11987
 20
54.95363905072622
 30
0.0
 11
190.1198699999999
 21
57.45363905072622
 31
0.0
 70
    32
  1
7
 71
     5
 42
1.689751000000001
  3
STANDARD_WS
100
AcDbAlignedDimension
 13
180.4301189999999
 23
72.84139605072621
 33
0.0
 14
182.11987
 24
83.81030405072621
 34
0.0
100
AcDbRotatedDimension
  0
DIMENSION
  5
A5D
330
18
100
AcDbEntity
  8
4
100
AcDbDimension
  2
*D11
 10
93.83770799999998
 20
64.91003205072622
 30
0.0
 11
103.3377079999999
 21
67.41003205072622
 31
0.0
 70
    32
  1
25
 71
     5
 42
6.174852999999984
  3
STANDARD_WS
100
AcDbAlignedDimension
 13
87.662855
 23
72.84139605072621
 33
0.0
 14
93.83770799999998
 24
70.52269005072621
 34
0.0
100
AcDbRotatedDimension
  0
DIMENSION
  5
A6C
330
18
100
AcDbEntity
  8
4
100
AcDbDimension
  2
*D12
 10
174.221408
 20
64.91003205072622
 30
0.0
 11
164.7214079999999
 21
67.41003205072622
 31
0.0
 70
    32
  1
25
 71
     5
 42
6.208710999999993
  3
STANDARD_WS
100
AcDbAlignedDimension
 13
180.4301189999999
 23
72.84139605072621
 33
0.0
 14
174.221408
 24
70.52269005072621
 34
0.0
100
AcDbRotatedDimension
  0
DIMENSION
  5
A93
330
18
100
AcDbEntity
  8
4
100
AcDbDimension
  2
*D13
 10
253.686514
 20
44.99346005072622
 30
0.0
 11
257.688585
 21
47.49346005072622
 31
0.0
 70
    32
  1
27
 71
     5
 42
8.004141999999973
  3
STANDARD_WS
100
AcDbAlignedDimension
 13
261.6906559999999
 23
72.82303005072622
 33
0.0
 14
253.686514
 24
136.9437528671915
 34
0.0
100
AcDbRotatedDimension
  0
DIMENSION
  5
AA0
330
18
100
AcDbEntity
  8
4
100
AcDbDimension
  2
*D14
 10
270.287697
 20
54.76341505072621
 30
0.0
 11
265.9891764999999
 21
57.26341505072621
 31
0.0
 70
    32
  1
35
 71
     5
 42
8.597041000000047
  3
STANDARD_WS
100
AcDbAlignedDimension
 13
261.6906559999999
 23
70.45455505072621
 33
0.0
 14
270.287697
 24
79.92845205072622
 34
0.0
100
AcDbRotatedDimension
  0
DIMENSION
  5
AAF
330
18
100
AcDbEntity
  8
4
100
AcDbDimension
  2
*D15
 10
275.327343
 20
64.82943005072622
 30
0.0
 11
284.577343
 21
67.32943005072622
 31
0.0
 70
    32
  1
20
 71
     5
 42
5.039646000000004
  3
STANDARD_WS
100
AcDbAlignedDimension
 13
270.287697
 23
79.63239205072621
 33
0.0
 14
275.327343
 24
70.45455505072621
 34
0.0
100
AcDbRotatedDimension
  0
DIMENSION
  5
ADA
330
18
100
AcDbEntity
  8
4
100
AcDbDimension
  2
*D16
 10
340.249829
 20
44.99346005072622
 30
0.0
 11
300.9702424999999
 21
47.49346005072622
 31
0.0
 70
    32
  1
315
 71
     5
 42
78.55917299999998
  3
STANDARD_WS
100
AcDbAlignedDimension
 13
261.6906559999999
 23
54.76341505072621
 33
0.0
 14
340.249829
 24
54.76341505072621
 34
0.0
100
AcDbRotatedDimension
  0
DIMENSION
  5
AE7
330
18
100
AcDbEntity
  8
4
100
AcDbDimension
  2
*D17
 10
340.249829
 20
54.76341505072621
 30
0.0
 11
300.9804653190585
 21
54.76341505072621
 31
0.0
 70
   160
  1
280
 71
     5
 42
69.96213199999994
  3
STANDARD_WS
100
AcDbAlignedDimension
 13
270.287697
 23
64.82943005072622
 33
0.0
 14
340.249829
 24
64.82943005072622
 34
0.0
100
AcDbRotatedDimension
  0
DIMENSION
  5
B49
330
18
100
AcDbEntity
  8
4
100
AcDbDimension
  2
*D18
 10
334.0243839999999
 20
64.82943005072622
 30
0.0
 11
324.774384
 21
67.32943005072622
 31
0.0
 70
    32
  1
20
 71
     5
 42
6.225444999999979
  3
STANDARD_WS
100
AcDbAlignedDimension
 13
340.249829
 23
79.63239205072621
 33
0.0
 14
334.0243839999999
 24
70.75061505072621
 34
0.0
100
AcDbRotatedDimension
  0
DIMENSION
  5
B65
330
18
100
AcDbEntity
  8
4
100
AcDbDimension
  2
*D19
 10
341.3687899999999
 20
184.6919780507262
 30
0.0
 11
351.3687899999999
 21
187.1919780507262
 31
0.0
 70
    32
  1
3.5
 71
     5
 42
1.17247199999997
  3
STANDARD_WS
100
AcDbAlignedDimension
 13
340.196318
 23
174.7133010507262
 33
0.0
 14
341.3687899999999
 24
172.5122200507261
 34
0.0
100
AcDbRotatedDimension
  0
MTEXT
  5
B73
330
18
100
AcDbEntity
  8
4
100
AcDbMText
 10
273.3664352347215
 20
246.8556751108627
 30
0.0
 40
4.0
 41
24.0
 71
     1
 72
     5
  1
18L
 73
     1
 44
1.0
  0
MTEXT
  5
B74
330
18
100
AcDbEntity
  8
4
100
AcDbMText
 10
273.3664352347215
 20
236.6916041108627
 30
0.0
 40
4.0
 41
50.0
 71
     1
 72
     5
  1
280Wx230Dx280H
 73
     1
 44
1.0
  0
LEADER
  5
B75
330
18
100
AcDbEntity
  8
4
100
AcDbLeader
  3
STANDARD_WS
 73
     0
 75
     1
 40
3.0
 41
9.800000000000004
 76
     3
 10
88.89884399999999
 20
77.00155805072622
 30
0.0
 10
72.77072199999999
 20
63.74591005072622
 30
0.0
 10
69.77072199999999
 20
63.74591005072622
 30
0.0
340
B76
  0
MTEXT
  5
B76
102
{ACAD_REACTORS
330
B75
102
}
330
18
100
AcDbEntity
  8
4
100
AcDbMText
 10
68.77072199999999
 20
66.24591005072622
 30
0.0
 40
3.0
 41
0.0
 71
     6
 72
     1
  1
\A1;水受皿
 73
     1
 44
1.0
  0
LEADER
  5
B77
330
18
100
AcDbEntity
  8
4
100
AcDbLeader
  3
STANDARD_WS
 73
     0
 75
     1
 40
3.0
 41
7.0
 76
     3
 10
99.813603
 20
98.97376275632767
 30
0.0
 10
73.13857
 20
83.58356705072621
 30
0.0
 10
70.13857
 20
83.58356705072621
 30
0.0
340
B78
  0
MTEXT
  5
B78
102
{ACAD_REACTORS
330
B77
102
}
330
18
100
AcDbEntity
  8
4
100
AcDbMText
 10
69.13857
 20
86.08356705072621
 30
0.0
 40
3.0
 41
0.0
 71
     6
 72
     1
  1
\A1;中箱
 73
     1
 44
1.0
  0
MTEXT
  5
B7E
330
18
100
AcDbEntity
  8
4
100
AcDbMText
 10
69.13857
 20
120.579655
 30
0.0
 40
3.0
 41
0.0
 71
     6
 72
     1
  1
\A1;
 73
     1
 44
1.0
  0
LEADER
  5
B7F
330
18
100
AcDbEntity
  8
4
100
AcDbLeader
  3
STANDARD_WS
 73
     0
 74
     0
 75
     1
 40
3.0
 41
20.59999999999999
 76
     3
 10
139.4419272034906
 20
147.2208986853506
 30
0.0
 10
150.3445652105174
 20
183.1392130507262
 30
0.0
 10
153.3445652105174
 20
183.1392130507262
 30
0.0
340
B80
213
2.647173210517451
223
0.0
233
0.0
  0
MTEXT
  5
B80
102
{ACAD_REACTORS
330
B7F
102
}
330
18
100
AcDbEntity
  8
4
100
AcDbMText
 10
151.6973919999999
 20
185.6392130507262
 30
0.0
 40
3.0
 41
0.0
 71
     4
 72
     1
  1
温度ヒューズ
 73
     1
 44
1.0
  0
LEADER
  5
B81
330
18
100
AcDbEntity
  8
4
100
AcDbLeader
  3
STANDARD_WS
 73
     0
 75
     1
 40
3.0
 41
31.2
 76
     3
 10
131.1940599269856
 20
152.2145721801356
 30
0.0
 10
126.3041826401012
 20
183.1392130507262
 30
0.0
 10
123.3041826401012
 20
183.1392130507262
 30
0.0
340
B82
213
-1.275966359898802
223
0.0
233
0.0
  0
MTEXT
  5
B82
102
{ACAD_REACTORS
330
B81
102
}
330
18
100
AcDbEntity
  8
4
100
AcDbMText
 10
123.580149
 20
185.6392130507262
 30
0.0
 40
3.0
 41
0.0
 71
     6
 72
     1
  1
固定サーモスタット
 73
     1
 44
1.0
  0
LEADER
  5
B83
330
18
100
AcDbEntity
  8
4
100
AcDbLeader
  3
STANDARD_WS
 73
     0
 75
     1
 40
3.0
 41
7.199999999999998
 76
     3
 10
95.65931964037464
 20
141.9720150889274
 30
0.0
 10
73.13857
 20
123.2588790507262
 30
0.0
 10
70.13857
 20
123.2588790507262
 30
0.0
340
B84
  0
MTEXT
  5
B84
102
{ACAD_REACTORS
330
B83
102
}
330
18
100
AcDbEntity
  8
4
100
AcDbMText
 10
69.13857
 20
125.7588790507262
 30
0.0
 40
3.0
 41
0.0
 71
     6
 72
     1
  1
\A1;取手
 73
     1
 44
1.0
  0
LEADER
  5
B85
330
18
100
AcDbEntity
  8
4
100
AcDbLeader
  3
STANDARD_WS
 73
     0
 74
     0
 75
     1
 40
3.0
 41
9.399999999999998
 76
     3
 10
336.038402
 20
73.87858505072621
 30
0.0
 10
357.7997413222743
 20
57.91104105072621
 30
0.0
 10
360.7997413222743
 20
57.91104105072621
 30
0.0
340
B86
213
1.980571843336008
223
0.0
233
0.0
  0
MTEXT
  5
B86
102
{ACAD_REACTORS
330
B85
102
}
330
18
100
AcDbEntity
  8
4
100
AcDbMText
 10
369.2191694789383
 20
60.41104105072621
 30
0.0
 40
3.0
 41
0.0
 71
     6
 72
     1
  1
ゴム脚
 73
     1
 44
1.0
  0
LEADER
  5
B87
330
18
100
AcDbEntity
  8
4
100
AcDbLeader
  3
STANDARD_WS
 73
     0
 74
     0
 40
3.0
 41
16.99999999999999
 76
     2
 10
282.460727
 20
83.61411005072623
 30
0.0
 10
292.024788
 20
82.11411005072623
 30
0.0
340
B88
  0
MTEXT
  5
B88
102
{ACAD_REACTORS
330
B87
102
}
330
18
100
AcDbEntity
  8
4
100
AcDbMText
 10
293.0247879999999
 20
84.61411005072623
 30
0.0
 40
3.0
 41
0.0
 71
     4
 72
     1
  1
下部ヒンジ
 73
     1
 44
1.0
  0
LEADER
  5
B89
330
18
100
AcDbEntity
  8
4
100
AcDbLeader
  3
STANDARD_WS
 73
     0
 74
     0
 75
     1
 40
3.0
 41
14.4
 76
     3
 10
310.814235
 20
79.30821705072621
 30
0.0
 10
317.369754
 20
86.08711905072622
 30
0.0
 10
320.369754
 20
86.08711905072622
 30
0.0
340
B8A
  0
MTEXT
  5
B8A
102
{ACAD_REACTORS
330
B89
102
}
330
18
100
AcDbEntity
  8
4
100
AcDbMText
 10
321.369754
 20
88.58711905072622
 30
0.0
 40
3.0
 41
0.0
 71
     4
 72
     1
  1
アース線
 73
     1
 44
1.0
  0
LEADER
  5
B8B
330
18
100
AcDbEntity
  8
4
100
AcDbLeader
  3
STANDARD_WS
 73
     0
 75
     1
 40
3.0
 41
17.0
 76
     3
 10
324.287108
 20
75.06643305072621
 30
0.0
 10
317.0972879001336
 20
63.76473205072622
 30
0.0
 10
314.0972879001336
 20
63.76473205072622
 30
0.0
340
B8C
213
-1.025350093868382
223
0.0
233
0.0
  0
MTEXT
  5
B8C
102
{ACAD_REACTORS
330
B8B
102
}
330
18
100
AcDbEntity
  8
4
100
AcDbMText
 10
297.122637994002
 20
66.26473205072622
 30
0.0
 40
3.0
 41
0.0
 71
     4
 72
     1
  1
電源コード
 73
     1
 44
1.0
  0
LEADER
  5
B8D
330
18
100
AcDbEntity
  8
4
100
AcDbLeader
  3
STANDARD_WS
 73
     0
 74
     0
 40
3.0
 41
10.2
 76
     2
 10
322.0527506855551
 20
163.7012668256043
 30
0.0
 10
349.7770029999999
 20
168.8120170507262
 30
0.0
340
B8E
  0
MTEXT
  5
B8E
102
{ACAD_REACTORS
330
B8D
102
}
330
18
100
AcDbEntity
  8
4
100
AcDbMText
 10
350.7770029999999
 20
171.3120170507262
 30
0.0
 40
3.0
 41
0.0
 71
     4
 72
     1
  1
\A1;発熱体
 73
     1
 44
1.0
  0
LEADER
  5
B91
330
18
100
AcDbEntity
  8
4
100
AcDbLeader
  3
STANDARD_WS
 73
     0
 74
     0
 75
     1
 40
3.0
 41
7.200000000000001
 76
     3
 10
334.695214
 20
133.1294201860359
 30
0.0
 10
346.777003
 20
142.920667391605
 30
0.0
 10
349.7770029999999
 20
142.920667391605
 30
0.0
340
B92
  0
MTEXT
  5
B92
102
{ACAD_REACTORS
330
B91
102
}
330
18
100
AcDbEntity
  8
4
100
AcDbMText
 10
350.7770029999999
 20
145.420667391605
 30
0.0
 40
3.0
 41
0.0
 71
     4
 72
     1
  1
\A1;外箱
 73
     1
 44
1.0
  0
LEADER
  5
B93
330
18
100
AcDbEntity
  8
4
100
AcDbLeader
  3
STANDARD_WS
 73
     0
 74
     0
 75
     1
 40
3.0
 41
13.6
 76
     3
 10
340.5807899999999
 20
114.8400510507262
 30
0.0
 10
347.1448509999999
 20
119.9526030507262
 30
0.0
 10
350.1448509999999
 20
119.9526030507262
 30
0.0
340
B94
  0
MTEXT
  5
B94
102
{ACAD_REACTORS
330
B93
102
}
330
18
100
AcDbEntity
  8
4
100
AcDbMText
 10
351.1448509999999
 20
122.4526030507262
 30
0.0
 40
3.0
 41
0.0
 71
     4
 72
     1
  1
\A1;外箱裏板
 73
     1
 44
1.0
  0
LEADER
  5
B95
330
18
100
AcDbEntity
  8
4
100
AcDbLeader
  3
STANDARD_WS
 73
     0
 74
     0
 75
     1
 40
3.0
 41
20.6
 76
     3
 10
277.66804475568
 20
150.9575661915207
 30
0.0
 10
281.820474
 20
143.3885900507262
 30
0.0
 10
284.820474
 20
143.3885900507262
 30
0.0
340
B96
  0
MTEXT
  5
B96
102
{ACAD_REACTORS
330
B95
102
}
330
18
100
AcDbEntity
  8
4
100
AcDbMText
 10
285.820474
 20
145.8885900507262
 30
0.0
 40
3.0
 41
0.0
 71
     4
 72
     1
  1
電源スイッチ
 73
     1
 44
1.0
  0
LEADER
  5
B97
330
18
100
AcDbEntity
  8
4
100
AcDbLeader
  3
STANDARD_WS
 73
     0
 75
     1
 40
3.0
 41
3.599999999999999
 76
     3
 10
263.8277763561786
 20
162.4241203229435
 30
0.0
 10
251.204976
 20
168.9646174952234
 30
0.0
 10
248.2049759999999
 20
168.9646174952234
 30
0.0
340
B98
213
-1.599999999999994
223
0.0
233
0.0
  0
MTEXT
  5
B98
102
{ACAD_REACTORS
330
B97
102
}
330
18
100
AcDbEntity
  8
4
100
AcDbMText
 10
248.8049759999999
 20
171.4646174952234
 30
0.0
 40
3.0
 41
0.0
 71
     6
 72
     1
  1
\A1;扉
 73
     1
 44
1.0
  0
LEADER
  5
B99
330
18
100
AcDbEntity
  8
4
100
AcDbLeader
  3
STANDARD_WS
 73
     0
 75
     1
 40
3.0
 41
32.20000000000001
 76
     3
 10
267.4389724333861
 20
165.7192177205761
 30
0.0
 10
252.595302
 20
176.5682433626837
 30
0.0
 10
249.5953019999999
 20
176.5682433626837
 30
0.0
340
B9A
  0
MTEXT
  5
B9A
102
{ACAD_REACTORS
330
B99
102
}
330
18
100
AcDbEntity
  8
4
100
AcDbMText
 10
248.595302
 20
179.0682433626837
 30
0.0
 40
3.0
 41
0.0
 71
     6
 72
     1
  1
マグネットパッキン
 73
     1
 44
1.0
  0
LEADER
  5
B9B
330
18
100
AcDbEntity
  8
4
100
AcDbLeader
  3
STANDARD_WS
 73
     0
 74
     0
 40
3.0
 41
32.2
 76
     2
 10
269.9189170569252
 20
165.2463350894092
 30
0.0
 10
285.8688419999999
 20
168.3068910507262
 30
0.0
340
B9C
  0
MTEXT
  5
B9C
102
{ACAD_REACTORS
330
B9B
102
}
330
18
100
AcDbEntity
  8
4
100
AcDbMText
 10
286.8688419999999
 20
170.8068910507262
 30
0.0
 40
3.0
 41
0.0
 71
     4
 72
     1
  1
エアタイトパッキン
 73
     1
 44
1.0
  0
LEADER
  5
B9F
330
18
100
AcDbEntity
  8
4
100
AcDbLeader
  3
STANDARD_WS
 73
     0
 74
     0
 75
     1
 40
3.0
 41
16.99999999999999
 76
     3
 10
277.062549
 20
175.2512260507262
 30
0.0
 10
280.9874803418395
 20
183.3835110507262
 30
0.0
 10
283.9874803418394
 20
183.3835110507262
 30
0.0
340
BA0
213
1.62955437982896
223
0.0
233
0.0
  0
MTEXT
  5
BA0
102
{ACAD_REACTORS
330
B9F
102
}
330
18
100
AcDbEntity
  8
4
100
AcDbMText
 10
283.3579259620105
 20
185.8835110507262
 30
0.0
 40
3.0
 41
0.0
 71
     4
 72
     1
  1
上部ヒンジ
 73
     1
 44
1.0
  0
LEADER
  5
BA7
330
18
100
AcDbEntity
  8
4
100
AcDbLeader
  3
STANDARD_WS
 73
     0
 74
     0
 75
     1
 40
3.0
 41
9.8
 76
     3
 10
276.6432019999999
 20
77.56729805072622
 30
0.0
 10
290.207421
 20
71.46055305072621
 30
0.0
 10
293.207421
 20
71.46055305072621
 30
0.0
340
BA8
  0
MTEXT
  5
BA8
102
{ACAD_REACTORS
330
BA7
102
}
330
18
100
AcDbEntity
  8
4
100
AcDbMText
 10
294.207421
 20
73.96055305072621
 30
0.0
 40
3.0
 41
0.0
 71
     4
 72
     1
  1
\A1;樹脂脚
 73
     1
 44
1.0
  0
MTEXT
  5
BA9
330
18
100
AcDbEntity
  8
4
100
AcDbMText
 10
144.0199952959291
 20
216.7904411108628
 30
0.0
 40
4.0
 41
29.0
 71
     1
 72
     5
  1
樹脂脚
 73
     1
 44
1.0
  0
MTEXT
  5
BAB
330
18
100
AcDbEntity
  8
4
100
AcDbMText
 10
189.8727941098706
 20
216.9998381108627
 30
0.0
 40
4.0
 41
12.0
 71
     1
 72
     5
  1
PP
 73
     1
 44
1.0
  0
LINE
  5
BC7
330
18
100
AcDbEntity
  8
4
 62
     3
100
AcDbLine
 10
321.002096
 20
79.78706105072622
 30
0.0
 11
321.953975
 21
78.90874305072621
 31
0.0
  0
LINE
  5
BC8
330
18
100
AcDbEntity
  8
4
 62
     3
100
AcDbLine
 10
321.953975
 20
78.90874305072621
 30
0.0
 11
325.6150499999999
 21
78.90874305072621
 31
0.0
  0
LINE
  5
BC9
330
18
100
AcDbEntity
  8
4
 62
     3
100
AcDbLine
 10
325.6150499999999
 20
78.90874305072621
 30
0.0
 11
325.981156
 21
79.78706105072622
 31
0.0
  0
LINE
  5
BCC
330
18
100
AcDbEntity
  8
4
 62
     3
100
AcDbLine
 10
322.905854
 20
78.90874305072621
 30
0.0
 11
322.905854
 21
76.93252705072622
 31
0.0
  0
ARC
  5
BCD
330
18
100
AcDbEntity
  8
4
 62
     3
100
AcDbCircle
 10
325.528114
 20
76.57772605072621
 30
0.0
 40
2.646154
100
AcDbArc
 50
172.29446
 51
270.2969459999999
  0
LINE
  5
BCE
330
18
100
AcDbEntity
  8
4
 62
     3
100
AcDbLine
 10
325.6150499999999
 20
73.93160705072621
 30
0.0
 11
328.763573
 21
73.93160705072621
 31
0.0
  0
LINE
  5
BCF
330
18
100
AcDbEntity
  8
4
 62
     3
100
AcDbLine
 10
324.809614
 20
78.90874305072621
 30
0.0
 11
324.809614
 21
76.42017505072622
 31
0.0
  0
ARC
  5
BD0
330
18
100
AcDbEntity
  8
4
 62
     3
100
AcDbCircle
 10
325.853124
 20
76.46190105072621
 30
0.0
 40
1.044344
100
AcDbArc
 50
182.289824
 51
273.1586049999999
  0
LINE
  5
BD1
330
18
100
AcDbEntity
  8
4
 62
     3
100
AcDbLine
 10
325.907935
 20
75.39547105072621
 30
0.0
 11
328.9100169999999
 21
75.39547105072621
 31
0.0
  0
LINE
  5
BD2
330
18
100
AcDbEntity
  8
4
 62
     3
100
AcDbLine
 10
328.9100169999999
 20
75.39547105072621
 30
0.0
 11
328.9100169999999
 21
73.93160705072621
 31
0.0
  0
LINE
  5
BD3
330
18
100
AcDbEntity
  8
4
 62
     3
100
AcDbLine
 10
328.9100169999999
 20
75.24908405072622
 30
0.0
 11
333.8890769999999
 21
75.24908405072622
 31
0.0
  0
LINE
  5
BD4
330
18
100
AcDbEntity
  8
4
 62
     3
100
AcDbLine
 10
328.9100169999999
 20
74.15118705072622
 30
0.0
 11
333.8890769999999
 21
74.15118705072622
 31
0.0
  0
LINE
  5
BDB
330
18
100
AcDbEntity
  8
4
 62
     3
100
AcDbLine
 10
333.5229689999999
 20
76.93252705072622
 30
0.0
 11
334.6212919999999
 21
76.34698205072623
 31
0.0
  0
LINE
  5
BDC
330
18
100
AcDbEntity
  8
4
 62
     3
100
AcDbLine
 10
334.6212919999999
 20
76.34698205072623
 30
0.0
 11
333.5229689999999
 21
75.68824405072622
 31
0.0
  0
LINE
  5
BDD
330
18
100
AcDbEntity
  8
4
 62
     3
100
AcDbLine
 10
333.5229689999999
 20
75.68824405072622
 30
0.0
 11
334.474849
 21
74.73673205072621
 31
0.0
  0
LINE
  5
BDE
330
18
100
AcDbEntity
  8
4
 62
     3
100
AcDbLine
 10
334.474849
 20
74.73673205072621
 30
0.0
 11
333.596191
 21
74.37076605072622
 31
0.0
  0
LINE
  5
BDF
330
18
100
AcDbEntity
  8
4
 62
     3
100
AcDbLine
 10
333.596191
 20
74.37076605072622
 30
0.0
 11
334.5480699999999
 21
73.56564105072621
 31
0.0
  0
LINE
  5
BE0
330
18
100
AcDbEntity
  8
4
 62
     3
100
AcDbLine
 10
334.5480699999999
 20
73.56564105072621
 30
0.0
 11
333.742634
 21
73.05328905072622
 31
0.0
  0
ARC
  5
BE1
330
18
100
AcDbEntity
  8
4
 62
     3
100
AcDbCircle
 10
317.760618
 20
80.5512900507262
 30
0.0
 40
1.863161999999999
100
AcDbArc
 50
206.7092189999999
 51
332.096925
  0
LINE
  5
BE4
330
18
100
AcDbEntity
  8
4
 62
     3
100
AcDbLine
 10
306.2113569999999
 20
80.51899305072621
 30
0.0
 11
305.039813
 21
79.86025405072621
 31
0.0
  0
LINE
  5
BE5
330
18
100
AcDbEntity
  8
4
 62
     3
100
AcDbLine
 10
305.039813
 20
79.86025405072621
 30
0.0
 11
305.845249
 21
79.42109505072622
 31
0.0
  0
LINE
  5
BE6
330
18
100
AcDbEntity
  8
4
 62
     3
100
AcDbLine
 10
305.845249
 20
79.42109505072622
 30
0.0
 11
305.113035
 21
78.90874305072621
 31
0.0
  0
LINE
  5
BE7
330
18
100
AcDbEntity
  8
4
 62
     3
100
AcDbLine
 10
305.113035
 20
78.90874305072621
 30
0.0
 11
305.7720279999999
 21
78.39639105072622
 31
0.0
  0
LINE
  5
BE8
330
18
100
AcDbEntity
  8
4
 62
     3
100
AcDbLine
 10
315.949814
 20
79.78706105072622
 30
0.0
 11
314.77827
 21
78.98193705072623
 31
0.0
  0
LINE
  5
BE9
330
18
100
AcDbEntity
  8
4
 62
     3
100
AcDbLine
 10
314.77827
 20
78.98193705072623
 30
0.0
 11
305.552363
 21
78.98193705072623
 31
0.0
  0
LINE
  5
C5E
330
18
100
AcDbEntity
  8
4
 62
     2
100
AcDbLine
 10
106.9721092791912
 20
221.8627009005917
 30
0.0
 11
117.8833580937389
 21
221.8627009005917
 31
0.0
  0
LINE
  5
C5F
330
18
100
AcDbEntity
  8
4
 62
     2
100
AcDbLine
 10
106.9721092791912
 20
220.0254005064759
 30
0.0
 11
117.8833580937389
 21
220.0254005064759
 31
0.0
  0
LINE
  5
20F8
102
{ACAD_REACTORS
330
362C
102
}
330
18
100
AcDbEntity
  8
4
 62
     4
100
AcDbLine
 10
408.2383466731295
 20
17.06250348618782
 30
0.0
 11
413.7583466731292
 21
17.06250348618782
 31
0.0
  0
LINE
  5
20F9
102
{ACAD_REACTORS
330
362C
102
}
330
18
100
AcDbEntity
  8
4
 62
     4
100
AcDbLine
 10
410.9983466731294
 20
21.86250348618783
 30
0.0
 11
408.2383466731295
 21
17.06250348618782
 31
0.0
  0
TEXT
  5
20FA
102
{ACAD_REACTORS
330
362C
102
}
330
18
100
AcDbEntity
  8
4
 62
     4
100
AcDbText
 10
410.2570616297017
 20
17.60879042226609
 30
0.0
 40
2.4
  1
2
100
AcDbText
  0
LINE
  5
20FB
102
{ACAD_REACTORS
330
362C
102
}
330
18
100
AcDbEntity
  8
4
 62
     4
100
AcDbLine
 10
413.7583466731292
 20
17.06250348618782
 30
0.0
 11
410.9983466731294
 21
21.86250348618783
 31
0.0
  0
LINE
  5
210A
102
{ACAD_REACTORS
330
2314
102
}
330
18
100
AcDbEntity
  8
4
 62
     2
100
AcDbLine
 10
188.3537237501871
 20
267.0856407907042
 30
0.0
 11
185.5937237501872
 21
271.8856407907042
 31
0.0
  0
TEXT
  5
210B
102
{ACAD_REACTORS
330
2314
102
}
330
18
100
AcDbEntity
  8
4
 62
     2
100
AcDbText
 10
185.1443521960536
 20
267.6319277267825
 30
0.0
 40
2.4
  1
1
100
AcDbText
  0
LINE
  5
210C
102
{ACAD_REACTORS
330
2314
102
}
330
18
100
AcDbEntity
  8
4
 62
     2
100
AcDbLine
 10
185.5937237501872
 20
271.8856407907042
 30
0.0
 11
182.8337237501873
 21
267.0856407907042
 31
0.0
  0
LINE
  5
210D
102
{ACAD_REACTORS
330
2314
102
}
330
18
100
AcDbEntity
  8
4
 62
     2
100
AcDbLine
 10
182.8337237501873
 20
267.0856407907042
 30
0.0
 11
188.3537237501871
 21
267.0856407907042
 31
0.0
  0
DIMENSION
  5
2160
330
18
100
AcDbEntity
  8
4
100
AcDbDimension
  2
*D21
 10
182.7240402509723
 20
194.4619330507262
 30
0.0
 11
134.8920636603937
 21
194.4619330507262
 31
0.0
 70
   160
  1
388
 71
     5
 42
95.13633225097237
  3
STANDARD_WS
100
AcDbAlignedDimension
 13
87.58770799999998
 23
174.1876290507262
 33
0.0
 14
182.7240402509723
 24
154.4238464522164
 34
0.0
100
AcDbRotatedDimension
  0
DIMENSION
  5
21D8
330
18
100
AcDbEntity
  8
4
100
AcDbDimension
  2
*D22
 10
341.3687899999999
 20
194.4619330507262
 30
0.0
 11
297.5116429999999
 21
196.9619330507262
 31
0.0
 70
    32
  1
345.5
 71
     5
 42
87.714294
  3
STANDARD_WS
100
AcDbAlignedDimension
 13
253.654496
 23
151.7424675196166
 33
0.0
 14
341.3687899999999
 24
172.5122200507261
 34
0.0
100
AcDbRotatedDimension
  0
LINE
  5
22E9
330
18
100
AcDbEntity
  8
1
100
AcDbLine
 10
340.254314
 20
80.33635505072622
 30
0.0
 11
340.6513878007693
 21
80.33635505072622
 31
0.0
  0
TEXT
  5
22F5
330
18
100
AcDbEntity
  8
0
 62
     0
100
AcDbText
 10
346.7537941696714
 20
279.0169812499999
 30
0.0
 40
3.0
  1
定格及び材質の修正
 41
0.9710994967883904
 72
     5
 11
377.4405382681845
 21
279.0169812499999
 31
0.0
100
AcDbText
  0
LINE
  5
22F6
330
18
100
AcDbEntity
  8
0
 62
     0
100
AcDbLine
 10
323.082613
 20
283.413389
 30
0.0
 11
416.832613
 21
283.413389
 31
0.0
  0
LINE
  5
22F7
330
18
100
AcDbEntity
  8
0
 62
     0
100
AcDbLine
 10
323.082613
 20
277.788389
 30
0.0
 11
416.832613
 21
277.788389
 31
0.0
  0
LINE
  5
22F8
330
18
100
AcDbEntity
  8
0
 62
     0
100
AcDbLine
 10
323.082613
 20
272.163389
 30
0.0
 11
416.832613
 21
272.163389
 31
0.0
  0
TEXT
  5
22FA
330
18
100
AcDbEntity
  8
0
 62
     0
100
AcDbText
 10
354.9516227500002
 20
283.9147617499999
 30
0.0
 40
1.6222545
  1
REVISED DESCRIPTION
 41
1.01278290996368
  7
ED_VECTOR
 72
     5
 11
384.9636032500002
 21
283.9147617499999
 31
0.0
100
AcDbText
  0
TEXT
  5
22FB
330
18
100
AcDbEntity
  8
0
 62
     0
100
AcDbText
 10
359.832613
 20
286.6008889999999
 30
0.0
 40
3.0
  1
訂　正　記　事
 41
0.8299180327868851
  7
ED_VECTOR
 72
     5
 11
380.082613
 21
286.6008889999999
 31
0.0
100
AcDbText
  0
LINE
  5
22FC
330
18
100
AcDbEntity
  8
0
 62
     0
100
AcDbLine
 10
345.582613
 20
290.913389
 30
0.0
 11
345.582613
 21
272.163389
 31
0.0
  0
TEXT
  5
22FD
330
18
100
AcDbEntity
  8
0
 62
     0
100
AcDbText
 10
326.4197852588277
 20
278.713682903134
 30
0.0
 40
2.4
  1
1
100
AcDbText
  0
LINE
  5
22FE
330
18
100
AcDbEntity
  8
0
 62
     0
100
AcDbLine
 10
329.6291568129609
 20
278.1673959670557
 30
0.0
 11
326.8691568129611
 21
282.9673959670557
 31
0.0
  0
LINE
  5
22FF
330
18
100
AcDbEntity
  8
0
 62
     0
100
AcDbLine
 10
326.8691568129611
 20
282.9673959670557
 30
0.0
 11
324.1091568129613
 21
278.1673959670557
 31
0.0
  0
LINE
  5
2300
330
18
100
AcDbEntity
  8
0
 62
     0
100
AcDbLine
 10
330.582613
 20
290.913389
 30
0.0
 11
330.582613
 21
272.163389
 31
0.0
  0
LINE
  5
2301
330
18
100
AcDbEntity
  8
0
 62
     0
100
AcDbLine
 10
323.082613
 20
290.913389
 30
0.0
 11
323.082613
 21
272.163389
 31
0.0
  0
LINE
  5
2302
330
18
100
AcDbEntity
  8
0
 62
     0
100
AcDbLine
 10
324.1091568129613
 20
278.1673959670557
 30
0.0
 11
329.6291568129609
 21
278.1673959670557
 31
0.0
  0
TEXT
  5
2303
330
18
100
AcDbEntity
  8
0
 62
     0
100
AcDbText
 10
323.8314152500001
 20
283.9147617499999
 30
0.0
 40
1.6222545
  1
ITEM
 41
1.009099962148584
  7
ED_VECTOR
 72
     5
 11
329.8338107499998
 21
283.9147617499999
 31
0.0
100
AcDbText
  0
TEXT
  5
2304
330
18
100
AcDbEntity
  8
0
 62
     0
100
AcDbText
 10
333.957613
 20
286.6008889999999
 30
0.0
 40
3.0
  1
年月日
 41
0.8593749999999998
  7
ED_VECTOR
 72
     5
 11
342.207613
 21
286.6008889999999
 31
0.0
100
AcDbText
  0
TEXT
  5
2305
330
18
100
AcDbEntity
  8
0
 62
     0
100
AcDbText
 10
335.0814152500002
 20
283.9147617499999
 30
0.0
 40
1.6222545
  1
DATE
 41
1.009099962148584
  7
ED_VECTOR
 72
     5
 11
341.0838107499998
 21
283.9147617499999
 31
0.0
100
AcDbText
  0
TEXT
  5
2306
330
18
100
AcDbEntity
  8
0
 62
     0
100
AcDbText
 10
331.6067589674417
 20
279.0413543053202
 30
0.0
 40
3.0
  1
2020.03.03
 41
0.4476566944285567
  7
ED_VECTOR
 72
     5
 11
344.5888031058698
 21
279.0413543053202
 31
0.0
100
AcDbText
  0
TEXT
  5
2307
330
18
100
AcDbEntity
  8
0
 62
     0
100
AcDbText
 10
324.207613
 20
286.6008889999999
 30
0.0
 40
3.0
  1
符号
 41
0.8203125
  7
ED_VECTOR
 72
     5
 11
329.457613
 21
286.6008889999999
 31
0.0
100
AcDbText
  0
LINE
  5
2308
330
18
100
AcDbEntity
  8
0
 62
     0
100
AcDbLine
 10
405.582613
 20
290.913389
 30
0.0
 11
405.582613
 21
272.163389
 31
0.0
  0
LINE
  5
2309
330
18
100
AcDbEntity
  8
0
 62
     0
100
AcDbLine
 10
394.332613
 20
290.913389
 30
0.0
 11
394.332613
 21
272.163389
 31
0.0
  0
TEXT
  5
230A
330
18
100
AcDbEntity
  8
0
 62
     0
100
AcDbText
 10
406.258147
 20
284.076974
 30
0.0
 40
1.29783
  1
APPROVED
 41
0.9948645380968759
  7
ED_VECTOR
 72
     5
 11
416.157079
 21
284.076974
 31
0.0
100
AcDbText
  0
TEXT
  5
230B
330
18
100
AcDbEntity
  8
0
 62
     0
100
AcDbText
 10
396.1560954999999
 20
283.9147617499999
 30
0.0
 40
1.6222545
  1
CHAGE
 41
1.004294816697568
  7
ED_VECTOR
 72
     5
 11
403.7591305000001
 21
283.9147617499999
 31
0.0
100
AcDbText
  0
TEXT
  5
230C
330
18
100
AcDbEntity
  8
0
 62
     0
100
AcDbText
 10
397.332613
 20
279.100889
 30
0.0
 40
3.0
  1
福田
 41
0.846774193548387
  7
ED_VECTOR
 72
     5
 11
402.582613
 21
279.100889
 31
0.0
100
AcDbText
  0
TEXT
  5
230D
330
18
100
AcDbEntity
  8
0
 62
     0
100
AcDbText
 10
397.332613
 20
286.6008889999999
 30
0.0
 40
3.0
  1
担当
 41
0.8467741935483868
  7
ED_VECTOR
 72
     5
 11
402.582613
 21
286.6008889999999
 31
0.0
100
AcDbText
  0
TEXT
  5
230E
330
18
100
AcDbEntity
  8
0
 62
     0
100
AcDbText
 10
408.582613
 20
279.100889
 30
0.0
 40
3.0
  1
宮木
 41
0.8203125
  7
ED_VECTOR
 72
     5
 11
413.832613
 21
279.100889
 31
0.0
100
AcDbText
  0
TEXT
  5
230F
330
18
100
AcDbEntity
  8
0
 62
     0
100
AcDbText
 10
408.582613
 20
286.6008889999999
 30
0.0
 40
3.0
  1
承認
 41
0.8203125
  7
ED_VECTOR
 72
     5
 11
413.832613
 21
286.6008889999999
 31
0.0
100
AcDbText
  0
MTEXT
  5
2311
330
18
100
AcDbEntity
  8
4
 62
     2
100
AcDbMText
 10
189.7797237089157
 20
271.4138373634783
 30
0.0
 40
4.0
 41
48.0
 71
     1
 72
     5
  1
AC125V-6A
 73
     1
 44
1.0
  0
LINE
  5
2312
330
18
100
AcDbEntity
  8
4
 62
     2
100
AcDbLine
 10
188.5312625536155
 20
270.1318458693904
 30
0.0
 11
225.7428212006873
 21
270.1318458693904
 31
0.0
  0
LINE
  5
2313
330
18
100
AcDbEntity
  8
4
 62
     2
100
AcDbLine
 10
188.5312625536155
 20
268.3441795397139
 30
0.0
 11
225.7428212006873
 21
268.3441795397139
 31
0.0
  0
TEXT
  5
2316
102
{ACAD_REACTORS
330
231A
102
}
330
18
100
AcDbEntity
  8
4
 62
     2
100
AcDbText
 10
103.611111601662
 20
219.4014772905867
 30
0.0
 40
2.4
  1
1
100
AcDbText
  0
LINE
  5
2317
102
{ACAD_REACTORS
330
231A
102
}
330
18
100
AcDbEntity
  8
4
 62
     2
100
AcDbLine
 10
104.0604831557956
 20
223.6551903545085
 30
0.0
 11
101.3004831557957
 21
218.8551903545085
 31
0.0
  0
LINE
  5
2318
102
{ACAD_REACTORS
330
231A
102
}
330
18
100
AcDbEntity
  8
4
 62
     2
100
AcDbLine
 10
106.8204831557955
 20
218.8551903545085
 30
0.0
 11
104.0604831557956
 21
223.6551903545085
 31
0.0
  0
LINE
  5
2319
102
{ACAD_REACTORS
330
231A
102
}
330
18
100
AcDbEntity
  8
4
 62
     2
100
AcDbLine
 10
101.3004831557957
 20
218.8551903545085
 30
0.0
 11
106.8204831557955
 21
218.8551903545085
 31
0.0
  0
LINE
  5
231D
330
18
100
AcDbEntity
  8
2
  6
HIDDEN2
100
AcDbLine
 10
327.1107339999999
 20
145.5779785507262
 30
0.0
 11
331.9720859999999
 21
145.5779785507262
 31
0.0
  0
MTEXT
  5
24B7
330
18
100
AcDbEntity
  8
4
 62
     2
100
AcDbMText
 10
107.6051584198683
 20
252.8179863772463
 30
0.0
 40
4.0
 41
28.0
 71
     1
 72
     5
  1
合成ゴム
 73
     1
 44
1.0
  0
LINE
  5
24B8
102
{ACAD_REACTORS
330
24BC
102
}
330
18
100
AcDbEntity
  8
4
 62
     2
100
AcDbLine
 10
101.3004831557957
 20
248.2935454465921
 30
0.0
 11
106.8204831557955
 21
248.2935454465921
 31
0.0
  0
LINE
  5
24B9
102
{ACAD_REACTORS
330
24BC
102
}
330
18
100
AcDbEntity
  8
4
 62
     2
100
AcDbLine
 10
104.0604831557956
 20
253.0935454465921
 30
0.0
 11
101.3004831557957
 21
248.2935454465921
 31
0.0
  0
TEXT
  5
24BA
102
{ACAD_REACTORS
330
24BC
102
}
330
18
100
AcDbEntity
  8
4
 62
     2
100
AcDbText
 10
103.611111601662
 20
248.8398323826704
 30
0.0
 40
2.4
  1
1
100
AcDbText
  0
LINE
  5
24BB
102
{ACAD_REACTORS
330
24BC
102
}
330
18
100
AcDbEntity
  8
4
 62
     2
100
AcDbLine
 10
106.8204831557955
 20
248.2935454465921
 30
0.0
 11
104.0604831557956
 21
253.0935454465921
 31
0.0
  0
LINE
  5
24BD
330
18
100
AcDbEntity
  8
4
 62
     2
100
AcDbLine
 10
107.0711450677154
 20
249.7209534614455
 30
0.0
 11
126.0951983226723
 21
249.7209534614455
 31
0.0
  0
LINE
  5
24BE
330
18
100
AcDbEntity
  8
4
 62
     2
100
AcDbLine
 10
107.0711450677154
 20
251.5582538555613
 30
0.0
 11
126.0951983226723
 21
251.5582538555613
 31
0.0
  0
TEXT
  5
2D71
330
18
100
AcDbEntity
  8
0
 62
     0
100
AcDbText
 10
408.582613
 20
273.475889
 30
0.0
 40
3.0
  1
宮木
 41
0.8203125
  7
ED_VECTOR
 72
     5
 11
413.832613
 21
273.475889
 31
0.0
100
AcDbText
  0
TEXT
  5
2D72
330
18
100
AcDbEntity
  8
0
 62
     0
100
AcDbText
 10
397.332613
 20
273.475889
 30
0.0
 40
3.0
  1
福田
 41
0.846774193548387
  7
ED_VECTOR
 72
     5
 11
402.582613
 21
273.475889
 31
0.0
100
AcDbText
  0
TEXT
  5
2D73
330
18
100
AcDbEntity
  8
0
 62
     0
100
AcDbText
 10
346.2060566353284
 20
273.3919812499999
 30
0.0
 40
3.0
  1
中箱内のLアングル追加,スイッチパネル・材質の削除
 41
0.5489100044057146
 72
     5
 11
393.6867720164227
 21
273.3919812499999
 31
0.0
100
AcDbText
  0
TEXT
  5
2D74
330
18
100
AcDbEntity
  8
0
 62
     0
100
AcDbText
 10
331.6067589674417
 20
273.4163543053202
 30
0.0
 40
3.0
  1
2022.02.08
 41
0.4476566944285566
  7
ED_VECTOR
 72
     5
 11
344.5888031058698
 21
273.4163543053202
 31
0.0
100
AcDbText
  0
LINE
  5
2D75
330
18
100
AcDbEntity
  8
0
 62
     0
100
AcDbLine
 10
324.1091568129613
 20
272.5423959670556
 30
0.0
 11
329.6291568129609
 21
272.5423959670556
 31
0.0
  0
LINE
  5
2D76
330
18
100
AcDbEntity
  8
0
 62
     0
100
AcDbLine
 10
329.6291568129609
 20
272.5423959670556
 30
0.0
 11
326.8691568129611
 21
277.3423959670557
 31
0.0
  0
LINE
  5
2D77
330
18
100
AcDbEntity
  8
0
 62
     0
100
AcDbLine
 10
326.8691568129611
 20
277.3423959670557
 30
0.0
 11
324.1091568129613
 21
272.5423959670556
 31
0.0
  0
TEXT
  5
2D79
330
18
100
AcDbEntity
  8
4
 62
     0
100
AcDbText
 10
326.1278717695335
 20
273.0886829031339
 30
0.0
 40
2.4
  1
2
100
AcDbText
  0
LINE
  5
3430
102
{ACAD_REACTORS
330
3439
102
}
330
18
100
AcDbEntity
  8
2
  6
HIDDEN
 48
9.0
100
AcDbLine
 10
99.813603
 20
134.3168460507262
 30
0.0
 11
99.813603
 21
129.3244060507262
 31
0.0
  0
LINE
  5
3432
102
{ACAD_REACTORS
330
3439
102
}
330
18
100
AcDbEntity
  8
2
  6
HIDDEN
 48
9.0
100
AcDbLine
 10
104.4249749999999
 20
129.3244060507262
 30
0.0
 11
104.4249749999999
 21
130.4765070507262
 31
0.0
  0
LINE
  5
3433
102
{ACAD_REACTORS
330
3439
102
}
330
18
100
AcDbEntity
  8
2
  6
HIDDEN
 48
9.0
100
AcDbLine
 10
104.4249749999999
 20
130.4765070507262
 30
0.0
 11
100.9664459999999
 21
130.4765070507262
 31
0.0
  0
LINE
  5
3434
102
{ACAD_REACTORS
330
3439
102
}
330
18
100
AcDbEntity
  8
2
  6
HIDDEN
 48
9.0
100
AcDbLine
 10
100.9664459999999
 20
129.3244060507262
 30
0.0
 11
100.9664459999999
 21
129.3244060507262
 31
0.0
  0
LINE
  5
3435
102
{ACAD_REACTORS
330
3439
102
}
330
18
100
AcDbEntity
  8
2
  6
HIDDEN
 48
9.0
100
AcDbLine
 10
104.4249749999999
 20
129.3244060507262
 30
0.0
 11
99.813603
 21
129.3244060507262
 31
0.0
  0
LINE
  5
3437
102
{ACAD_REACTORS
330
3439
102
}
330
18
100
AcDbEntity
  8
2
  6
HIDDEN
 48
9.0
100
AcDbLine
 10
99.813603
 20
134.3168460507262
 30
0.0
 11
100.9664459999999
 21
134.3168460507262
 31
0.0
  0
LINE
  5
3438
102
{ACAD_REACTORS
330
3439
102
}
330
18
100
AcDbEntity
  8
2
  6
HIDDEN
 48
9.0
100
AcDbLine
 10
100.9664459999999
 20
134.3168460507262
 30
0.0
 11
100.9664459999999
 21
130.4765070507262
 31
0.0
  0
LINE
  5
3452
102
{ACAD_REACTORS
330
3459
102
}
330
18
100
AcDbEntity
  8
2
  6
HIDDEN
 48
9.0
100
AcDbLine
 10
165.022497
 20
130.4765070507262
 30
0.0
 11
168.481026
 21
130.4765070507262
 31
0.0
  0
LINE
  5
3453
102
{ACAD_REACTORS
330
3459
102
}
330
18
100
AcDbEntity
  8
2
  6
HIDDEN
 48
9.0
100
AcDbLine
 10
165.022497
 20
129.3244060507262
 30
0.0
 11
169.633869
 21
129.3244060507262
 31
0.0
  0
LINE
  5
3454
102
{ACAD_REACTORS
330
3459
102
}
330
18
100
AcDbEntity
  8
2
  6
HIDDEN
 48
9.0
100
AcDbLine
 10
165.022497
 20
129.3244060507262
 30
0.0
 11
165.022497
 21
130.4765070507262
 31
0.0
  0
LINE
  5
3455
102
{ACAD_REACTORS
330
3459
102
}
330
18
100
AcDbEntity
  8
2
  6
HIDDEN
 48
9.0
100
AcDbLine
 10
168.481026
 20
134.3168460507262
 30
0.0
 11
168.481026
 21
130.4765070507262
 31
0.0
  0
LINE
  5
3456
102
{ACAD_REACTORS
330
3459
102
}
330
18
100
AcDbEntity
  8
2
  6
HIDDEN
 48
9.0
100
AcDbLine
 10
168.481026
 20
129.3244060507262
 30
0.0
 11
168.481026
 21
129.3244060507262
 31
0.0
  0
LINE
  5
3457
102
{ACAD_REACTORS
330
3459
102
}
330
18
100
AcDbEntity
  8
2
  6
HIDDEN
 48
9.0
100
AcDbLine
 10
169.633869
 20
134.3168460507262
 30
0.0
 11
168.481026
 21
134.3168460507262
 31
0.0
  0
LINE
  5
3458
102
{ACAD_REACTORS
330
3459
102
}
330
18
100
AcDbEntity
  8
2
  6
HIDDEN
 48
9.0
100
AcDbLine
 10
169.633869
 20
134.3168460507262
 30
0.0
 11
169.633869
 21
129.3244060507262
 31
0.0
  0
ARC
  5
34E1
330
18
100
AcDbEntity
  8
2
  6
HIDDEN2
100
AcDbCircle
 10
103.893211
 20
97.38568265975047
 30
0.0
 40
4.079608
100
AcDbArc
 50
180.0
 51
270.0
  0
ARC
  5
34E9
330
18
100
AcDbEntity
  8
2
  6
HIDDEN2
100
AcDbCircle
 10
103.893211
 20
158.9947980507262
 30
0.0
 40
4.079608
100
AcDbArc
 50
90.00000000000003
 51
180.0
  0
ARC
  5
354E
330
18
100
AcDbEntity
  8
2
  6
HIDDEN2
100
AcDbCircle
 10
165.5542609999999
 20
158.9947980507262
 30
0.0
 40
4.079608
100
AcDbArc
 50
0.000000000000007
 51
89.99999999999998
  0
LINE
  5
361B
102
{ACAD_REACTORS
330
3627
102
}
330
18
100
AcDbEntity
  8
2
  6
HIDDEN2
100
AcDbLine
 10
271.8557649999999
 20
130.4765070507262
 30
0.0
 11
325.605765
 21
130.4765070507262
 31
0.0
  0
LINE
  5
361D
102
{ACAD_REACTORS
330
3627
102
}
330
18
100
AcDbEntity
  8
2
  6
HIDDEN2
100
AcDbLine
 10
325.605765
 20
129.3244060507261
 30
0.0
 11
271.855765
 21
129.3244060507261
 31
0.0
  0
LINE
  5
361E
102
{ACAD_REACTORS
330
3627
102
}
330
18
100
AcDbEntity
  8
2
  6
HIDDEN2
100
AcDbLine
 10
271.8557649999999
 20
129.3244060507261
 30
0.0
 11
271.8557649999999
 21
134.3168460507261
 31
0.0
  0
LINE
  5
361F
102
{ACAD_REACTORS
330
3627
102
}
330
18
100
AcDbEntity
  8
2
  6
HIDDEN2
100
AcDbLine
 10
271.8557649999999
 20
134.3168460507261
 30
0.0
 11
325.605765
 21
134.3168460507261
 31
0.0
  0
LINE
  5
3620
330
18
100
AcDbEntity
  8
2
  6
HIDDEN2
100
AcDbLine
 10
327.429568
 20
155.5708335507262
 30
0.0
 11
327.429568
 21
145.5779785507262
 31
0.0
  0
LINE
  5
3623
102
{ACAD_REACTORS
330
3627
102
}
330
18
100
AcDbEntity
  8
2
  6
HIDDEN2
100
AcDbLine
 10
325.605765
 20
129.3244060507261
 30
0.0
 11
325.605765
 21
134.3168460507261
 31
0.0
  0
LINE
  5
362D
102
{ACAD_REACTORS
330
3631
102
}
330
18
100
AcDbEntity
  8
4
 62
     4
100
AcDbLine
 10
284.6697730888948
 20
123.8769857750237
 30
0.0
 11
281.909773088895
 21
128.6769857750238
 31
0.0
  0
LINE
  5
362E
102
{ACAD_REACTORS
330
3631
102
}
330
18
100
AcDbEntity
  8
4
 62
     4
100
AcDbLine
 10
279.1497730888951
 20
123.8769857750237
 30
0.0
 11
284.6697730888948
 21
123.8769857750237
 31
0.0
  0
TEXT
  5
362F
102
{ACAD_REACTORS
330
3631
102
}
330
18
100
AcDbEntity
  8
4
 62
     4
100
AcDbText
 10
281.1684880454673
 20
124.423272711102
 30
0.0
 40
2.4
  1
2
100
AcDbText
  0
LINE
  5
3630
102
{ACAD_REACTORS
330
3631
102
}
330
18
100
AcDbEntity
  8
4
 62
     4
100
AcDbLine
 10
281.909773088895
 20
128.6769857750238
 30
0.0
 11
279.1497730888951
 21
123.8769857750237
 31
0.0
  0
LINE
  5
3632
102
{ACAD_REACTORS
330
3636
102
}
330
18
100
AcDbEntity
  8
4
 62
     4
100
AcDbLine
 10
163.0973699915433
 20
123.8769857750237
 30
0.0
 11
168.6173699915431
 21
123.8769857750237
 31
0.0
  0
LINE
  5
3633
102
{ACAD_REACTORS
330
3636
102
}
330
18
100
AcDbEntity
  8
4
 62
     4
100
AcDbLine
 10
165.8573699915432
 20
128.6769857750238
 30
0.0
 11
163.0973699915433
 21
123.8769857750237
 31
0.0
  0
TEXT
  5
3634
102
{ACAD_REACTORS
330
3636
102
}
330
18
100
AcDbEntity
  8
4
 62
     4
100
AcDbText
 10
165.1160849481156
 20
124.423272711102
 30
0.0
 40
2.4
  1
2
100
AcDbText
  0
LINE
  5
3635
102
{ACAD_REACTORS
330
3636
102
}
330
18
100
AcDbEntity
  8
4
 62
     4
100
AcDbLine
 10
168.6173699915431
 20
123.8769857750237
 30
0.0
 11
165.8573699915432
 21
128.6769857750238
 31
0.0
  0
LINE
  5
3637
102
{ACAD_REACTORS
330
363B
102
}
330
18
100
AcDbEntity
  8
4
 62
     4
100
AcDbLine
 10
100.8984915217448
 20
123.8769857750237
 30
0.0
 11
106.4184915217446
 21
123.8769857750237
 31
0.0
  0
LINE
  5
3638
102
{ACAD_REACTORS
330
363B
102
}
330
18
100
AcDbEntity
  8
4
 62
     4
100
AcDbLine
 10
103.6584915217447
 20
128.6769857750238
 30
0.0
 11
100.8984915217448
 21
123.8769857750237
 31
0.0
  0
TEXT
  5
3639
102
{ACAD_REACTORS
330
363B
102
}
330
18
100
AcDbEntity
  8
4
 62
     4
100
AcDbText
 10
102.9172064783171
 20
124.423272711102
 30
0.0
 40
2.4
  1
2
100
AcDbText
  0
LINE
  5
363A
102
{ACAD_REACTORS
330
363B
102
}
330
18
100
AcDbEntity
  8
4
 62
     4
100
AcDbLine
 10
106.4184915217446
 20
123.8769857750237
 30
0.0
 11
103.6584915217447
 21
128.6769857750238
 31
0.0
  0
TEXT
  5
3679
330
18
100
AcDbEntity
  8
文字
 62
     0
100
AcDbText
 10
30.669232
 20
24.01666699999999
 30
0.0
 40
6.0
  1
株式会社　アンナカ
100
AcDbText
  0
TEXT
  5
367A
330
18
100
AcDbEntity
  8
文字
 62
     0
100
AcDbText
 10
30.669232
 20
14.01666699999999
 30
0.0
 40
6.0
  1
ニッセイ事業部
100
AcDbText
  0
CIRCLE
  5
36B6
330
18
100
AcDbEntity
  8
2
  6
HIDDEN2
100
AcDbCircle
 10
330.668191
 20
146.9493240507262
 30
0.0
 40
0.4636294999999962
  0
LINE
  5
3727
330
18
100
AcDbEntity
  8
4
 62
     4
100
AcDbLine
 10
26.04588148498419
 20
223.8045442167629
 30
0.0
 11
88.92278681685137
 21
223.8045442167628
 31
0.0
  0
LINE
  5
3728
330
18
100
AcDbEntity
  8
4
 62
     4
100
AcDbLine
 10
26.04588148498419
 20
225.6418446108787
 30
0.0
 11
88.92278681685139
 21
225.6418446108787
 31
0.0
  0
LINE
  5
372B
102
{ACAD_REACTORS
330
372F
102
}
330
18
100
AcDbEntity
  8
4
 62
     4
100
AcDbLine
 10
92.87185651372897
 20
230.4688551248606
 30
0.0
 11
90.1118565137291
 21
225.6688551248606
 31
0.0
  0
LINE
  5
372C
102
{ACAD_REACTORS
330
372F
102
}
330
18
100
AcDbEntity
  8
4
 62
     4
100
AcDbLine
 10
90.1118565137291
 20
225.6688551248606
 30
0.0
 11
95.63185651372885
 21
225.6688551248606
 31
0.0
  0
LINE
  5
372D
102
{ACAD_REACTORS
330
372F
102
}
330
18
100
AcDbEntity
  8
4
 62
     4
100
AcDbLine
 10
95.63185651372885
 20
225.6688551248606
 30
0.0
 11
92.87185651372897
 21
230.4688551248606
 31
0.0
  0
TEXT
  5
372E
102
{ACAD_REACTORS
330
372F
102
}
330
18
100
AcDbEntity
  8
4
 62
     4
100
AcDbText
 10
92.13057147030133
 20
226.2151420609388
 30
0.0
 40
2.4
  1
2
100
AcDbText
  0
VIEWPORT
  5
36
330
15
100
AcDbEntity
 67
     1
  8
0
100
AcDbViewport
 10
220.2207059999999
 20
158.7533044330708
 30
0.0
 40
393.0462079999999
 41
330.8165786776045
 68
     2
 69
     1
 12
220.2207059999999
 22
158.7533044330708
 13
0.0
 23
0.0
 14
10.0
 24
10.0
 15
10.0
 25
10.0
 16
0.0
 26
0.0
 36
1.0
 17
0.0
 27
0.0
 37
0.0
 42
50.0
 43
0.0
 44
0.0
 45
330.8165786776045
 50
0.0
 51
0.0
 72
   100
 90
    32800
  1

281
     0
 71
     1
 74
     0
110
0.0
120
0.0
130
0.0
111
1.0
121
0.0
131
0.0
112
0.0
122
1.0
132
0.0
 79
     0
146
0.0
  0
VIEWPORT
  5
D4
330
15
100
AcDbEntity
 67
     1
  8
VIEWPORT
100
AcDbViewport
 10
210.006409
 20
148.754532
 30
0.0
 40
418.012818
 41
292.509064
 68
     1
 69
     2
 12
210.0
 22
148.5
 13
0.0
 23
0.0
 14
1.0
 24
1.0
 15
1.0
 25
1.0
 16
0.0
 26
0.0
 36
1.0
 17
0.0
 27
0.0
 37
0.0
 42
50.0
 43
0.0
 44
0.0
 45
302.9399999999999
 50
0.0
 51
0.0
 72
   100
 90
    33056
  1

281
     0
 71
     1
 74
     0
110
0.0
120
0.0
130
0.0
111
1.0
121
0.0
131
0.0
112
0.0
122
1.0
132
0.0
 79
     0
146
0.0
  0
ENDSEC
  0
SECTION
  2
OBJECTS
  0
DICTIONARY
  5
C
330
0
100
AcDbDictionary
281
     1
  3
ACAD_GROUP
350
D
  3
ACAD_LAYOUT
350
C4C
  3
ACAD_MLINESTYLE
350
1B
  3
ACAD_PLOTSETTINGS
350
C4D
  3
ACAD_PLOTSTYLENAME
350
C4A
  3
ACDBVARIABLEDICTIONARY
350
D5
  3
CONTENTDICTIONARY
350
23
  0
DICTIONARY
  5
D
102
{ACAD_REACTORS
330
C
102
}
330
C
100
AcDbDictionary
281
     1
  3
*A1
350
22F4
  3
*A2
350
363B
  3
*A3
350
2314
  3
*A4
350
231A
  3
*A5
350
2390
  3
*A6
350
24BC
  3
*A7
350
28C2
  3
*A8
350
28C3
  3
*A9
350
28C4
  3
*A10
350
2D6C
  3
*A11
350
372F
  3
*A12
350
2D6D
  3
*A13
350
2D6E
  3
*A14
350
3439
  3
*A15
350
3459
  3
*A16
350
3627
  3
*A17
350
362C
  3
*A18
350
3631
  3
*A19
350
3636
  0
DICTIONARY
  5
C4C
102
{ACAD_REACTORS
330
C
102
}
330
C
100
AcDbDictionary
281
     1
  3
Model
350
C4E
  3
ﾚｲｱｳﾄ1
350
C4F
  0
DICTIONARY
  5
1B
102
{ACAD_REACTORS
330
C
102
}
330
C
100
AcDbDictionary
281
     1
  3
STANDARD
350
1C
  0
DICTIONARY
  5
C4D
102
{ACAD_REACTORS
330
C
102
}
330
C
100
AcDbDictionary
281
     1
  0
ACDBDICTIONARYWDFLT
  5
C4A
102
{ACAD_REACTORS
330
C
102
}
330
C
100
AcDbDictionary
281
     1
  3
Normal
350
C4B
100
AcDbDictionaryWithDefault
340
C4B
  0
DICTIONARY
  5
D5
102
{ACAD_REACTORS
330
C
102
}
330
C
100
AcDbDictionary
281
     1
  3
DIMADEC
350
D6
  0
DICTIONARY
  5
23
102
{ACAD_REACTORS
330
C
102
}
330
C
100
AcDbDictionary
281
     1
  0
GROUP
  5
22F4
102
{ACAD_REACTORS
330
D
102
}
330
D
100
AcDbGroup
300

 70
     1
 71
     1
  0
GROUP
  5
363B
102
{ACAD_REACTORS
330
D
102
}
330
D
100
AcDbGroup
300

 70
     1
 71
     1
340
3637
340
3638
340
3639
340
363A
  0
GROUP
  5
2314
102
{ACAD_REACTORS
330
D
102
}
330
D
100
AcDbGroup
300

 70
     1
 71
     1
340
210A
340
210D
340
210C
340
210B
  0
GROUP
  5
231A
102
{ACAD_REACTORS
330
D
102
}
330
D
100
AcDbGroup
300

 70
     1
 71
     1
340
2318
340
2319
340
2317
340
2316
  0
GROUP
  5
2390
102
{ACAD_REACTORS
330
D
102
}
330
D
100
AcDbGroup
300

 70
     1
 71
     1
  0
GROUP
  5
24BC
102
{ACAD_REACTORS
330
D
102
}
330
D
100
AcDbGroup
300

 70
     1
 71
     1
340
24BB
340
24B8
340
24B9
340
24BA
  0
GROUP
  5
28C2
102
{ACAD_REACTORS
330
D
102
}
330
D
100
AcDbGroup
300

 70
     1
 71
     1
  0
GROUP
  5
28C3
102
{ACAD_REACTORS
330
D
102
}
330
D
100
AcDbGroup
300

 70
     1
 71
     1
  0
GROUP
  5
28C4
102
{ACAD_REACTORS
330
D
102
}
330
D
100
AcDbGroup
300

 70
     1
 71
     1
  0
GROUP
  5
2D6C
102
{ACAD_REACTORS
330
D
102
}
330
D
100
AcDbGroup
300

 70
     1
 71
     1
  0
GROUP
  5
372F
102
{ACAD_REACTORS
330
D
102
}
330
D
100
AcDbGroup
300

 70
     1
 71
     1
340
372C
340
372B
340
372E
340
372D
  0
GROUP
  5
2D6D
102
{ACAD_REACTORS
330
D
102
}
330
D
100
AcDbGroup
300

 70
     1
 71
     1
  0
GROUP
  5
2D6E
102
{ACAD_REACTORS
330
D
102
}
330
D
100
AcDbGroup
300

 70
     1
 71
     1
  0
GROUP
  5
3439
102
{ACAD_REACTORS
330
D
102
}
330
D
100
AcDbGroup
300

 70
     1
 71
     1
340
3438
340
3435
340
3433
340
3432
340
3434
340
3437
340
3430
  0
GROUP
  5
3459
102
{ACAD_REACTORS
330
D
102
}
330
D
100
AcDbGroup
300

 70
     1
 71
     1
340
3455
340
3453
340
3452
340
3454
340
3456
340
3457
340
3458
  0
GROUP
  5
3627
102
{ACAD_REACTORS
330
D
102
}
330
D
100
AcDbGroup
300

 70
     1
 71
     1
340
361F
340
361D
340
361B
340
361E
340
3623
  0
GROUP
  5
362C
102
{ACAD_REACTORS
330
D
102
}
330
D
100
AcDbGroup
300

 70
     1
 71
     1
340
20F8
340
20F9
340
20FA
340
20FB
  0
GROUP
  5
3631
102
{ACAD_REACTORS
330
D
102
}
330
D
100
AcDbGroup
300

 70
     1
 71
     1
340
362E
340
3630
340
362F
340
362D
  0
GROUP
  5
3636
102
{ACAD_REACTORS
330
D
102
}
330
D
100
AcDbGroup
300

 70
     1
 71
     1
340
3632
340
3633
340
3634
340
3635
  0
LAYOUT
  5
C4E
102
{ACAD_REACTORS
330
C4C
102
}
330
C4C
100
AcDbPlotSettings
  1

  2
PrimoPDF
  4
A3
  6

 40
3.174999952316284
 41
3.174999952316284
 42
3.17498779296875
 43
3.17498779296875
 44
297.0106506347656
 45
419.9889831542968
 46
2.64
 47
7.69
 48
18.569816
 49
5.537812
140
416.8326129999999
141
290.913389
142
1.0
143
1.0
 70
 11956
 72
     1
 73
     1
 74
     4
  7
monochrome.ctb
 75
    16
147
1.0
148
-18.569816
149
-5.537812
100
AcDbLayout
  1
Model
 70
     1
 71
     0
 10
0.0
 20
0.0
 11
12.0
 21
9.0
 12
0.0
 22
0.0
 32
0.0
 14
0.0
 24
0.0
 34
0.0
 15
0.0
 25
0.0
 35
0.0
146
0.0
 13
0.0
 23
0.0
 33
0.0
 16
1.0
 26
0.0
 36
0.0
 17
0.0
 27
1.0
 37
0.0
 76
     0
330
18
  0
LAYOUT
  5
C4F
102
{ACAD_REACTORS
330
C4C
102
}
330
C4C
100
AcDbPlotSettings
  1

  2
PrimoPDF
  4
A4
  6

 40
3.174999952316284
 41
3.174999952316284
 42
3.175003051757812
 43
3.17498779296875
 44
210.0156707763671
 45
297.0106506347656
 46
0.0
 47
0.0
 48
0.0
 49
0.0
140
0.0
141
0.0
142
1.0
143
1.438214601070957
 70
   688
 72
     1
 73
     1
 74
     1
  7
monochrome.ctb
 75
     0
147
0.695306527451019
148
-0.9998200220350099
149
-2.497209426507311
100
AcDbLayout
  1
ﾚｲｱｳﾄ1
 70
     1
 71
     1
 10
-3.5664937800347
 20
-2.069121863313562
 11
423.5985606364702
 21
299.9784823009688
 12
0.0
 22
0.0
 32
0.0
 14
0.9998200220350099
 24
2.497209426507311
 34
-0.0015258207003583
 15
419.0322293466493
 25
295.0239887061757
 35
0.0000000349246037
146
0.0
 13
0.0
 23
0.0
 33
0.0
 16
1.0
 26
0.0
 36
0.0
 17
0.0
 27
1.0
 37
0.0
 76
     0
330
15
331
D4
  0
MLINESTYLE
  5
1C
102
{ACAD_REACTORS
330
1B
102
}
330
1B
100
AcDbMlineStyle
  2
STANDARD
 70
     0
  3

 62
   256
 51
90.0
 52
90.0
 71
     2
 49
0.5
 62
   256
  6
BYLAYER
 49
-0.5
 62
   256
  6
BYLAYER
  0
ACDBPLACEHOLDER
  5
C4B
102
{ACAD_REACTORS
330
C4A
102
}
330
C4A
  0
DICTIONARYVAR
  5
D6
102
{ACAD_REACTORS
330
D5
102
}
330
D5
100
DictionaryVariables
280
     0
  1
0
  0
ENDSEC
  0
EOF
